  0
SECTION
  2
HEADER
  9
$ACADVER
  1
AC1014
  9
$ACADMAINTVER
 70
     9
  9
$DWGCODEPAGE
  3
ANSI_932
  9
$INSBASE
 10
0.0
 20
0.0
 30
0.0
  9
$EXTMIN
 10
0.0
 20
0.0
 30
0.0
  9
$EXTMAX
 10
297.0
 20
210.0
 30
0.0
  9
$LIMMIN
 10
0.0
 20
0.0
  9
$LIMMAX
 10
297.0
 20
210.0
  9
$ORTHOMODE
 70
     0
  9
$REGENMODE
 70
     1
  9
$FILLMODE
 70
     1
  9
$QTEXTMODE
 70
     0
  9
$MIRRTEXT
 70
     1
  9
$DRAGMODE
 70
     2
  9
$LTSCALE
 40
1.0
  9
$OSMODE
 70
    37
  9
$ATTMODE
 70
     1
  9
$TEXTSIZE
 40
0.2
  9
$TRACEWID
 40
0.05
  9
$TEXTSTYLE
  7
STYLE1
  9
$CLAYER
  8
0
  9
$CELTYPE
  6
BYLAYER
  9
$CECOLOR
 62
   256
  9
$CELTSCALE
 40
1.0
  9
$DELOBJ
 70
     1
  9
$DISPSILH
 70
     0
  9
$DIMSCALE
 40
1.0
  9
$DIMASZ
 40
3.0
  9
$DIMEXO
 40
1.0
  9
$DIMDLI
 40
8.0
  9
$DIMRND
 40
0.0
  9
$DIMDLE
 40
6.0
  9
$DIMEXE
 40
1.0
  9
$DIMTP
 40
0.0
  9
$DIMTM
 40
0.0
  9
$DIMTXT
 40
4.0
  9
$DIMCEN
 40
2.5
  9
$DIMTSZ
 40
0.0
  9
$DIMTOL
 70
     0
  9
$DIMLIM
 70
     0
  9
$DIMTIH
 70
     0
  9
$DIMTOH
 70
     0
  9
$DIMSE1
 70
     0
  9
$DIMSE2
 70
     0
  9
$DIMTAD
 70
     1
  9
$DIMZIN
 70
     8
  9
$DIMBLK
  1

  9
$DIMASO
 70
     1
  9
$DIMSHO
 70
     1
  9
$DIMPOST
  1

  9
$DIMAPOST
  1

  9
$DIMALT
 70
     0
  9
$DIMALTD
 70
     3
  9
$DIMALTF
 40
0.03937
  9
$DIMLFAC
 40
1.0
  9
$DIMTOFL
 70
     1
  9
$DIMTVP
 40
0.0
  9
$DIMTIX
 70
     0
  9
$DIMSOXD
 70
     0
  9
$DIMSAH
 70
     1
  9
$DIMBLK1
  1
FXTIP_ARROW_S
  9
$DIMBLK2
  1
FXTIP_ARROW_E
  9
$DIMSTYLE
  2
FXDIMINFO
  9
$DIMCLRD
 70
     7
  9
$DIMCLRE
 70
     7
  9
$DIMCLRT
 70
     7
  9
$DIMTFAC
 40
1.0
  9
$DIMGAP
 40
1.0
  9
$DIMJUST
 70
     0
  9
$DIMSD1
 70
     0
  9
$DIMSD2
 70
     0
  9
$DIMTOLJ
 70
     0
  9
$DIMTZIN
 70
     8
  9
$DIMALTZ
 70
     0
  9
$DIMALTTZ
 70
     0
  9
$DIMFIT
 70
     3
  9
$DIMUPT
 70
     0
  9
$DIMUNIT
 70
     2
  9
$DIMDEC
 70
     2
  9
$DIMTDEC
 70
     2
  9
$DIMALTU
 70
     2
  9
$DIMALTTD
 70
     3
  9
$DIMTXSTY
  7
STYLE1
  9
$DIMAUNIT
 70
     0
  9
$LUNITS
 70
     2
  9
$LUPREC
 70
     4
  9
$SKETCHINC
 40
0.1
  9
$FILLETRAD
 40
0.5
  9
$AUNITS
 70
     0
  9
$AUPREC
 70
     0
  9
$MENU
  1
.
  9
$ELEVATION
 40
0.0
  9
$PELEVATION
 40
0.0
  9
$THICKNESS
 40
0.0
  9
$LIMCHECK
 70
     0
  9
$CHAMFERA
 40
0.5
  9
$CHAMFERB
 40
0.5
  9
$CHAMFERC
 40
1.0
  9
$CHAMFERD
 40
0.0
  9
$SKPOLY
 70
     0
  9
$TDCREATE
 40
2455300.668994873
  9
$TDUPDATE
 40
2455300.668994885
  9
$TDINDWG
 40
0.0000000116
  9
$TDUSRTIMER
 40
0.0000000116
  9
$USRTIMER
 70
     1
  9
$ANGBASE
 50
0.0
  9
$ANGDIR
 70
     0
  9
$PDMODE
 70
     0
  9
$PDSIZE
 40
0.0
  9
$PLINEWID
 40
0.0
  9
$COORDS
 70
     1
  9
$SPLFRAME
 70
     0
  9
$SPLINETYPE
 70
     6
  9
$SPLINESEGS
 70
     8
  9
$ATTDIA
 70
     0
  9
$ATTREQ
 70
     1
  9
$HANDLING
 70
     1
  9
$HANDSEED
  5
2AC
  9
$SURFTAB1
 70
     6
  9
$SURFTAB2
 70
     6
  9
$SURFTYPE
 70
     6
  9
$SURFU
 70
     6
  9
$SURFV
 70
     6
  9
$UCSNAME
  2

  9
$UCSORG
 10
0.0
 20
0.0
 30
0.0
  9
$UCSXDIR
 10
1.0
 20
0.0
 30
0.0
  9
$UCSYDIR
 10
0.0
 20
1.0
 30
0.0
  9
$PUCSNAME
  2

  9
$PUCSORG
 10
0.0
 20
0.0
 30
0.0
  9
$PUCSXDIR
 10
1.0
 20
0.0
 30
0.0
  9
$PUCSYDIR
 10
0.0
 20
1.0
 30
0.0
  9
$USERI1
 70
     0
  9
$USERI2
 70
     0
  9
$USERI3
 70
     0
  9
$USERI4
 70
     0
  9
$USERI5
 70
     0
  9
$USERR1
 40
0.0
  9
$USERR2
 40
0.0
  9
$USERR3
 40
0.0
  9
$USERR4
 40
0.0
  9
$USERR5
 40
0.0
  9
$WORLDVIEW
 70
     1
  9
$SHADEDGE
 70
     3
  9
$SHADEDIF
 70
    70
  9
$TILEMODE
 70
     1
  9
$MAXACTVP
 70
    64
  9
$PINSBASE
 10
0.0
 20
0.0
 30
0.0
  9
$PLIMCHECK
 70
     0
  9
$PEXTMIN
 10
1.000000E+20
 20
1.000000E+20
 30
1.000000E+20
  9
$PEXTMAX
 10
-1.000000E+20
 20
-1.000000E+20
 30
-1.000000E+20
  9
$PLIMMIN
 10
0.0
 20
0.0
  9
$PLIMMAX
 10
12.0
 20
9.0
  9
$UNITMODE
 70
     0
  9
$VISRETAIN
 70
     1
  9
$PLINEGEN
 70
     0
  9
$PSLTSCALE
 70
     1
  9
$TREEDEPTH
 70
  3020
  9
$PICKSTYLE
 70
     1
  9
$CMLSTYLE
  2
STANDARD
  9
$CMLJUST
 70
     0
  9
$CMLSCALE
 40
1.0
  9
$PROXYGRAPHICS
 70
     1
  9
$MEASUREMENT
 70
     0
  0
ENDSEC
  0
SECTION
  2
CLASSES
  0
CLASS
  1
ACDBDICTIONARYWDFLT
  2
AcDbDictionaryWithDefault
  3
ObjectDBX Classes
 90
        0
280
     0
281
     0
  0
CLASS
  1
XRECORD
  2
AcDbXrecord
  3
AutoCAD 2000
 90
        0
280
     0
281
     0
  0
CLASS
  1
LWPOLYLINE
  2
AcDbPolyline
  3
AutoCAD 2000
 90
        0
280
     0
281
     1
  0
CLASS
  1
HATCH
  2
AcDbHatch
  3
AutoCAD 2000
 90
        0
280
     0
281
     1
  0
CLASS
  1
ACDBPLACEHOLDER
  2
AcDbPlaceHolder
  3
ObjectDBX Classes
 90
        0
280
     0
281
     0
  0
CLASS
  1
LAYOUT
  2
AcDbLayout
  3
ObjectDBX Classes
 90
        0
280
     0
281
     0
  0
ENDSEC
  0
SECTION
  2
TABLES
  0
TABLE
  2
VPORT
  5
8
330
0
100
AcDbSymbolTable
 70
     1
  0
VPORT
  5
29
330
8
100
AcDbSymbolTableRecord
100
AcDbViewportTableRecord
  2
*ACTIVE
 70
     0
 10
0.0
 20
0.0
 11
1.0
 21
1.0
 12
148.5
 22
105.0
 13
0.0
 23
0.0
 14
0.5
 24
0.5
 15
0.5
 25
0.5
 16
0.0
 26
0.0
 36
1.0
 17
0.0
 27
0.0
 37
0.0
 40
210.0
 41
1.414286
 42
50.0
 43
0.0
 44
0.0
 50
0.0
 51
0.0
 71
     0
 72
   100
 73
     1
 74
     3
 75
     0
 76
     0
 77
     0
 78
     0
  0
ENDTAB
  0
TABLE
  2
LTYPE
  5
5
330
0
100
AcDbSymbolTable
 70
     4
  0
LTYPE
  5
14
330
5
100
AcDbSymbolTableRecord
100
AcDbLinetypeTableRecord
  2
BYBLOCK
 70
     0
  3

 72
    65
 73
     0
 40
0.0
  0
LTYPE
  5
15
330
5
100
AcDbSymbolTableRecord
100
AcDbLinetypeTableRecord
  2
BYLAYER
 70
     0
  3

 72
    65
 73
     0
 40
0.0
  0
LTYPE
  5
16
330
5
100
AcDbSymbolTableRecord
100
AcDbLinetypeTableRecord
  2
CONTINUOUS
 70
     0
  3
--------------------
 72
    65
 73
     0
 40
0.0
  0
LTYPE
  5
2A
330
5
100
AcDbSymbolTableRecord
100
AcDbLinetypeTableRecord
  2
CENTER
 70
     0
  3
Center ____ _ ____ _ ____ _ ____ _ ____ _ ____
 72
    65
 73
     4
 40
13.0
 49
10.0
 74
     0
 49
-1.0
 74
     0
 49
1.0
 74
     0
 49
-1.0
 74
     0
  0
ENDTAB
  0
TABLE
  2
LAYER
  5
2
330
0
100
AcDbSymbolTable
 70
    20
  0
LAYER
  5
10
330
2
100
AcDbSymbolTableRecord
100
AcDbLayerTableRecord
  2
0
 70
     0
 62
     7
  6
CONTINUOUS
  0
LAYER
  5
2D
330
2
100
AcDbSymbolTableRecord
100
AcDbLayerTableRecord
  2
LAYERGROUP-1
 70
     0
 62
     3
  6
CONTINUOUS
  0
LAYER
  5
3D
330
2
100
AcDbSymbolTableRecord
100
AcDbLayerTableRecord
  2
}}ﾊﾊGG血CCТ
 70
     0
 62
     3
  6
CONTINUOUS
  0
LAYER
  5
AA
330
2
100
AcDbSymbolTableRecord
100
AcDbLayerTableRecord
  2
GR1-1
 70
     0
 62
     7
  6
CONTINUOUS
  0
LAYER
  5
26F
330
2
100
AcDbSymbolTableRecord
100
AcDbLayerTableRecord
  2
0-1
 70
     0
 62
     7
  6
CONTINUOUS
  0
ENDTAB
  0
TABLE
  2
STYLE
  5
3
330
0
100
AcDbSymbolTable
 70
     4
  0
STYLE
  5
11
330
3
100
AcDbSymbolTableRecord
100
AcDbTextStyleTableRecord
  2
STANDARD
 70
     0
 40
0.0
 41
1.0
 50
0.0
 71
     0
 42
0.2
  3
txt
  4

  0
STYLE
  5
3F
330
3
100
AcDbSymbolTableRecord
100
AcDbTextStyleTableRecord
  2
STYLE1
 70
     0
 40
0.0
 41
1.0
 50
0.0
 71
     0
 42
0.2
  3
MONOTXT.SHX
  4
extfont.shx
  0
STYLE
  5
40
330
3
100
AcDbSymbolTableRecord
100
AcDbTextStyleTableRecord
  2
FX_VECTOR
 70
     0
 40
0.0
 41
1.0
 50
0.0
 71
     0
 42
0.2
  3
MONOTXT.SHX
  4
BIGFONT.SHX
  0
ENDTAB
  0
TABLE
  2
VIEW
  5
6
330
0
100
AcDbSymbolTable
 70
     0
  0
ENDTAB
  0
TABLE
  2
UCS
  5
7
330
0
100
AcDbSymbolTable
 70
     0
  0
ENDTAB
  0
TABLE
  2
APPID
  5
9
330
0
100
AcDbSymbolTable
 70
     1
  0
APPID
  5
12
330
9
100
AcDbSymbolTableRecord
100
AcDbRegAppTableRecord
  2
ACAD
 70
     0
  0
ENDTAB
  0
TABLE
  2
DIMSTYLE
  5
A
330
0
100
AcDbSymbolTable
 70
     2
  0
DIMSTYLE
105
27
330
A
100
AcDbSymbolTableRecord
100
AcDbDimStyleTableRecord
  2
STANDARD
 70
     0
  3

  4

  5

  6

  7

 40
1.0
 41
0.18
 42
0.0625
 43
0.38
 44
0.18
 45
0.0
 46
0.0
 47
0.0
 48
0.0
140
0.18
141
0.09
142
0.0
143
25.4
144
1.0
145
0.0
146
1.0
147
0.09
 71
     0
 72
     0
 73
     1
 74
     1
 75
     0
 76
     0
 77
     0
 78
     0
170
     0
171
     2
172
     0
173
     0
174
     0
175
     0
176
     0
177
     0
178
     0
270
     2
271
     4
272
     4
273
     2
274
     2
340
11
275
     0
280
     0
281
     0
282
     0
283
     1
284
     0
285
     0
286
     0
287
     3
288
     0
  0
DIMSTYLE
105
A7
102
{ACAD_REACTORS
330
237
330
241
330
24B
330
255
102
}
330
A
100
AcDbSymbolTableRecord
100
AcDbDimStyleTableRecord
  2
FXDIMINFO
 70
     0
  3

  4

  5

  6
FXTIP_ARROW_S
  7
FXTIP_ARROW_E
 40
1.0
 41
3.0
 42
1.0
 43
8.0
 44
1.0
 45
0.0
 46
6.0
 47
0.0
 48
0.0
140
4.0
141
2.5
142
0.0
143
0.03937
144
1.0
145
0.0
146
1.0
147
1.0
 71
     0
 72
     0
 73
     0
 74
     0
 75
     0
 76
     0
 77
     1
 78
     8
170
     0
171
     3
172
     1
173
     1
174
     0
175
     0
176
     7
177
     7
178
     7
179
     2
270
     2
271
     2
272
     2
273
     2
274
     3
340
3F
275
     0
280
     0
281
     0
282
     0
283
     0
284
     8
285
     0
286
     0
287
     3
288
     0
  0
ENDTAB
  0
TABLE
  2
BLOCK_RECORD
  5
1
330
0
100
AcDbSymbolTable
 70
    30
  0
BLOCK_RECORD
  5
1F
330
1
100
AcDbSymbolTableRecord
100
AcDbBlockTableRecord
  2
*MODEL_SPACE
  0
BLOCK_RECORD
  5
1B
330
1
100
AcDbSymbolTableRecord
100
AcDbBlockTableRecord
  2
*PAPER_SPACE
  0
BLOCK_RECORD
  5
41
330
1
100
AcDbSymbolTableRecord
100
AcDbBlockTableRecord
  2
FXTIP_ARROW_S
  0
BLOCK_RECORD
  5
47
330
1
100
AcDbSymbolTableRecord
100
AcDbBlockTableRecord
  2
FXTIP_ARROW_E
  0
BLOCK_RECORD
  5
4D
330
1
100
AcDbSymbolTableRecord
100
AcDbBlockTableRecord
  2
FXTIP_BLACKDOT_S
  0
BLOCK_RECORD
  5
53
330
1
100
AcDbSymbolTableRecord
100
AcDbBlockTableRecord
  2
FXTIP_BLACKDOT_E
  0
BLOCK_RECORD
  5
59
330
1
100
AcDbSymbolTableRecord
100
AcDbBlockTableRecord
  2
FXTIP_TRIANGLE_S
  0
BLOCK_RECORD
  5
60
330
1
100
AcDbSymbolTableRecord
100
AcDbBlockTableRecord
  2
FXTIP_TRIANGLE_E
  0
BLOCK_RECORD
  5
67
330
1
100
AcDbSymbolTableRecord
100
AcDbBlockTableRecord
  2
FXTIP_ARCHITECT_S
  0
BLOCK_RECORD
  5
6D
330
1
100
AcDbSymbolTableRecord
100
AcDbBlockTableRecord
  2
FXTIP_ARCHITECT_E
  0
BLOCK_RECORD
  5
73
330
1
100
AcDbSymbolTableRecord
100
AcDbBlockTableRecord
  2
FXTIP_CIVIL_S
  0
BLOCK_RECORD
  5
79
330
1
100
AcDbSymbolTableRecord
100
AcDbBlockTableRecord
  2
FXTIP_CIVIL_E
  0
BLOCK_RECORD
  5
7F
330
1
100
AcDbSymbolTableRecord
100
AcDbBlockTableRecord
  2
FXTIP_WHITEDOT_S
  0
BLOCK_RECORD
  5
84
330
1
100
AcDbSymbolTableRecord
100
AcDbBlockTableRecord
  2
FXTIP_WHITEDOT_E
  0
BLOCK_RECORD
  5
89
330
1
100
AcDbSymbolTableRecord
100
AcDbBlockTableRecord
  2
FXTIP_UPARROW_S
  0
BLOCK_RECORD
  5
8E
330
1
100
AcDbSymbolTableRecord
100
AcDbBlockTableRecord
  2
FXTIP_UPARROW_E
  0
BLOCK_RECORD
  5
93
330
1
100
AcDbSymbolTableRecord
100
AcDbBlockTableRecord
  2
FXTIP_DOWNARROW_S
  0
BLOCK_RECORD
  5
98
330
1
100
AcDbSymbolTableRecord
100
AcDbBlockTableRecord
  2
FXTIP_DOWNARROW_E
  0
BLOCK_RECORD
  5
9D
330
1
100
AcDbSymbolTableRecord
100
AcDbBlockTableRecord
  2
FXTIP_BLACKTRIANGLE_S
  0
BLOCK_RECORD
  5
A2
330
1
100
AcDbSymbolTableRecord
100
AcDbBlockTableRecord
  2
FXTIP_BLACKTRIANGLE_E
  0
BLOCK_RECORD
  5
136
330
1
100
AcDbSymbolTableRecord
100
AcDbBlockTableRecord
  2
BLKF021
  0
BLOCK_RECORD
  5
1B5
330
1
100
AcDbSymbolTableRecord
100
AcDbBlockTableRecord
  2
BLKF022
  0
BLOCK_RECORD
  5
1F3
330
1
100
AcDbSymbolTableRecord
100
AcDbBlockTableRecord
  2
BLKF023
  0
BLOCK_RECORD
  5
22F
330
1
100
AcDbSymbolTableRecord
100
AcDbBlockTableRecord
  2
BLKF024
  0
BLOCK_RECORD
  5
238
330
1
100
AcDbSymbolTableRecord
100
AcDbBlockTableRecord
  2
*D23
  0
BLOCK_RECORD
  5
242
330
1
100
AcDbSymbolTableRecord
100
AcDbBlockTableRecord
  2
*D24
  0
BLOCK_RECORD
  5
24C
330
1
100
AcDbSymbolTableRecord
100
AcDbBlockTableRecord
  2
*D25
  0
BLOCK_RECORD
  5
256
330
1
100
AcDbSymbolTableRecord
100
AcDbBlockTableRecord
  2
*D26
  0
BLOCK_RECORD
  5
25F
330
1
100
AcDbSymbolTableRecord
100
AcDbBlockTableRecord
  2
BLKF029
  0
BLOCK_RECORD
  5
26B
330
1
100
AcDbSymbolTableRecord
100
AcDbBlockTableRecord
  2
BLKF030
  0
BLOCK_RECORD
  5
274
330
1
100
AcDbSymbolTableRecord
100
AcDbBlockTableRecord
  2
BLKF031
  0
ENDTAB
  0
ENDSEC
  0
SECTION
  2
BLOCKS
  0
BLOCK
  5
20
330
1F
100
AcDbEntity
  8
0
100
AcDbBlockBegin
  2
*MODEL_SPACE
 70
     0
 71
     0
 10
0.0
 20
0.0
 30
0.0
  3
*MODEL_SPACE
  1

  0
ENDBLK
  5
21
330
1F
100
AcDbEntity
  8
0
100
AcDbBlockEnd
  0
BLOCK
  5
1C
330
1B
100
AcDbEntity
 67
     1
  8
0
100
AcDbBlockBegin
  2
*PAPER_SPACE
 70
     0
 71
     0
 10
0.0
 20
0.0
 30
0.0
  3
*PAPER_SPACE
  1

  0
ENDBLK
  5
1D
330
1B
100
AcDbEntity
 67
     1
  8
0
100
AcDbBlockEnd
  0
BLOCK
  5
42
330
41
100
AcDbEntity
  8
0
100
AcDbBlockBegin
  2
FXTIP_ARROW_S
 70
     0
 71
     0
 10
0.0
 20
0.0
 30
0.0
  3
FXTIP_ARROW_S
  1

  0
LINE
  5
44
330
41
100
AcDbEntity
  8
0
  6
CONTINUOUS
 62
     0
100
AcDbLine
 10
0.0
 20
0.0
 30
0.0
 11
-1.0
 21
0.0
 31
0.0
  0
LINE
  5
45
330
41
100
AcDbEntity
  8
0
  6
CONTINUOUS
 62
     0
100
AcDbLine
 10
0.0
 20
0.0
 30
0.0
 11
-0.965926
 21
-0.258819
 31
0.0
  0
LINE
  5
46
330
41
100
AcDbEntity
  8
0
  6
CONTINUOUS
 62
     0
100
AcDbLine
 10
0.0
 20
0.0
 30
0.0
 11
-0.965926
 21
0.258819
 31
0.0
  0
ENDBLK
  5
43
330
41
100
AcDbEntity
  8
0
100
AcDbBlockEnd
  0
BLOCK
  5
48
330
47
100
AcDbEntity
  8
0
100
AcDbBlockBegin
  2
FXTIP_ARROW_E
 70
     0
 71
     0
 10
0.0
 20
0.0
 30
0.0
  3
FXTIP_ARROW_E
  1

  0
LINE
  5
4A
330
47
100
AcDbEntity
  8
0
  6
CONTINUOUS
 62
     0
100
AcDbLine
 10
0.0
 20
0.0
 30
0.0
 11
-1.0
 21
0.0
 31
0.0
  0
LINE
  5
4B
330
47
100
AcDbEntity
  8
0
  6
CONTINUOUS
 62
     0
100
AcDbLine
 10
0.0
 20
0.0
 30
0.0
 11
-0.965926
 21
0.258819
 31
0.0
  0
LINE
  5
4C
330
47
100
AcDbEntity
  8
0
  6
CONTINUOUS
 62
     0
100
AcDbLine
 10
0.0
 20
0.0
 30
0.0
 11
-0.965926
 21
-0.258819
 31
0.0
  0
ENDBLK
  5
49
330
47
100
AcDbEntity
  8
0
100
AcDbBlockEnd
  0
BLOCK
  5
4E
330
4D
100
AcDbEntity
  8
0
100
AcDbBlockBegin
  2
FXTIP_BLACKDOT_S
 70
     0
 71
     0
 10
0.0
 20
0.0
 30
0.0
  3
FXTIP_BLACKDOT_S
  1

  0
LINE
  5
50
330
4D
100
AcDbEntity
  8
0
  6
CONTINUOUS
 62
     0
100
AcDbLine
 10
0.0
 20
0.0
 30
0.0
 11
-1.0
 21
0.0
 31
0.0
  0
LWPOLYLINE
  5
51
330
4D
100
AcDbEntity
  8
0
  6
CONTINUOUS
 62
     0
100
AcDbPolyline
 90
        2
 70
     1
 10
-0.25
 20
0.0
 40
0.5
 41
0.5
 42
1.0
 10
0.25
 20
0.0
 40
0.5
 41
0.5
 42
1.0
  0
CIRCLE
  5
52
330
4D
100
AcDbEntity
  8
0
  6
CONTINUOUS
 62
     0
100
AcDbCircle
 10
0.0
 20
0.0
 30
0.0
 40
0.5
  0
ENDBLK
  5
4F
330
4D
100
AcDbEntity
  8
0
100
AcDbBlockEnd
  0
BLOCK
  5
54
330
53
100
AcDbEntity
  8
0
100
AcDbBlockBegin
  2
FXTIP_BLACKDOT_E
 70
     0
 71
     0
 10
0.0
 20
0.0
 30
0.0
  3
FXTIP_BLACKDOT_E
  1

  0
LINE
  5
56
330
53
100
AcDbEntity
  8
0
  6
CONTINUOUS
 62
     0
100
AcDbLine
 10
0.0
 20
0.0
 30
0.0
 11
-1.0
 21
0.0
 31
0.0
  0
LWPOLYLINE
  5
57
330
53
100
AcDbEntity
  8
0
  6
CONTINUOUS
 62
     0
100
AcDbPolyline
 90
        2
 70
     1
 10
-0.25
 20
0.0
 40
0.5
 41
0.5
 42
1.0
 10
0.25
 20
0.0
 40
0.5
 41
0.5
 42
1.0
  0
CIRCLE
  5
58
330
53
100
AcDbEntity
  8
0
  6
CONTINUOUS
 62
     0
100
AcDbCircle
 10
0.0
 20
0.0
 30
0.0
 40
0.5
  0
ENDBLK
  5
55
330
53
100
AcDbEntity
  8
0
100
AcDbBlockEnd
  0
BLOCK
  5
5A
330
59
100
AcDbEntity
  8
0
100
AcDbBlockBegin
  2
FXTIP_TRIANGLE_S
 70
     0
 71
     0
 10
0.0
 20
0.0
 30
0.0
  3
FXTIP_TRIANGLE_S
  1

  0
LINE
  5
5C
330
59
100
AcDbEntity
  8
0
  6
CONTINUOUS
 62
     0
100
AcDbLine
 10
0.0
 20
0.0
 30
0.0
 11
-1.0
 21
0.0
 31
0.0
  0
LINE
  5
5D
330
59
100
AcDbEntity
  8
0
  6
CONTINUOUS
 62
     0
100
AcDbLine
 10
0.0
 20
0.0
 30
0.0
 11
-0.965926
 21
-0.258819
 31
0.0
  0
LINE
  5
5E
330
59
100
AcDbEntity
  8
0
  6
CONTINUOUS
 62
     0
100
AcDbLine
 10
0.0
 20
0.0
 30
0.0
 11
-0.965926
 21
0.258819
 31
0.0
  0
LINE
  5
5F
330
59
100
AcDbEntity
  8
0
  6
CONTINUOUS
 62
     0
100
AcDbLine
 10
-0.965926
 20
-0.258819
 30
0.0
 11
-0.965926
 21
0.258819
 31
0.0
  0
ENDBLK
  5
5B
330
59
100
AcDbEntity
  8
0
100
AcDbBlockEnd
  0
BLOCK
  5
61
330
60
100
AcDbEntity
  8
0
100
AcDbBlockBegin
  2
FXTIP_TRIANGLE_E
 70
     0
 71
     0
 10
0.0
 20
0.0
 30
0.0
  3
FXTIP_TRIANGLE_E
  1

  0
LINE
  5
63
330
60
100
AcDbEntity
  8
0
  6
CONTINUOUS
 62
     0
100
AcDbLine
 10
0.0
 20
0.0
 30
0.0
 11
-1.0
 21
0.0
 31
0.0
  0
LINE
  5
64
330
60
100
AcDbEntity
  8
0
  6
CONTINUOUS
 62
     0
100
AcDbLine
 10
0.0
 20
0.0
 30
0.0
 11
-0.965926
 21
0.258819
 31
0.0
  0
LINE
  5
65
330
60
100
AcDbEntity
  8
0
  6
CONTINUOUS
 62
     0
100
AcDbLine
 10
0.0
 20
0.0
 30
0.0
 11
-0.965926
 21
-0.258819
 31
0.0
  0
LINE
  5
66
330
60
100
AcDbEntity
  8
0
  6
CONTINUOUS
 62
     0
100
AcDbLine
 10
-0.965926
 20
0.258819
 30
0.0
 11
-0.965926
 21
-0.258819
 31
0.0
  0
ENDBLK
  5
62
330
60
100
AcDbEntity
  8
0
100
AcDbBlockEnd
  0
BLOCK
  5
68
330
67
100
AcDbEntity
  8
0
100
AcDbBlockBegin
  2
FXTIP_ARCHITECT_S
 70
     0
 71
     0
 10
0.0
 20
0.0
 30
0.0
  3
FXTIP_ARCHITECT_S
  1

  0
LINE
  5
6A
330
67
100
AcDbEntity
  8
0
  6
CONTINUOUS
 62
     0
100
AcDbLine
 10
0.0
 20
0.0
 30
0.0
 11
-1.0
 21
0.0
 31
0.0
  0
LINE
  5
6B
330
67
100
AcDbEntity
  8
0
  6
CONTINUOUS
 62
     0
100
AcDbLine
 10
0.0
 20
0.0
 30
0.0
 11
-0.707107
 21
-0.707107
 31
0.0
  0
LINE
  5
6C
330
67
100
AcDbEntity
  8
0
  6
CONTINUOUS
 62
     0
100
AcDbLine
 10
0.0
 20
0.0
 30
0.0
 11
0.707107
 21
0.707107
 31
0.0
  0
ENDBLK
  5
69
330
67
100
AcDbEntity
  8
0
100
AcDbBlockEnd
  0
BLOCK
  5
6E
330
6D
100
AcDbEntity
  8
0
100
AcDbBlockBegin
  2
FXTIP_ARCHITECT_E
 70
     0
 71
     0
 10
0.0
 20
0.0
 30
0.0
  3
FXTIP_ARCHITECT_E
  1

  0
LINE
  5
70
330
6D
100
AcDbEntity
  8
0
  6
CONTINUOUS
 62
     0
100
AcDbLine
 10
0.0
 20
0.0
 30
0.0
 11
-1.0
 21
0.0
 31
0.0
  0
LINE
  5
71
330
6D
100
AcDbEntity
  8
0
  6
CONTINUOUS
 62
     0
100
AcDbLine
 10
0.0
 20
0.0
 30
0.0
 11
0.707107
 21
0.707107
 31
0.0
  0
LINE
  5
72
330
6D
100
AcDbEntity
  8
0
  6
CONTINUOUS
 62
     0
100
AcDbLine
 10
0.0
 20
0.0
 30
0.0
 11
-0.707107
 21
-0.707107
 31
0.0
  0
ENDBLK
  5
6F
330
6D
100
AcDbEntity
  8
0
100
AcDbBlockEnd
  0
BLOCK
  5
74
330
73
100
AcDbEntity
  8
0
100
AcDbBlockBegin
  2
FXTIP_CIVIL_S
 70
     0
 71
     0
 10
0.0
 20
0.0
 30
0.0
  3
FXTIP_CIVIL_S
  1

  0
LINE
  5
76
330
73
100
AcDbEntity
  8
0
  6
CONTINUOUS
 62
     0
100
AcDbLine
 10
0.0
 20
0.0
 30
0.0
 11
-1.0
 21
0.0
 31
0.0
  0
LINE
  5
77
330
73
100
AcDbEntity
  8
0
  6
CONTINUOUS
 62
     0
100
AcDbLine
 10
0.0
 20
-0.083333
 30
0.0
 11
-1.0
 21
-0.083333
 31
0.0
  0
LINE
  5
78
330
73
100
AcDbEntity
  8
0
  6
CONTINUOUS
 62
     0
100
AcDbLine
 10
0.0
 20
-0.166667
 30
0.0
 11
-1.0
 21
-0.166667
 31
0.0
  0
ENDBLK
  5
75
330
73
100
AcDbEntity
  8
0
100
AcDbBlockEnd
  0
BLOCK
  5
7A
330
79
100
AcDbEntity
  8
0
100
AcDbBlockBegin
  2
FXTIP_CIVIL_E
 70
     0
 71
     0
 10
0.0
 20
0.0
 30
0.0
  3
FXTIP_CIVIL_E
  1

  0
LINE
  5
7C
330
79
100
AcDbEntity
  8
0
  6
CONTINUOUS
 62
     0
100
AcDbLine
 10
0.0
 20
0.0
 30
0.0
 11
-1.0
 21
0.0
 31
0.0
  0
LINE
  5
7D
330
79
100
AcDbEntity
  8
0
  6
CONTINUOUS
 62
     0
100
AcDbLine
 10
0.0
 20
0.083333
 30
0.0
 11
-1.0
 21
0.083333
 31
0.0
  0
LINE
  5
7E
330
79
100
AcDbEntity
  8
0
  6
CONTINUOUS
 62
     0
100
AcDbLine
 10
0.0
 20
0.166667
 30
0.0
 11
-1.0
 21
0.166667
 31
0.0
  0
ENDBLK
  5
7B
330
79
100
AcDbEntity
  8
0
100
AcDbBlockEnd
  0
BLOCK
  5
80
330
7F
100
AcDbEntity
  8
0
100
AcDbBlockBegin
  2
FXTIP_WHITEDOT_S
 70
     0
 71
     0
 10
0.0
 20
0.0
 30
0.0
  3
FXTIP_WHITEDOT_S
  1

  0
LINE
  5
82
330
7F
100
AcDbEntity
  8
0
  6
CONTINUOUS
 62
     0
100
AcDbLine
 10
0.0
 20
0.0
 30
0.0
 11
-1.0
 21
0.0
 31
0.0
  0
CIRCLE
  5
83
330
7F
100
AcDbEntity
  8
0
  6
CONTINUOUS
 62
     0
100
AcDbCircle
 10
0.0
 20
0.0
 30
0.0
 40
0.5
  0
ENDBLK
  5
81
330
7F
100
AcDbEntity
  8
0
100
AcDbBlockEnd
  0
BLOCK
  5
85
330
84
100
AcDbEntity
  8
0
100
AcDbBlockBegin
  2
FXTIP_WHITEDOT_E
 70
     0
 71
     0
 10
0.0
 20
0.0
 30
0.0
  3
FXTIP_WHITEDOT_E
  1

  0
LINE
  5
87
330
84
100
AcDbEntity
  8
0
  6
CONTINUOUS
 62
     0
100
AcDbLine
 10
0.0
 20
0.0
 30
0.0
 11
-1.0
 21
0.0
 31
0.0
  0
CIRCLE
  5
88
330
84
100
AcDbEntity
  8
0
  6
CONTINUOUS
 62
     0
100
AcDbCircle
 10
0.0
 20
0.0
 30
0.0
 40
0.5
  0
ENDBLK
  5
86
330
84
100
AcDbEntity
  8
0
100
AcDbBlockEnd
  0
BLOCK
  5
8A
330
89
100
AcDbEntity
  8
0
100
AcDbBlockBegin
  2
FXTIP_UPARROW_S
 70
     0
 71
     0
 10
0.0
 20
0.0
 30
0.0
  3
FXTIP_UPARROW_S
  1

  0
LINE
  5
8C
330
89
100
AcDbEntity
  8
0
  6
CONTINUOUS
 62
     0
100
AcDbLine
 10
0.0
 20
0.0
 30
0.0
 11
-1.0
 21
0.0
 31
0.0
  0
LINE
  5
8D
330
89
100
AcDbEntity
  8
0
  6
CONTINUOUS
 62
     0
100
AcDbLine
 10
0.0
 20
0.0
 30
0.0
 11
-0.965926
 21
-0.258819
 31
0.0
  0
ENDBLK
  5
8B
330
89
100
AcDbEntity
  8
0
100
AcDbBlockEnd
  0
BLOCK
  5
8F
330
8E
100
AcDbEntity
  8
0
100
AcDbBlockBegin
  2
FXTIP_UPARROW_E
 70
     0
 71
     0
 10
0.0
 20
0.0
 30
0.0
  3
FXTIP_UPARROW_E
  1

  0
LINE
  5
91
330
8E
100
AcDbEntity
  8
0
  6
CONTINUOUS
 62
     0
100
AcDbLine
 10
0.0
 20
0.0
 30
0.0
 11
-1.0
 21
0.0
 31
0.0
  0
LINE
  5
92
330
8E
100
AcDbEntity
  8
0
  6
CONTINUOUS
 62
     0
100
AcDbLine
 10
0.0
 20
0.0
 30
0.0
 11
-0.965926
 21
0.258819
 31
0.0
  0
ENDBLK
  5
90
330
8E
100
AcDbEntity
  8
0
100
AcDbBlockEnd
  0
BLOCK
  5
94
330
93
100
AcDbEntity
  8
0
100
AcDbBlockBegin
  2
FXTIP_DOWNARROW_S
 70
     0
 71
     0
 10
0.0
 20
0.0
 30
0.0
  3
FXTIP_DOWNARROW_S
  1

  0
LINE
  5
96
330
93
100
AcDbEntity
  8
0
  6
CONTINUOUS
 62
     0
100
AcDbLine
 10
0.0
 20
0.0
 30
0.0
 11
-1.0
 21
0.0
 31
0.0
  0
LINE
  5
97
330
93
100
AcDbEntity
  8
0
  6
CONTINUOUS
 62
     0
100
AcDbLine
 10
0.0
 20
0.0
 30
0.0
 11
-0.965926
 21
0.258819
 31
0.0
  0
ENDBLK
  5
95
330
93
100
AcDbEntity
  8
0
100
AcDbBlockEnd
  0
BLOCK
  5
99
330
98
100
AcDbEntity
  8
0
100
AcDbBlockBegin
  2
FXTIP_DOWNARROW_E
 70
     0
 71
     0
 10
0.0
 20
0.0
 30
0.0
  3
FXTIP_DOWNARROW_E
  1

  0
LINE
  5
9B
330
98
100
AcDbEntity
  8
0
  6
CONTINUOUS
 62
     0
100
AcDbLine
 10
0.0
 20
0.0
 30
0.0
 11
-1.0
 21
0.0
 31
0.0
  0
LINE
  5
9C
330
98
100
AcDbEntity
  8
0
  6
CONTINUOUS
 62
     0
100
AcDbLine
 10
0.0
 20
0.0
 30
0.0
 11
-0.965926
 21
-0.258819
 31
0.0
  0
ENDBLK
  5
9A
330
98
100
AcDbEntity
  8
0
100
AcDbBlockEnd
  0
BLOCK
  5
9E
330
9D
100
AcDbEntity
  8
0
100
AcDbBlockBegin
  2
FXTIP_BLACKTRIANGLE_S
 70
     0
 71
     0
 10
0.0
 20
0.0
 30
0.0
  3
FXTIP_BLACKTRIANGLE_S
  1

  0
LINE
  5
A0
330
9D
100
AcDbEntity
  8
0
  6
CONTINUOUS
 62
     0
100
AcDbLine
 10
0.0
 20
0.0
 30
0.0
 11
-1.0
 21
0.0
 31
0.0
  0
SOLID
  5
A1
330
9D
100
AcDbEntity
  8
0
  6
CONTINUOUS
 62
     0
100
AcDbTrace
 10
0.0
 20
0.0
 30
0.0
 11
-0.965926
 21
-0.258819
 31
0.0
 12
-0.965926
 22
0.258819
 32
0.0
 13
-0.965926
 23
0.258819
 33
0.0
  0
ENDBLK
  5
9F
330
9D
100
AcDbEntity
  8
0
100
AcDbBlockEnd
  0
BLOCK
  5
A3
330
A2
100
AcDbEntity
  8
0
100
AcDbBlockBegin
  2
FXTIP_BLACKTRIANGLE_E
 70
     0
 71
     0
 10
0.0
 20
0.0
 30
0.0
  3
FXTIP_BLACKTRIANGLE_E
  1

  0
LINE
  5
A5
330
A2
100
AcDbEntity
  8
0
  6
CONTINUOUS
 62
     0
100
AcDbLine
 10
0.0
 20
0.0
 30
0.0
 11
-1.0
 21
0.0
 31
0.0
  0
SOLID
  5
A6
330
A2
100
AcDbEntity
  8
0
  6
CONTINUOUS
 62
     0
100
AcDbTrace
 10
0.0
 20
0.0
 30
0.0
 11
-0.965926
 21
0.258819
 31
0.0
 12
-0.965926
 22
-0.258819
 32
0.0
 13
-0.965926
 23
-0.258819
 33
0.0
  0
ENDBLK
  5
A4
330
A2
100
AcDbEntity
  8
0
100
AcDbBlockEnd
  0
BLOCK
  5
137
330
136
100
AcDbEntity
  8
0
100
AcDbBlockBegin
  2
BLKF021
 70
     0
 71
     0
 10
0.0
 20
0.0
 30
0.0
  3
BLKF021
  1

  0
LINE
  5
13A
330
136
100
AcDbEntity
  8
GR1-1
  6
CONTINUOUS
 62
     7
100
AcDbLine
 10
181.979689
 20
132.381026
 30
0.0
 11
181.930151
 21
132.693794
 31
0.0
  0
LINE
  5
13B
330
136
100
AcDbEntity
  8
GR1-1
  6
CONTINUOUS
 62
     7
100
AcDbLine
 10
181.848073
 20
132.199873
 30
0.0
 11
181.748998
 21
132.825409
 31
0.0
  0
LINE
  5
13C
330
136
100
AcDbEntity
  8
GR1-1
  6
CONTINUOUS
 62
     7
100
AcDbLine
 10
181.716458
 20
132.01872
 30
0.0
 11
181.567845
 21
132.957024
 31
0.0
  0
LINE
  5
13D
330
136
100
AcDbEntity
  8
GR1-1
  6
CONTINUOUS
 62
     7
100
AcDbLine
 10
181.584843
 20
131.837568
 30
0.0
 11
181.386693
 21
133.08864
 31
0.0
  0
LINE
  5
13E
330
136
100
AcDbEntity
  8
GR1-1
  6
CONTINUOUS
 62
     7
100
AcDbLine
 10
181.453228
 20
131.656415
 30
0.0
 11
181.282345
 21
132.735323
 31
0.0
  0
LINE
  5
13F
330
136
100
AcDbEntity
  8
GR1-1
  6
CONTINUOUS
 62
     7
100
AcDbLine
 10
181.235589
 20
133.030529
 30
0.0
 11
181.20554
 21
133.220255
 31
0.0
  0
LINE
  5
140
330
136
100
AcDbEntity
  8
GR1-1
  6
CONTINUOUS
 62
     7
100
AcDbLine
 10
181.321613
 20
131.475262
 30
0.0
 11
181.15073
 21
132.55417
 31
0.0
  0
LINE
  5
141
330
136
100
AcDbEntity
  8
GR1-1
  6
CONTINUOUS
 62
     7
100
AcDbLine
 10
181.054437
 20
133.162144
 30
0.0
 11
181.024387
 21
133.35187
 31
0.0
  0
LINE
  5
142
330
136
100
AcDbEntity
  8
GR1-1
  6
CONTINUOUS
 62
     7
100
AcDbLine
 10
181.189997
 20
131.294109
 30
0.0
 11
181.019115
 21
132.373017
 31
0.0
  0
LINE
  5
143
330
136
100
AcDbEntity
  8
GR1-1
  6
CONTINUOUS
 62
     7
100
AcDbLine
 10
180.873284
 20
133.29376
 30
0.0
 11
180.843234
 21
133.483485
 31
0.0
  0
LINE
  5
144
330
136
100
AcDbEntity
  8
GR1-1
  6
CONTINUOUS
 62
     7
100
AcDbLine
 10
181.058382
 20
131.112957
 30
0.0
 11
180.867273
 21
132.319573
 31
0.0
  0
LINE
  5
145
330
136
100
AcDbEntity
  8
GR1-1
  6
CONTINUOUS
 62
     7
100
AcDbLine
 10
180.692131
 20
133.425375
 30
0.0
 11
180.662081
 21
133.6151
 31
0.0
  0
LINE
  5
146
330
136
100
AcDbEntity
  8
GR1-1
  6
CONTINUOUS
 62
     7
100
AcDbLine
 10
180.926767
 20
130.931804
 30
0.0
 11
180.68612
 21
132.451188
 31
0.0
  0
LINE
  5
147
330
136
100
AcDbEntity
  8
GR1-1
  6
CONTINUOUS
 62
     7
100
AcDbLine
 10
180.510978
 20
133.55699
 30
0.0
 11
180.480929
 21
133.746716
 31
0.0
  0
LINE
  5
148
330
136
100
AcDbEntity
  8
GR1-1
  6
CONTINUOUS
 62
     7
100
AcDbLine
 10
180.795152
 20
130.750651
 30
0.0
 11
180.504967
 21
132.582803
 31
0.0
  0
LINE
  5
149
330
136
100
AcDbEntity
  8
GR1-1
  6
CONTINUOUS
 62
     7
100
AcDbLine
 10
180.329826
 20
133.688605
 30
0.0
 11
180.299776
 21
133.878331
 31
0.0
  0
LINE
  5
14A
330
136
100
AcDbEntity
  8
GR1-1
  6
CONTINUOUS
 62
     7
100
AcDbLine
 10
180.663537
 20
130.569498
 30
0.0
 11
180.338288
 21
132.623038
 31
0.0
  0
LINE
  5
14B
330
136
100
AcDbEntity
  8
GR1-1
  6
CONTINUOUS
 62
     7
100
AcDbLine
 10
180.148673
 20
133.82022
 30
0.0
 11
180.118623
 21
134.009946
 31
0.0
  0
LINE
  5
14C
330
136
100
AcDbEntity
  8
GR1-1
  6
CONTINUOUS
 62
     7
100
AcDbLine
 10
180.531921
 20
130.388345
 30
0.0
 11
180.482384
 21
130.701113
 31
0.0
  0
LINE
  5
14D
330
136
100
AcDbEntity
  8
GR1-1
  6
CONTINUOUS
 62
     7
100
AcDbLine
 10
180.006496
 20
133.705751
 30
0.0
 11
179.93747
 21
134.141561
 31
0.0
  0
LINE
  5
14E
330
136
100
AcDbEntity
  8
GR1-1
  6
CONTINUOUS
 62
     7
100
AcDbLine
 10
180.400306
 20
130.207193
 30
0.0
 11
180.326
 21
130.676345
 31
0.0
  0
LINE
  5
14F
330
136
100
AcDbEntity
  8
GR1-1
  6
CONTINUOUS
 62
     7
100
AcDbLine
 10
179.874881
 20
133.524598
 30
0.0
 11
179.756318
 21
134.273176
 31
0.0
  0
LINE
  5
150
330
136
100
AcDbEntity
  8
GR1-1
  6
CONTINUOUS
 62
     7
100
AcDbLine
 10
180.268691
 20
130.02604
 30
0.0
 11
180.169616
 21
130.651576
 31
0.0
  0
LINE
  5
151
330
136
100
AcDbEntity
  8
GR1-1
  6
CONTINUOUS
 62
     7
100
AcDbLine
 10
179.743266
 20
133.343445
 30
0.0
 11
179.690723
 21
133.675186
 31
0.0
  0
LINE
  5
152
330
136
100
AcDbEntity
  8
GR1-1
  6
CONTINUOUS
 62
     7
100
AcDbLine
 10
179.67424
 20
133.779256
 30
0.0
 11
179.575165
 21
134.404792
 31
0.0
  0
LINE
  5
153
330
136
100
AcDbEntity
  8
GR1-1
  6
CONTINUOUS
 62
     7
100
AcDbLine
 10
180.137076
 20
129.844887
 30
0.0
 11
180.013232
 21
130.626807
 31
0.0
  0
LINE
  5
154
330
136
100
AcDbEntity
  8
GR1-1
  6
CONTINUOUS
 62
     7
100
AcDbLine
 10
179.61165
 20
133.162293
 30
0.0
 11
179.559108
 21
133.494033
 31
0.0
  0
LINE
  5
155
330
136
100
AcDbEntity
  8
GR1-1
  6
CONTINUOUS
 62
     7
100
AcDbLine
 10
179.517856
 20
133.754487
 30
0.0
 11
179.394012
 21
134.536407
 31
0.0
  0
LINE
  5
156
330
136
100
AcDbEntity
  8
GR1-1
  6
CONTINUOUS
 62
     7
100
AcDbLine
 10
180.005461
 20
129.663734
 30
0.0
 11
179.856848
 21
130.602038
 31
0.0
  0
LINE
  5
157
330
136
100
AcDbEntity
  8
GR1-1
  6
CONTINUOUS
 62
     7
100
AcDbLine
 10
179.480035
 20
132.98114
 30
0.0
 11
179.427493
 21
133.31288
 31
0.0
  0
LINE
  5
158
330
136
100
AcDbEntity
  8
GR1-1
  6
CONTINUOUS
 62
     7
100
AcDbLine
 10
179.361472
 20
133.729718
 30
0.0
 11
179.212859
 21
134.668022
 31
0.0
  0
LINE
  5
159
330
136
100
AcDbEntity
  8
GR1-1
  6
CONTINUOUS
 62
     7
100
AcDbLine
 10
179.873845
 20
129.482582
 30
0.0
 11
179.700464
 21
130.57727
 31
0.0
  0
LINE
  5
15A
330
136
100
AcDbEntity
  8
GR1-1
  6
CONTINUOUS
 62
     7
100
AcDbLine
 10
179.57662
 20
131.359189
 30
0.0
 11
179.436257
 21
132.245406
 31
0.0
  0
LINE
  5
15B
330
136
100
AcDbEntity
  8
GR1-1
  6
CONTINUOUS
 62
     7
100
AcDbLine
 10
179.34842
 20
132.799987
 30
0.0
 11
179.295877
 21
133.131727
 31
0.0
  0
LINE
  5
15C
330
136
100
AcDbEntity
  8
GR1-1
  6
CONTINUOUS
 62
     7
100
AcDbLine
 10
179.205088
 20
133.704949
 30
0.0
 11
179.031706
 21
134.799637
 31
0.0
  0
LINE
  5
15D
330
136
100
AcDbEntity
  8
GR1-1
  6
CONTINUOUS
 62
     7
100
AcDbLine
 10
179.74223
 20
129.301429
 30
0.0
 11
179.54408
 21
130.552501
 31
0.0
  0
LINE
  5
15E
330
136
100
AcDbEntity
  8
GR1-1
  6
CONTINUOUS
 62
     7
100
AcDbLine
 10
179.420236
 20
131.334421
 30
0.0
 11
179.304376
 21
132.065933
 31
0.0
  0
LINE
  5
15F
330
136
100
AcDbEntity
  8
GR1-1
  6
CONTINUOUS
 62
     7
100
AcDbLine
 10
179.216805
 20
132.618834
 30
0.0
 11
179.164262
 21
132.950575
 31
0.0
  0
LINE
  5
160
330
136
100
AcDbEntity
  8
GR1-1
  6
CONTINUOUS
 62
     7
100
AcDbLine
 10
179.048704
 20
133.68018
 30
0.0
 11
178.850554
 21
134.931252
 31
0.0
  0
LINE
  5
161
330
136
100
AcDbEntity
  8
GR1-1
  6
CONTINUOUS
 62
     7
100
AcDbLine
 10
179.610615
 20
129.120276
 30
0.0
 11
179.387696
 21
130.527732
 31
0.0
  0
LINE
  5
162
330
136
100
AcDbEntity
  8
GR1-1
  6
CONTINUOUS
 62
     7
100
AcDbLine
 10
179.263852
 20
131.309652
 30
0.0
 11
179.17276
 21
131.88478
 31
0.0
  0
LINE
  5
163
330
136
100
AcDbEntity
  8
GR1-1
  6
CONTINUOUS
 62
     7
100
AcDbLine
 10
179.08519
 20
132.437681
 30
0.0
 11
179.016164
 21
132.873492
 31
0.0
  0
LINE
  5
164
330
136
100
AcDbEntity
  8
GR1-1
  6
CONTINUOUS
 62
     7
100
AcDbLine
 10
178.89232
 20
133.655412
 30
0.0
 11
178.669401
 21
135.062868
 31
0.0
  0
LINE
  5
165
330
136
100
AcDbEntity
  8
GR1-1
  6
CONTINUOUS
 62
     7
100
AcDbLine
 10
179.479
 20
128.939123
 30
0.0
 11
179.231312
 21
130.502963
 31
0.0
  0
LINE
  5
166
330
136
100
AcDbEntity
  8
GR1-1
  6
CONTINUOUS
 62
     7
100
AcDbLine
 10
179.107468
 20
131.284883
 30
0.0
 11
179.013674
 21
131.877077
 31
0.0
  0
LINE
  5
167
330
136
100
AcDbEntity
  8
GR1-1
  6
CONTINUOUS
 62
     7
100
AcDbLine
 10
178.953574
 20
132.256529
 30
0.0
 11
178.85978
 21
132.848723
 31
0.0
  0
LINE
  5
168
330
136
100
AcDbEntity
  8
GR1-1
  6
CONTINUOUS
 62
     7
100
AcDbLine
 10
178.735936
 20
133.630643
 30
0.0
 11
178.488248
 21
135.194483
 31
0.0
  0
LINE
  5
169
330
136
100
AcDbEntity
  8
GR1-1
  6
CONTINUOUS
 62
     7
100
AcDbLine
 10
179.347385
 20
128.75797
 30
0.0
 11
179.074928
 21
130.478194
 31
0.0
  0
LINE
  5
16A
330
136
100
AcDbEntity
  8
GR1-1
  6
CONTINUOUS
 62
     7
100
AcDbLine
 10
178.951084
 20
131.260114
 30
0.0
 11
178.832521
 21
132.008693
 31
0.0
  0
LINE
  5
16B
330
136
100
AcDbEntity
  8
GR1-1
  6
CONTINUOUS
 62
     7
100
AcDbLine
 10
178.821959
 20
132.075376
 30
0.0
 11
178.703396
 21
132.823954
 31
0.0
  0
LINE
  5
16C
330
136
100
AcDbEntity
  8
GR1-1
  6
CONTINUOUS
 62
     7
100
AcDbLine
 10
178.579552
 20
133.605874
 30
0.0
 11
178.307095
 21
135.326098
 31
0.0
  0
LINE
  5
16D
330
136
100
AcDbEntity
  8
GR1-1
  6
CONTINUOUS
 62
     7
100
AcDbLine
 10
179.176793
 20
128.822902
 30
0.0
 11
178.918544
 21
130.453426
 31
0.0
  0
LINE
  5
16E
330
136
100
AcDbEntity
  8
GR1-1
  6
CONTINUOUS
 62
     7
100
AcDbLine
 10
178.7947
 20
131.235346
 30
0.0
 11
178.547012
 21
132.799185
 31
0.0
  0
LINE
  5
16F
330
136
100
AcDbEntity
  8
GR1-1
  6
CONTINUOUS
 62
     7
100
AcDbLine
 10
178.423168
 20
133.581105
 30
0.0
 11
178.164919
 21
135.211628
 31
0.0
  0
LINE
  5
170
330
136
100
AcDbEntity
  8
GR1-1
  6
CONTINUOUS
 62
     7
100
AcDbLine
 10
178.995641
 20
128.954518
 30
0.0
 11
178.76216
 21
130.428657
 31
0.0
  0
LINE
  5
171
330
136
100
AcDbEntity
  8
GR1-1
  6
CONTINUOUS
 62
     7
100
AcDbLine
 10
178.638316
 20
131.210577
 30
0.0
 11
178.390628
 21
132.774417
 31
0.0
  0
LINE
  5
172
330
136
100
AcDbEntity
  8
GR1-1
  6
CONTINUOUS
 62
     7
100
AcDbLine
 10
178.266784
 20
133.556337
 30
0.0
 11
178.033303
 21
135.030476
 31
0.0
  0
LINE
  5
173
330
136
100
AcDbEntity
  8
GR1-1
  6
CONTINUOUS
 62
     7
100
AcDbLine
 10
178.814488
 20
129.086133
 30
0.0
 11
178.605776
 21
130.403888
 31
0.0
  0
LINE
  5
174
330
136
100
AcDbEntity
  8
GR1-1
  6
CONTINUOUS
 62
     7
100
AcDbLine
 10
178.481932
 20
131.185808
 30
0.0
 11
178.234244
 21
132.749648
 31
0.0
  0
LINE
  5
175
330
136
100
AcDbEntity
  8
GR1-1
  6
CONTINUOUS
 62
     7
100
AcDbLine
 10
178.1104
 20
133.531568
 30
0.0
 11
177.901688
 21
134.849323
 31
0.0
  0
LINE
  5
176
330
136
100
AcDbEntity
  8
GR1-1
  6
CONTINUOUS
 62
     7
100
AcDbLine
 10
178.633335
 20
129.217748
 30
0.0
 11
178.449392
 21
130.379119
 31
0.0
  0
LINE
  5
177
330
136
100
AcDbEntity
  8
GR1-1
  6
CONTINUOUS
 62
     7
100
AcDbLine
 10
178.325548
 20
131.161039
 30
0.0
 11
178.07786
 21
132.724879
 31
0.0
  0
LINE
  5
178
330
136
100
AcDbEntity
  8
GR1-1
  6
CONTINUOUS
 62
     7
100
AcDbLine
 10
177.954016
 20
133.506799
 30
0.0
 11
177.770073
 21
134.66817
 31
0.0
  0
LINE
  5
179
330
136
100
AcDbEntity
  8
GR1-1
  6
CONTINUOUS
 62
     7
100
AcDbLine
 10
178.452182
 20
129.349363
 30
0.0
 11
178.293008
 21
130.35435
 31
0.0
  0
LINE
  5
17A
330
136
100
AcDbEntity
  8
GR1-1
  6
CONTINUOUS
 62
     7
100
AcDbLine
 10
178.169164
 20
131.13627
 30
0.0
 11
177.921476
 21
132.70011
 31
0.0
  0
LINE
  5
17B
330
136
100
AcDbEntity
  8
GR1-1
  6
CONTINUOUS
 62
     7
100
AcDbLine
 10
177.797632
 20
133.48203
 30
0.0
 11
177.638458
 21
134.487017
 31
0.0
  0
LINE
  5
17C
330
136
100
AcDbEntity
  8
GR1-1
  6
CONTINUOUS
 62
     7
100
AcDbLine
 10
178.271029
 20
129.480978
 30
0.0
 11
178.136624
 21
130.329582
 31
0.0
  0
LINE
  5
17D
330
136
100
AcDbEntity
  8
GR1-1
  6
CONTINUOUS
 62
     7
100
AcDbLine
 10
177.641248
 20
133.457261
 30
0.0
 11
177.506843
 21
134.305865
 31
0.0
  0
LINE
  5
17E
330
136
100
AcDbEntity
  8
GR1-1
  6
CONTINUOUS
 62
     7
100
AcDbLine
 10
178.089877
 20
129.612594
 30
0.0
 11
177.98024
 21
130.304813
 31
0.0
  0
LINE
  5
17F
330
136
100
AcDbEntity
  8
GR1-1
  6
CONTINUOUS
 62
     7
100
AcDbLine
 10
177.484864
 20
133.432493
 30
0.0
 11
177.375227
 21
134.124712
 31
0.0
  0
LINE
  5
180
330
136
100
AcDbEntity
  8
GR1-1
  6
CONTINUOUS
 62
     7
100
AcDbLine
 10
177.908724
 20
129.744209
 30
0.0
 11
177.823856
 21
130.280044
 31
0.0
  0
LINE
  5
181
330
136
100
AcDbEntity
  8
GR1-1
  6
CONTINUOUS
 62
     7
100
AcDbLine
 10
177.32848
 20
133.407724
 30
0.0
 11
177.243612
 21
133.943559
 31
0.0
  0
LINE
  5
182
330
136
100
AcDbEntity
  8
GR1-1
  6
CONTINUOUS
 62
     7
100
AcDbLine
 10
177.727571
 20
129.875824
 30
0.0
 11
177.667472
 21
130.255275
 31
0.0
  0
LINE
  5
183
330
136
100
AcDbEntity
  8
GR1-1
  6
CONTINUOUS
 62
     7
100
AcDbLine
 10
177.172096
 20
133.382955
 30
0.0
 11
177.111997
 21
133.762406
 31
0.0
  0
LINE
  5
184
330
136
100
AcDbEntity
  8
GR1-1
  6
CONTINUOUS
 62
     7
100
AcDbLine
 10
177.546418
 20
130.007439
 30
0.0
 11
177.511088
 21
130.230506
 31
0.0
  0
LINE
  5
185
330
136
100
AcDbEntity
  8
GR1-1
  6
CONTINUOUS
 62
     7
100
AcDbLine
 10
177.015712
 20
133.358186
 30
0.0
 11
176.980382
 21
133.581253
 31
0.0
  0
LINE
  5
186
330
136
100
AcDbEntity
  8
GR1-1
  6
CONTINUOUS
 62
     7
100
AcDbLine
 10
177.365266
 20
130.139054
 30
0.0
 11
176.848767
 21
133.400101
 31
0.0
  0
LINE
  5
187
330
136
100
AcDbEntity
  8
GR1-1
  6
CONTINUOUS
 62
     7
100
AcDbLine
 10
177.184113
 20
130.27067
 30
0.0
 11
176.717151
 21
133.218948
 31
0.0
  0
LINE
  5
188
330
136
100
AcDbEntity
  8
GR1-1
  6
CONTINUOUS
 62
     7
100
AcDbLine
 10
177.00296
 20
130.402285
 30
0.0
 11
176.585536
 21
133.037795
 31
0.0
  0
LINE
  5
189
330
136
100
AcDbEntity
  8
GR1-1
  6
CONTINUOUS
 62
     7
100
AcDbLine
 10
176.821807
 20
130.5339
 30
0.0
 11
176.453921
 21
132.856642
 31
0.0
  0
LINE
  5
18A
330
136
100
AcDbEntity
  8
GR1-1
  6
CONTINUOUS
 62
     7
100
AcDbLine
 10
176.640654
 20
130.665515
 30
0.0
 11
176.322306
 21
132.67549
 31
0.0
  0
LINE
  5
18B
330
136
100
AcDbEntity
  8
GR1-1
  6
CONTINUOUS
 62
     7
100
AcDbLine
 10
176.459502
 20
130.79713
 30
0.0
 11
176.190691
 21
132.494337
 31
0.0
  0
LINE
  5
18C
330
136
100
AcDbEntity
  8
GR1-1
  6
CONTINUOUS
 62
     7
100
AcDbLine
 10
176.278349
 20
130.928746
 30
0.0
 11
176.059075
 21
132.313184
 31
0.0
  0
LINE
  5
18D
330
136
100
AcDbEntity
  8
GR1-1
  6
CONTINUOUS
 62
     7
100
AcDbLine
 10
176.097196
 20
131.060361
 30
0.0
 11
175.92746
 21
132.132031
 31
0.0
  0
LINE
  5
18E
330
136
100
AcDbEntity
  8
GR1-1
  6
CONTINUOUS
 62
     7
100
AcDbLine
 10
175.916043
 20
131.191976
 30
0.0
 11
175.795845
 21
131.950878
 31
0.0
  0
LINE
  5
18F
330
136
100
AcDbEntity
  8
GR1-1
  6
CONTINUOUS
 62
     7
100
AcDbLine
 10
175.734891
 20
131.323591
 30
0.0
 11
175.66423
 21
131.769726
 31
0.0
  0
LINE
  5
190
330
136
100
AcDbEntity
  8
GR1-1
  6
CONTINUOUS
 62
     7
100
AcDbLine
 10
175.553738
 20
131.455206
 30
0.0
 11
175.532615
 21
131.588573
 31
0.0
  0
ENDBLK
  5
138
330
136
100
AcDbEntity
  8
0
100
AcDbBlockEnd
  0
BLOCK
  5
1B6
330
1B5
100
AcDbEntity
  8
0
100
AcDbBlockBegin
  2
BLKF022
 70
     0
 71
     0
 10
0.0
 20
0.0
 30
0.0
  3
BLKF022
  1

  0
LINE
  5
1B9
330
1B5
100
AcDbEntity
  8
LAYERGROUP-1
  6
CONTINUOUS
 62
     3
100
AcDbLine
 10
52.176392
 20
91.570192
 30
0.0
 11
43.376392
 21
91.570192
 31
0.0
  0
LINE
  5
1BA
330
1B5
100
AcDbEntity
  8
LAYERGROUP-1
  6
CONTINUOUS
 62
     3
100
AcDbLine
 10
52.776392
 20
92.170192
 30
0.0
 11
52.776392
 21
98.236859
 31
0.0
  0
LINE
  5
1BB
330
1B5
100
AcDbEntity
  8
LAYERGROUP-1
  6
CONTINUOUS
 62
     3
100
AcDbLine
 10
42.776392
 20
92.170192
 30
0.0
 11
42.776392
 21
98.236859
 31
0.0
  0
LINE
  5
1BC
330
1B5
100
AcDbEntity
  8
LAYERGROUP-1
  6
CONTINUOUS
 62
     3
100
AcDbLine
 10
44.889641
 20
98.236859
 30
0.0
 11
39.776392
 21
98.236859
 31
0.0
  0
CIRCLE
  5
1BD
330
1B5
100
AcDbEntity
  8
LAYERGROUP-1
  6
CONTINUOUS
 62
     3
100
AcDbCircle
 10
47.776392
 20
96.570192
 30
0.0
 40
3.333333333333334
  0
LINE
  5
1BE
330
1B5
100
AcDbEntity
  8
LAYERGROUP-1
  6
CONTINUOUS
 62
     3
100
AcDbLine
 10
67.676392
 20
101.570192
 30
0.0
 11
40.376392
 21
101.570192
 31
0.0
  0
ARC
  5
1BF
330
1B5
100
AcDbEntity
  8
LAYERGROUP-1
  6
CONTINUOUS
 62
     3
100
AcDbCircle
 10
52.176392
 20
92.170192
 30
0.0
 40
0.6
100
AcDbArc
 50
270.0
 51
360.0
  0
ARC
  5
1C0
330
1B5
100
AcDbEntity
  8
LAYERGROUP-1
  6
CONTINUOUS
 62
     3
100
AcDbCircle
 10
43.376392
 20
92.170192
 30
0.0
 40
0.6
100
AcDbArc
 50
180.0
 51
270.0
  0
LINE
  5
1C1
330
1B5
100
AcDbEntity
  8
LAYERGROUP-1
  6
CONTINUOUS
 62
     3
100
AcDbLine
 10
52.776392
 20
116.903526
 30
0.0
 11
52.776392
 21
122.970192
 31
0.0
  0
LINE
  5
1C2
330
1B5
100
AcDbEntity
  8
LAYERGROUP-1
  6
CONTINUOUS
 62
     3
100
AcDbLine
 10
42.776392
 20
116.903526
 30
0.0
 11
42.776392
 21
122.970192
 31
0.0
  0
LINE
  5
1C3
330
1B5
100
AcDbEntity
  8
LAYERGROUP-1
  6
CONTINUOUS
 62
     3
100
AcDbLine
 10
44.889641
 20
116.903526
 30
0.0
 11
39.776392
 21
116.903526
 31
0.0
  0
CIRCLE
  5
1C4
330
1B5
100
AcDbEntity
  8
LAYERGROUP-1
  6
CONTINUOUS
 62
     3
100
AcDbCircle
 10
47.776392
 20
118.570192
 30
0.0
 40
3.333333333333334
  0
LINE
  5
1C5
330
1B5
100
AcDbEntity
  8
LAYERGROUP-1
  6
CONTINUOUS
 62
     3
100
AcDbLine
 10
52.176392
 20
123.570192
 30
0.0
 11
43.376392
 21
123.570192
 31
0.0
  0
ARC
  5
1C6
330
1B5
100
AcDbEntity
  8
LAYERGROUP-1
  6
CONTINUOUS
 62
     3
100
AcDbCircle
 10
52.176392
 20
122.970192
 30
0.0
 40
0.6
100
AcDbArc
 50
0.0
 51
90.0
  0
ARC
  5
1C7
330
1B5
100
AcDbEntity
  8
LAYERGROUP-1
  6
CONTINUOUS
 62
     3
100
AcDbCircle
 10
43.376392
 20
122.970192
 30
0.0
 40
0.6
100
AcDbArc
 50
90.0
 51
180.0
  0
LINE
  5
1C8
330
1B5
100
AcDbEntity
  8
LAYERGROUP-1
  6
CONTINUOUS
 62
     3
100
AcDbLine
 10
51.526392
 20
97.959081
 30
0.0
 11
51.943059
 21
97.959081
 31
0.0
  0
LINE
  5
1C9
330
1B5
100
AcDbEntity
  8
LAYERGROUP-1
  6
CONTINUOUS
 62
     3
100
AcDbLine
 10
51.943059
 20
97.959081
 30
0.0
 11
51.943059
 21
95.320192
 31
0.0
  0
LINE
  5
1CA
330
1B5
100
AcDbEntity
  8
LAYERGROUP-1
  6
CONTINUOUS
 62
     3
100
AcDbLine
 10
51.943059
 20
95.320192
 30
0.0
 11
51.526392
 21
94.903526
 31
0.0
  0
LINE
  5
1CB
330
1B5
100
AcDbEntity
  8
LAYERGROUP-1
  6
CONTINUOUS
 62
     3
100
AcDbLine
 10
51.526392
 20
94.903526
 30
0.0
 11
51.526392
 21
94.320192
 31
0.0
  0
LINE
  5
1CC
330
1B5
100
AcDbEntity
  8
LAYERGROUP-1
  6
CONTINUOUS
 62
     3
100
AcDbLine
 10
52.359725
 20
94.320192
 30
0.0
 11
52.359725
 21
94.611859
 31
0.0
  0
LINE
  5
1CD
330
1B5
100
AcDbEntity
  8
LAYERGROUP-1
  6
CONTINUOUS
 62
     3
100
AcDbLine
 10
52.359725
 20
94.320192
 30
0.0
 11
52.776392
 21
94.320192
 31
0.0
  0
LINE
  5
1CE
330
1B5
100
AcDbEntity
  8
LAYERGROUP-1
  6
CONTINUOUS
 62
     3
100
AcDbLine
 10
50.663143
 20
94.903526
 30
0.0
 11
51.526392
 21
94.903526
 31
0.0
  0
ARC
  5
1CF
330
1B5
100
AcDbEntity
  8
LAYERGROUP-1
  6
CONTINUOUS
 62
     3
100
AcDbCircle
 10
51.943059
 20
94.320192
 30
0.0
 40
0.4166666666666714
100
AcDbArc
 50
180.0
 51
360.0
  0
LINE
  5
1D0
330
1B5
100
AcDbEntity
  8
LAYERGROUP-1
  6
CONTINUOUS
 62
     3
100
AcDbLine
 10
44.026392
 20
97.959081
 30
0.0
 11
43.609725
 21
97.959081
 31
0.0
  0
LINE
  5
1D1
330
1B5
100
AcDbEntity
  8
LAYERGROUP-1
  6
CONTINUOUS
 62
     3
100
AcDbLine
 10
43.609725
 20
97.959081
 30
0.0
 11
43.609725
 21
95.320192
 31
0.0
  0
LINE
  5
1D2
330
1B5
100
AcDbEntity
  8
LAYERGROUP-1
  6
CONTINUOUS
 62
     3
100
AcDbLine
 10
43.609725
 20
95.320192
 30
0.0
 11
44.026392
 21
94.903526
 31
0.0
  0
LINE
  5
1D3
330
1B5
100
AcDbEntity
  8
LAYERGROUP-1
  6
CONTINUOUS
 62
     3
100
AcDbLine
 10
44.026392
 20
94.903526
 30
0.0
 11
44.026392
 21
94.320192
 31
0.0
  0
LINE
  5
1D4
330
1B5
100
AcDbEntity
  8
LAYERGROUP-1
  6
CONTINUOUS
 62
     3
100
AcDbLine
 10
43.193059
 20
94.320192
 30
0.0
 11
43.193059
 21
94.611859
 31
0.0
  0
LINE
  5
1D5
330
1B5
100
AcDbEntity
  8
LAYERGROUP-1
  6
CONTINUOUS
 62
     3
100
AcDbLine
 10
43.193059
 20
94.320192
 30
0.0
 11
42.776392
 21
94.320192
 31
0.0
  0
LINE
  5
1D6
330
1B5
100
AcDbEntity
  8
LAYERGROUP-1
  6
CONTINUOUS
 62
     3
100
AcDbLine
 10
44.889641
 20
94.903526
 30
0.0
 11
44.026392
 21
94.903526
 31
0.0
  0
ARC
  5
1D7
330
1B5
100
AcDbEntity
  8
LAYERGROUP-1
  6
CONTINUOUS
 62
     3
100
AcDbCircle
 10
43.609725
 20
94.320192
 30
0.0
 40
0.4166666666666714
100
AcDbArc
 50
180.0
 51
360.0
  0
LINE
  5
1D8
330
1B5
100
AcDbEntity
  8
LAYERGROUP-1
  6
CONTINUOUS
 62
     3
100
AcDbLine
 10
51.526392
 20
117.181303
 30
0.0
 11
51.943059
 21
117.181303
 31
0.0
  0
LINE
  5
1D9
330
1B5
100
AcDbEntity
  8
LAYERGROUP-1
  6
CONTINUOUS
 62
     3
100
AcDbLine
 10
51.943059
 20
117.181303
 30
0.0
 11
51.943059
 21
119.820192
 31
0.0
  0
LINE
  5
1DA
330
1B5
100
AcDbEntity
  8
LAYERGROUP-1
  6
CONTINUOUS
 62
     3
100
AcDbLine
 10
51.943059
 20
119.820192
 30
0.0
 11
51.526392
 21
120.236859
 31
0.0
  0
LINE
  5
1DB
330
1B5
100
AcDbEntity
  8
LAYERGROUP-1
  6
CONTINUOUS
 62
     3
100
AcDbLine
 10
51.526392
 20
120.236859
 30
0.0
 11
51.526392
 21
120.820192
 31
0.0
  0
LINE
  5
1DC
330
1B5
100
AcDbEntity
  8
LAYERGROUP-1
  6
CONTINUOUS
 62
     3
100
AcDbLine
 10
52.359725
 20
120.820192
 30
0.0
 11
52.359725
 21
120.528526
 31
0.0
  0
LINE
  5
1DD
330
1B5
100
AcDbEntity
  8
LAYERGROUP-1
  6
CONTINUOUS
 62
     3
100
AcDbLine
 10
52.359725
 20
120.820192
 30
0.0
 11
52.776392
 21
120.820192
 31
0.0
  0
LINE
  5
1DE
330
1B5
100
AcDbEntity
  8
LAYERGROUP-1
  6
CONTINUOUS
 62
     3
100
AcDbLine
 10
50.663143
 20
120.236859
 30
0.0
 11
51.526392
 21
120.236859
 31
0.0
  0
ARC
  5
1DF
330
1B5
100
AcDbEntity
  8
LAYERGROUP-1
  6
CONTINUOUS
 62
     3
100
AcDbCircle
 10
51.943059
 20
120.820192
 30
0.0
 40
0.4166666666666714
100
AcDbArc
 50
0.0
 51
180.0
  0
LINE
  5
1E0
330
1B5
100
AcDbEntity
  8
LAYERGROUP-1
  6
CONTINUOUS
 62
     3
100
AcDbLine
 10
44.026392
 20
117.181303
 30
0.0
 11
43.609725
 21
117.181303
 31
0.0
  0
LINE
  5
1E1
330
1B5
100
AcDbEntity
  8
LAYERGROUP-1
  6
CONTINUOUS
 62
     3
100
AcDbLine
 10
43.609725
 20
117.181303
 30
0.0
 11
43.609725
 21
119.820192
 31
0.0
  0
LINE
  5
1E2
330
1B5
100
AcDbEntity
  8
LAYERGROUP-1
  6
CONTINUOUS
 62
     3
100
AcDbLine
 10
43.609725
 20
119.820192
 30
0.0
 11
44.026392
 21
120.236859
 31
0.0
  0
LINE
  5
1E3
330
1B5
100
AcDbEntity
  8
LAYERGROUP-1
  6
CONTINUOUS
 62
     3
100
AcDbLine
 10
44.026392
 20
120.236859
 30
0.0
 11
44.026392
 21
120.820192
 31
0.0
  0
LINE
  5
1E4
330
1B5
100
AcDbEntity
  8
LAYERGROUP-1
  6
CONTINUOUS
 62
     3
100
AcDbLine
 10
43.193059
 20
120.820192
 30
0.0
 11
43.193059
 21
120.528526
 31
0.0
  0
LINE
  5
1E5
330
1B5
100
AcDbEntity
  8
LAYERGROUP-1
  6
CONTINUOUS
 62
     3
100
AcDbLine
 10
43.193059
 20
120.820192
 30
0.0
 11
42.776392
 21
120.820192
 31
0.0
  0
LINE
  5
1E6
330
1B5
100
AcDbEntity
  8
LAYERGROUP-1
  6
CONTINUOUS
 62
     3
100
AcDbLine
 10
44.889641
 20
120.236859
 30
0.0
 11
44.026392
 21
120.236859
 31
0.0
  0
ARC
  5
1E7
330
1B5
100
AcDbEntity
  8
LAYERGROUP-1
  6
CONTINUOUS
 62
     3
100
AcDbCircle
 10
43.609725
 20
120.820192
 30
0.0
 40
0.4166666666666714
100
AcDbArc
 50
0.0
 51
180.0
  0
LINE
  5
1E8
330
1B5
100
AcDbEntity
  8
LAYERGROUP-1
  6
CONTINUOUS
 62
     3
100
AcDbLine
 10
68.276392
 20
98.236859
 30
0.0
 11
50.663143
 21
98.236859
 31
0.0
  0
LINE
  5
1E9
330
1B5
100
AcDbEntity
  8
LAYERGROUP-1
  6
CONTINUOUS
 62
     3
100
AcDbLine
 10
67.676392
 20
113.570192
 30
0.0
 11
40.376392
 21
113.570192
 31
0.0
  0
LINE
  5
1EA
330
1B5
100
AcDbEntity
  8
LAYERGROUP-1
  6
CONTINUOUS
 62
     3
100
AcDbLine
 10
68.276392
 20
116.903526
 30
0.0
 11
50.663143
 21
116.903526
 31
0.0
  0
ENDBLK
  5
1B7
330
1B5
100
AcDbEntity
  8
0
100
AcDbBlockEnd
  0
BLOCK
  5
1F4
330
1F3
100
AcDbEntity
  8
0
100
AcDbBlockBegin
  2
BLKF023
 70
     0
 71
     0
 10
0.0
 20
0.0
 30
0.0
  3
BLKF023
  1

  0
LINE
  5
1F7
330
1F3
100
AcDbEntity
  8
LAYERGROUP-1
  6
CONTINUOUS
 62
     3
100
AcDbLine
 10
84.376392
 20
123.570192
 30
0.0
 11
93.176392
 21
123.570192
 31
0.0
  0
LINE
  5
1F8
330
1F3
100
AcDbEntity
  8
LAYERGROUP-1
  6
CONTINUOUS
 62
     3
100
AcDbLine
 10
83.776392
 20
122.970192
 30
0.0
 11
83.776392
 21
116.903526
 31
0.0
  0
LINE
  5
1F9
330
1F3
100
AcDbEntity
  8
LAYERGROUP-1
  6
CONTINUOUS
 62
     3
100
AcDbLine
 10
93.776392
 20
122.970192
 30
0.0
 11
93.776392
 21
116.903526
 31
0.0
  0
LINE
  5
1FA
330
1F3
100
AcDbEntity
  8
LAYERGROUP-1
  6
CONTINUOUS
 62
     3
100
AcDbLine
 10
91.663143
 20
116.903526
 30
0.0
 11
96.776392
 21
116.903526
 31
0.0
  0
CIRCLE
  5
1FB
330
1F3
100
AcDbEntity
  8
LAYERGROUP-1
  6
CONTINUOUS
 62
     3
100
AcDbCircle
 10
88.776392
 20
118.570192
 30
0.0
 40
3.333333333333334
  0
LINE
  5
1FC
330
1F3
100
AcDbEntity
  8
LAYERGROUP-1
  6
CONTINUOUS
 62
     3
100
AcDbLine
 10
68.876392
 20
113.570192
 30
0.0
 11
96.176392
 21
113.570192
 31
0.0
  0
ARC
  5
1FD
330
1F3
100
AcDbEntity
  8
LAYERGROUP-1
  6
CONTINUOUS
 62
     3
100
AcDbCircle
 10
84.376392
 20
122.970192
 30
0.0
 40
0.6
100
AcDbArc
 50
90.0
 51
180.0
  0
ARC
  5
1FE
330
1F3
100
AcDbEntity
  8
LAYERGROUP-1
  6
CONTINUOUS
 62
     3
100
AcDbCircle
 10
93.176392
 20
122.970192
 30
0.0
 40
0.6
100
AcDbArc
 50
0.0
 51
90.0
  0
LINE
  5
1FF
330
1F3
100
AcDbEntity
  8
LAYERGROUP-1
  6
CONTINUOUS
 62
     3
100
AcDbLine
 10
83.776392
 20
98.236859
 30
0.0
 11
83.776392
 21
92.170192
 31
0.0
  0
LINE
  5
200
330
1F3
100
AcDbEntity
  8
LAYERGROUP-1
  6
CONTINUOUS
 62
     3
100
AcDbLine
 10
93.776392
 20
98.236859
 30
0.0
 11
93.776392
 21
92.170192
 31
0.0
  0
LINE
  5
201
330
1F3
100
AcDbEntity
  8
LAYERGROUP-1
  6
CONTINUOUS
 62
     3
100
AcDbLine
 10
91.663143
 20
98.236859
 30
0.0
 11
96.776392
 21
98.236859
 31
0.0
  0
CIRCLE
  5
202
330
1F3
100
AcDbEntity
  8
LAYERGROUP-1
  6
CONTINUOUS
 62
     3
100
AcDbCircle
 10
88.776392
 20
96.570192
 30
0.0
 40
3.333333333333334
  0
LINE
  5
203
330
1F3
100
AcDbEntity
  8
LAYERGROUP-1
  6
CONTINUOUS
 62
     3
100
AcDbLine
 10
84.376392
 20
91.570192
 30
0.0
 11
93.176392
 21
91.570192
 31
0.0
  0
ARC
  5
204
330
1F3
100
AcDbEntity
  8
LAYERGROUP-1
  6
CONTINUOUS
 62
     3
100
AcDbCircle
 10
84.376392
 20
92.170192
 30
0.0
 40
0.6
100
AcDbArc
 50
180.0
 51
270.0
  0
ARC
  5
205
330
1F3
100
AcDbEntity
  8
LAYERGROUP-1
  6
CONTINUOUS
 62
     3
100
AcDbCircle
 10
93.176392
 20
92.170192
 30
0.0
 40
0.6
100
AcDbArc
 50
270.0
 51
360.0
  0
LINE
  5
206
330
1F3
100
AcDbEntity
  8
LAYERGROUP-1
  6
CONTINUOUS
 62
     3
100
AcDbLine
 10
85.026392
 20
117.181303
 30
0.0
 11
84.609725
 21
117.181303
 31
0.0
  0
LINE
  5
207
330
1F3
100
AcDbEntity
  8
LAYERGROUP-1
  6
CONTINUOUS
 62
     3
100
AcDbLine
 10
84.609725
 20
117.181303
 30
0.0
 11
84.609725
 21
119.820192
 31
0.0
  0
LINE
  5
208
330
1F3
100
AcDbEntity
  8
LAYERGROUP-1
  6
CONTINUOUS
 62
     3
100
AcDbLine
 10
84.609725
 20
119.820192
 30
0.0
 11
85.026392
 21
120.236859
 31
0.0
  0
LINE
  5
209
330
1F3
100
AcDbEntity
  8
LAYERGROUP-1
  6
CONTINUOUS
 62
     3
100
AcDbLine
 10
85.026392
 20
120.236859
 30
0.0
 11
85.026392
 21
120.820192
 31
0.0
  0
LINE
  5
20A
330
1F3
100
AcDbEntity
  8
LAYERGROUP-1
  6
CONTINUOUS
 62
     3
100
AcDbLine
 10
84.193059
 20
120.820192
 30
0.0
 11
84.193059
 21
120.528526
 31
0.0
  0
LINE
  5
20B
330
1F3
100
AcDbEntity
  8
LAYERGROUP-1
  6
CONTINUOUS
 62
     3
100
AcDbLine
 10
84.193059
 20
120.820192
 30
0.0
 11
83.776392
 21
120.820192
 31
0.0
  0
LINE
  5
20C
330
1F3
100
AcDbEntity
  8
LAYERGROUP-1
  6
CONTINUOUS
 62
     3
100
AcDbLine
 10
85.889641
 20
120.236859
 30
0.0
 11
85.026392
 21
120.236859
 31
0.0
  0
ARC
  5
20D
330
1F3
100
AcDbEntity
  8
LAYERGROUP-1
  6
CONTINUOUS
 62
     3
100
AcDbCircle
 10
84.609725
 20
120.820192
 30
0.0
 40
0.4166666666666714
100
AcDbArc
 50
0.0
 51
180.0
  0
LINE
  5
20E
330
1F3
100
AcDbEntity
  8
LAYERGROUP-1
  6
CONTINUOUS
 62
     3
100
AcDbLine
 10
92.526392
 20
117.181303
 30
0.0
 11
92.943059
 21
117.181303
 31
0.0
  0
LINE
  5
20F
330
1F3
100
AcDbEntity
  8
LAYERGROUP-1
  6
CONTINUOUS
 62
     3
100
AcDbLine
 10
92.943059
 20
117.181303
 30
0.0
 11
92.943059
 21
119.820192
 31
0.0
  0
LINE
  5
210
330
1F3
100
AcDbEntity
  8
LAYERGROUP-1
  6
CONTINUOUS
 62
     3
100
AcDbLine
 10
92.943059
 20
119.820192
 30
0.0
 11
92.526392
 21
120.236859
 31
0.0
  0
LINE
  5
211
330
1F3
100
AcDbEntity
  8
LAYERGROUP-1
  6
CONTINUOUS
 62
     3
100
AcDbLine
 10
92.526392
 20
120.236859
 30
0.0
 11
92.526392
 21
120.820192
 31
0.0
  0
LINE
  5
212
330
1F3
100
AcDbEntity
  8
LAYERGROUP-1
  6
CONTINUOUS
 62
     3
100
AcDbLine
 10
93.359725
 20
120.820192
 30
0.0
 11
93.359725
 21
120.528526
 31
0.0
  0
LINE
  5
213
330
1F3
100
AcDbEntity
  8
LAYERGROUP-1
  6
CONTINUOUS
 62
     3
100
AcDbLine
 10
93.359725
 20
120.820192
 30
0.0
 11
93.776392
 21
120.820192
 31
0.0
  0
LINE
  5
214
330
1F3
100
AcDbEntity
  8
LAYERGROUP-1
  6
CONTINUOUS
 62
     3
100
AcDbLine
 10
91.663143
 20
120.236859
 30
0.0
 11
92.526392
 21
120.236859
 31
0.0
  0
ARC
  5
215
330
1F3
100
AcDbEntity
  8
LAYERGROUP-1
  6
CONTINUOUS
 62
     3
100
AcDbCircle
 10
92.943059
 20
120.820192
 30
0.0
 40
0.4166666666666714
100
AcDbArc
 50
0.0
 51
180.0
  0
LINE
  5
216
330
1F3
100
AcDbEntity
  8
LAYERGROUP-1
  6
CONTINUOUS
 62
     3
100
AcDbLine
 10
85.026392
 20
97.959081
 30
0.0
 11
84.609725
 21
97.959081
 31
0.0
  0
LINE
  5
217
330
1F3
100
AcDbEntity
  8
LAYERGROUP-1
  6
CONTINUOUS
 62
     3
100
AcDbLine
 10
84.609725
 20
97.959081
 30
0.0
 11
84.609725
 21
95.320192
 31
0.0
  0
LINE
  5
218
330
1F3
100
AcDbEntity
  8
LAYERGROUP-1
  6
CONTINUOUS
 62
     3
100
AcDbLine
 10
84.609725
 20
95.320192
 30
0.0
 11
85.026392
 21
94.903526
 31
0.0
  0
LINE
  5
219
330
1F3
100
AcDbEntity
  8
LAYERGROUP-1
  6
CONTINUOUS
 62
     3
100
AcDbLine
 10
85.026392
 20
94.903526
 30
0.0
 11
85.026392
 21
94.320192
 31
0.0
  0
LINE
  5
21A
330
1F3
100
AcDbEntity
  8
LAYERGROUP-1
  6
CONTINUOUS
 62
     3
100
AcDbLine
 10
84.193059
 20
94.320192
 30
0.0
 11
84.193059
 21
94.611859
 31
0.0
  0
LINE
  5
21B
330
1F3
100
AcDbEntity
  8
LAYERGROUP-1
  6
CONTINUOUS
 62
     3
100
AcDbLine
 10
84.193059
 20
94.320192
 30
0.0
 11
83.776392
 21
94.320192
 31
0.0
  0
LINE
  5
21C
330
1F3
100
AcDbEntity
  8
LAYERGROUP-1
  6
CONTINUOUS
 62
     3
100
AcDbLine
 10
85.889641
 20
94.903526
 30
0.0
 11
85.026392
 21
94.903526
 31
0.0
  0
ARC
  5
21D
330
1F3
100
AcDbEntity
  8
LAYERGROUP-1
  6
CONTINUOUS
 62
     3
100
AcDbCircle
 10
84.609725
 20
94.320192
 30
0.0
 40
0.4166666666666714
100
AcDbArc
 50
180.0
 51
360.0
  0
LINE
  5
21E
330
1F3
100
AcDbEntity
  8
LAYERGROUP-1
  6
CONTINUOUS
 62
     3
100
AcDbLine
 10
92.526392
 20
97.959081
 30
0.0
 11
92.943059
 21
97.959081
 31
0.0
  0
LINE
  5
21F
330
1F3
100
AcDbEntity
  8
LAYERGROUP-1
  6
CONTINUOUS
 62
     3
100
AcDbLine
 10
92.943059
 20
97.959081
 30
0.0
 11
92.943059
 21
95.320192
 31
0.0
  0
LINE
  5
220
330
1F3
100
AcDbEntity
  8
LAYERGROUP-1
  6
CONTINUOUS
 62
     3
100
AcDbLine
 10
92.943059
 20
95.320192
 30
0.0
 11
92.526392
 21
94.903526
 31
0.0
  0
LINE
  5
221
330
1F3
100
AcDbEntity
  8
LAYERGROUP-1
  6
CONTINUOUS
 62
     3
100
AcDbLine
 10
92.526392
 20
94.903526
 30
0.0
 11
92.526392
 21
94.320192
 31
0.0
  0
LINE
  5
222
330
1F3
100
AcDbEntity
  8
LAYERGROUP-1
  6
CONTINUOUS
 62
     3
100
AcDbLine
 10
93.359725
 20
94.320192
 30
0.0
 11
93.359725
 21
94.611859
 31
0.0
  0
LINE
  5
223
330
1F3
100
AcDbEntity
  8
LAYERGROUP-1
  6
CONTINUOUS
 62
     3
100
AcDbLine
 10
93.359725
 20
94.320192
 30
0.0
 11
93.776392
 21
94.320192
 31
0.0
  0
LINE
  5
224
330
1F3
100
AcDbEntity
  8
LAYERGROUP-1
  6
CONTINUOUS
 62
     3
100
AcDbLine
 10
91.663143
 20
94.903526
 30
0.0
 11
92.526392
 21
94.903526
 31
0.0
  0
ARC
  5
225
330
1F3
100
AcDbEntity
  8
LAYERGROUP-1
  6
CONTINUOUS
 62
     3
100
AcDbCircle
 10
92.943059
 20
94.320192
 30
0.0
 40
0.4166666666666714
100
AcDbArc
 50
180.0
 51
360.0
  0
LINE
  5
226
330
1F3
100
AcDbEntity
  8
LAYERGROUP-1
  6
CONTINUOUS
 62
     3
100
AcDbLine
 10
68.276392
 20
116.903526
 30
0.0
 11
85.889641
 21
116.903526
 31
0.0
  0
LINE
  5
227
330
1F3
100
AcDbEntity
  8
LAYERGROUP-1
  6
CONTINUOUS
 62
     3
100
AcDbLine
 10
68.876392
 20
101.570192
 30
0.0
 11
96.176392
 21
101.570192
 31
0.0
  0
LINE
  5
228
330
1F3
100
AcDbEntity
  8
LAYERGROUP-1
  6
CONTINUOUS
 62
     3
100
AcDbLine
 10
68.276392
 20
98.236859
 30
0.0
 11
85.889641
 21
98.236859
 31
0.0
  0
ENDBLK
  5
1F5
330
1F3
100
AcDbEntity
  8
0
100
AcDbBlockEnd
  0
BLOCK
  5
230
330
22F
100
AcDbEntity
  8
0
100
AcDbBlockBegin
  2
BLKF024
 70
     0
 71
     0
 10
0.0
 20
0.0
 30
0.0
  3
BLKF024
  1

  0
CIRCLE
  5
233
330
22F
100
AcDbEntity
  8
LAYERGROUP-1
  6
CONTINUOUS
 62
     3
100
AcDbCircle
 10
212.469231
 20
107.570192
 30
0.0
 40
16.0
  0
CIRCLE
  5
234
330
22F
100
AcDbEntity
  8
LAYERGROUP-1
  6
CONTINUOUS
 62
     3
100
AcDbCircle
 10
212.469231
 20
107.570192
 30
0.0
 40
9.333333333333343
  0
CIRCLE
  5
235
330
22F
100
AcDbEntity
  8
LAYERGROUP-1
  6
CONTINUOUS
 62
     3
100
AcDbCircle
 10
212.469231
 20
107.570192
 30
0.0
 40
6.0
  0
ENDBLK
  5
231
330
22F
100
AcDbEntity
  8
0
100
AcDbBlockEnd
  0
BLOCK
  5
239
330
238
100
AcDbEntity
  8
0
100
AcDbBlockBegin
  2
*D23
 70
     1
 71
     0
 10
0.0
 20
0.0
 30
0.0
  3
*D23
  1

  0
TEXT
  5
23B
330
238
100
AcDbEntity
  8
LAYERGROUP-1
  6
CONTINUOUS
 62
     7
100
AcDbText
 10
65.276398
 20
44.099075
 30
0.0
 40
4.0
  1
50
 41
0.851351
  7
FX_VECTOR
 72
     5
 11
71.276398
 21
44.099075
 31
0.0
100
AcDbText
  0
LINE
  5
23C
330
238
100
AcDbEntity
  8
LAYERGROUP-1
  6
CONTINUOUS
 62
     7
100
AcDbLine
 10
43.276392
 20
43.099077
 30
0.0
 11
93.276392
 21
43.099077
 31
0.0
  0
INSERT
  5
23D
330
238
100
AcDbEntity
  8
LAYERGROUP-1
  6
CONTINUOUS
 62
     7
100
AcDbBlockReference
  2
FXTIP_ARROW_S
 10
43.276392
 20
43.099077
 30
0.0
 41
3.0
 42
3.0
 50
180.0
  0
INSERT
  5
23E
330
238
100
AcDbEntity
  8
LAYERGROUP-1
  6
CONTINUOUS
 62
     7
100
AcDbBlockReference
  2
FXTIP_ARROW_E
 10
93.276392
 20
43.099077
 30
0.0
 41
3.0
 42
3.0
 50
360.0
  0
LINE
  5
23F
330
238
100
AcDbEntity
  8
LAYERGROUP-1
  6
CONTINUOUS
 62
     7
100
AcDbLine
 10
43.276392
 20
71.833495
 30
0.0
 11
43.276392
 21
42.099077
 31
0.0
  0
LINE
  5
240
330
238
100
AcDbEntity
  8
LAYERGROUP-1
  6
CONTINUOUS
 62
     7
100
AcDbLine
 10
93.276392
 20
71.833495
 30
0.0
 11
93.276392
 21
42.099077
 31
0.0
  0
ENDBLK
  5
23A
330
238
100
AcDbEntity
  8
0
100
AcDbBlockEnd
  0
BLOCK
  5
243
330
242
100
AcDbEntity
  8
0
100
AcDbBlockBegin
  2
*D24
 70
     1
 71
     0
 10
0.0
 20
0.0
 30
0.0
  3
*D24
  1

  0
TEXT
  5
245
330
242
100
AcDbEntity
  8
LAYERGROUP-1
  6
CONTINUOUS
 62
     7
100
AcDbText
 10
65.276398
 20
34.718624
 30
0.0
 40
4.0
  1
57
 41
0.851351
  7
FX_VECTOR
 72
     5
 11
71.276398
 21
34.718624
 31
0.0
100
AcDbText
  0
LINE
  5
246
330
242
100
AcDbEntity
  8
LAYERGROUP-1
  6
CONTINUOUS
 62
     7
100
AcDbLine
 10
39.776392
 20
33.718627
 30
0.0
 11
96.776392
 21
33.718627
 31
0.0
  0
INSERT
  5
247
330
242
100
AcDbEntity
  8
LAYERGROUP-1
  6
CONTINUOUS
 62
     7
100
AcDbBlockReference
  2
FXTIP_ARROW_S
 10
39.776392
 20
33.718627
 30
0.0
 41
3.0
 42
3.0
 50
180.0
  0
INSERT
  5
248
330
242
100
AcDbEntity
  8
LAYERGROUP-1
  6
CONTINUOUS
 62
     7
100
AcDbBlockReference
  2
FXTIP_ARROW_E
 10
96.776392
 20
33.718627
 30
0.0
 41
3.0
 42
3.0
 50
360.0
  0
LINE
  5
249
330
242
100
AcDbEntity
  8
LAYERGROUP-1
  6
CONTINUOUS
 62
     7
100
AcDbLine
 10
39.776392
 20
97.236859
 30
0.0
 11
39.776392
 21
32.718627
 31
0.0
  0
LINE
  5
24A
330
242
100
AcDbEntity
  8
LAYERGROUP-1
  6
CONTINUOUS
 62
     7
100
AcDbLine
 10
96.776392
 20
97.236859
 30
0.0
 11
96.776392
 21
32.718627
 31
0.0
  0
ENDBLK
  5
244
330
242
100
AcDbEntity
  8
0
100
AcDbBlockEnd
  0
BLOCK
  5
24D
330
24C
100
AcDbEntity
  8
0
100
AcDbBlockBegin
  2
*D25
 70
     1
 71
     0
 10
0.0
 20
0.0
 30
0.0
  3
*D25
  1

  0
TEXT
  5
24F
330
24C
100
AcDbEntity
  8
LAYERGROUP-1
  6
CONTINUOUS
 62
     7
100
AcDbText
 10
109.817474
 20
103.07019
 30
0.0
 40
4.0
  1
%%c12
 50
90.0
 41
0.84375
  7
FX_VECTOR
 72
     5
 11
109.817474
 21
112.07019
 31
0.0
100
AcDbText
  0
LINE
  5
250
330
24C
100
AcDbEntity
  8
LAYERGROUP-1
  6
CONTINUOUS
 62
     7
100
AcDbLine
 10
110.817477
 20
101.570192
 30
0.0
 11
110.817477
 21
113.570192
 31
0.0
  0
INSERT
  5
251
330
24C
100
AcDbEntity
  8
LAYERGROUP-1
  6
CONTINUOUS
 62
     7
100
AcDbBlockReference
  2
FXTIP_ARROW_S
 10
110.817477
 20
101.570192
 30
0.0
 41
3.0
 42
3.0
 50
270.0
  0
INSERT
  5
252
330
24C
100
AcDbEntity
  8
LAYERGROUP-1
  6
CONTINUOUS
 62
     7
100
AcDbBlockReference
  2
FXTIP_ARROW_E
 10
110.817477
 20
113.570192
 30
0.0
 41
3.0
 42
3.0
 50
90.0
  0
LINE
  5
253
330
24C
100
AcDbEntity
  8
LAYERGROUP-1
  6
CONTINUOUS
 62
     7
100
AcDbLine
 10
97.176392
 20
101.570192
 30
0.0
 11
111.817477
 21
101.570192
 31
0.0
  0
LINE
  5
254
330
24C
100
AcDbEntity
  8
LAYERGROUP-1
  6
CONTINUOUS
 62
     7
100
AcDbLine
 10
97.176392
 20
113.570192
 30
0.0
 11
111.817477
 21
113.570192
 31
0.0
  0
ENDBLK
  5
24E
330
24C
100
AcDbEntity
  8
0
100
AcDbBlockEnd
  0
BLOCK
  5
257
330
256
100
AcDbEntity
  8
0
100
AcDbBlockBegin
  2
*D26
 70
     1
 71
     0
 10
0.0
 20
0.0
 30
0.0
  3
*D26
  1

  0
TEXT
  5
259
330
256
100
AcDbEntity
  8
LAYERGROUP-1
  6
CONTINUOUS
 62
     7
100
AcDbText
 10
121.816368
 20
101.57019
 30
0.0
 40
4.0
  1
%%c100
 50
90.0
 41
0.828947
  7
FX_VECTOR
 72
     5
 11
121.816368
 21
113.57019
 31
0.0
100
AcDbText
  0
LINE
  5
25A
330
256
100
AcDbEntity
  8
LAYERGROUP-1
  6
CONTINUOUS
 62
     7
100
AcDbLine
 10
122.816372
 20
57.570192
 30
0.0
 11
122.816372
 21
157.570192
 31
0.0
  0
INSERT
  5
25B
330
256
100
AcDbEntity
  8
LAYERGROUP-1
  6
CONTINUOUS
 62
     7
100
AcDbBlockReference
  2
FXTIP_ARROW_S
 10
122.816372
 20
57.570192
 30
0.0
 41
3.0
 42
3.0
 50
270.0
  0
INSERT
  5
25C
330
256
100
AcDbEntity
  8
LAYERGROUP-1
  6
CONTINUOUS
 62
     7
100
AcDbBlockReference
  2
FXTIP_ARROW_E
 10
122.816372
 20
157.570192
 30
0.0
 41
3.0
 42
3.0
 50
90.0
  0
LINE
  5
25D
330
256
100
AcDbEntity
  8
LAYERGROUP-1
  6
CONTINUOUS
 62
     7
100
AcDbLine
 10
69.276392
 20
57.570192
 30
0.0
 11
123.816372
 21
57.570192
 31
0.0
  0
LINE
  5
25E
330
256
100
AcDbEntity
  8
LAYERGROUP-1
  6
CONTINUOUS
 62
     7
100
AcDbLine
 10
69.276392
 20
157.570192
 30
0.0
 11
123.816372
 21
157.570192
 31
0.0
  0
ENDBLK
  5
258
330
256
100
AcDbEntity
  8
0
100
AcDbBlockEnd
  0
BLOCK
  5
260
330
25F
100
AcDbEntity
  8
0
100
AcDbBlockBegin
  2
BLKF029
 70
     0
 71
     0
 10
0.0
 20
0.0
 30
0.0
  3
BLKF029
  1

  0
LINE
  5
263
330
25F
100
AcDbEntity
  8
}}ﾊﾊGG血CCТ
  6
CONTINUOUS
 62
     7
100
AcDbLine
 10
10.0
 20
10.0
 30
0.0
 11
287.0
 21
10.0
 31
0.0
  0
LINE
  5
264
330
25F
100
AcDbEntity
  8
}}ﾊﾊGG血CCТ
  6
CONTINUOUS
 62
     7
100
AcDbLine
 10
10.0
 20
10.0
 30
0.0
 11
10.0
 21
200.0
 31
0.0
  0
LINE
  5
265
330
25F
100
AcDbEntity
  8
}}ﾊﾊGG血CCТ
  6
CONTINUOUS
 62
     7
100
AcDbLine
 10
10.0
 20
200.0
 30
0.0
 11
287.0
 21
200.0
 31
0.0
  0
LINE
  5
266
330
25F
100
AcDbEntity
  8
}}ﾊﾊGG血CCТ
  6
CONTINUOUS
 62
     7
100
AcDbLine
 10
287.0
 20
200.0
 30
0.0
 11
287.0
 21
10.0
 31
0.0
  0
LINE
  5
267
330
25F
100
AcDbEntity
  8
}}ﾊﾊGG血CCТ
  6
CONTINUOUS
 62
     7
100
AcDbLine
 10
30.0
 20
10.0
 30
0.0
 11
30.0
 21
20.0
 31
0.0
  0
TEXT
  5
268
330
25F
100
AcDbEntity
  8
}}ﾊﾊGG血CCТ
  6
CONTINUOUS
 62
     7
100
AcDbText
 10
14.738815
 20
11.596879
 30
0.0
 40
6.648749
  1
品名
 41
1.083413
  7
FX_VECTOR
 72
     5
 11
26.058355
 21
11.596879
 31
0.0
100
AcDbText
  0
LINE
  5
269
330
25F
100
AcDbEntity
  8
}}ﾊﾊGG血CCТ
  6
CONTINUOUS
 62
     7
100
AcDbLine
 10
110.0
 20
20.0
 30
0.0
 11
110.0
 21
10.0
 31
0.0
  0
LINE
  5
26A
330
25F
100
AcDbEntity
  8
}}ﾊﾊGG血CCТ
  6
CONTINUOUS
 62
     7
100
AcDbLine
 10
10.0
 20
20.0
 30
0.0
 11
287.0
 21
20.0
 31
0.0
  0
INSERT
  5
26E
330
25F
100
AcDbEntity
  8
0
100
AcDbBlockReference
  2
BLKF030
 10
0.0
 20
0.0
 30
0.0
  0
INSERT
  5
277
330
25F
100
AcDbEntity
  8
0
100
AcDbBlockReference
  2
BLKF031
 10
0.0
 20
0.0
 30
0.0
  0
HATCH
  5
287
330
25F
100
AcDbEntity
  8
GR1-1
  6
CONTINUOUS
 62
     7
100
AcDbHatch
 10
0.0
 20
0.0
 30
0.0
210
0.0
220
0.0
230
1.0
  2

 70
     0
 71
     1
 91
        2
 92
        0
 93
        4
 72
     1
 10
215.8018997861325
 20
17.91346152
 11
221.8018997861325
 21
17.91346152
 72
     1
 10
221.8018997861325
 20
17.91346152
 11
221.8018997861325
 21
11.91346152
 72
     1
 10
221.8018997861325
 20
11.91346152
 11
215.8018997861325
 21
11.91346152
 72
     1
 10
215.8018997861325
 20
11.91346152
 11
215.8018997861325
 21
17.91346152
 97
        0
 92
        0
 93
       15
 72
     1
 10
218.8018997861325
 20
17.76923076000002
 11
215.9461305461325
 21
14.91346152
 72
     1
 10
215.9461305461325
 20
14.91346152
 11
218.8018997861325
 21
12.05769228000001
 72
     1
 10
218.8018997861325
 20
12.05769228000001
 11
220.3595920661325
 21
13.61538462
 72
     1
 10
220.3595920661325
 20
13.61538462
 11
220.3595920661325
 21
12.98076924
 72
     1
 10
220.3595920661325
 20
12.98076924
 11
221.2249766861325
 21
12.98076924
 72
     1
 10
221.2249766861325
 20
12.98076924
 11
221.2249766861325
 21
15.00000000000001
 72
     1
 10
221.2249766861325
 20
15.00000000000001
 11
218.8018997861325
 21
15.00000000000001
 72
     1
 10
218.8018997861325
 20
15.00000000000001
 11
218.8018997861325
 21
14.13461538000001
 72
     1
 10
218.8018997861325
 20
14.13461538000001
 11
219.2461305461325
 21
14.13461538000001
 72
     1
 10
219.2461305461325
 20
14.13461538000001
 11
218.8018997861325
 21
13.69038462
 72
     1
 10
218.8018997861325
 20
13.69038462
 11
217.5788228861325
 21
14.91346152
 72
     1
 10
217.5788228861325
 20
14.91346152
 11
218.8018997861325
 21
16.13653842000003
 72
     1
 10
218.8018997861325
 20
16.13653842000003
 11
219.5922844061325
 21
15.3461538
 72
     1
 10
219.5922844061325
 20
15.3461538
 11
221.2249766861325
 21
15.3461538
 72
     1
 10
221.2249766861325
 20
15.3461538
 11
218.8018997861325
 21
17.76923076000002
 97
        0
 75
     0
 76
     0
 52
45.0
 41
0.05
 77
     0
 78
     1
 53
45.0
 43
0.0
 44
0.0
 45
-0.0353553390593274
 46
0.0353553390593274
 79
     0
 98
        0
  0
TEXT
  5
288
330
25F
100
AcDbEntity
  8
}}ﾊﾊGG血CCТ
  6
CONTINUOUS
 62
     7
100
AcDbText
 10
226.225754
 20
11.461285
 30
0.0
 40
6.0
  1
GOLD CASTER
 41
0.719626
  7
FX_VECTOR
 72
     5
 11
270.225754
 21
11.461285
 31
0.0
100
AcDbText
  0
LINE
  5
289
330
25F
100
AcDbEntity
  8
}}ﾊﾊGG血CCТ
  6
CONTINUOUS
 62
     7
100
AcDbLine
 10
130.0
 20
10.0
 30
0.0
 11
130.0
 21
20.0
 31
0.0
  0
TEXT
  5
28A
330
25F
100
AcDbEntity
  8
}}ﾊﾊGG血CCТ
  6
CONTINUOUS
 62
     7
100
AcDbText
 10
114.738815
 20
11.596879
 30
0.0
 40
6.648749
  1
図番
 41
1.083413
  7
FX_VECTOR
 72
     5
 11
126.058355
 21
11.596879
 31
0.0
100
AcDbText
  0
LINE
  5
28B
330
25F
100
AcDbEntity
  8
}}ﾊﾊGG血CCТ
  6
CONTINUOUS
 62
     7
100
AcDbLine
 10
210.0
 20
20.0
 30
0.0
 11
210.0
 21
10.0
 31
0.0
  0
ENDBLK
  5
261
330
25F
100
AcDbEntity
  8
0
100
AcDbBlockEnd
  0
BLOCK
  5
26C
330
26B
100
AcDbEntity
  8
0
100
AcDbBlockBegin
  2
BLKF030
 70
     0
 71
     0
 10
0.0
 20
0.0
 30
0.0
  3
BLKF030
  1

  0
LINE
  5
270
330
26B
100
AcDbEntity
  8
0-1
  6
CONTINUOUS
 62
     7
100
AcDbLine
 10
221.8019
 20
17.913462
 30
0.0
 11
215.8019
 21
17.913462
 31
0.0
  0
LINE
  5
271
330
26B
100
AcDbEntity
  8
0-1
  6
CONTINUOUS
 62
     7
100
AcDbLine
 10
215.8019
 20
17.913462
 30
0.0
 11
215.8019
 21
11.913462
 31
0.0
  0
LINE
  5
272
330
26B
100
AcDbEntity
  8
0-1
  6
CONTINUOUS
 62
     7
100
AcDbLine
 10
215.8019
 20
11.913462
 30
0.0
 11
221.8019
 21
11.913462
 31
0.0
  0
LINE
  5
273
330
26B
100
AcDbEntity
  8
0-1
  6
CONTINUOUS
 62
     7
100
AcDbLine
 10
221.8019
 20
11.913462
 30
0.0
 11
221.8019
 21
17.913462
 31
0.0
  0
ENDBLK
  5
26D
330
26B
100
AcDbEntity
  8
0
100
AcDbBlockEnd
  0
BLOCK
  5
275
330
274
100
AcDbEntity
  8
0
100
AcDbBlockBegin
  2
BLKF031
 70
     0
 71
     0
 10
0.0
 20
0.0
 30
0.0
  3
BLKF031
  1

  0
LINE
  5
278
330
274
100
AcDbEntity
  8
0-1
  6
CONTINUOUS
 62
     7
100
AcDbLine
 10
221.224977
 20
15.346154
 30
0.0
 11
218.8019
 21
17.769231
 31
0.0
  0
LINE
  5
279
330
274
100
AcDbEntity
  8
0-1
  6
CONTINUOUS
 62
     7
100
AcDbLine
 10
218.8019
 20
17.769231
 30
0.0
 11
215.946131
 21
14.913462
 31
0.0
  0
LINE
  5
27A
330
274
100
AcDbEntity
  8
0-1
  6
CONTINUOUS
 62
     7
100
AcDbLine
 10
215.946131
 20
14.913462
 30
0.0
 11
218.8019
 21
12.057692
 31
0.0
  0
LINE
  5
27B
330
274
100
AcDbEntity
  8
0-1
  6
CONTINUOUS
 62
     7
100
AcDbLine
 10
218.8019
 20
12.057692
 30
0.0
 11
220.359592
 21
13.615385
 31
0.0
  0
LINE
  5
27C
330
274
100
AcDbEntity
  8
0-1
  6
CONTINUOUS
 62
     7
100
AcDbLine
 10
220.359592
 20
13.615385
 30
0.0
 11
220.359592
 21
12.980769
 31
0.0
  0
LINE
  5
27D
330
274
100
AcDbEntity
  8
0-1
  6
CONTINUOUS
 62
     7
100
AcDbLine
 10
220.359592
 20
12.980769
 30
0.0
 11
221.224977
 21
12.980769
 31
0.0
  0
LINE
  5
27E
330
274
100
AcDbEntity
  8
0-1
  6
CONTINUOUS
 62
     7
100
AcDbLine
 10
221.224977
 20
12.980769
 30
0.0
 11
221.224977
 21
15.0
 31
0.0
  0
LINE
  5
27F
330
274
100
AcDbEntity
  8
0-1
  6
CONTINUOUS
 62
     7
100
AcDbLine
 10
221.224977
 20
15.0
 30
0.0
 11
218.8019
 21
15.0
 31
0.0
  0
LINE
  5
280
330
274
100
AcDbEntity
  8
0-1
  6
CONTINUOUS
 62
     7
100
AcDbLine
 10
218.8019
 20
15.0
 30
0.0
 11
218.8019
 21
14.134615
 31
0.0
  0
LINE
  5
281
330
274
100
AcDbEntity
  8
0-1
  6
CONTINUOUS
 62
     7
100
AcDbLine
 10
218.8019
 20
14.134615
 30
0.0
 11
219.246131
 21
14.134615
 31
0.0
  0
LINE
  5
282
330
274
100
AcDbEntity
  8
0-1
  6
CONTINUOUS
 62
     7
100
AcDbLine
 10
219.246131
 20
14.134615
 30
0.0
 11
218.8019
 21
13.690385
 31
0.0
  0
LINE
  5
283
330
274
100
AcDbEntity
  8
0-1
  6
CONTINUOUS
 62
     7
100
AcDbLine
 10
218.8019
 20
13.690385
 30
0.0
 11
217.578823
 21
14.913462
 31
0.0
  0
LINE
  5
284
330
274
100
AcDbEntity
  8
0-1
  6
CONTINUOUS
 62
     7
100
AcDbLine
 10
217.578823
 20
14.913462
 30
0.0
 11
218.8019
 21
16.136538
 31
0.0
  0
LINE
  5
285
330
274
100
AcDbEntity
  8
0-1
  6
CONTINUOUS
 62
     7
100
AcDbLine
 10
218.8019
 20
16.136538
 30
0.0
 11
219.592284
 21
15.346154
 31
0.0
  0
LINE
  5
286
330
274
100
AcDbEntity
  8
0-1
  6
CONTINUOUS
 62
     7
100
AcDbLine
 10
219.592284
 20
15.346154
 30
0.0
 11
221.224977
 21
15.346154
 31
0.0
  0
ENDBLK
  5
276
330
274
100
AcDbEntity
  8
0
100
AcDbBlockEnd
  0
ENDSEC
  0
SECTION
  2
ENTITIES
  0
TEXT
  5
A8
330
1F
100
AcDbEntity
  8
}}ﾊﾊGG血CCТ
  6
CONTINUOUS
 62
     7
100
AcDbText
 10
32.365334
 20
12.0
 30
0.0
 40
6.0
  1
Ｈ－１００　ＲＢ
 41
0.794326
  7
FX_VECTOR
 72
     5
 11
64.365334
 21
12.0
 31
0.0
100
AcDbText
  0
TEXT
  5
A9
330
1F
100
AcDbEntity
  8
}}ﾊﾊGG血CCТ
  6
CONTINUOUS
 62
     7
100
AcDbText
 10
131.749802
 20
12.0
 30
0.0
 40
6.0
  1
1H30FAAA-C02
 41
0.705882
  7
FX_VECTOR
 72
     5
 11
179.749802
 21
12.0
 31
0.0
100
AcDbText
  0
LINE
  5
AB
330
1F
100
AcDbEntity
  8
GR1-1
  6
CONTINUOUS
 62
     3
100
AcDbLine
 10
46.768379
 20
145.570192
 30
0.0
 11
65.276392
 21
145.570192
 31
0.0
  0
LINE
  5
AC
330
1F
100
AcDbEntity
  8
LAYERGROUP-1
  6
CONTINUOUS
 62
     3
100
AcDbLine
 10
52.776392
 20
119.570192
 30
0.0
 11
55.076392
 21
119.570192
 31
0.0
  0
LINE
  5
AD
330
1F
100
AcDbEntity
  8
LAYERGROUP-1
  6
CONTINUOUS
 62
     3
100
AcDbLine
 10
52.776392
 20
119.570192
 30
0.0
 11
52.776392
 21
123.520192
 31
0.0
  0
LINE
  5
AE
330
1F
100
AcDbEntity
  8
LAYERGROUP-1
  6
CONTINUOUS
 62
     3
100
AcDbLine
 10
52.776392
 20
95.570192
 30
0.0
 11
55.076392
 21
95.570192
 31
0.0
  0
LINE
  5
AF
330
1F
100
AcDbEntity
  8
LAYERGROUP-1
  6
CONTINUOUS
 62
     3
100
AcDbLine
 10
52.776392
 20
95.570192
 30
0.0
 11
52.776392
 21
91.620192
 31
0.0
  0
LINE
  5
B0
330
1F
100
AcDbEntity
  8
LAYERGROUP-1
  6
CONTINUOUS
 62
     3
100
AcDbLine
 10
55.076392
 20
119.570192
 30
0.0
 11
55.076392
 21
123.320192
 31
0.0
  0
ARC
  5
B1
330
1F
100
AcDbEntity
  8
LAYERGROUP-1
  6
CONTINUOUS
 62
     3
100
AcDbCircle
 10
52.576392
 20
123.320192
 30
0.0
 40
2.5
100
AcDbArc
 50
0.0
 51
90.0
  0
ARC
  5
B2
330
1F
100
AcDbEntity
  8
LAYERGROUP-1
  6
CONTINUOUS
 62
     3
100
AcDbCircle
 10
46.768379
 20
142.070192
 30
0.0
 40
3.5
100
AcDbArc
 50
90.0
 51
180.0
  0
ARC
  5
B3
330
1F
100
AcDbEntity
  8
LAYERGROUP-1
  6
CONTINUOUS
 62
     3
100
AcDbCircle
 10
65.276392
 20
142.570192
 30
0.0
 40
3.0
100
AcDbArc
 50
0.0
 51
90.0
  0
LINE
  5
B4
330
1F
100
AcDbEntity
  8
LAYERGROUP-1
  6
CONTINUOUS
 62
     3
100
AcDbLine
 10
68.276392
 20
142.570192
 30
0.0
 11
68.276392
 21
140.270192
 31
0.0
  0
ARC
  5
B5
330
1F
100
AcDbEntity
  8
LAYERGROUP-1
  6
CONTINUOUS
 62
     3
100
AcDbCircle
 10
65.476392
 20
142.770192
 30
0.0
 40
0.5
100
AcDbArc
 50
0.0
 51
90.0
  0
LINE
  5
B6
330
1F
100
AcDbEntity
  8
LAYERGROUP-1
  6
CONTINUOUS
 62
     3
100
AcDbLine
 10
65.976392
 20
142.770192
 30
0.0
 11
65.976392
 21
139.270192
 31
0.0
  0
ARC
  5
B7
330
1F
100
AcDbEntity
  8
LAYERGROUP-1
  6
CONTINUOUS
 62
     3
100
AcDbCircle
 10
46.576392
 20
142.270192
 30
0.0
 40
1.0
100
AcDbArc
 50
90.0
 51
180.0
  0
LINE
  5
B8
330
1F
100
AcDbEntity
  8
LAYERGROUP-1
  6
CONTINUOUS
 62
     3
100
AcDbLine
 10
46.576392
 20
143.270192
 30
0.0
 11
65.476392
 21
143.270192
 31
0.0
  0
LINE
  5
B9
330
1F
100
AcDbEntity
  8
LAYERGROUP-1
  6
CONTINUOUS
 62
     3
100
AcDbLine
 10
45.576392
 20
142.270192
 30
0.0
 11
45.576392
 21
140.270192
 31
0.0
  0
LINE
  5
BA
330
1F
100
AcDbEntity
  8
LAYERGROUP-1
  6
CONTINUOUS
 62
     3
100
AcDbLine
 10
43.276392
 20
142.270192
 30
0.0
 11
43.276392
 21
130.441851
 31
0.0
  0
LINE
  5
BB
330
1F
100
AcDbEntity
  8
LAYERGROUP-1
  6
CONTINUOUS
 62
     3
100
AcDbLine
 10
43.276392
 20
145.570192
 30
0.0
 11
43.276392
 21
142.30689
 31
0.0
  0
LINE
  5
BC
330
1F
100
AcDbEntity
  8
LAYERGROUP-1
  6
CONTINUOUS
 62
     3
100
AcDbLine
 10
45.576392
 20
140.270192
 30
0.0
 11
47.030073
 21
138.811833
 31
0.0
  0
LINE
  5
BD
330
1F
100
AcDbEntity
  8
LAYERGROUP-1
  6
CONTINUOUS
 62
     3
100
AcDbLine
 10
45.401117
 20
137.188102
 30
0.0
 11
43.947436
 21
138.646461
 31
0.0
  0
ARC
  5
BE
330
1F
100
AcDbEntity
  8
LAYERGROUP-1
  6
CONTINUOUS
 62
     3
100
AcDbCircle
 10
46.276392
 20
140.559483
 30
0.0
 40
3.0
100
AcDbArc
 50
180.0
 51
224.907962
  0
LINE
  5
BF
330
1F
100
AcDbEntity
  8
GR1-1
  6
CONTINUOUS
 62
     3
100
AcDbLine
 10
89.784405
 20
145.570192
 30
0.0
 11
71.276392
 21
145.570192
 31
0.0
  0
LINE
  5
C0
330
1F
100
AcDbEntity
  8
LAYERGROUP-1
  6
CONTINUOUS
 62
     3
100
AcDbLine
 10
83.776392
 20
119.570192
 30
0.0
 11
81.476392
 21
119.570192
 31
0.0
  0
LINE
  5
C1
330
1F
100
AcDbEntity
  8
LAYERGROUP-1
  6
CONTINUOUS
 62
     3
100
AcDbLine
 10
83.776392
 20
119.570192
 30
0.0
 11
83.776392
 21
123.520192
 31
0.0
  0
LINE
  5
C2
330
1F
100
AcDbEntity
  8
LAYERGROUP-1
  6
CONTINUOUS
 62
     3
100
AcDbLine
 10
83.776392
 20
95.570192
 30
0.0
 11
81.476392
 21
95.570192
 31
0.0
  0
LINE
  5
C3
330
1F
100
AcDbEntity
  8
LAYERGROUP-1
  6
CONTINUOUS
 62
     3
100
AcDbLine
 10
83.776392
 20
95.570192
 30
0.0
 11
83.776392
 21
91.620192
 31
0.0
  0
ARC
  5
C4
330
1F
100
AcDbEntity
  8
LAYERGROUP-1
  6
CONTINUOUS
 62
     3
100
AcDbCircle
 10
89.784405
 20
142.070192
 30
0.0
 40
3.5
100
AcDbArc
 50
0.0
 51
90.0
  0
ARC
  5
C5
330
1F
100
AcDbEntity
  8
LAYERGROUP-1
  6
CONTINUOUS
 62
     3
100
AcDbCircle
 10
71.276392
 20
142.570192
 30
0.0
 40
3.0
100
AcDbArc
 50
90.0
 51
180.0
  0
ARC
  5
C6
330
1F
100
AcDbEntity
  8
LAYERGROUP-1
  6
CONTINUOUS
 62
     3
100
AcDbCircle
 10
71.076392
 20
142.770192
 30
0.0
 40
0.5
100
AcDbArc
 50
90.0
 51
180.0
  0
LINE
  5
C7
330
1F
100
AcDbEntity
  8
LAYERGROUP-1
  6
CONTINUOUS
 62
     3
100
AcDbLine
 10
70.576392
 20
142.770192
 30
0.0
 11
70.576392
 21
139.270192
 31
0.0
  0
ARC
  5
C8
330
1F
100
AcDbEntity
  8
LAYERGROUP-1
  6
CONTINUOUS
 62
     3
100
AcDbCircle
 10
89.976392
 20
142.270192
 30
0.0
 40
1.0
100
AcDbArc
 50
0.0
 51
90.0
  0
LINE
  5
C9
330
1F
100
AcDbEntity
  8
LAYERGROUP-1
  6
CONTINUOUS
 62
     3
100
AcDbLine
 10
89.976392
 20
143.270192
 30
0.0
 11
71.076392
 21
143.270192
 31
0.0
  0
LINE
  5
CA
330
1F
100
AcDbEntity
  8
LAYERGROUP-1
  6
CONTINUOUS
 62
     3
100
AcDbLine
 10
90.976392
 20
142.270192
 30
0.0
 11
90.976392
 21
140.270192
 31
0.0
  0
LINE
  5
CB
330
1F
100
AcDbEntity
  8
LAYERGROUP-1
  6
CONTINUOUS
 62
     3
100
AcDbLine
 10
93.276392
 20
142.270192
 30
0.0
 11
93.276392
 21
130.441851
 31
0.0
  0
LINE
  5
CC
330
1F
100
AcDbEntity
  8
LAYERGROUP-1
  6
CONTINUOUS
 62
     3
100
AcDbLine
 10
93.276392
 20
145.570192
 30
0.0
 11
93.276392
 21
142.30689
 31
0.0
  0
LINE
  5
CD
330
1F
100
AcDbEntity
  8
LAYERGROUP-1
  6
CONTINUOUS
 62
     3
100
AcDbLine
 10
90.976392
 20
140.270192
 30
0.0
 11
89.522711
 21
138.811833
 31
0.0
  0
LINE
  5
CE
330
1F
100
AcDbEntity
  8
LAYERGROUP-1
  6
CONTINUOUS
 62
     3
100
AcDbLine
 10
91.151667
 20
137.188102
 30
0.0
 11
92.605348
 21
138.646461
 31
0.0
  0
ARC
  5
CF
330
1F
100
AcDbEntity
  8
LAYERGROUP-1
  6
CONTINUOUS
 62
     3
100
AcDbCircle
 10
90.276392
 20
140.559483
 30
0.0
 40
3.0
100
AcDbArc
 50
315.092038
 51
360.0
  0
LINE
  5
D0
330
1F
100
AcDbEntity
  8
GR1-1
  6
CONTINUOUS
 62
     3
100
AcDbLine
 10
46.768379
 20
69.570192
 30
0.0
 11
65.276392
 21
69.570192
 31
0.0
  0
LINE
  5
D1
330
1F
100
AcDbEntity
  8
LAYERGROUP-1
  6
CONTINUOUS
 62
     3
100
AcDbLine
 10
55.076392
 20
95.570192
 30
0.0
 11
55.076392
 21
91.820192
 31
0.0
  0
LINE
  5
D2
330
1F
100
AcDbEntity
  8
LAYERGROUP-1
  6
CONTINUOUS
 62
     3
100
AcDbLine
 10
52.576392
 20
89.320192
 30
0.0
 11
46.076392
 21
89.320192
 31
0.0
  0
ARC
  5
D3
330
1F
100
AcDbEntity
  8
LAYERGROUP-1
  6
CONTINUOUS
 62
     3
100
AcDbCircle
 10
52.576392
 20
91.820192
 30
0.0
 40
2.5
100
AcDbArc
 50
270.0
 51
360.0
  0
ARC
  5
D4
330
1F
100
AcDbEntity
  8
LAYERGROUP-1
  6
CONTINUOUS
 62
     3
100
AcDbCircle
 10
46.768379
 20
73.070192
 30
0.0
 40
3.5
100
AcDbArc
 50
180.0
 51
270.0
  0
ARC
  5
D5
330
1F
100
AcDbEntity
  8
LAYERGROUP-1
  6
CONTINUOUS
 62
     3
100
AcDbCircle
 10
65.276392
 20
72.570192
 30
0.0
 40
3.0
100
AcDbArc
 50
270.0
 51
360.0
  0
LINE
  5
D6
330
1F
100
AcDbEntity
  8
LAYERGROUP-1
  6
CONTINUOUS
 62
     3
100
AcDbLine
 10
68.276392
 20
72.570192
 30
0.0
 11
68.276392
 21
74.870192
 31
0.0
  0
ARC
  5
D7
330
1F
100
AcDbEntity
  8
LAYERGROUP-1
  6
CONTINUOUS
 62
     3
100
AcDbCircle
 10
65.476392
 20
72.370192
 30
0.0
 40
0.5
100
AcDbArc
 50
270.0
 51
360.0
  0
ARC
  5
D8
330
1F
100
AcDbEntity
  8
LAYERGROUP-1
  6
CONTINUOUS
 62
     3
100
AcDbCircle
 10
46.576392
 20
72.870192
 30
0.0
 40
1.0
100
AcDbArc
 50
180.0
 51
270.0
  0
LINE
  5
D9
330
1F
100
AcDbEntity
  8
LAYERGROUP-1
  6
CONTINUOUS
 62
     3
100
AcDbLine
 10
46.576392
 20
71.870192
 30
0.0
 11
65.476392
 21
71.870192
 31
0.0
  0
LINE
  5
DA
330
1F
100
AcDbEntity
  8
LAYERGROUP-1
  6
CONTINUOUS
 62
     3
100
AcDbLine
 10
45.576392
 20
72.870192
 30
0.0
 11
45.576392
 21
74.870192
 31
0.0
  0
LINE
  5
DB
330
1F
100
AcDbEntity
  8
LAYERGROUP-1
  6
CONTINUOUS
 62
     3
100
AcDbLine
 10
45.076392
 20
88.320192
 30
0.0
 11
45.076392
 21
86.444958
 31
0.0
  0
ARC
  5
DC
330
1F
100
AcDbEntity
  8
LAYERGROUP-1
  6
CONTINUOUS
 62
     3
100
AcDbCircle
 10
46.076392
 20
88.320192
 30
0.0
 40
1.0
100
AcDbArc
 50
90.0
 51
180.0
  0
ARC
  5
DD
330
1F
100
AcDbEntity
  8
LAYERGROUP-1
  6
CONTINUOUS
 62
     3
100
AcDbCircle
 10
45.776392
 20
88.620192
 30
0.0
 40
3.0
100
AcDbArc
 50
90.0
 51
180.0
  0
LINE
  5
DE
330
1F
100
AcDbEntity
  8
LAYERGROUP-1
  6
CONTINUOUS
 62
     3
100
AcDbLine
 10
43.276392
 20
72.870192
 30
0.0
 11
43.276392
 21
84.698533
 31
0.0
  0
LINE
  5
DF
330
1F
100
AcDbEntity
  8
LAYERGROUP-1
  6
CONTINUOUS
 62
     3
100
AcDbLine
 10
43.276392
 20
69.570192
 30
0.0
 11
43.276392
 21
72.833495
 31
0.0
  0
ARC
  5
E0
330
1F
100
AcDbEntity
  8
LAYERGROUP-1
  6
CONTINUOUS
 62
     3
100
AcDbCircle
 10
43.276392
 20
80.070192
 30
0.0
 40
5.3
100
AcDbArc
 50
-44.907962
 51
41.088578
  0
LINE
  5
E1
330
1F
100
AcDbEntity
  8
LAYERGROUP-1
  6
CONTINUOUS
 62
     3
100
AcDbLine
 10
45.576392
 20
74.870192
 30
0.0
 11
47.030073
 21
76.328551
 31
0.0
  0
LINE
  5
E2
330
1F
100
AcDbEntity
  8
LAYERGROUP-1
  6
CONTINUOUS
 62
     3
100
AcDbLine
 10
42.776392
 20
88.620192
 30
0.0
 11
42.776392
 21
86.444958
 31
0.0
  0
ARC
  5
E3
330
1F
100
AcDbEntity
  8
LAYERGROUP-1
  6
CONTINUOUS
 62
     3
100
AcDbCircle
 10
43.276392
 20
80.070192
 30
0.0
 40
3.0
100
AcDbArc
 50
-44.907962
 51
41.088578
  0
LINE
  5
E4
330
1F
100
AcDbEntity
  8
LAYERGROUP-1
  6
CONTINUOUS
 62
     3
100
AcDbLine
 10
45.401117
 20
77.952282
 30
0.0
 11
43.947436
 21
76.493923
 31
0.0
  0
ARC
  5
E5
330
1F
100
AcDbEntity
  8
LAYERGROUP-1
  6
CONTINUOUS
 62
     3
100
AcDbCircle
 10
46.276392
 20
74.580901
 30
0.0
 40
3.0
100
AcDbArc
 50
135.092038
 51
180.0
  0
LINE
  5
E6
330
1F
100
AcDbEntity
  8
GR1-1
  6
CONTINUOUS
 62
     3
100
AcDbLine
 10
89.784405
 20
69.570192
 30
0.0
 11
71.276392
 21
69.570192
 31
0.0
  0
ARC
  5
E7
330
1F
100
AcDbEntity
  8
LAYERGROUP-1
  6
CONTINUOUS
 62
     3
100
AcDbCircle
 10
89.784405
 20
73.070192
 30
0.0
 40
3.5
100
AcDbArc
 50
270.0
 51
360.0
  0
ARC
  5
E8
330
1F
100
AcDbEntity
  8
LAYERGROUP-1
  6
CONTINUOUS
 62
     3
100
AcDbCircle
 10
71.276392
 20
72.570192
 30
0.0
 40
3.0
100
AcDbArc
 50
180.0
 51
270.0
  0
ARC
  5
E9
330
1F
100
AcDbEntity
  8
LAYERGROUP-1
  6
CONTINUOUS
 62
     3
100
AcDbCircle
 10
71.076392
 20
72.370192
 30
0.0
 40
0.5
100
AcDbArc
 50
180.0
 51
270.0
  0
ARC
  5
EA
330
1F
100
AcDbEntity
  8
LAYERGROUP-1
  6
CONTINUOUS
 62
     3
100
AcDbCircle
 10
89.976392
 20
72.870192
 30
0.0
 40
1.0
100
AcDbArc
 50
270.0
 51
360.0
  0
LINE
  5
EB
330
1F
100
AcDbEntity
  8
LAYERGROUP-1
  6
CONTINUOUS
 62
     3
100
AcDbLine
 10
89.976392
 20
71.870192
 30
0.0
 11
71.076392
 21
71.870192
 31
0.0
  0
LINE
  5
EC
330
1F
100
AcDbEntity
  8
LAYERGROUP-1
  6
CONTINUOUS
 62
     3
100
AcDbLine
 10
90.976392
 20
72.870192
 30
0.0
 11
90.976392
 21
74.870192
 31
0.0
  0
LINE
  5
ED
330
1F
100
AcDbEntity
  8
LAYERGROUP-1
  6
CONTINUOUS
 62
     3
100
AcDbLine
 10
93.276392
 20
72.870192
 30
0.0
 11
93.276392
 21
84.698533
 31
0.0
  0
LINE
  5
EE
330
1F
100
AcDbEntity
  8
LAYERGROUP-1
  6
CONTINUOUS
 62
     3
100
AcDbLine
 10
93.276392
 20
69.570192
 30
0.0
 11
93.276392
 21
72.833495
 31
0.0
  0
LINE
  5
EF
330
1F
100
AcDbEntity
  8
LAYERGROUP-1
  6
CONTINUOUS
 62
     3
100
AcDbLine
 10
90.976392
 20
74.870192
 30
0.0
 11
89.522711
 21
76.328551
 31
0.0
  0
LINE
  5
F0
330
1F
100
AcDbEntity
  8
LAYERGROUP-1
  6
CONTINUOUS
 62
     3
100
AcDbLine
 10
91.151667
 20
77.952282
 30
0.0
 11
92.605348
 21
76.493923
 31
0.0
  0
ARC
  5
F1
330
1F
100
AcDbEntity
  8
LAYERGROUP-1
  6
CONTINUOUS
 62
     3
100
AcDbCircle
 10
90.276392
 20
74.580901
 30
0.0
 40
3.0
100
AcDbArc
 50
0.0
 51
44.907962
  0
LINE
  5
F2
330
1F
100
AcDbEntity
  8
LAYERGROUP-1
  6
CENTER
 62
     6
100
AcDbLine
 10
38.135403
 20
107.570192
 30
0.0
 11
98.578756
 21
107.570192
 31
0.0
  0
LINE
  5
F3
330
1F
100
AcDbEntity
  8
LAYERGROUP-1
  6
CENTER
 62
     6
100
AcDbLine
 10
68.276392
 20
159.788739
 30
0.0
 11
68.276392
 21
54.765362
 31
0.0
  0
CIRCLE
  5
F4
330
1F
100
AcDbEntity
  8
LAYERGROUP-1
  6
CONTINUOUS
 62
     3
100
AcDbCircle
 10
212.469231
 20
107.570192
 30
0.0
 40
38.0
  0
CIRCLE
  5
F5
330
1F
100
AcDbEntity
  8
LAYERGROUP-1
  6
CONTINUOUS
 62
     6
100
AcDbCircle
 10
212.469231
 20
107.570192
 30
0.0
 40
21.5
  0
CIRCLE
  5
F6
330
1F
100
AcDbEntity
  8
LAYERGROUP-1
  6
CONTINUOUS
 62
     6
100
AcDbCircle
 10
212.469231
 20
107.570192
 30
0.0
 40
32.69999999999999
  0
CIRCLE
  5
F7
330
1F
100
AcDbEntity
  8
LAYERGROUP-1
  6
CONTINUOUS
 62
     6
100
AcDbCircle
 10
212.469231
 20
107.570192
 30
0.0
 40
27.5
  0
LINE
  5
F8
330
1F
100
AcDbEntity
  8
LAYERGROUP-1
  6
CENTER
 62
     6
100
AcDbLine
 10
155.200597
 20
107.570192
 30
0.0
 11
269.211791
 21
107.570192
 31
0.0
  0
LINE
  5
F9
330
1F
100
AcDbEntity
  8
LAYERGROUP-1
  6
CENTER
 62
     6
100
AcDbLine
 10
212.469231
 20
51.544073
 30
0.0
 11
212.469231
 21
162.420939
 31
0.0
  0
LINE
  5
FA
330
1F
100
AcDbEntity
  8
LAYERGROUP-1
  6
CONTINUOUS
 62
     3
100
AcDbLine
 10
70.576392
 20
139.270192
 30
0.0
 11
65.976392
 21
139.270192
 31
0.0
  0
LINE
  5
FB
330
1F
100
AcDbEntity
  8
LAYERGROUP-1
  6
CONTINUOUS
 62
     3
100
AcDbLine
 10
65.976392
 20
72.370192
 30
0.0
 11
65.976392
 21
75.870192
 31
0.0
  0
LINE
  5
FC
330
1F
100
AcDbEntity
  8
LAYERGROUP-1
  6
CONTINUOUS
 62
     3
100
AcDbLine
 10
70.576392
 20
72.370192
 30
0.0
 11
70.576392
 21
75.870192
 31
0.0
  0
LINE
  5
FD
330
1F
100
AcDbEntity
  8
LAYERGROUP-1
  6
CONTINUOUS
 62
     3
100
AcDbLine
 10
70.576392
 20
75.870192
 30
0.0
 11
65.976392
 21
75.870192
 31
0.0
  0
LINE
  5
FE
330
1F
100
AcDbEntity
  8
LAYERGROUP-1
  6
CONTINUOUS
 62
     3
100
AcDbLine
 10
52.776392
 20
91.620192
 30
0.0
 11
45.776392
 21
91.620192
 31
0.0
  0
LINE
  5
FF
330
1F
100
AcDbEntity
  8
LAYERGROUP-1
  6
CONTINUOUS
 62
     3
100
AcDbLine
 10
45.322698
 20
85.787733
 30
0.0
 11
47.270972
 21
83.553485
 31
0.0
  0
ARC
  5
100
330
1F
100
AcDbEntity
  8
LAYERGROUP-1
  6
CONTINUOUS
 62
     3
100
AcDbCircle
 10
46.076392
 20
86.444958
 30
0.0
 40
1.0
100
AcDbArc
 50
180.0
 51
221.088578
  0
LINE
  5
101
330
1F
100
AcDbEntity
  8
LAYERGROUP-1
  6
CONTINUOUS
 62
     3
100
AcDbLine
 10
45.537475
 20
82.041867
 30
0.0
 11
43.5892
 21
84.276116
 31
0.0
  0
ARC
  5
102
330
1F
100
AcDbEntity
  8
LAYERGROUP-1
  6
CONTINUOUS
 62
     3
100
AcDbCircle
 10
46.076392
 20
86.444958
 30
0.0
 40
3.3
100
AcDbArc
 50
180.0
 51
221.088578
  0
LINE
  5
103
330
1F
100
AcDbEntity
  8
LAYERGROUP-1
  6
CONTINUOUS
 62
     3
100
AcDbLine
 10
52.576392
 20
125.820192
 30
0.0
 11
46.076392
 21
125.820192
 31
0.0
  0
LINE
  5
104
330
1F
100
AcDbEntity
  8
LAYERGROUP-1
  6
CONTINUOUS
 62
     3
100
AcDbLine
 10
45.076392
 20
126.820192
 30
0.0
 11
45.076392
 21
128.695426
 31
0.0
  0
ARC
  5
105
330
1F
100
AcDbEntity
  8
LAYERGROUP-1
  6
CONTINUOUS
 62
     3
100
AcDbCircle
 10
46.076392
 20
126.820192
 30
0.0
 40
1.0
100
AcDbArc
 50
180.0
 51
270.0
  0
ARC
  5
106
330
1F
100
AcDbEntity
  8
LAYERGROUP-1
  6
CONTINUOUS
 62
     3
100
AcDbCircle
 10
45.776392
 20
126.520192
 30
0.0
 40
3.0
100
AcDbArc
 50
180.0
 51
270.0
  0
ARC
  5
107
330
1F
100
AcDbEntity
  8
LAYERGROUP-1
  6
CONTINUOUS
 62
     3
100
AcDbCircle
 10
43.276392
 20
135.070192
 30
0.0
 40
5.3
100
AcDbArc
 50
-41.088578
 51
44.907962
  0
LINE
  5
108
330
1F
100
AcDbEntity
  8
LAYERGROUP-1
  6
CONTINUOUS
 62
     3
100
AcDbLine
 10
42.776392
 20
126.520192
 30
0.0
 11
42.776392
 21
128.695426
 31
0.0
  0
ARC
  5
109
330
1F
100
AcDbEntity
  8
LAYERGROUP-1
  6
CONTINUOUS
 62
     3
100
AcDbCircle
 10
43.276392
 20
135.070192
 30
0.0
 40
3.0
100
AcDbArc
 50
-41.088578
 51
44.907962
  0
LINE
  5
10A
330
1F
100
AcDbEntity
  8
LAYERGROUP-1
  6
CONTINUOUS
 62
     3
100
AcDbLine
 10
52.776392
 20
123.520192
 30
0.0
 11
45.776392
 21
123.520192
 31
0.0
  0
LINE
  5
10B
330
1F
100
AcDbEntity
  8
LAYERGROUP-1
  6
CONTINUOUS
 62
     3
100
AcDbLine
 10
45.322698
 20
129.352651
 30
0.0
 11
47.270972
 21
131.5869
 31
0.0
  0
ARC
  5
10C
330
1F
100
AcDbEntity
  8
LAYERGROUP-1
  6
CONTINUOUS
 62
     3
100
AcDbCircle
 10
46.076392
 20
128.695426
 30
0.0
 40
1.0
100
AcDbArc
 50
138.911422
 51
180.0
  0
LINE
  5
10D
330
1F
100
AcDbEntity
  8
LAYERGROUP-1
  6
CONTINUOUS
 62
     3
100
AcDbLine
 10
45.537475
 20
133.098517
 30
0.0
 11
43.5892
 21
130.864269
 31
0.0
  0
ARC
  5
10E
330
1F
100
AcDbEntity
  8
LAYERGROUP-1
  6
CONTINUOUS
 62
     3
100
AcDbCircle
 10
46.076392
 20
128.695426
 30
0.0
 40
3.3
100
AcDbArc
 50
138.911422
 51
180.0
  0
LINE
  5
10F
330
1F
100
AcDbEntity
  8
LAYERGROUP-1
  6
CONTINUOUS
 62
     3
100
AcDbLine
 10
81.476392
 20
119.570192
 30
0.0
 11
81.476392
 21
123.320192
 31
0.0
  0
ARC
  5
110
330
1F
100
AcDbEntity
  8
LAYERGROUP-1
  6
CONTINUOUS
 62
     3
100
AcDbCircle
 10
83.976392
 20
123.320192
 30
0.0
 40
2.5
100
AcDbArc
 50
90.0
 51
180.0
  0
LINE
  5
111
330
1F
100
AcDbEntity
  8
LAYERGROUP-1
  6
CONTINUOUS
 62
     3
100
AcDbLine
 10
83.976392
 20
125.820192
 30
0.0
 11
90.476392
 21
125.820192
 31
0.0
  0
LINE
  5
112
330
1F
100
AcDbEntity
  8
LAYERGROUP-1
  6
CONTINUOUS
 62
     3
100
AcDbLine
 10
91.476392
 20
126.820192
 30
0.0
 11
91.476392
 21
128.695426
 31
0.0
  0
ARC
  5
113
330
1F
100
AcDbEntity
  8
LAYERGROUP-1
  6
CONTINUOUS
 62
     3
100
AcDbCircle
 10
90.476392
 20
126.820192
 30
0.0
 40
1.0
100
AcDbArc
 50
270.0
 51
360.0
  0
ARC
  5
114
330
1F
100
AcDbEntity
  8
LAYERGROUP-1
  6
CONTINUOUS
 62
     3
100
AcDbCircle
 10
90.776392
 20
126.520192
 30
0.0
 40
3.0
100
AcDbArc
 50
270.0
 51
360.0
  0
ARC
  5
115
330
1F
100
AcDbEntity
  8
LAYERGROUP-1
  6
CONTINUOUS
 62
     3
100
AcDbCircle
 10
93.276392
 20
135.070192
 30
0.0
 40
5.3
100
AcDbArc
 50
135.092038
 51
221.088578
  0
LINE
  5
116
330
1F
100
AcDbEntity
  8
LAYERGROUP-1
  6
CONTINUOUS
 62
     3
100
AcDbLine
 10
93.776392
 20
126.520192
 30
0.0
 11
93.776392
 21
128.695426
 31
0.0
  0
ARC
  5
117
330
1F
100
AcDbEntity
  8
LAYERGROUP-1
  6
CONTINUOUS
 62
     3
100
AcDbCircle
 10
93.276392
 20
135.070192
 30
0.0
 40
3.0
100
AcDbArc
 50
135.092038
 51
221.088578
  0
LINE
  5
118
330
1F
100
AcDbEntity
  8
LAYERGROUP-1
  6
CONTINUOUS
 62
     3
100
AcDbLine
 10
83.776392
 20
123.520192
 30
0.0
 11
90.776392
 21
123.520192
 31
0.0
  0
LINE
  5
119
330
1F
100
AcDbEntity
  8
LAYERGROUP-1
  6
CONTINUOUS
 62
     3
100
AcDbLine
 10
91.230086
 20
129.352651
 30
0.0
 11
89.281812
 21
131.5869
 31
0.0
  0
ARC
  5
11A
330
1F
100
AcDbEntity
  8
LAYERGROUP-1
  6
CONTINUOUS
 62
     3
100
AcDbCircle
 10
90.476392
 20
128.695426
 30
0.0
 40
1.0
100
AcDbArc
 50
0.0
 51
41.088578
  0
LINE
  5
11B
330
1F
100
AcDbEntity
  8
LAYERGROUP-1
  6
CONTINUOUS
 62
     3
100
AcDbLine
 10
91.015309
 20
133.098517
 30
0.0
 11
92.963584
 21
130.864269
 31
0.0
  0
ARC
  5
11C
330
1F
100
AcDbEntity
  8
LAYERGROUP-1
  6
CONTINUOUS
 62
     3
100
AcDbCircle
 10
90.476392
 20
128.695426
 30
0.0
 40
3.3
100
AcDbArc
 50
0.0
 51
41.088578
  0
LINE
  5
11D
330
1F
100
AcDbEntity
  8
LAYERGROUP-1
  6
CONTINUOUS
 62
     3
100
AcDbLine
 10
81.476392
 20
95.570192
 30
0.0
 11
81.476392
 21
91.820192
 31
0.0
  0
LINE
  5
11E
330
1F
100
AcDbEntity
  8
LAYERGROUP-1
  6
CONTINUOUS
 62
     3
100
AcDbLine
 10
83.976392
 20
89.320192
 30
0.0
 11
90.476392
 21
89.320192
 31
0.0
  0
ARC
  5
11F
330
1F
100
AcDbEntity
  8
LAYERGROUP-1
  6
CONTINUOUS
 62
     3
100
AcDbCircle
 10
83.976392
 20
91.820192
 30
0.0
 40
2.5
100
AcDbArc
 50
180.0
 51
270.0
  0
LINE
  5
120
330
1F
100
AcDbEntity
  8
LAYERGROUP-1
  6
CONTINUOUS
 62
     3
100
AcDbLine
 10
91.476392
 20
88.320192
 30
0.0
 11
91.476392
 21
86.444958
 31
0.0
  0
ARC
  5
121
330
1F
100
AcDbEntity
  8
LAYERGROUP-1
  6
CONTINUOUS
 62
     3
100
AcDbCircle
 10
90.476392
 20
88.320192
 30
0.0
 40
1.0
100
AcDbArc
 50
0.0
 51
90.0
  0
ARC
  5
122
330
1F
100
AcDbEntity
  8
LAYERGROUP-1
  6
CONTINUOUS
 62
     3
100
AcDbCircle
 10
90.776392
 20
88.620192
 30
0.0
 40
3.0
100
AcDbArc
 50
0.0
 51
90.0
  0
ARC
  5
123
330
1F
100
AcDbEntity
  8
LAYERGROUP-1
  6
CONTINUOUS
 62
     3
100
AcDbCircle
 10
93.276392
 20
80.070192
 30
0.0
 40
5.3
100
AcDbArc
 50
138.911422
 51
224.907962
  0
LINE
  5
124
330
1F
100
AcDbEntity
  8
LAYERGROUP-1
  6
CONTINUOUS
 62
     3
100
AcDbLine
 10
93.776392
 20
88.620192
 30
0.0
 11
93.776392
 21
86.444958
 31
0.0
  0
ARC
  5
125
330
1F
100
AcDbEntity
  8
LAYERGROUP-1
  6
CONTINUOUS
 62
     3
100
AcDbCircle
 10
93.276392
 20
80.070192
 30
0.0
 40
3.0
100
AcDbArc
 50
138.911422
 51
224.907962
  0
LINE
  5
126
330
1F
100
AcDbEntity
  8
LAYERGROUP-1
  6
CONTINUOUS
 62
     3
100
AcDbLine
 10
83.776392
 20
91.620192
 30
0.0
 11
90.776392
 21
91.620192
 31
0.0
  0
LINE
  5
127
330
1F
100
AcDbEntity
  8
LAYERGROUP-1
  6
CONTINUOUS
 62
     3
100
AcDbLine
 10
91.230086
 20
85.787733
 30
0.0
 11
89.281812
 21
83.553485
 31
0.0
  0
ARC
  5
128
330
1F
100
AcDbEntity
  8
LAYERGROUP-1
  6
CONTINUOUS
 62
     3
100
AcDbCircle
 10
90.476392
 20
86.444958
 30
0.0
 40
1.0
100
AcDbArc
 50
318.911422
 51
360.0
  0
LINE
  5
129
330
1F
100
AcDbEntity
  8
LAYERGROUP-1
  6
CONTINUOUS
 62
     3
100
AcDbLine
 10
91.015309
 20
82.041867
 30
0.0
 11
92.963584
 21
84.276116
 31
0.0
  0
ARC
  5
12A
330
1F
100
AcDbEntity
  8
LAYERGROUP-1
  6
CONTINUOUS
 62
     3
100
AcDbCircle
 10
90.476392
 20
86.444958
 30
0.0
 40
3.3
100
AcDbArc
 50
318.911422
 51
360.0
  0
ARC
  5
12B
330
1F
100
AcDbEntity
  8
LAYERGROUP-1
  6
CONTINUOUS
 62
     3
100
AcDbCircle
 10
68.276392
 20
-22.429808
 30
0.0
 40
180.0
100
AcDbArc
 50
83.658786
 51
96.341214
  0
CIRCLE
  5
12C
330
1F
100
AcDbEntity
  8
LAYERGROUP-1
  6
CONTINUOUS
 62
     3
100
AcDbCircle
 10
212.469231
 20
107.570192
 30
0.0
 40
50.00000000000003
  0
ARC
  5
12D
330
1F
100
AcDbEntity
  8
LAYERGROUP-1
  6
CONTINUOUS
 62
     3
100
AcDbCircle
 10
48.837324
 20
152.493383
 30
0.0
 40
4.0
100
AcDbArc
 50
96.341214
 51
168.0
  0
LINE
  5
12E
330
1F
100
AcDbEntity
  8
LAYERGROUP-1
  6
CONTINUOUS
 62
     3
100
AcDbLine
 10
44.924734
 20
153.32503
 30
0.0
 11
43.276392
 21
145.570192
 31
0.0
  0
ARC
  5
12F
330
1F
100
AcDbEntity
  8
LAYERGROUP-1
  6
CONTINUOUS
 62
     3
100
AcDbCircle
 10
87.71546
 20
152.493383
 30
0.0
 40
4.0
100
AcDbArc
 50
12.0
 51
83.658786
  0
LINE
  5
130
330
1F
100
AcDbEntity
  8
LAYERGROUP-1
  6
CONTINUOUS
 62
     3
100
AcDbLine
 10
91.62805
 20
153.32503
 30
0.0
 11
93.276392
 21
145.570192
 31
0.0
  0
ARC
  5
131
330
1F
100
AcDbEntity
  8
LAYERGROUP-1
  6
CONTINUOUS
 62
     3
100
AcDbCircle
 10
68.276392
 20
237.570192
 30
0.0
 40
180.0
100
AcDbArc
 50
263.658786
 51
276.341214
  0
ARC
  5
132
330
1F
100
AcDbEntity
  8
LAYERGROUP-1
  6
CONTINUOUS
 62
     3
100
AcDbCircle
 10
48.837324
 20
62.647002
 30
0.0
 40
4.0
100
AcDbArc
 50
192.0
 51
263.658786
  0
LINE
  5
133
330
1F
100
AcDbEntity
  8
LAYERGROUP-1
  6
CONTINUOUS
 62
     3
100
AcDbLine
 10
44.924734
 20
61.815355
 30
0.0
 11
43.276392
 21
69.570192
 31
0.0
  0
ARC
  5
134
330
1F
100
AcDbEntity
  8
LAYERGROUP-1
  6
CONTINUOUS
 62
     3
100
AcDbCircle
 10
87.71546
 20
62.647002
 30
0.0
 40
4.0
100
AcDbArc
 50
276.341214
 51
348.0
  0
LINE
  5
135
330
1F
100
AcDbEntity
  8
LAYERGROUP-1
  6
CONTINUOUS
 62
     3
100
AcDbLine
 10
91.62805
 20
61.815355
 30
0.0
 11
93.276392
 21
69.570192
 31
0.0
  0
INSERT
  5
139
330
1F
100
AcDbEntity
  8
0
100
AcDbBlockReference
  2
BLKF021
 10
0.0
 20
0.0
 30
0.0
  0
LINE
  5
191
330
1F
100
AcDbEntity
  8
GR1-1
  6
CONTINUOUS
 62
     7
100
AcDbLine
 10
179.319324
 20
128.719348
 30
0.0
 11
182.111304
 21
132.562179
 31
0.0
  0
LINE
  5
192
330
1F
100
AcDbEntity
  8
GR1-1
  6
CONTINUOUS
 62
     7
100
AcDbLine
 10
182.111304
 20
132.562179
 30
0.0
 11
178.268473
 21
135.354159
 31
0.0
  0
LINE
  5
193
330
1F
100
AcDbEntity
  8
GR1-1
  6
CONTINUOUS
 62
     7
100
AcDbLine
 10
178.268473
 20
135.354159
 30
0.0
 11
175.476493
 21
131.511328
 31
0.0
  0
LINE
  5
194
330
1F
100
AcDbEntity
  8
GR1-1
  6
CONTINUOUS
 62
     7
100
AcDbLine
 10
175.476493
 20
131.511328
 30
0.0
 11
179.319324
 21
128.719348
 31
0.0
  0
LINE
  5
195
330
1F
100
AcDbEntity
  8
GR1-1
  6
CONTINUOUS
 62
     7
100
AcDbLine
 10
177.477746
 20
130.225226
 30
0.0
 11
176.982371
 21
133.352905
 31
0.0
  0
LINE
  5
196
330
1F
100
AcDbEntity
  8
GR1-1
  6
CONTINUOUS
 62
     7
100
AcDbLine
 10
176.982371
 20
133.352905
 30
0.0
 11
179.77831
 21
133.795739
 31
0.0
  0
LINE
  5
197
330
1F
100
AcDbEntity
  8
GR1-1
  6
CONTINUOUS
 62
     7
100
AcDbLine
 10
179.77831
 20
133.795739
 30
0.0
 11
179.120234
 21
132.889975
 31
0.0
  0
LINE
  5
198
330
1F
100
AcDbEntity
  8
GR1-1
  6
CONTINUOUS
 62
     7
100
AcDbLine
 10
179.120234
 20
132.889975
 30
0.0
 11
177.888134
 21
132.694829
 31
0.0
  0
LINE
  5
199
330
1F
100
AcDbEntity
  8
GR1-1
  6
CONTINUOUS
 62
     7
100
AcDbLine
 10
177.888134
 20
132.694829
 30
0.0
 11
178.135822
 21
131.13099
 31
0.0
  0
LINE
  5
19A
330
1F
100
AcDbEntity
  8
GR1-1
  6
CONTINUOUS
 62
     7
100
AcDbLine
 10
178.135822
 20
131.13099
 30
0.0
 11
179.699662
 21
131.378677
 31
0.0
  0
LINE
  5
19B
330
1F
100
AcDbEntity
  8
GR1-1
  6
CONTINUOUS
 62
     7
100
AcDbLine
 10
179.699662
 20
131.378677
 30
0.0
 11
179.569444
 21
132.200844
 31
0.0
  0
ARC
  5
19C
330
1F
100
AcDbEntity
  8
GR1-1
  6
CONTINUOUS
 62
     7
100
AcDbCircle
 10
179.491252
 20
132.18846
 30
0.0
 40
0.079166667
100
AcDbArc
 50
9.0
 51
144.0
  0
LINE
  5
19D
330
1F
100
AcDbEntity
  8
GR1-1
  6
CONTINUOUS
 62
     7
100
AcDbLine
 10
179.427205
 20
132.234993
 30
0.0
 11
179.114134
 21
131.804088
 31
0.0
  0
LINE
  5
19E
330
1F
100
AcDbEntity
  8
GR1-1
  6
CONTINUOUS
 62
     7
100
AcDbLine
 10
179.114134
 20
131.804088
 30
0.0
 11
178.793898
 21
132.036753
 31
0.0
  0
LINE
  5
19F
330
1F
100
AcDbEntity
  8
GR1-1
  6
CONTINUOUS
 62
     7
100
AcDbLine
 10
178.793898
 20
132.036753
 30
0.0
 11
180.11005
 21
133.848281
 31
0.0
  0
LINE
  5
1A0
330
1F
100
AcDbEntity
  8
GR1-1
  6
CONTINUOUS
 62
     7
100
AcDbLine
 10
180.11005
 20
133.848281
 30
0.0
 11
181.406571
 21
132.906304
 31
0.0
  0
LINE
  5
1A1
330
1F
100
AcDbEntity
  8
GR1-1
  6
CONTINUOUS
 62
     7
100
AcDbLine
 10
181.406571
 20
132.906304
 30
0.0
 11
180.941241
 21
132.265832
 31
0.0
  0
LINE
  5
1A2
330
1F
100
AcDbEntity
  8
GR1-1
  6
CONTINUOUS
 62
     7
100
AcDbLine
 10
180.941241
 20
132.265832
 30
0.0
 11
180.439816
 21
132.630139
 31
0.0
  0
ARC
  5
1A3
330
1F
100
AcDbEntity
  8
GR1-1
  6
CONTINUOUS
 62
     7
100
AcDbCircle
 10
180.393283
 20
132.566092
 30
0.0
 40
0.079166667
100
AcDbArc
 50
54.0
 51
189.0
  0
LINE
  5
1A4
330
1F
100
AcDbEntity
  8
GR1-1
  6
CONTINUOUS
 62
     7
100
AcDbLine
 10
180.315091
 20
132.553707
 30
0.0
 11
180.605426
 21
130.720601
 31
0.0
  0
LINE
  5
1A5
330
1F
100
AcDbEntity
  8
GR1-1
  6
CONTINUOUS
 62
     7
100
AcDbLine
 10
180.605426
 20
130.720601
 30
0.0
 11
177.477746
 21
130.225226
 31
0.0
  0
TEXT
  5
1A6
330
1F
100
AcDbEntity
  8
LAYERGROUP-1
  6
CONTINUOUS
 62
     7
100
AcDbText
 10
187.020737
 20
137.227875
 30
0.0
 40
5.714172
  1
G
 50
36.0
 41
1.288931
  7
FX_VECTOR
 72
     5
 11
192.128064
 21
140.938565
 31
0.0
100
AcDbText
  0
TEXT
  5
1A7
330
1F
100
AcDbEntity
  8
LAYERGROUP-1
  6
CONTINUOUS
 62
     7
100
AcDbText
 10
191.973526
 20
140.843765
 30
0.0
 40
5.714172
  1
O
 50
27.0
 41
1.221092
  7
FX_VECTOR
 72
     5
 11
197.598454
 21
143.709809
 31
0.0
100
AcDbText
  0
TEXT
  5
1A8
330
1F
100
AcDbEntity
  8
LAYERGROUP-1
  6
CONTINUOUS
 62
     7
100
AcDbText
 10
197.431015
 20
143.640335
 30
0.0
 40
5.714172
  1
L
 50
18.0
 41
1.450047
  7
FX_VECTOR
 72
     5
 11
203.435039
 21
145.591161
 31
0.0
100
AcDbText
  0
TEXT
  5
1A9
330
1F
100
AcDbEntity
  8
LAYERGROUP-1
  6
CONTINUOUS
 62
     7
100
AcDbText
 10
203.258774
 20
145.548752
 30
0.0
 40
5.714172
  1
D
 50
9.0
 41
1.288931
  7
FX_VECTOR
 72
     5
 11
209.494054
 21
146.536323
 31
0.0
100
AcDbText
  0
TEXT
  5
1AA
330
1F
100
AcDbEntity
  8
LAYERGROUP-1
  6
CONTINUOUS
 62
     7
100
AcDbText
 10
232.810379
 20
140.938568
 30
0.0
 40
5.714172
  1
T
 50
324.0
 41
1.546717
  7
FX_VECTOR
 72
     5
 11
237.917707
 21
137.227877
 31
0.0
100
AcDbText
  0
TEXT
  5
1AB
330
1F
100
AcDbEntity
  8
LAYERGROUP-1
  6
CONTINUOUS
 62
     7
100
AcDbText
 10
227.340012
 20
143.709808
 30
0.0
 40
5.714172
  1
S
 50
333.0
 41
1.36475
  7
FX_VECTOR
 72
     5
 11
232.964939
 21
140.843765
 31
0.0
100
AcDbText
  0
TEXT
  5
1AC
330
1F
100
AcDbEntity
  8
LAYERGROUP-1
  6
CONTINUOUS
 62
     7
100
AcDbText
 10
221.503433
 20
145.591156
 30
0.0
 40
5.714172
  1
A
 50
342.0
 41
1.36475
  7
FX_VECTOR
 72
     5
 11
227.507457
 21
143.64033
 31
0.0
100
AcDbText
  0
TEXT
  5
1AD
330
1F
100
AcDbEntity
  8
LAYERGROUP-1
  6
CONTINUOUS
 62
     7
100
AcDbText
 10
215.444412
 20
146.536316
 30
0.0
 40
5.714172
  1
C
 50
351.0
 41
1.288931
  7
FX_VECTOR
 72
     5
 11
221.679693
 21
145.548745
 31
0.0
100
AcDbText
  0
TEXT
  5
1AE
330
1F
100
AcDbEntity
  8
LAYERGROUP-1
  6
CONTINUOUS
 62
     7
100
AcDbText
 10
237.779922
 20
137.345688
 30
0.0
 40
5.714172
  1
R
 50
315.0
 41
1.288931
  7
FX_VECTOR
 72
     5
 11
242.24389
 21
132.88172
 31
0.0
100
AcDbText
  0
TEXT
  5
1AF
330
1F
100
AcDbEntity
  8
LAYERGROUP-1
  6
CONTINUOUS
 62
     7
100
AcDbText
 10
202.113632
 20
69.88768
 30
0.0
 40
5.714172
  1
0
 50
160.0
 41
1.36475
  7
FX_VECTOR
 72
     5
 11
196.181349
 21
72.046855
 31
0.0
100
AcDbText
  0
TEXT
  5
1B0
330
1F
100
AcDbEntity
  8
LAYERGROUP-1
  6
CONTINUOUS
 62
     7
100
AcDbText
 10
212.901535
 20
68.493042
 30
0.0
 40
5.714172
  1
×
 50
176.0
 41
1.546717
  7
FX_VECTOR
 72
     5
 11
206.603909
 21
68.933415
 31
0.0
100
AcDbText
  0
TEXT
  5
1B1
330
1F
100
AcDbEntity
  8
LAYERGROUP-1
  6
CONTINUOUS
 62
     7
100
AcDbText
 10
223.654709
 20
70.125717
 30
0.0
 40
5.714172
  1
0
 50
192.0
 41
1.36475
  7
FX_VECTOR
 72
     5
 11
217.479659
 21
68.81317
 31
0.0
100
AcDbText
  0
TEXT
  5
1B2
330
1F
100
AcDbEntity
  8
LAYERGROUP-1
  6
CONTINUOUS
 62
     7
100
AcDbText
 10
218.33461
 20
68.933395
 30
0.0
 40
5.714172
  1
0
 50
184.0
 41
1.36475
  7
FX_VECTOR
 72
     5
 11
212.036984
 21
68.493022
 31
0.0
100
AcDbText
  0
TEXT
  5
1B3
330
1F
100
AcDbEntity
  8
LAYERGROUP-1
  6
CONTINUOUS
 62
     7
100
AcDbText
 10
228.134659
 20
71.76799
 30
0.0
 40
5.714172
  1
1
 50
199.0
 41
2.109159
  7
FX_VECTOR
 72
     5
 11
222.165596
 21
69.712677
 31
0.0
100
AcDbText
  0
TEXT
  5
1B4
330
1F
100
AcDbEntity
  8
LAYERGROUP-1
  6
CONTINUOUS
 62
     7
100
AcDbText
 10
207.458817
 20
68.813187
 30
0.0
 40
5.714172
  1
5
 50
168.0
 41
1.36475
  7
FX_VECTOR
 72
     5
 11
201.283767
 21
70.125734
 31
0.0
100
AcDbText
  0
INSERT
  5
1B8
330
1F
100
AcDbEntity
  8
0
100
AcDbBlockReference
  2
BLKF022
 10
0.0
 20
0.0
 30
0.0
  0
LINE
  5
1EB
330
1F
100
AcDbEntity
  8
LAYERGROUP-1
  6
CONTINUOUS
 62
     3
100
AcDbLine
 10
39.776392
 20
116.903526
 30
0.0
 11
39.776392
 21
98.236859
 31
0.0
  0
ARC
  5
1EC
330
1F
100
AcDbEntity
  8
LAYERGROUP-1
  6
CONTINUOUS
 62
     3
100
AcDbCircle
 10
40.376392
 20
114.170192
 30
0.0
 40
0.6
100
AcDbArc
 50
180.0
 51
270.0
  0
ARC
  5
1ED
330
1F
100
AcDbEntity
  8
LAYERGROUP-1
  6
CONTINUOUS
 62
     3
100
AcDbCircle
 10
40.376392
 20
100.970192
 30
0.0
 40
0.6
100
AcDbArc
 50
90.0
 51
180.0
  0
LINE
  5
1EE
330
1F
100
AcDbEntity
  8
LAYERGROUP-1
  6
CONTINUOUS
 62
     3
100
AcDbLine
 10
68.276392
 20
98.236859
 30
0.0
 11
68.276392
 21
100.970192
 31
0.0
  0
LINE
  5
1EF
330
1F
100
AcDbEntity
  8
LAYERGROUP-1
  6
CONTINUOUS
 62
     6
100
AcDbLine
 10
68.276392
 20
100.970192
 30
0.0
 11
68.276392
 21
114.170192
 31
0.0
  0
LINE
  5
1F0
330
1F
100
AcDbEntity
  8
LAYERGROUP-1
  6
CONTINUOUS
 62
     3
100
AcDbLine
 10
68.276392
 20
114.170192
 30
0.0
 11
68.276392
 21
116.903526
 31
0.0
  0
ARC
  5
1F1
330
1F
100
AcDbEntity
  8
LAYERGROUP-1
  6
CONTINUOUS
 62
     3
100
AcDbCircle
 10
67.676392
 20
100.970192
 30
0.0
 40
0.6
100
AcDbArc
 50
0.0
 51
90.0
  0
ARC
  5
1F2
330
1F
100
AcDbEntity
  8
LAYERGROUP-1
  6
CONTINUOUS
 62
     3
100
AcDbCircle
 10
67.676392
 20
114.170192
 30
0.0
 40
0.6
100
AcDbArc
 50
270.0
 51
360.0
  0
INSERT
  5
1F6
330
1F
100
AcDbEntity
  8
0
100
AcDbBlockReference
  2
BLKF023
 10
0.0
 20
0.0
 30
0.0
  0
LINE
  5
229
330
1F
100
AcDbEntity
  8
LAYERGROUP-1
  6
CONTINUOUS
 62
     3
100
AcDbLine
 10
96.776392
 20
98.236859
 30
0.0
 11
96.776392
 21
116.903526
 31
0.0
  0
ARC
  5
22A
330
1F
100
AcDbEntity
  8
LAYERGROUP-1
  6
CONTINUOUS
 62
     3
100
AcDbCircle
 10
96.176392
 20
100.970192
 30
0.0
 40
0.6
100
AcDbArc
 50
0.0
 51
90.0
  0
ARC
  5
22B
330
1F
100
AcDbEntity
  8
LAYERGROUP-1
  6
CONTINUOUS
 62
     3
100
AcDbCircle
 10
96.176392
 20
114.170192
 30
0.0
 40
0.6
100
AcDbArc
 50
270.0
 51
360.0
  0
ARC
  5
22C
330
1F
100
AcDbEntity
  8
LAYERGROUP-1
  6
CONTINUOUS
 62
     3
100
AcDbCircle
 10
68.876392
 20
114.170192
 30
0.0
 40
0.6
100
AcDbArc
 50
180.0
 51
270.0
  0
ARC
  5
22D
330
1F
100
AcDbEntity
  8
LAYERGROUP-1
  6
CONTINUOUS
 62
     3
100
AcDbCircle
 10
68.876392
 20
100.970192
 30
0.0
 40
0.6
100
AcDbArc
 50
90.0
 51
180.0
  0
HATCH
  5
22E
330
1F
100
AcDbEntity
  8
LAYERGROUP-1
  6
CONTINUOUS
 62
     6
100
AcDbHatch
 10
0.0
 20
0.0
 30
0.0
210
0.0
220
0.0
230
1.0
  2

 70
     0
 71
     1
 91
        2
 92
        0
 93
       59
 72
     1
 10
65.97639200505864
 20
139.2701923076923
 11
70.57639200505858
 21
139.2701923076923
 72
     1
 10
70.57639200505858
 20
139.2701923076923
 11
70.57639200505861
 21
142.7701923076923
 72
     2
 10
71.07639200505858
 20
142.7701923076923
 40
0.5
 50
90.0
 51
180.0
 73
     0
 72
     1
 10
71.07639200505858
 20
143.2701923076923
 11
89.97639200505861
 21
143.2701923076923
 72
     2
 10
89.97639200505861
 20
142.2701923076923
 40
1.0
 50
0.0
 51
90.0
 73
     0
 72
     1
 10
90.97639200505861
 20
142.2701923076923
 11
90.97639200505861
 21
140.2701923076924
 72
     1
 10
90.97639200505861
 20
140.2701923076924
 11
89.5227108006936
 21
138.811833313454
 72
     2
 10
93.27639200505863
 20
135.0701923076923
 40
5.3
 50
135.092037667197
 51
221.0885776681532
 73
     1
 72
     1
 10
89.28181152669657
 20
131.5868997845342
 11
91.23008643493822
 21
129.3526513362045
 72
     2
 10
90.47639200505861
 20
128.695426331835
 40
1.0
 50
0.0
 51
41.08857766815312
 73
     0
 72
     1
 10
91.47639200505861
 20
128.695426331835
 11
91.47639200505861
 21
126.8201923076923
 72
     2
 10
90.47639200505861
 20
126.8201923076923
 40
1.0
 50
270.0
 51
360.0
 73
     0
 72
     1
 10
90.47639200505861
 20
125.8201923076923
 11
83.97639200505861
 21
125.8201923076923
 72
     2
 10
83.97639200505861
 20
123.3201923076923
 40
2.5
 50
90.0
 51
180.0
 73
     1
 72
     1
 10
81.47639200505861
 20
123.3201923076923
 11
81.47639200505861
 21
119.5701923076923
 72
     1
 10
81.47639200505861
 20
119.5701923076923
 11
83.77639200505863
 21
119.5701923076923
 72
     1
 10
83.77639200505863
 20
119.5701923076923
 11
83.77639200505863
 21
123.5201923076923
 72
     1
 10
83.77639200505863
 20
123.5201923076923
 11
90.77639200505863
 21
123.5201923076924
 72
     2
 10
90.7763920050586
 20
126.5201923076924
 40
3.0
 50
270.0000000000006
 51
360.0
 73
     1
 72
     1
 10
93.77639200505863
 20
126.5201923076924
 11
93.77639200505863
 21
128.695426331835
 72
     2
 10
90.47639200505861
 20
128.695426331835
 40
3.3
 50
0.0
 51
41.0885776681528
 73
     1
 72
     1
 10
92.96358362366138
 20
130.8642688462542
 11
91.01530871541971
 21
133.098517294584
 72
     2
 10
93.27639200505863
 20
135.0701923076923
 40
3.0
 50
135.0920376671975
 51
221.0885776681525
 73
     0
 72
     1
 10
91.15166679504068
 20
137.1881023109536
 11
92.40111721507654
 21
138.4415733281496
 72
     2
 10
90.2763920050586
 20
140.5594833314109
 40
3.0
 50
315.0920376671975
 51
359.9999999999989
 73
     1
 72
     1
 10
93.2763920050586
 20
140.5594833314109
 11
93.27639200505863
 21
142.3068897564519
 72
     2
 10
89.78440484618321
 20
142.0701923076925
 40
3.5
 50
3.877749623129565
 51
90.00000000000047
 73
     1
 72
     1
 10
89.78440484618318
 20
145.5701923076925
 11
71.2763920050586
 21
145.5701923076923
 72
     2
 10
71.27639200505863
 20
142.5701923076923
 40
3.0
 50
90.00000000000028
 51
180.0
 73
     1
 72
     2
 10
65.27639200505863
 20
142.5701923076923
 40
3.0
 50
0.0
 51
89.99999999999973
 73
     1
 72
     1
 10
65.27639200505863
 20
145.5701923076923
 11
46.76837916393406
 21
145.5701923076925
 72
     2
 10
46.76837916393403
 20
142.0701923076925
 40
3.5
 50
89.99999999999953
 51
183.8777496231305
 73
     1
 72
     1
 10
43.27639200505861
 20
141.8334948589331
 11
43.27639200505863
 21
140.5594833314109
 72
     2
 10
46.27639200505863
 20
140.5594833314109
 40
3.0
 50
180.0000000000006
 51
224.9079623328031
 73
     1
 72
     1
 10
44.15166679504073
 20
138.4415733281496
 11
45.40111721507653
 21
137.1881023109536
 72
     2
 10
43.27639200505861
 20
135.0701923076923
 40
3.0
 50
318.9114223318474
 51
404.9079623328033
 73
     0
 72
     1
 10
45.53747529469752
 20
133.098517294584
 11
43.58920038645584
 21
130.8642688462542
 72
     2
 10
46.07639200505862
 20
128.695426331835
 40
3.3
 50
138.9114223318474
 51
180.0
 73
     1
 72
     1
 10
42.77639200505861
 20
128.695426331835
 11
42.77639200505861
 21
126.5201923076924
 72
     2
 10
45.77639200505863
 20
126.5201923076924
 40
3.0
 50
180.0
 51
270.0
 73
     1
 72
     1
 10
45.77639200505863
 20
123.5201923076924
 11
52.77639200505861
 21
123.5201923076924
 72
     1
 10
52.77639200505861
 20
123.5201923076924
 11
52.77639200505861
 21
119.5701923076923
 72
     1
 10
52.77639200505861
 20
119.5701923076923
 11
55.07639200505861
 21
119.5701923076923
 72
     1
 10
55.07639200505861
 20
119.5701923076923
 11
55.07639200505859
 21
123.3201923076923
 72
     2
 10
52.57639200505861
 20
123.3201923076923
 40
2.5
 50
0.0
 51
89.99999999999969
 73
     1
 72
     1
 10
52.57639200505862
 20
125.8201923076923
 11
46.07639200505861
 21
125.8201923076923
 72
     2
 10
46.07639200505861
 20
126.8201923076923
 40
1.0
 50
180.0
 51
270.0
 73
     0
 72
     1
 10
45.07639200505861
 20
126.8201923076923
 11
45.07639200505861
 21
128.695426331835
 72
     2
 10
46.07639200505862
 20
128.695426331835
 40
1.0
 50
138.9114223318474
 51
180.0
 73
     0
 72
     1
 10
45.32269757517901
 20
129.3526513362045
 11
47.27097248342068
 21
131.5868997845343
 72
     2
 10
43.27639200505861
 20
135.0701923076923
 40
5.3
 50
318.9114223318471
 51
404.9079623328037
 73
     1
 72
     1
 10
47.03007320942358
 20
138.811833313454
 11
45.57639200505861
 21
140.2701923076923
 72
     1
 10
45.57639200505861
 20
140.2701923076923
 11
45.57639200505861
 21
142.2701923076923
 72
     2
 10
46.57639200505861
 20
142.2701923076923
 40
1.0
 50
90.0
 51
180.0
 73
     0
 72
     1
 10
46.57639200505861
 20
143.2701923076923
 11
65.47639200505861
 21
143.2701923076923
 72
     2
 10
65.47639200505861
 20
142.7701923076923
 40
0.5
 50
0.0
 51
90.0
 73
     0
 72
     1
 10
65.97639200505861
 20
142.7701923076923
 11
65.97639200505864
 21
139.2701923076923
 72
     1
 10
65.97639200505864
 20
139.2701923076923
 11
70.57639200505858
 21
139.2701923076923
 72
     1
 10
70.57639200505858
 20
139.2701923076923
 11
65.97639200505864
 21
139.2701923076923
 97
        0
 92
        0
 93
       59
 72
     1
 10
70.57639200505858
 20
75.87019230769235
 11
65.97639200505864
 21
75.87019230769235
 72
     1
 10
65.97639200505864
 20
75.87019230769235
 11
65.97639200505861
 21
72.37019230769235
 72
     2
 10
65.47639200505861
 20
72.37019230769235
 40
0.5
 50
270.0
 51
360.0
 73
     0
 72
     1
 10
65.47639200505861
 20
71.87019230769235
 11
46.57639200505861
 21
71.87019230769235
 72
     2
 10
46.57639200505861
 20
72.87019230769235
 40
1.0
 50
180.0
 51
270.0
 73
     0
 72
     1
 10
45.57639200505861
 20
72.87019230769235
 11
45.57639200505861
 21
74.87019230769232
 72
     1
 10
45.57639200505861
 20
74.87019230769232
 11
47.03007320942362
 21
76.3285513019307
 72
     2
 10
43.27639200505861
 20
80.07019230769234
 40
5.3
 50
315.0920376671969
 51
401.0885776681529
 73
     1
 72
     1
 10
47.27097248342066
 20
83.55348483085039
 11
45.32269757517899
 21
85.78773327918023
 72
     2
 10
46.07639200505862
 20
86.44495828354967
 40
1.0
 50
180.0
 51
221.0885776681527
 73
     0
 72
     1
 10
45.07639200505861
 20
86.44495828354967
 11
45.07639200505861
 21
88.32019230769237
 72
     2
 10
46.07639200505861
 20
88.32019230769237
 40
1.0
 50
90.0
 51
180.0
 73
     0
 72
     1
 10
46.07639200505861
 20
89.32019230769234
 11
52.57639200505862
 21
89.32019230769237
 72
     2
 10
52.57639200505861
 20
91.82019230769237
 40
2.5
 50
270.0000000000003
 51
360.0
 73
     1
 72
     1
 10
55.07639200505859
 20
91.82019230769237
 11
55.07639200505861
 21
95.57019230769234
 72
     1
 10
55.07639200505861
 20
95.57019230769234
 11
52.77639200505861
 21
95.57019230769234
 72
     1
 10
52.77639200505861
 20
95.57019230769234
 11
52.77639200505861
 21
91.62019230769238
 72
     1
 10
52.77639200505861
 20
91.62019230769238
 11
45.7763920050586
 21
91.62019230769232
 72
     2
 10
45.77639200505863
 20
88.62019230769232
 40
3.0
 50
90.00000000000054
 51
180.0
 73
     1
 72
     1
 10
42.77639200505861
 20
88.62019230769232
 11
42.77639200505861
 21
86.44495828354967
 72
     2
 10
46.07639200505862
 20
86.44495828354967
 40
3.3
 50
180.0
 51
221.0885776681528
 73
     1
 72
     1
 10
43.58920038645584
 20
84.27611576913051
 11
45.53747529469752
 21
82.04186732080068
 72
     2
 10
43.27639200505861
 20
80.07019230769234
 40
3.0
 50
315.0920376671967
 51
401.0885776681529
 73
     0
 72
     1
 10
45.40111721507653
 20
77.95228230443104
 11
44.15166679504073
 21
76.69881128723503
 72
     2
 10
46.27639200505863
 20
74.58090128397376
 40
3.0
 50
135.0920376671969
 51
179.9999999999995
 73
     1
 72
     1
 10
43.27639200505863
 20
74.58090128397379
 11
43.27639200505861
 21
72.83349485893281
 72
     2
 10
46.76837916393403
 20
73.07019230769217
 40
3.5
 50
183.8777496231298
 51
270.0000000000005
 73
     1
 72
     1
 10
46.76837916393406
 20
69.57019230769222
 11
65.27639200505863
 21
69.57019230769234
 72
     2
 10
65.27639200505863
 20
72.57019230769234
 40
3.0
 50
270.0000000000003
 51
360.0
 73
     1
 72
     2
 10
71.27639200505863
 20
72.57019230769234
 40
3.0
 50
180.0
 51
269.9999999999997
 73
     1
 72
     1
 10
71.2763920050586
 20
69.57019230769234
 11
89.78440484618318
 21
69.57019230769217
 72
     2
 10
89.78440484618321
 20
73.07019230769217
 40
3.5
 50
269.9999999999996
 51
363.8777496231312
 73
     1
 72
     1
 10
93.27639200505863
 20
73.30688975645161
 11
93.2763920050586
 21
74.58090128397382
 72
     2
 10
90.2763920050586
 20
74.58090128397376
 40
3.0
 50
0.0000000000010856
 51
44.90796233280256
 73
     1
 72
     1
 10
92.40111721507651
 20
76.698811287235
 11
91.15166679504068
 21
77.95228230443107
 72
     2
 10
93.27639200505863
 20
80.07019230769234
 40
3.0
 50
138.9114223318473
 51
224.9079623328026
 73
     0
 72
     1
 10
91.01530871541971
 20
82.04186732080068
 11
92.96358362366138
 21
84.27611576913051
 72
     2
 10
90.47639200505861
 20
86.44495828354967
 40
3.3
 50
318.911422331847
 51
360.0
 73
     1
 72
     1
 10
93.77639200505863
 20
86.44495828354967
 11
93.77639200505863
 21
88.62019230769232
 72
     2
 10
90.7763920050586
 20
88.62019230769232
 40
3.0
 50
0.0
 51
90.0
 73
     1
 72
     1
 10
90.7763920050586
 20
91.62019230769232
 11
83.77639200505863
 21
91.62019230769232
 72
     1
 10
83.77639200505863
 20
91.62019230769232
 11
83.77639200505863
 21
95.57019230769234
 72
     1
 10
83.77639200505863
 20
95.57019230769234
 11
81.47639200505861
 21
95.57019230769234
 72
     1
 10
81.47639200505861
 20
95.57019230769234
 11
81.47639200505861
 21
91.82019230769237
 72
     2
 10
83.97639200505861
 20
91.82019230769237
 40
2.5
 50
180.0
 51
270.0
 73
     1
 72
     1
 10
83.97639200505861
 20
89.32019230769237
 11
90.47639200505861
 21
89.32019230769234
 72
     2
 10
90.47639200505861
 20
88.32019230769237
 40
1.0
 50
0.0
 51
90.0
 73
     0
 72
     1
 10
91.47639200505861
 20
88.32019230769237
 11
91.47639200505861
 21
86.44495828354967
 72
     2
 10
90.47639200505861
 20
86.44495828354967
 40
1.0
 50
318.9114223318469
 51
360.0
 73
     0
 72
     1
 10
91.23008643493822
 20
85.78773327918024
 11
89.28181152669654
 21
83.55348483085039
 72
     2
 10
93.27639200505863
 20
80.07019230769234
 40
5.3
 50
138.9114223318473
 51
224.9079623328038
 73
     1
 72
     1
 10
89.52271080069366
 20
76.32855130193066
 11
90.97639200505861
 21
74.87019230769235
 72
     1
 10
90.97639200505861
 20
74.87019230769235
 11
90.97639200505861
 21
72.87019230769235
 72
     2
 10
89.97639200505861
 20
72.87019230769235
 40
1.0
 50
270.0
 51
360.0
 73
     0
 72
     1
 10
89.97639200505861
 20
71.87019230769235
 11
71.07639200505858
 21
71.87019230769235
 72
     2
 10
71.07639200505858
 20
72.37019230769235
 40
0.5
 50
180.0
 51
270.0
 73
     0
 72
     1
 10
70.57639200505861
 20
72.37019230769235
 11
70.57639200505858
 21
75.87019230769235
 72
     1
 10
70.57639200505858
 20
75.87019230769235
 11
65.97639200505864
 21
75.87019230769235
 72
     1
 10
65.97639200505864
 20
75.87019230769235
 11
70.57639200505858
 21
75.87019230769235
 97
        0
 75
     0
 76
     0
 52
45.0
 41
2.0
 77
     0
 78
     1
 53
45.0
 43
0.0
 44
0.0
 45
-1.414213562373095
 46
1.414213562373095
 79
     0
 98
        0
  0
INSERT
  5
232
330
1F
100
AcDbEntity
  8
0
100
AcDbBlockReference
  2
BLKF024
 10
0.0
 20
0.0
 30
0.0
  0
CIRCLE
  5
236
330
1F
100
AcDbEntity
  8
LAYERGROUP-1
  6
CONTINUOUS
 62
     3
100
AcDbCircle
 10
212.469231
 20
107.570192
 30
0.0
 40
13.25000000000003
  0
DIMENSION
  5
237
330
1F
100
AcDbEntity
  8
LAYERGROUP-1
100
AcDbDimension
  2
*D23
 10
93.276392
 20
43.099077
 30
0.0
 11
68.276398
 21
44.099075
 31
0.0
 70
    33
  3
FXDIMINFO
100
AcDbAlignedDimension
 13
43.276392
 23
72.833495
 33
0.0
 14
93.276392
 24
72.833495
 34
0.0
1001
ACAD
1000
DSTYLE
1002
{
1070
     7
1000
FXTIP_ARROW_E
1070
     6
1000
FXTIP_ARROW_S
1070
   173
1070
     1
1002
}
  0
DIMENSION
  5
241
330
1F
100
AcDbEntity
  8
LAYERGROUP-1
100
AcDbDimension
  2
*D24
 10
96.776392
 20
33.718627
 30
0.0
 11
68.276398
 21
34.718624
 31
0.0
 70
    33
  3
FXDIMINFO
100
AcDbAlignedDimension
 13
39.776392
 23
98.236859
 33
0.0
 14
96.776392
 24
98.236859
 34
0.0
1001
ACAD
1000
DSTYLE
1002
{
1070
     7
1000
FXTIP_ARROW_E
1070
     6
1000
FXTIP_ARROW_S
1070
   173
1070
     1
1002
}
  0
DIMENSION
  5
24B
330
1F
100
AcDbEntity
  8
LAYERGROUP-1
100
AcDbDimension
  2
*D25
 10
110.817477
 20
113.570192
 30
0.0
 11
109.817474
 21
107.57019
 31
0.0
 70
    33
  3
FXDIMINFO
100
AcDbAlignedDimension
 13
96.176392
 23
101.570192
 33
0.0
 14
96.176392
 24
113.570192
 34
0.0
1001
ACAD
1000
DSTYLE
1002
{
1070
     7
1000
FXTIP_ARROW_E
1070
     6
1000
FXTIP_ARROW_S
1070
   173
1070
     1
1002
}
  0
DIMENSION
  5
255
330
1F
100
AcDbEntity
  8
LAYERGROUP-1
100
AcDbDimension
  2
*D26
 10
122.816372
 20
157.570192
 30
0.0
 11
121.816368
 21
107.57019
 31
0.0
 70
    33
  3
FXDIMINFO
100
AcDbAlignedDimension
 13
68.276392
 23
57.570192
 33
0.0
 14
68.276392
 24
157.570192
 34
0.0
1001
ACAD
1000
DSTYLE
1002
{
1070
     7
1000
FXTIP_ARROW_E
1070
     6
1000
FXTIP_ARROW_S
1070
   173
1070
     1
1002
}
  0
INSERT
  5
262
330
1F
100
AcDbEntity
  8
0
100
AcDbBlockReference
  2
BLKF029
 10
0.0
 20
0.0
 30
0.0
  0
ENDSEC
  0
SECTION
  2
OBJECTS
  0
DICTIONARY
  5
C
330
0
100
AcDbDictionary
  3
ACAD_GROUP
350
D
  3
ACAD_LAYOUT
350
1A
  3
ACAD_MLINESTYLE
350
17
  3
ACAD_PLOTSETTINGS
350
19
  3
ACDBHEADERROUNDTRIPXREC
350
28C
  0
DICTIONARY
  5
D
102
{ACAD_REACTORS
330
C
102
}
330
C
100
AcDbDictionary
  0
DICTIONARY
  5
1A
102
{ACAD_REACTORS
330
C
102
}
330
C
100
AcDbDictionary
  0
DICTIONARY
  5
17
102
{ACAD_REACTORS
330
C
102
}
330
C
100
AcDbDictionary
  3
STANDARD
350
18
  0
DICTIONARY
  5
19
102
{ACAD_REACTORS
330
C
102
}
330
C
100
AcDbDictionary
  0
DICTIONARY
  5
28C
102
{ACAD_REACTORS
330
C
102
}
330
C
100
AcDbDictionary
  3
CEPSNTYPE
350
295
  3
DIMSTYLEDATA
350
2AB
  3
FINGERPRINTGUID
350
296
  3
HYPERLINKBASE
350
28F
  3
INSUNITS
350
294
  3
LAYOUTDICT
350
291
  3
LWETCUNION
350
293
  3
PLOTSETDICT
350
292
  3
PSVPSCALE
350
298
  3
PUCSBASE
350
29B
  3
PUCSORGBACK
350
2A1
  3
PUCSORGBOTTOM
350
29D
  3
PUCSORGFRONT
350
2A0
  3
PUCSORGLEFT
350
29E
  3
PUCSORGRIGHT
350
29F
  3
PUCSORGTOP
350
29C
  3
PUCSORTHOREF
350
299
  3
PUCSORTHOVIEW
350
29A
  3
STYLESHEET
350
290
  3
TSTACKALIGN
350
28D
  3
TSTACKSIZE
350
28E
  3
UCSBASE
350
2A4
  3
UCSORGBACK
350
2AA
  3
UCSORGBOTTOM
350
2A6
  3
UCSORGFRONT
350
2A9
  3
UCSORGLEFT
350
2A7
  3
UCSORGRIGHT
350
2A8
  3
UCSORGTOP
350
2A5
  3
UCSORTHOREF
350
2A2
  3
UCSORTHOVIEW
350
2A3
  3
VERSIONGUID
350
297
  0
MLINESTYLE
  5
18
102
{ACAD_REACTORS
330
17
102
}
330
17
100
AcDbMlineStyle
  2
Standard
 70
     0
  3

 62
   256
 51
90.0
 52
90.0
 71
     2
 49
0.5
 62
   256
  6
BYLAYER
 49
-0.5
 62
   256
  6
BYLAYER
  0
XRECORD
  5
295
102
{ACAD_REACTORS
330
28C
102
}
330
28C
100
AcDbXrecord
 90
        0
  0
XRECORD
  5
2AB
102
{ACAD_REACTORS
330
28C
102
}
330
28C
100
AcDbXrecord
1000
DSTYLE
1002
{
1070
   179
 70
     2
1070
   171
 70
     3
1070
   143
 40
0.03937
1070
   274
 70
     3
1070
    41
 40
3.0
1070
   343
340
41
1070
   344
340
47
1070
   141
 40
2.5
1070
   176
 70
     7
1070
   177
 70
     7
1070
   178
 70
     7
1070
   271
 70
     2
1070
    46
 40
6.0
1070
    43
 40
8.0
1070
    44
 40
1.0
1070
    42
 40
1.0
1070
   147
 40
1.0
1070
   341
340
41
1070
   173
 70
     1
1070
    77
 70
     1
1070
   272
 70
     2
1070
    73
 70
     0
1070
   172
 70
     1
1070
    74
 70
     0
1070
   283
 70
     0
1070
   340
340
3F
1070
   140
 40
4.0
1070
   284
 70
     8
1070
    78
 70
     8
1002
}
  0
XRECORD
  5
296
102
{ACAD_REACTORS
330
28C
102
}
330
28C
100
AcDbXrecord
  1
{DCA6EDB8-D634-4672-B1D2-DB88478CB02C}
  0
XRECORD
  5
28F
102
{ACAD_REACTORS
330
28C
102
}
330
28C
100
AcDbXrecord
  1

  0
XRECORD
  5
294
102
{ACAD_REACTORS
330
28C
102
}
330
28C
100
AcDbXrecord
 90
        1
  0
XRECORD
  5
291
102
{ACAD_REACTORS
330
28C
102
}
330
28C
100
AcDbXrecord
340
1A
  0
XRECORD
  5
293
102
{ACAD_REACTORS
330
28C
102
}
330
28C
100
AcDbXrecord
 90
    10781
  0
XRECORD
  5
292
102
{ACAD_REACTORS
330
28C
102
}
330
28C
100
AcDbXrecord
340
19
  0
XRECORD
  5
298
102
{ACAD_REACTORS
330
28C
102
}
330
28C
100
AcDbXrecord
 40
0.0
  0
XRECORD
  5
29B
102
{ACAD_REACTORS
330
28C
102
}
330
28C
100
AcDbXrecord
340
0
  0
XRECORD
  5
2A1
102
{ACAD_REACTORS
330
28C
102
}
330
28C
100
AcDbXrecord
 10
0.0
 20
0.0
 30
0.0
  0
XRECORD
  5
29D
102
{ACAD_REACTORS
330
28C
102
}
330
28C
100
AcDbXrecord
 10
0.0
 20
0.0
 30
0.0
  0
XRECORD
  5
2A0
102
{ACAD_REACTORS
330
28C
102
}
330
28C
100
AcDbXrecord
 10
0.0
 20
0.0
 30
0.0
  0
XRECORD
  5
29E
102
{ACAD_REACTORS
330
28C
102
}
330
28C
100
AcDbXrecord
 10
0.0
 20
0.0
 30
0.0
  0
XRECORD
  5
29F
102
{ACAD_REACTORS
330
28C
102
}
330
28C
100
AcDbXrecord
 10
0.0
 20
0.0
 30
0.0
  0
XRECORD
  5
29C
102
{ACAD_REACTORS
330
28C
102
}
330
28C
100
AcDbXrecord
 10
0.0
 20
0.0
 30
0.0
  0
XRECORD
  5
299
102
{ACAD_REACTORS
330
28C
102
}
330
28C
100
AcDbXrecord
340
0
  0
XRECORD
  5
29A
102
{ACAD_REACTORS
330
28C
102
}
330
28C
100
AcDbXrecord
 70
     0
  0
XRECORD
  5
290
102
{ACAD_REACTORS
330
28C
102
}
330
28C
100
AcDbXrecord
  1

  0
XRECORD
  5
28D
102
{ACAD_REACTORS
330
28C
102
}
330
28C
100
AcDbXrecord
 90
        1
  0
XRECORD
  5
28E
102
{ACAD_REACTORS
330
28C
102
}
330
28C
100
AcDbXrecord
 90
       70
  0
XRECORD
  5
2A4
102
{ACAD_REACTORS
330
28C
102
}
330
28C
100
AcDbXrecord
340
0
  0
XRECORD
  5
2AA
102
{ACAD_REACTORS
330
28C
102
}
330
28C
100
AcDbXrecord
 10
0.0
 20
0.0
 30
0.0
  0
XRECORD
  5
2A6
102
{ACAD_REACTORS
330
28C
102
}
330
28C
100
AcDbXrecord
 10
0.0
 20
0.0
 30
0.0
  0
XRECORD
  5
2A9
102
{ACAD_REACTORS
330
28C
102
}
330
28C
100
AcDbXrecord
 10
0.0
 20
0.0
 30
0.0
  0
XRECORD
  5
2A7
102
{ACAD_REACTORS
330
28C
102
}
330
28C
100
AcDbXrecord
 10
0.0
 20
0.0
 30
0.0
  0
XRECORD
  5
2A8
102
{ACAD_REACTORS
330
28C
102
}
330
28C
100
AcDbXrecord
 10
0.0
 20
0.0
 30
0.0
  0
XRECORD
  5
2A5
102
{ACAD_REACTORS
330
28C
102
}
330
28C
100
AcDbXrecord
 10
0.0
 20
0.0
 30
0.0
  0
XRECORD
  5
2A2
102
{ACAD_REACTORS
330
28C
102
}
330
28C
100
AcDbXrecord
340
0
  0
XRECORD
  5
2A3
102
{ACAD_REACTORS
330
28C
102
}
330
28C
100
AcDbXrecord
 70
     0
  0
XRECORD
  5
297
102
{ACAD_REACTORS
330
28C
102
}
330
28C
100
AcDbXrecord
  1
{FAEB1C32-E019-11D5-929B-00C0DF256EC4}
  0
ENDSEC
  0
EOF
