  0
SECTION
  2
HEADER
  9
$ACADVER
  1
AC1014
  9
$ACADMAINTVER
 70
     9
  9
$DWGCODEPAGE
  3
ANSI_932
  9
$INSBASE
 10
0.0
 20
0.0
 30
0.0
  9
$EXTMIN
 10
0.0
 20
0.0
 30
0.0
  9
$EXTMAX
 10
297.0
 20
210.0
 30
0.0
  9
$LIMMIN
 10
0.0
 20
0.0
  9
$LIMMAX
 10
297.0
 20
210.0
  9
$ORTHOMODE
 70
     0
  9
$REGENMODE
 70
     1
  9
$FILLMODE
 70
     1
  9
$QTEXTMODE
 70
     0
  9
$MIRRTEXT
 70
     1
  9
$DRAGMODE
 70
     2
  9
$LTSCALE
 40
1.0
  9
$OSMODE
 70
    37
  9
$ATTMODE
 70
     1
  9
$TEXTSIZE
 40
0.2
  9
$TRACEWID
 40
0.05
  9
$TEXTSTYLE
  7
STYLE1
  9
$CLAYER
  8
0
  9
$CELTYPE
  6
BYLAYER
  9
$CECOLOR
 62
   256
  9
$CELTSCALE
 40
1.0
  9
$DELOBJ
 70
     1
  9
$DISPSILH
 70
     0
  9
$DIMSCALE
 40
1.0
  9
$DIMASZ
 40
3.0
  9
$DIMEXO
 40
1.0
  9
$DIMDLI
 40
8.0
  9
$DIMRND
 40
0.0
  9
$DIMDLE
 40
6.0
  9
$DIMEXE
 40
1.0
  9
$DIMTP
 40
0.0
  9
$DIMTM
 40
0.0
  9
$DIMTXT
 40
4.0
  9
$DIMCEN
 40
2.5
  9
$DIMTSZ
 40
0.0
  9
$DIMTOL
 70
     0
  9
$DIMLIM
 70
     0
  9
$DIMTIH
 70
     0
  9
$DIMTOH
 70
     0
  9
$DIMSE1
 70
     0
  9
$DIMSE2
 70
     0
  9
$DIMTAD
 70
     1
  9
$DIMZIN
 70
     8
  9
$DIMBLK
  1

  9
$DIMASO
 70
     1
  9
$DIMSHO
 70
     1
  9
$DIMPOST
  1

  9
$DIMAPOST
  1

  9
$DIMALT
 70
     0
  9
$DIMALTD
 70
     3
  9
$DIMALTF
 40
0.03937
  9
$DIMLFAC
 40
1.0
  9
$DIMTOFL
 70
     1
  9
$DIMTVP
 40
0.0
  9
$DIMTIX
 70
     0
  9
$DIMSOXD
 70
     0
  9
$DIMSAH
 70
     1
  9
$DIMBLK1
  1
FXTIP_ARROW_S
  9
$DIMBLK2
  1
FXTIP_ARROW_E
  9
$DIMSTYLE
  2
FXDIMINFO
  9
$DIMCLRD
 70
     7
  9
$DIMCLRE
 70
     7
  9
$DIMCLRT
 70
     7
  9
$DIMTFAC
 40
1.0
  9
$DIMGAP
 40
1.0
  9
$DIMJUST
 70
     0
  9
$DIMSD1
 70
     0
  9
$DIMSD2
 70
     0
  9
$DIMTOLJ
 70
     0
  9
$DIMTZIN
 70
     8
  9
$DIMALTZ
 70
     0
  9
$DIMALTTZ
 70
     0
  9
$DIMFIT
 70
     3
  9
$DIMUPT
 70
     0
  9
$DIMUNIT
 70
     2
  9
$DIMDEC
 70
     2
  9
$DIMTDEC
 70
     2
  9
$DIMALTU
 70
     2
  9
$DIMALTTD
 70
     3
  9
$DIMTXSTY
  7
STYLE1
  9
$DIMAUNIT
 70
     0
  9
$LUNITS
 70
     2
  9
$LUPREC
 70
     4
  9
$SKETCHINC
 40
0.1
  9
$FILLETRAD
 40
0.5
  9
$AUNITS
 70
     0
  9
$AUPREC
 70
     0
  9
$MENU
  1
.
  9
$ELEVATION
 40
0.0
  9
$PELEVATION
 40
0.0
  9
$THICKNESS
 40
0.0
  9
$LIMCHECK
 70
     0
  9
$CHAMFERA
 40
0.5
  9
$CHAMFERB
 40
0.5
  9
$CHAMFERC
 40
1.0
  9
$CHAMFERD
 40
0.0
  9
$SKPOLY
 70
     0
  9
$TDCREATE
 40
2455300.66899831
  9
$TDUPDATE
 40
2455300.668998322
  9
$TDINDWG
 40
0.0000000116
  9
$TDUSRTIMER
 40
0.0000000116
  9
$USRTIMER
 70
     1
  9
$ANGBASE
 50
0.0
  9
$ANGDIR
 70
     0
  9
$PDMODE
 70
     0
  9
$PDSIZE
 40
0.0
  9
$PLINEWID
 40
0.0
  9
$COORDS
 70
     1
  9
$SPLFRAME
 70
     0
  9
$SPLINETYPE
 70
     6
  9
$SPLINESEGS
 70
     8
  9
$ATTDIA
 70
     0
  9
$ATTREQ
 70
     1
  9
$HANDLING
 70
     1
  9
$HANDSEED
  5
294
  9
$SURFTAB1
 70
     6
  9
$SURFTAB2
 70
     6
  9
$SURFTYPE
 70
     6
  9
$SURFU
 70
     6
  9
$SURFV
 70
     6
  9
$UCSNAME
  2

  9
$UCSORG
 10
0.0
 20
0.0
 30
0.0
  9
$UCSXDIR
 10
1.0
 20
0.0
 30
0.0
  9
$UCSYDIR
 10
0.0
 20
1.0
 30
0.0
  9
$PUCSNAME
  2

  9
$PUCSORG
 10
0.0
 20
0.0
 30
0.0
  9
$PUCSXDIR
 10
1.0
 20
0.0
 30
0.0
  9
$PUCSYDIR
 10
0.0
 20
1.0
 30
0.0
  9
$USERI1
 70
     0
  9
$USERI2
 70
     0
  9
$USERI3
 70
     0
  9
$USERI4
 70
     0
  9
$USERI5
 70
     0
  9
$USERR1
 40
0.0
  9
$USERR2
 40
0.0
  9
$USERR3
 40
0.0
  9
$USERR4
 40
0.0
  9
$USERR5
 40
0.0
  9
$WORLDVIEW
 70
     1
  9
$SHADEDGE
 70
     3
  9
$SHADEDIF
 70
    70
  9
$TILEMODE
 70
     1
  9
$MAXACTVP
 70
    64
  9
$PINSBASE
 10
0.0
 20
0.0
 30
0.0
  9
$PLIMCHECK
 70
     0
  9
$PEXTMIN
 10
1.000000E+20
 20
1.000000E+20
 30
1.000000E+20
  9
$PEXTMAX
 10
-1.000000E+20
 20
-1.000000E+20
 30
-1.000000E+20
  9
$PLIMMIN
 10
0.0
 20
0.0
  9
$PLIMMAX
 10
12.0
 20
9.0
  9
$UNITMODE
 70
     0
  9
$VISRETAIN
 70
     1
  9
$PLINEGEN
 70
     0
  9
$PSLTSCALE
 70
     1
  9
$TREEDEPTH
 70
  3020
  9
$PICKSTYLE
 70
     1
  9
$CMLSTYLE
  2
STANDARD
  9
$CMLJUST
 70
     0
  9
$CMLSCALE
 40
1.0
  9
$PROXYGRAPHICS
 70
     1
  9
$MEASUREMENT
 70
     0
  0
ENDSEC
  0
SECTION
  2
CLASSES
  0
CLASS
  1
ACDBDICTIONARYWDFLT
  2
AcDbDictionaryWithDefault
  3
ObjectDBX Classes
 90
        0
280
     0
281
     0
  0
CLASS
  1
XRECORD
  2
AcDbXrecord
  3
AutoCAD 2000
 90
        0
280
     0
281
     0
  0
CLASS
  1
LWPOLYLINE
  2
AcDbPolyline
  3
AutoCAD 2000
 90
        0
280
     0
281
     1
  0
CLASS
  1
HATCH
  2
AcDbHatch
  3
AutoCAD 2000
 90
        0
280
     0
281
     1
  0
CLASS
  1
ACDBPLACEHOLDER
  2
AcDbPlaceHolder
  3
ObjectDBX Classes
 90
        0
280
     0
281
     0
  0
CLASS
  1
LAYOUT
  2
AcDbLayout
  3
ObjectDBX Classes
 90
        0
280
     0
281
     0
  0
ENDSEC
  0
SECTION
  2
TABLES
  0
TABLE
  2
VPORT
  5
8
330
0
100
AcDbSymbolTable
 70
     1
  0
VPORT
  5
29
330
8
100
AcDbSymbolTableRecord
100
AcDbViewportTableRecord
  2
*ACTIVE
 70
     0
 10
0.0
 20
0.0
 11
1.0
 21
1.0
 12
148.5
 22
105.0
 13
0.0
 23
0.0
 14
0.5
 24
0.5
 15
0.5
 25
0.5
 16
0.0
 26
0.0
 36
1.0
 17
0.0
 27
0.0
 37
0.0
 40
210.0
 41
1.414286
 42
50.0
 43
0.0
 44
0.0
 50
0.0
 51
0.0
 71
     0
 72
   100
 73
     1
 74
     3
 75
     0
 76
     0
 77
     0
 78
     0
  0
ENDTAB
  0
TABLE
  2
LTYPE
  5
5
330
0
100
AcDbSymbolTable
 70
     4
  0
LTYPE
  5
14
330
5
100
AcDbSymbolTableRecord
100
AcDbLinetypeTableRecord
  2
BYBLOCK
 70
     0
  3

 72
    65
 73
     0
 40
0.0
  0
LTYPE
  5
15
330
5
100
AcDbSymbolTableRecord
100
AcDbLinetypeTableRecord
  2
BYLAYER
 70
     0
  3

 72
    65
 73
     0
 40
0.0
  0
LTYPE
  5
16
330
5
100
AcDbSymbolTableRecord
100
AcDbLinetypeTableRecord
  2
CONTINUOUS
 70
     0
  3
--------------------
 72
    65
 73
     0
 40
0.0
  0
LTYPE
  5
2A
330
5
100
AcDbSymbolTableRecord
100
AcDbLinetypeTableRecord
  2
CENTER
 70
     0
  3
Center ____ _ ____ _ ____ _ ____ _ ____ _ ____
 72
    65
 73
     4
 40
13.0
 49
10.0
 74
     0
 49
-1.0
 74
     0
 49
1.0
 74
     0
 49
-1.0
 74
     0
  0
ENDTAB
  0
TABLE
  2
LAYER
  5
2
330
0
100
AcDbSymbolTable
 70
    20
  0
LAYER
  5
10
330
2
100
AcDbSymbolTableRecord
100
AcDbLayerTableRecord
  2
0
 70
     0
 62
     7
  6
CONTINUOUS
  0
LAYER
  5
2D
330
2
100
AcDbSymbolTableRecord
100
AcDbLayerTableRecord
  2
LAYERGROUP-1
 70
     0
 62
     3
  6
CONTINUOUS
  0
LAYER
  5
3D
330
2
100
AcDbSymbolTableRecord
100
AcDbLayerTableRecord
  2
}}ﾊﾊGG血CCТ
 70
     0
 62
     3
  6
CONTINUOUS
  0
LAYER
  5
E6
330
2
100
AcDbSymbolTableRecord
100
AcDbLayerTableRecord
  2
GR1-1
 70
     0
 62
     7
  6
CONTINUOUS
  0
LAYER
  5
257
330
2
100
AcDbSymbolTableRecord
100
AcDbLayerTableRecord
  2
0-1
 70
     0
 62
     7
  6
CONTINUOUS
  0
ENDTAB
  0
TABLE
  2
STYLE
  5
3
330
0
100
AcDbSymbolTable
 70
     4
  0
STYLE
  5
11
330
3
100
AcDbSymbolTableRecord
100
AcDbTextStyleTableRecord
  2
STANDARD
 70
     0
 40
0.0
 41
1.0
 50
0.0
 71
     0
 42
0.2
  3
txt
  4

  0
STYLE
  5
3F
330
3
100
AcDbSymbolTableRecord
100
AcDbTextStyleTableRecord
  2
STYLE1
 70
     0
 40
0.0
 41
1.0
 50
0.0
 71
     0
 42
0.2
  3
MONOTXT.SHX
  4
extfont.shx
  0
STYLE
  5
40
330
3
100
AcDbSymbolTableRecord
100
AcDbTextStyleTableRecord
  2
FX_VECTOR
 70
     0
 40
0.0
 41
1.0
 50
0.0
 71
     0
 42
0.2
  3
MONOTXT.SHX
  4
BIGFONT.SHX
  0
ENDTAB
  0
TABLE
  2
VIEW
  5
6
330
0
100
AcDbSymbolTable
 70
     0
  0
ENDTAB
  0
TABLE
  2
UCS
  5
7
330
0
100
AcDbSymbolTable
 70
     0
  0
ENDTAB
  0
TABLE
  2
APPID
  5
9
330
0
100
AcDbSymbolTable
 70
     1
  0
APPID
  5
12
330
9
100
AcDbSymbolTableRecord
100
AcDbRegAppTableRecord
  2
ACAD
 70
     0
  0
ENDTAB
  0
TABLE
  2
DIMSTYLE
  5
A
330
0
100
AcDbSymbolTable
 70
     2
  0
DIMSTYLE
105
27
330
A
100
AcDbSymbolTableRecord
100
AcDbDimStyleTableRecord
  2
STANDARD
 70
     0
  3

  4

  5

  6

  7

 40
1.0
 41
0.18
 42
0.0625
 43
0.38
 44
0.18
 45
0.0
 46
0.0
 47
0.0
 48
0.0
140
0.18
141
0.09
142
0.0
143
25.4
144
1.0
145
0.0
146
1.0
147
0.09
 71
     0
 72
     0
 73
     1
 74
     1
 75
     0
 76
     0
 77
     0
 78
     0
170
     0
171
     2
172
     0
173
     0
174
     0
175
     0
176
     0
177
     0
178
     0
270
     2
271
     4
272
     4
273
     2
274
     2
340
11
275
     0
280
     0
281
     0
282
     0
283
     1
284
     0
285
     0
286
     0
287
     3
288
     0
  0
DIMSTYLE
105
A7
102
{ACAD_REACTORS
330
21D
330
227
330
231
330
23B
102
}
330
A
100
AcDbSymbolTableRecord
100
AcDbDimStyleTableRecord
  2
FXDIMINFO
 70
     0
  3

  4

  5

  6
FXTIP_ARROW_S
  7
FXTIP_ARROW_E
 40
1.0
 41
3.0
 42
1.0
 43
8.0
 44
1.0
 45
0.0
 46
6.0
 47
0.0
 48
0.0
140
4.0
141
2.5
142
0.0
143
0.03937
144
1.0
145
0.0
146
1.0
147
1.0
 71
     0
 72
     0
 73
     0
 74
     0
 75
     0
 76
     0
 77
     1
 78
     8
170
     0
171
     3
172
     1
173
     1
174
     0
175
     0
176
     7
177
     7
178
     7
179
     2
270
     2
271
     2
272
     2
273
     2
274
     3
340
3F
275
     0
280
     0
281
     0
282
     0
283
     0
284
     8
285
     0
286
     0
287
     3
288
     0
  0
ENDTAB
  0
TABLE
  2
BLOCK_RECORD
  5
1
330
0
100
AcDbSymbolTable
 70
    30
  0
BLOCK_RECORD
  5
1F
330
1
100
AcDbSymbolTableRecord
100
AcDbBlockTableRecord
  2
*MODEL_SPACE
  0
BLOCK_RECORD
  5
1B
330
1
100
AcDbSymbolTableRecord
100
AcDbBlockTableRecord
  2
*PAPER_SPACE
  0
BLOCK_RECORD
  5
41
330
1
100
AcDbSymbolTableRecord
100
AcDbBlockTableRecord
  2
FXTIP_ARROW_S
  0
BLOCK_RECORD
  5
47
330
1
100
AcDbSymbolTableRecord
100
AcDbBlockTableRecord
  2
FXTIP_ARROW_E
  0
BLOCK_RECORD
  5
4D
330
1
100
AcDbSymbolTableRecord
100
AcDbBlockTableRecord
  2
FXTIP_BLACKDOT_S
  0
BLOCK_RECORD
  5
53
330
1
100
AcDbSymbolTableRecord
100
AcDbBlockTableRecord
  2
FXTIP_BLACKDOT_E
  0
BLOCK_RECORD
  5
59
330
1
100
AcDbSymbolTableRecord
100
AcDbBlockTableRecord
  2
FXTIP_TRIANGLE_S
  0
BLOCK_RECORD
  5
60
330
1
100
AcDbSymbolTableRecord
100
AcDbBlockTableRecord
  2
FXTIP_TRIANGLE_E
  0
BLOCK_RECORD
  5
67
330
1
100
AcDbSymbolTableRecord
100
AcDbBlockTableRecord
  2
FXTIP_ARCHITECT_S
  0
BLOCK_RECORD
  5
6D
330
1
100
AcDbSymbolTableRecord
100
AcDbBlockTableRecord
  2
FXTIP_ARCHITECT_E
  0
BLOCK_RECORD
  5
73
330
1
100
AcDbSymbolTableRecord
100
AcDbBlockTableRecord
  2
FXTIP_CIVIL_S
  0
BLOCK_RECORD
  5
79
330
1
100
AcDbSymbolTableRecord
100
AcDbBlockTableRecord
  2
FXTIP_CIVIL_E
  0
BLOCK_RECORD
  5
7F
330
1
100
AcDbSymbolTableRecord
100
AcDbBlockTableRecord
  2
FXTIP_WHITEDOT_S
  0
BLOCK_RECORD
  5
84
330
1
100
AcDbSymbolTableRecord
100
AcDbBlockTableRecord
  2
FXTIP_WHITEDOT_E
  0
BLOCK_RECORD
  5
89
330
1
100
AcDbSymbolTableRecord
100
AcDbBlockTableRecord
  2
FXTIP_UPARROW_S
  0
BLOCK_RECORD
  5
8E
330
1
100
AcDbSymbolTableRecord
100
AcDbBlockTableRecord
  2
FXTIP_UPARROW_E
  0
BLOCK_RECORD
  5
93
330
1
100
AcDbSymbolTableRecord
100
AcDbBlockTableRecord
  2
FXTIP_DOWNARROW_S
  0
BLOCK_RECORD
  5
98
330
1
100
AcDbSymbolTableRecord
100
AcDbBlockTableRecord
  2
FXTIP_DOWNARROW_E
  0
BLOCK_RECORD
  5
9D
330
1
100
AcDbSymbolTableRecord
100
AcDbBlockTableRecord
  2
FXTIP_BLACKTRIANGLE_S
  0
BLOCK_RECORD
  5
A2
330
1
100
AcDbSymbolTableRecord
100
AcDbBlockTableRecord
  2
FXTIP_BLACKTRIANGLE_E
  0
BLOCK_RECORD
  5
AA
330
1
100
AcDbSymbolTableRecord
100
AcDbBlockTableRecord
  2
BLKF021
  0
BLOCK_RECORD
  5
E8
330
1
100
AcDbSymbolTableRecord
100
AcDbBlockTableRecord
  2
BLKF022
  0
BLOCK_RECORD
  5
1AA
330
1
100
AcDbSymbolTableRecord
100
AcDbBlockTableRecord
  2
BLKF023
  0
BLOCK_RECORD
  5
1E2
330
1
100
AcDbSymbolTableRecord
100
AcDbBlockTableRecord
  2
BLKF024
  0
BLOCK_RECORD
  5
21E
330
1
100
AcDbSymbolTableRecord
100
AcDbBlockTableRecord
  2
*D23
  0
BLOCK_RECORD
  5
228
330
1
100
AcDbSymbolTableRecord
100
AcDbBlockTableRecord
  2
*D24
  0
BLOCK_RECORD
  5
232
330
1
100
AcDbSymbolTableRecord
100
AcDbBlockTableRecord
  2
*D25
  0
BLOCK_RECORD
  5
23C
330
1
100
AcDbSymbolTableRecord
100
AcDbBlockTableRecord
  2
*D26
  0
BLOCK_RECORD
  5
247
330
1
100
AcDbSymbolTableRecord
100
AcDbBlockTableRecord
  2
BLKF029
  0
BLOCK_RECORD
  5
253
330
1
100
AcDbSymbolTableRecord
100
AcDbBlockTableRecord
  2
BLKF030
  0
BLOCK_RECORD
  5
25C
330
1
100
AcDbSymbolTableRecord
100
AcDbBlockTableRecord
  2
BLKF031
  0
ENDTAB
  0
ENDSEC
  0
SECTION
  2
BLOCKS
  0
BLOCK
  5
20
330
1F
100
AcDbEntity
  8
0
100
AcDbBlockBegin
  2
*MODEL_SPACE
 70
     0
 71
     0
 10
0.0
 20
0.0
 30
0.0
  3
*MODEL_SPACE
  1

  0
ENDBLK
  5
21
330
1F
100
AcDbEntity
  8
0
100
AcDbBlockEnd
  0
BLOCK
  5
1C
330
1B
100
AcDbEntity
 67
     1
  8
0
100
AcDbBlockBegin
  2
*PAPER_SPACE
 70
     0
 71
     0
 10
0.0
 20
0.0
 30
0.0
  3
*PAPER_SPACE
  1

  0
ENDBLK
  5
1D
330
1B
100
AcDbEntity
 67
     1
  8
0
100
AcDbBlockEnd
  0
BLOCK
  5
42
330
41
100
AcDbEntity
  8
0
100
AcDbBlockBegin
  2
FXTIP_ARROW_S
 70
     0
 71
     0
 10
0.0
 20
0.0
 30
0.0
  3
FXTIP_ARROW_S
  1

  0
LINE
  5
44
330
41
100
AcDbEntity
  8
0
  6
CONTINUOUS
 62
     0
100
AcDbLine
 10
0.0
 20
0.0
 30
0.0
 11
-1.0
 21
0.0
 31
0.0
  0
LINE
  5
45
330
41
100
AcDbEntity
  8
0
  6
CONTINUOUS
 62
     0
100
AcDbLine
 10
0.0
 20
0.0
 30
0.0
 11
-0.965926
 21
-0.258819
 31
0.0
  0
LINE
  5
46
330
41
100
AcDbEntity
  8
0
  6
CONTINUOUS
 62
     0
100
AcDbLine
 10
0.0
 20
0.0
 30
0.0
 11
-0.965926
 21
0.258819
 31
0.0
  0
ENDBLK
  5
43
330
41
100
AcDbEntity
  8
0
100
AcDbBlockEnd
  0
BLOCK
  5
48
330
47
100
AcDbEntity
  8
0
100
AcDbBlockBegin
  2
FXTIP_ARROW_E
 70
     0
 71
     0
 10
0.0
 20
0.0
 30
0.0
  3
FXTIP_ARROW_E
  1

  0
LINE
  5
4A
330
47
100
AcDbEntity
  8
0
  6
CONTINUOUS
 62
     0
100
AcDbLine
 10
0.0
 20
0.0
 30
0.0
 11
-1.0
 21
0.0
 31
0.0
  0
LINE
  5
4B
330
47
100
AcDbEntity
  8
0
  6
CONTINUOUS
 62
     0
100
AcDbLine
 10
0.0
 20
0.0
 30
0.0
 11
-0.965926
 21
0.258819
 31
0.0
  0
LINE
  5
4C
330
47
100
AcDbEntity
  8
0
  6
CONTINUOUS
 62
     0
100
AcDbLine
 10
0.0
 20
0.0
 30
0.0
 11
-0.965926
 21
-0.258819
 31
0.0
  0
ENDBLK
  5
49
330
47
100
AcDbEntity
  8
0
100
AcDbBlockEnd
  0
BLOCK
  5
4E
330
4D
100
AcDbEntity
  8
0
100
AcDbBlockBegin
  2
FXTIP_BLACKDOT_S
 70
     0
 71
     0
 10
0.0
 20
0.0
 30
0.0
  3
FXTIP_BLACKDOT_S
  1

  0
LINE
  5
50
330
4D
100
AcDbEntity
  8
0
  6
CONTINUOUS
 62
     0
100
AcDbLine
 10
0.0
 20
0.0
 30
0.0
 11
-1.0
 21
0.0
 31
0.0
  0
LWPOLYLINE
  5
51
330
4D
100
AcDbEntity
  8
0
  6
CONTINUOUS
 62
     0
100
AcDbPolyline
 90
        2
 70
     1
 10
-0.25
 20
0.0
 40
0.5
 41
0.5
 42
1.0
 10
0.25
 20
0.0
 40
0.5
 41
0.5
 42
1.0
  0
CIRCLE
  5
52
330
4D
100
AcDbEntity
  8
0
  6
CONTINUOUS
 62
     0
100
AcDbCircle
 10
0.0
 20
0.0
 30
0.0
 40
0.5
  0
ENDBLK
  5
4F
330
4D
100
AcDbEntity
  8
0
100
AcDbBlockEnd
  0
BLOCK
  5
54
330
53
100
AcDbEntity
  8
0
100
AcDbBlockBegin
  2
FXTIP_BLACKDOT_E
 70
     0
 71
     0
 10
0.0
 20
0.0
 30
0.0
  3
FXTIP_BLACKDOT_E
  1

  0
LINE
  5
56
330
53
100
AcDbEntity
  8
0
  6
CONTINUOUS
 62
     0
100
AcDbLine
 10
0.0
 20
0.0
 30
0.0
 11
-1.0
 21
0.0
 31
0.0
  0
LWPOLYLINE
  5
57
330
53
100
AcDbEntity
  8
0
  6
CONTINUOUS
 62
     0
100
AcDbPolyline
 90
        2
 70
     1
 10
-0.25
 20
0.0
 40
0.5
 41
0.5
 42
1.0
 10
0.25
 20
0.0
 40
0.5
 41
0.5
 42
1.0
  0
CIRCLE
  5
58
330
53
100
AcDbEntity
  8
0
  6
CONTINUOUS
 62
     0
100
AcDbCircle
 10
0.0
 20
0.0
 30
0.0
 40
0.5
  0
ENDBLK
  5
55
330
53
100
AcDbEntity
  8
0
100
AcDbBlockEnd
  0
BLOCK
  5
5A
330
59
100
AcDbEntity
  8
0
100
AcDbBlockBegin
  2
FXTIP_TRIANGLE_S
 70
     0
 71
     0
 10
0.0
 20
0.0
 30
0.0
  3
FXTIP_TRIANGLE_S
  1

  0
LINE
  5
5C
330
59
100
AcDbEntity
  8
0
  6
CONTINUOUS
 62
     0
100
AcDbLine
 10
0.0
 20
0.0
 30
0.0
 11
-1.0
 21
0.0
 31
0.0
  0
LINE
  5
5D
330
59
100
AcDbEntity
  8
0
  6
CONTINUOUS
 62
     0
100
AcDbLine
 10
0.0
 20
0.0
 30
0.0
 11
-0.965926
 21
-0.258819
 31
0.0
  0
LINE
  5
5E
330
59
100
AcDbEntity
  8
0
  6
CONTINUOUS
 62
     0
100
AcDbLine
 10
0.0
 20
0.0
 30
0.0
 11
-0.965926
 21
0.258819
 31
0.0
  0
LINE
  5
5F
330
59
100
AcDbEntity
  8
0
  6
CONTINUOUS
 62
     0
100
AcDbLine
 10
-0.965926
 20
-0.258819
 30
0.0
 11
-0.965926
 21
0.258819
 31
0.0
  0
ENDBLK
  5
5B
330
59
100
AcDbEntity
  8
0
100
AcDbBlockEnd
  0
BLOCK
  5
61
330
60
100
AcDbEntity
  8
0
100
AcDbBlockBegin
  2
FXTIP_TRIANGLE_E
 70
     0
 71
     0
 10
0.0
 20
0.0
 30
0.0
  3
FXTIP_TRIANGLE_E
  1

  0
LINE
  5
63
330
60
100
AcDbEntity
  8
0
  6
CONTINUOUS
 62
     0
100
AcDbLine
 10
0.0
 20
0.0
 30
0.0
 11
-1.0
 21
0.0
 31
0.0
  0
LINE
  5
64
330
60
100
AcDbEntity
  8
0
  6
CONTINUOUS
 62
     0
100
AcDbLine
 10
0.0
 20
0.0
 30
0.0
 11
-0.965926
 21
0.258819
 31
0.0
  0
LINE
  5
65
330
60
100
AcDbEntity
  8
0
  6
CONTINUOUS
 62
     0
100
AcDbLine
 10
0.0
 20
0.0
 30
0.0
 11
-0.965926
 21
-0.258819
 31
0.0
  0
LINE
  5
66
330
60
100
AcDbEntity
  8
0
  6
CONTINUOUS
 62
     0
100
AcDbLine
 10
-0.965926
 20
0.258819
 30
0.0
 11
-0.965926
 21
-0.258819
 31
0.0
  0
ENDBLK
  5
62
330
60
100
AcDbEntity
  8
0
100
AcDbBlockEnd
  0
BLOCK
  5
68
330
67
100
AcDbEntity
  8
0
100
AcDbBlockBegin
  2
FXTIP_ARCHITECT_S
 70
     0
 71
     0
 10
0.0
 20
0.0
 30
0.0
  3
FXTIP_ARCHITECT_S
  1

  0
LINE
  5
6A
330
67
100
AcDbEntity
  8
0
  6
CONTINUOUS
 62
     0
100
AcDbLine
 10
0.0
 20
0.0
 30
0.0
 11
-1.0
 21
0.0
 31
0.0
  0
LINE
  5
6B
330
67
100
AcDbEntity
  8
0
  6
CONTINUOUS
 62
     0
100
AcDbLine
 10
0.0
 20
0.0
 30
0.0
 11
-0.707107
 21
-0.707107
 31
0.0
  0
LINE
  5
6C
330
67
100
AcDbEntity
  8
0
  6
CONTINUOUS
 62
     0
100
AcDbLine
 10
0.0
 20
0.0
 30
0.0
 11
0.707107
 21
0.707107
 31
0.0
  0
ENDBLK
  5
69
330
67
100
AcDbEntity
  8
0
100
AcDbBlockEnd
  0
BLOCK
  5
6E
330
6D
100
AcDbEntity
  8
0
100
AcDbBlockBegin
  2
FXTIP_ARCHITECT_E
 70
     0
 71
     0
 10
0.0
 20
0.0
 30
0.0
  3
FXTIP_ARCHITECT_E
  1

  0
LINE
  5
70
330
6D
100
AcDbEntity
  8
0
  6
CONTINUOUS
 62
     0
100
AcDbLine
 10
0.0
 20
0.0
 30
0.0
 11
-1.0
 21
0.0
 31
0.0
  0
LINE
  5
71
330
6D
100
AcDbEntity
  8
0
  6
CONTINUOUS
 62
     0
100
AcDbLine
 10
0.0
 20
0.0
 30
0.0
 11
0.707107
 21
0.707107
 31
0.0
  0
LINE
  5
72
330
6D
100
AcDbEntity
  8
0
  6
CONTINUOUS
 62
     0
100
AcDbLine
 10
0.0
 20
0.0
 30
0.0
 11
-0.707107
 21
-0.707107
 31
0.0
  0
ENDBLK
  5
6F
330
6D
100
AcDbEntity
  8
0
100
AcDbBlockEnd
  0
BLOCK
  5
74
330
73
100
AcDbEntity
  8
0
100
AcDbBlockBegin
  2
FXTIP_CIVIL_S
 70
     0
 71
     0
 10
0.0
 20
0.0
 30
0.0
  3
FXTIP_CIVIL_S
  1

  0
LINE
  5
76
330
73
100
AcDbEntity
  8
0
  6
CONTINUOUS
 62
     0
100
AcDbLine
 10
0.0
 20
0.0
 30
0.0
 11
-1.0
 21
0.0
 31
0.0
  0
LINE
  5
77
330
73
100
AcDbEntity
  8
0
  6
CONTINUOUS
 62
     0
100
AcDbLine
 10
0.0
 20
-0.083333
 30
0.0
 11
-1.0
 21
-0.083333
 31
0.0
  0
LINE
  5
78
330
73
100
AcDbEntity
  8
0
  6
CONTINUOUS
 62
     0
100
AcDbLine
 10
0.0
 20
-0.166667
 30
0.0
 11
-1.0
 21
-0.166667
 31
0.0
  0
ENDBLK
  5
75
330
73
100
AcDbEntity
  8
0
100
AcDbBlockEnd
  0
BLOCK
  5
7A
330
79
100
AcDbEntity
  8
0
100
AcDbBlockBegin
  2
FXTIP_CIVIL_E
 70
     0
 71
     0
 10
0.0
 20
0.0
 30
0.0
  3
FXTIP_CIVIL_E
  1

  0
LINE
  5
7C
330
79
100
AcDbEntity
  8
0
  6
CONTINUOUS
 62
     0
100
AcDbLine
 10
0.0
 20
0.0
 30
0.0
 11
-1.0
 21
0.0
 31
0.0
  0
LINE
  5
7D
330
79
100
AcDbEntity
  8
0
  6
CONTINUOUS
 62
     0
100
AcDbLine
 10
0.0
 20
0.083333
 30
0.0
 11
-1.0
 21
0.083333
 31
0.0
  0
LINE
  5
7E
330
79
100
AcDbEntity
  8
0
  6
CONTINUOUS
 62
     0
100
AcDbLine
 10
0.0
 20
0.166667
 30
0.0
 11
-1.0
 21
0.166667
 31
0.0
  0
ENDBLK
  5
7B
330
79
100
AcDbEntity
  8
0
100
AcDbBlockEnd
  0
BLOCK
  5
80
330
7F
100
AcDbEntity
  8
0
100
AcDbBlockBegin
  2
FXTIP_WHITEDOT_S
 70
     0
 71
     0
 10
0.0
 20
0.0
 30
0.0
  3
FXTIP_WHITEDOT_S
  1

  0
LINE
  5
82
330
7F
100
AcDbEntity
  8
0
  6
CONTINUOUS
 62
     0
100
AcDbLine
 10
0.0
 20
0.0
 30
0.0
 11
-1.0
 21
0.0
 31
0.0
  0
CIRCLE
  5
83
330
7F
100
AcDbEntity
  8
0
  6
CONTINUOUS
 62
     0
100
AcDbCircle
 10
0.0
 20
0.0
 30
0.0
 40
0.5
  0
ENDBLK
  5
81
330
7F
100
AcDbEntity
  8
0
100
AcDbBlockEnd
  0
BLOCK
  5
85
330
84
100
AcDbEntity
  8
0
100
AcDbBlockBegin
  2
FXTIP_WHITEDOT_E
 70
     0
 71
     0
 10
0.0
 20
0.0
 30
0.0
  3
FXTIP_WHITEDOT_E
  1

  0
LINE
  5
87
330
84
100
AcDbEntity
  8
0
  6
CONTINUOUS
 62
     0
100
AcDbLine
 10
0.0
 20
0.0
 30
0.0
 11
-1.0
 21
0.0
 31
0.0
  0
CIRCLE
  5
88
330
84
100
AcDbEntity
  8
0
  6
CONTINUOUS
 62
     0
100
AcDbCircle
 10
0.0
 20
0.0
 30
0.0
 40
0.5
  0
ENDBLK
  5
86
330
84
100
AcDbEntity
  8
0
100
AcDbBlockEnd
  0
BLOCK
  5
8A
330
89
100
AcDbEntity
  8
0
100
AcDbBlockBegin
  2
FXTIP_UPARROW_S
 70
     0
 71
     0
 10
0.0
 20
0.0
 30
0.0
  3
FXTIP_UPARROW_S
  1

  0
LINE
  5
8C
330
89
100
AcDbEntity
  8
0
  6
CONTINUOUS
 62
     0
100
AcDbLine
 10
0.0
 20
0.0
 30
0.0
 11
-1.0
 21
0.0
 31
0.0
  0
LINE
  5
8D
330
89
100
AcDbEntity
  8
0
  6
CONTINUOUS
 62
     0
100
AcDbLine
 10
0.0
 20
0.0
 30
0.0
 11
-0.965926
 21
-0.258819
 31
0.0
  0
ENDBLK
  5
8B
330
89
100
AcDbEntity
  8
0
100
AcDbBlockEnd
  0
BLOCK
  5
8F
330
8E
100
AcDbEntity
  8
0
100
AcDbBlockBegin
  2
FXTIP_UPARROW_E
 70
     0
 71
     0
 10
0.0
 20
0.0
 30
0.0
  3
FXTIP_UPARROW_E
  1

  0
LINE
  5
91
330
8E
100
AcDbEntity
  8
0
  6
CONTINUOUS
 62
     0
100
AcDbLine
 10
0.0
 20
0.0
 30
0.0
 11
-1.0
 21
0.0
 31
0.0
  0
LINE
  5
92
330
8E
100
AcDbEntity
  8
0
  6
CONTINUOUS
 62
     0
100
AcDbLine
 10
0.0
 20
0.0
 30
0.0
 11
-0.965926
 21
0.258819
 31
0.0
  0
ENDBLK
  5
90
330
8E
100
AcDbEntity
  8
0
100
AcDbBlockEnd
  0
BLOCK
  5
94
330
93
100
AcDbEntity
  8
0
100
AcDbBlockBegin
  2
FXTIP_DOWNARROW_S
 70
     0
 71
     0
 10
0.0
 20
0.0
 30
0.0
  3
FXTIP_DOWNARROW_S
  1

  0
LINE
  5
96
330
93
100
AcDbEntity
  8
0
  6
CONTINUOUS
 62
     0
100
AcDbLine
 10
0.0
 20
0.0
 30
0.0
 11
-1.0
 21
0.0
 31
0.0
  0
LINE
  5
97
330
93
100
AcDbEntity
  8
0
  6
CONTINUOUS
 62
     0
100
AcDbLine
 10
0.0
 20
0.0
 30
0.0
 11
-0.965926
 21
0.258819
 31
0.0
  0
ENDBLK
  5
95
330
93
100
AcDbEntity
  8
0
100
AcDbBlockEnd
  0
BLOCK
  5
99
330
98
100
AcDbEntity
  8
0
100
AcDbBlockBegin
  2
FXTIP_DOWNARROW_E
 70
     0
 71
     0
 10
0.0
 20
0.0
 30
0.0
  3
FXTIP_DOWNARROW_E
  1

  0
LINE
  5
9B
330
98
100
AcDbEntity
  8
0
  6
CONTINUOUS
 62
     0
100
AcDbLine
 10
0.0
 20
0.0
 30
0.0
 11
-1.0
 21
0.0
 31
0.0
  0
LINE
  5
9C
330
98
100
AcDbEntity
  8
0
  6
CONTINUOUS
 62
     0
100
AcDbLine
 10
0.0
 20
0.0
 30
0.0
 11
-0.965926
 21
-0.258819
 31
0.0
  0
ENDBLK
  5
9A
330
98
100
AcDbEntity
  8
0
100
AcDbBlockEnd
  0
BLOCK
  5
9E
330
9D
100
AcDbEntity
  8
0
100
AcDbBlockBegin
  2
FXTIP_BLACKTRIANGLE_S
 70
     0
 71
     0
 10
0.0
 20
0.0
 30
0.0
  3
FXTIP_BLACKTRIANGLE_S
  1

  0
LINE
  5
A0
330
9D
100
AcDbEntity
  8
0
  6
CONTINUOUS
 62
     0
100
AcDbLine
 10
0.0
 20
0.0
 30
0.0
 11
-1.0
 21
0.0
 31
0.0
  0
SOLID
  5
A1
330
9D
100
AcDbEntity
  8
0
  6
CONTINUOUS
 62
     0
100
AcDbTrace
 10
0.0
 20
0.0
 30
0.0
 11
-0.965926
 21
-0.258819
 31
0.0
 12
-0.965926
 22
0.258819
 32
0.0
 13
-0.965926
 23
0.258819
 33
0.0
  0
ENDBLK
  5
9F
330
9D
100
AcDbEntity
  8
0
100
AcDbBlockEnd
  0
BLOCK
  5
A3
330
A2
100
AcDbEntity
  8
0
100
AcDbBlockBegin
  2
FXTIP_BLACKTRIANGLE_E
 70
     0
 71
     0
 10
0.0
 20
0.0
 30
0.0
  3
FXTIP_BLACKTRIANGLE_E
  1

  0
LINE
  5
A5
330
A2
100
AcDbEntity
  8
0
  6
CONTINUOUS
 62
     0
100
AcDbLine
 10
0.0
 20
0.0
 30
0.0
 11
-1.0
 21
0.0
 31
0.0
  0
SOLID
  5
A6
330
A2
100
AcDbEntity
  8
0
  6
CONTINUOUS
 62
     0
100
AcDbTrace
 10
0.0
 20
0.0
 30
0.0
 11
-0.965926
 21
0.258819
 31
0.0
 12
-0.965926
 22
-0.258819
 32
0.0
 13
-0.965926
 23
-0.258819
 33
0.0
  0
ENDBLK
  5
A4
330
A2
100
AcDbEntity
  8
0
100
AcDbBlockEnd
  0
BLOCK
  5
AB
330
AA
100
AcDbEntity
  8
0
100
AcDbBlockBegin
  2
BLKF021
 70
     0
 71
     0
 10
0.0
 20
0.0
 30
0.0
  3
BLKF021
  1

  0
LINE
  5
AE
330
AA
100
AcDbEntity
  8
LAYERGROUP-1
  6
CONTINUOUS
 62
     3
100
AcDbLine
 10
86.934148
 20
92.998077
 30
0.0
 11
95.734148
 21
92.998077
 31
0.0
  0
LINE
  5
AF
330
AA
100
AcDbEntity
  8
LAYERGROUP-1
  6
CONTINUOUS
 62
     3
100
AcDbLine
 10
86.334148
 20
93.598077
 30
0.0
 11
86.334148
 21
99.664744
 31
0.0
  0
LINE
  5
B0
330
AA
100
AcDbEntity
  8
LAYERGROUP-1
  6
CONTINUOUS
 62
     3
100
AcDbLine
 10
96.334148
 20
93.598077
 30
0.0
 11
96.334148
 21
99.664744
 31
0.0
  0
LINE
  5
B1
330
AA
100
AcDbEntity
  8
LAYERGROUP-1
  6
CONTINUOUS
 62
     3
100
AcDbLine
 10
86.334148
 20
99.664744
 30
0.0
 11
88.447396
 21
99.664744
 31
0.0
  0
LINE
  5
B2
330
AA
100
AcDbEntity
  8
LAYERGROUP-1
  6
CONTINUOUS
 62
     3
100
AcDbLine
 10
94.220899
 20
99.664744
 30
0.0
 11
99.334148
 21
99.664744
 31
0.0
  0
CIRCLE
  5
B3
330
AA
100
AcDbEntity
  8
LAYERGROUP-1
  6
CONTINUOUS
 62
     3
100
AcDbCircle
 10
91.334148
 20
97.998077
 30
0.0
 40
3.333333333333333
  0
LINE
  5
B4
330
AA
100
AcDbEntity
  8
LAYERGROUP-1
  6
CONTINUOUS
 62
     3
100
AcDbLine
 10
86.934148
 20
102.998077
 30
0.0
 11
98.734148
 21
102.998077
 31
0.0
  0
ARC
  5
B5
330
AA
100
AcDbEntity
  8
LAYERGROUP-1
  6
CONTINUOUS
 62
     3
100
AcDbCircle
 10
86.934148
 20
93.598077
 30
0.0
 40
0.6
100
AcDbArc
 50
180.0
 51
270.0
  0
ARC
  5
B6
330
AA
100
AcDbEntity
  8
LAYERGROUP-1
  6
CONTINUOUS
 62
     3
100
AcDbCircle
 10
95.734148
 20
93.598077
 30
0.0
 40
0.6
100
AcDbArc
 50
270.0
 51
360.0
  0
LINE
  5
B7
330
AA
100
AcDbEntity
  8
LAYERGROUP-1
  6
CONTINUOUS
 62
     3
100
AcDbLine
 10
71.434148
 20
114.998077
 30
0.0
 11
98.734148
 21
114.998077
 31
0.0
  0
LINE
  5
B8
330
AA
100
AcDbEntity
  8
LAYERGROUP-1
  6
CONTINUOUS
 62
     3
100
AcDbLine
 10
86.334148
 20
118.33141
 30
0.0
 11
86.334148
 21
124.398077
 31
0.0
  0
LINE
  5
B9
330
AA
100
AcDbEntity
  8
LAYERGROUP-1
  6
CONTINUOUS
 62
     3
100
AcDbLine
 10
96.334148
 20
118.33141
 30
0.0
 11
96.334148
 21
124.398077
 31
0.0
  0
LINE
  5
BA
330
AA
100
AcDbEntity
  8
LAYERGROUP-1
  6
CONTINUOUS
 62
     3
100
AcDbLine
 10
86.334148
 20
118.33141
 30
0.0
 11
88.447396
 21
118.33141
 31
0.0
  0
LINE
  5
BB
330
AA
100
AcDbEntity
  8
LAYERGROUP-1
  6
CONTINUOUS
 62
     3
100
AcDbLine
 10
94.220899
 20
118.33141
 30
0.0
 11
99.334148
 21
118.33141
 31
0.0
  0
CIRCLE
  5
BC
330
AA
100
AcDbEntity
  8
LAYERGROUP-1
  6
CONTINUOUS
 62
     3
100
AcDbCircle
 10
91.334148
 20
119.998077
 30
0.0
 40
3.333333333333333
  0
LINE
  5
BD
330
AA
100
AcDbEntity
  8
LAYERGROUP-1
  6
CONTINUOUS
 62
     3
100
AcDbLine
 10
86.934148
 20
124.998077
 30
0.0
 11
95.734148
 21
124.998077
 31
0.0
  0
ARC
  5
BE
330
AA
100
AcDbEntity
  8
LAYERGROUP-1
  6
CONTINUOUS
 62
     3
100
AcDbCircle
 10
86.934148
 20
124.398077
 30
0.0
 40
0.6
100
AcDbArc
 50
90.0
 51
180.0
  0
ARC
  5
BF
330
AA
100
AcDbEntity
  8
LAYERGROUP-1
  6
CONTINUOUS
 62
     3
100
AcDbCircle
 10
95.734148
 20
124.398077
 30
0.0
 40
0.6
100
AcDbArc
 50
0.0
 51
90.0
  0
LINE
  5
C0
330
AA
100
AcDbEntity
  8
LAYERGROUP-1
  6
CONTINUOUS
 62
     3
100
AcDbLine
 10
87.584148
 20
99.386966
 30
0.0
 11
87.167481
 21
99.386966
 31
0.0
  0
LINE
  5
C1
330
AA
100
AcDbEntity
  8
LAYERGROUP-1
  6
CONTINUOUS
 62
     3
100
AcDbLine
 10
87.167481
 20
99.386966
 30
0.0
 11
87.167481
 21
96.748077
 31
0.0
  0
LINE
  5
C2
330
AA
100
AcDbEntity
  8
LAYERGROUP-1
  6
CONTINUOUS
 62
     3
100
AcDbLine
 10
87.167481
 20
96.748077
 30
0.0
 11
87.584148
 21
96.33141
 31
0.0
  0
LINE
  5
C3
330
AA
100
AcDbEntity
  8
LAYERGROUP-1
  6
CONTINUOUS
 62
     3
100
AcDbLine
 10
87.584148
 20
96.33141
 30
0.0
 11
87.584148
 21
95.748077
 31
0.0
  0
LINE
  5
C4
330
AA
100
AcDbEntity
  8
LAYERGROUP-1
  6
CONTINUOUS
 62
     3
100
AcDbLine
 10
86.750814
 20
95.748077
 30
0.0
 11
86.750814
 21
96.039744
 31
0.0
  0
LINE
  5
C5
330
AA
100
AcDbEntity
  8
LAYERGROUP-1
  6
CONTINUOUS
 62
     3
100
AcDbLine
 10
86.750814
 20
95.748077
 30
0.0
 11
86.334148
 21
95.748077
 31
0.0
  0
LINE
  5
C6
330
AA
100
AcDbEntity
  8
LAYERGROUP-1
  6
CONTINUOUS
 62
     3
100
AcDbLine
 10
88.447396
 20
96.33141
 30
0.0
 11
87.584148
 21
96.33141
 31
0.0
  0
ARC
  5
C7
330
AA
100
AcDbEntity
  8
LAYERGROUP-1
  6
CONTINUOUS
 62
     3
100
AcDbCircle
 10
87.167481
 20
95.748077
 30
0.0
 40
0.4166666666666572
100
AcDbArc
 50
180.0
 51
360.0
  0
LINE
  5
C8
330
AA
100
AcDbEntity
  8
LAYERGROUP-1
  6
CONTINUOUS
 62
     3
100
AcDbLine
 10
95.084148
 20
99.386966
 30
0.0
 11
95.500814
 21
99.386966
 31
0.0
  0
LINE
  5
C9
330
AA
100
AcDbEntity
  8
LAYERGROUP-1
  6
CONTINUOUS
 62
     3
100
AcDbLine
 10
95.500814
 20
99.386966
 30
0.0
 11
95.500814
 21
96.748077
 31
0.0
  0
LINE
  5
CA
330
AA
100
AcDbEntity
  8
LAYERGROUP-1
  6
CONTINUOUS
 62
     3
100
AcDbLine
 10
95.500814
 20
96.748077
 30
0.0
 11
95.084148
 21
96.33141
 31
0.0
  0
LINE
  5
CB
330
AA
100
AcDbEntity
  8
LAYERGROUP-1
  6
CONTINUOUS
 62
     3
100
AcDbLine
 10
95.084148
 20
96.33141
 30
0.0
 11
95.084148
 21
95.748077
 31
0.0
  0
LINE
  5
CC
330
AA
100
AcDbEntity
  8
LAYERGROUP-1
  6
CONTINUOUS
 62
     3
100
AcDbLine
 10
95.917481
 20
95.748077
 30
0.0
 11
95.917481
 21
96.039744
 31
0.0
  0
LINE
  5
CD
330
AA
100
AcDbEntity
  8
LAYERGROUP-1
  6
CONTINUOUS
 62
     3
100
AcDbLine
 10
95.917481
 20
95.748077
 30
0.0
 11
96.334148
 21
95.748077
 31
0.0
  0
LINE
  5
CE
330
AA
100
AcDbEntity
  8
LAYERGROUP-1
  6
CONTINUOUS
 62
     3
100
AcDbLine
 10
94.220899
 20
96.33141
 30
0.0
 11
95.084148
 21
96.33141
 31
0.0
  0
ARC
  5
CF
330
AA
100
AcDbEntity
  8
LAYERGROUP-1
  6
CONTINUOUS
 62
     3
100
AcDbCircle
 10
95.500814
 20
95.748077
 30
0.0
 40
0.4166666666666572
100
AcDbArc
 50
180.0
 51
360.0
  0
LINE
  5
D0
330
AA
100
AcDbEntity
  8
LAYERGROUP-1
  6
CONTINUOUS
 62
     3
100
AcDbLine
 10
87.584148
 20
118.609188
 30
0.0
 11
87.167481
 21
118.609188
 31
0.0
  0
LINE
  5
D1
330
AA
100
AcDbEntity
  8
LAYERGROUP-1
  6
CONTINUOUS
 62
     3
100
AcDbLine
 10
87.167481
 20
118.609188
 30
0.0
 11
87.167481
 21
121.248077
 31
0.0
  0
LINE
  5
D2
330
AA
100
AcDbEntity
  8
LAYERGROUP-1
  6
CONTINUOUS
 62
     3
100
AcDbLine
 10
87.167481
 20
121.248077
 30
0.0
 11
87.584148
 21
121.664744
 31
0.0
  0
LINE
  5
D3
330
AA
100
AcDbEntity
  8
LAYERGROUP-1
  6
CONTINUOUS
 62
     3
100
AcDbLine
 10
87.584148
 20
121.664744
 30
0.0
 11
87.584148
 21
122.248077
 31
0.0
  0
LINE
  5
D4
330
AA
100
AcDbEntity
  8
LAYERGROUP-1
  6
CONTINUOUS
 62
     3
100
AcDbLine
 10
86.750814
 20
122.248077
 30
0.0
 11
86.750814
 21
121.95641
 31
0.0
  0
LINE
  5
D5
330
AA
100
AcDbEntity
  8
LAYERGROUP-1
  6
CONTINUOUS
 62
     3
100
AcDbLine
 10
86.750814
 20
122.248077
 30
0.0
 11
86.334148
 21
122.248077
 31
0.0
  0
LINE
  5
D6
330
AA
100
AcDbEntity
  8
LAYERGROUP-1
  6
CONTINUOUS
 62
     3
100
AcDbLine
 10
88.447396
 20
121.664744
 30
0.0
 11
87.584148
 21
121.664744
 31
0.0
  0
ARC
  5
D7
330
AA
100
AcDbEntity
  8
LAYERGROUP-1
  6
CONTINUOUS
 62
     3
100
AcDbCircle
 10
87.167481
 20
122.248077
 30
0.0
 40
0.4166666666666572
100
AcDbArc
 50
0.0
 51
180.0
  0
LINE
  5
D8
330
AA
100
AcDbEntity
  8
LAYERGROUP-1
  6
CONTINUOUS
 62
     3
100
AcDbLine
 10
95.084148
 20
118.609188
 30
0.0
 11
95.500814
 21
118.609188
 31
0.0
  0
LINE
  5
D9
330
AA
100
AcDbEntity
  8
LAYERGROUP-1
  6
CONTINUOUS
 62
     3
100
AcDbLine
 10
95.500814
 20
118.609188
 30
0.0
 11
95.500814
 21
121.248077
 31
0.0
  0
LINE
  5
DA
330
AA
100
AcDbEntity
  8
LAYERGROUP-1
  6
CONTINUOUS
 62
     3
100
AcDbLine
 10
95.500814
 20
121.248077
 30
0.0
 11
95.084148
 21
121.664744
 31
0.0
  0
LINE
  5
DB
330
AA
100
AcDbEntity
  8
LAYERGROUP-1
  6
CONTINUOUS
 62
     3
100
AcDbLine
 10
95.084148
 20
121.664744
 30
0.0
 11
95.084148
 21
122.248077
 31
0.0
  0
LINE
  5
DC
330
AA
100
AcDbEntity
  8
LAYERGROUP-1
  6
CONTINUOUS
 62
     3
100
AcDbLine
 10
95.917481
 20
122.248077
 30
0.0
 11
95.917481
 21
121.95641
 31
0.0
  0
LINE
  5
DD
330
AA
100
AcDbEntity
  8
LAYERGROUP-1
  6
CONTINUOUS
 62
     3
100
AcDbLine
 10
95.917481
 20
122.248077
 30
0.0
 11
96.334148
 21
122.248077
 31
0.0
  0
LINE
  5
DE
330
AA
100
AcDbEntity
  8
LAYERGROUP-1
  6
CONTINUOUS
 62
     3
100
AcDbLine
 10
94.220899
 20
121.664744
 30
0.0
 11
95.084148
 21
121.664744
 31
0.0
  0
ARC
  5
DF
330
AA
100
AcDbEntity
  8
LAYERGROUP-1
  6
CONTINUOUS
 62
     3
100
AcDbCircle
 10
95.500814
 20
122.248077
 30
0.0
 40
0.4166666666666572
100
AcDbArc
 50
0.0
 51
180.0
  0
ARC
  5
E0
330
AA
100
AcDbEntity
  8
LAYERGROUP-1
  6
CONTINUOUS
 62
     3
100
AcDbCircle
 10
98.734148
 20
115.598077
 30
0.0
 40
0.6
100
AcDbArc
 50
270.0
 51
360.0
  0
ARC
  5
E1
330
AA
100
AcDbEntity
  8
LAYERGROUP-1
  6
CONTINUOUS
 62
     3
100
AcDbCircle
 10
71.434148
 20
115.598077
 30
0.0
 40
0.6
100
AcDbArc
 50
180.0
 51
270.0
  0
ENDBLK
  5
AC
330
AA
100
AcDbEntity
  8
0
100
AcDbBlockEnd
  0
BLOCK
  5
E9
330
E8
100
AcDbEntity
  8
0
100
AcDbBlockBegin
  2
BLKF022
 70
     0
 71
     0
 10
0.0
 20
0.0
 30
0.0
  3
BLKF022
  1

  0
LINE
  5
EC
330
E8
100
AcDbEntity
  8
LAYERGROUP-1
  6
CONTINUOUS
 62
     3
100
AcDbLine
 10
86.934148
 20
124.998077
 30
0.0
 11
95.734148
 21
124.998077
 31
0.0
  0
LINE
  5
ED
330
E8
100
AcDbEntity
  8
LAYERGROUP-1
  6
CONTINUOUS
 62
     3
100
AcDbLine
 10
86.334148
 20
124.398077
 30
0.0
 11
86.334148
 21
118.33141
 31
0.0
  0
LINE
  5
EE
330
E8
100
AcDbEntity
  8
LAYERGROUP-1
  6
CONTINUOUS
 62
     3
100
AcDbLine
 10
96.334148
 20
124.398077
 30
0.0
 11
96.334148
 21
118.33141
 31
0.0
  0
LINE
  5
EF
330
E8
100
AcDbEntity
  8
LAYERGROUP-1
  6
CONTINUOUS
 62
     3
100
AcDbLine
 10
70.834148
 20
118.33141
 30
0.0
 11
88.447396
 21
118.33141
 31
0.0
  0
LINE
  5
F0
330
E8
100
AcDbEntity
  8
LAYERGROUP-1
  6
CONTINUOUS
 62
     3
100
AcDbLine
 10
94.220899
 20
118.33141
 30
0.0
 11
99.334148
 21
118.33141
 31
0.0
  0
CIRCLE
  5
F1
330
E8
100
AcDbEntity
  8
LAYERGROUP-1
  6
CONTINUOUS
 62
     3
100
AcDbCircle
 10
91.334148
 20
119.998077
 30
0.0
 40
3.333333333333333
  0
LINE
  5
F2
330
E8
100
AcDbEntity
  8
LAYERGROUP-1
  6
CONTINUOUS
 62
     3
100
AcDbLine
 10
86.934148
 20
114.998077
 30
0.0
 11
98.734148
 21
114.998077
 31
0.0
  0
ARC
  5
F3
330
E8
100
AcDbEntity
  8
LAYERGROUP-1
  6
CONTINUOUS
 62
     3
100
AcDbCircle
 10
86.934148
 20
124.398077
 30
0.0
 40
0.6
100
AcDbArc
 50
90.0
 51
180.0
  0
ARC
  5
F4
330
E8
100
AcDbEntity
  8
LAYERGROUP-1
  6
CONTINUOUS
 62
     3
100
AcDbCircle
 10
95.734148
 20
124.398077
 30
0.0
 40
0.6
100
AcDbArc
 50
0.0
 51
90.0
  0
LINE
  5
F5
330
E8
100
AcDbEntity
  8
LAYERGROUP-1
  6
CONTINUOUS
 62
     3
100
AcDbLine
 10
71.434148
 20
102.998077
 30
0.0
 11
98.734148
 21
102.998077
 31
0.0
  0
LINE
  5
F6
330
E8
100
AcDbEntity
  8
LAYERGROUP-1
  6
CONTINUOUS
 62
     3
100
AcDbLine
 10
86.334148
 20
99.664744
 30
0.0
 11
86.334148
 21
93.598077
 31
0.0
  0
LINE
  5
F7
330
E8
100
AcDbEntity
  8
LAYERGROUP-1
  6
CONTINUOUS
 62
     3
100
AcDbLine
 10
96.334148
 20
99.664744
 30
0.0
 11
96.334148
 21
93.598077
 31
0.0
  0
LINE
  5
F8
330
E8
100
AcDbEntity
  8
LAYERGROUP-1
  6
CONTINUOUS
 62
     3
100
AcDbLine
 10
70.834148
 20
99.664744
 30
0.0
 11
88.447396
 21
99.664744
 31
0.0
  0
LINE
  5
F9
330
E8
100
AcDbEntity
  8
LAYERGROUP-1
  6
CONTINUOUS
 62
     3
100
AcDbLine
 10
94.220899
 20
99.664744
 30
0.0
 11
99.334148
 21
99.664744
 31
0.0
  0
CIRCLE
  5
FA
330
E8
100
AcDbEntity
  8
LAYERGROUP-1
  6
CONTINUOUS
 62
     3
100
AcDbCircle
 10
91.334148
 20
97.998077
 30
0.0
 40
3.333333333333333
  0
LINE
  5
FB
330
E8
100
AcDbEntity
  8
LAYERGROUP-1
  6
CONTINUOUS
 62
     3
100
AcDbLine
 10
86.934148
 20
92.998077
 30
0.0
 11
95.734148
 21
92.998077
 31
0.0
  0
ARC
  5
FC
330
E8
100
AcDbEntity
  8
LAYERGROUP-1
  6
CONTINUOUS
 62
     3
100
AcDbCircle
 10
86.934148
 20
93.598077
 30
0.0
 40
0.6
100
AcDbArc
 50
180.0
 51
270.0
  0
ARC
  5
FD
330
E8
100
AcDbEntity
  8
LAYERGROUP-1
  6
CONTINUOUS
 62
     3
100
AcDbCircle
 10
95.734148
 20
93.598077
 30
0.0
 40
0.6
100
AcDbArc
 50
270.0
 51
360.0
  0
LINE
  5
FE
330
E8
100
AcDbEntity
  8
LAYERGROUP-1
  6
CONTINUOUS
 62
     3
100
AcDbLine
 10
87.584148
 20
118.609188
 30
0.0
 11
87.167481
 21
118.609188
 31
0.0
  0
LINE
  5
FF
330
E8
100
AcDbEntity
  8
LAYERGROUP-1
  6
CONTINUOUS
 62
     3
100
AcDbLine
 10
87.167481
 20
118.609188
 30
0.0
 11
87.167481
 21
121.248077
 31
0.0
  0
LINE
  5
100
330
E8
100
AcDbEntity
  8
LAYERGROUP-1
  6
CONTINUOUS
 62
     3
100
AcDbLine
 10
87.167481
 20
121.248077
 30
0.0
 11
87.584148
 21
121.664744
 31
0.0
  0
LINE
  5
101
330
E8
100
AcDbEntity
  8
LAYERGROUP-1
  6
CONTINUOUS
 62
     3
100
AcDbLine
 10
87.584148
 20
121.664744
 30
0.0
 11
87.584148
 21
122.248077
 31
0.0
  0
LINE
  5
102
330
E8
100
AcDbEntity
  8
LAYERGROUP-1
  6
CONTINUOUS
 62
     3
100
AcDbLine
 10
86.750814
 20
122.248077
 30
0.0
 11
86.750814
 21
121.95641
 31
0.0
  0
LINE
  5
103
330
E8
100
AcDbEntity
  8
LAYERGROUP-1
  6
CONTINUOUS
 62
     3
100
AcDbLine
 10
86.750814
 20
122.248077
 30
0.0
 11
86.334148
 21
122.248077
 31
0.0
  0
LINE
  5
104
330
E8
100
AcDbEntity
  8
LAYERGROUP-1
  6
CONTINUOUS
 62
     3
100
AcDbLine
 10
88.447396
 20
121.664744
 30
0.0
 11
87.584148
 21
121.664744
 31
0.0
  0
ARC
  5
105
330
E8
100
AcDbEntity
  8
LAYERGROUP-1
  6
CONTINUOUS
 62
     3
100
AcDbCircle
 10
87.167481
 20
122.248077
 30
0.0
 40
0.4166666666666572
100
AcDbArc
 50
0.0
 51
180.0
  0
LINE
  5
106
330
E8
100
AcDbEntity
  8
LAYERGROUP-1
  6
CONTINUOUS
 62
     3
100
AcDbLine
 10
95.084148
 20
118.609188
 30
0.0
 11
95.500814
 21
118.609188
 31
0.0
  0
LINE
  5
107
330
E8
100
AcDbEntity
  8
LAYERGROUP-1
  6
CONTINUOUS
 62
     3
100
AcDbLine
 10
95.500814
 20
118.609188
 30
0.0
 11
95.500814
 21
121.248077
 31
0.0
  0
LINE
  5
108
330
E8
100
AcDbEntity
  8
LAYERGROUP-1
  6
CONTINUOUS
 62
     3
100
AcDbLine
 10
95.500814
 20
121.248077
 30
0.0
 11
95.084148
 21
121.664744
 31
0.0
  0
LINE
  5
109
330
E8
100
AcDbEntity
  8
LAYERGROUP-1
  6
CONTINUOUS
 62
     3
100
AcDbLine
 10
95.084148
 20
121.664744
 30
0.0
 11
95.084148
 21
122.248077
 31
0.0
  0
LINE
  5
10A
330
E8
100
AcDbEntity
  8
LAYERGROUP-1
  6
CONTINUOUS
 62
     3
100
AcDbLine
 10
95.917481
 20
122.248077
 30
0.0
 11
95.917481
 21
121.95641
 31
0.0
  0
LINE
  5
10B
330
E8
100
AcDbEntity
  8
LAYERGROUP-1
  6
CONTINUOUS
 62
     3
100
AcDbLine
 10
95.917481
 20
122.248077
 30
0.0
 11
96.334148
 21
122.248077
 31
0.0
  0
LINE
  5
10C
330
E8
100
AcDbEntity
  8
LAYERGROUP-1
  6
CONTINUOUS
 62
     3
100
AcDbLine
 10
94.220899
 20
121.664744
 30
0.0
 11
95.084148
 21
121.664744
 31
0.0
  0
ARC
  5
10D
330
E8
100
AcDbEntity
  8
LAYERGROUP-1
  6
CONTINUOUS
 62
     3
100
AcDbCircle
 10
95.500814
 20
122.248077
 30
0.0
 40
0.4166666666666572
100
AcDbArc
 50
0.0
 51
180.0
  0
LINE
  5
10E
330
E8
100
AcDbEntity
  8
LAYERGROUP-1
  6
CONTINUOUS
 62
     3
100
AcDbLine
 10
87.584148
 20
99.386966
 30
0.0
 11
87.167481
 21
99.386966
 31
0.0
  0
LINE
  5
10F
330
E8
100
AcDbEntity
  8
LAYERGROUP-1
  6
CONTINUOUS
 62
     3
100
AcDbLine
 10
87.167481
 20
99.386966
 30
0.0
 11
87.167481
 21
96.748077
 31
0.0
  0
LINE
  5
110
330
E8
100
AcDbEntity
  8
LAYERGROUP-1
  6
CONTINUOUS
 62
     3
100
AcDbLine
 10
87.167481
 20
96.748077
 30
0.0
 11
87.584148
 21
96.33141
 31
0.0
  0
LINE
  5
111
330
E8
100
AcDbEntity
  8
LAYERGROUP-1
  6
CONTINUOUS
 62
     3
100
AcDbLine
 10
87.584148
 20
96.33141
 30
0.0
 11
87.584148
 21
95.748077
 31
0.0
  0
LINE
  5
112
330
E8
100
AcDbEntity
  8
LAYERGROUP-1
  6
CONTINUOUS
 62
     3
100
AcDbLine
 10
86.750814
 20
95.748077
 30
0.0
 11
86.750814
 21
96.039744
 31
0.0
  0
LINE
  5
113
330
E8
100
AcDbEntity
  8
LAYERGROUP-1
  6
CONTINUOUS
 62
     3
100
AcDbLine
 10
86.750814
 20
95.748077
 30
0.0
 11
86.334148
 21
95.748077
 31
0.0
  0
LINE
  5
114
330
E8
100
AcDbEntity
  8
LAYERGROUP-1
  6
CONTINUOUS
 62
     3
100
AcDbLine
 10
88.447396
 20
96.33141
 30
0.0
 11
87.584148
 21
96.33141
 31
0.0
  0
ARC
  5
115
330
E8
100
AcDbEntity
  8
LAYERGROUP-1
  6
CONTINUOUS
 62
     3
100
AcDbCircle
 10
87.167481
 20
95.748077
 30
0.0
 40
0.4166666666666572
100
AcDbArc
 50
180.0
 51
360.0
  0
LINE
  5
116
330
E8
100
AcDbEntity
  8
LAYERGROUP-1
  6
CONTINUOUS
 62
     3
100
AcDbLine
 10
95.084148
 20
99.386966
 30
0.0
 11
95.500814
 21
99.386966
 31
0.0
  0
LINE
  5
117
330
E8
100
AcDbEntity
  8
LAYERGROUP-1
  6
CONTINUOUS
 62
     3
100
AcDbLine
 10
95.500814
 20
99.386966
 30
0.0
 11
95.500814
 21
96.748077
 31
0.0
  0
LINE
  5
118
330
E8
100
AcDbEntity
  8
LAYERGROUP-1
  6
CONTINUOUS
 62
     3
100
AcDbLine
 10
95.500814
 20
96.748077
 30
0.0
 11
95.084148
 21
96.33141
 31
0.0
  0
LINE
  5
119
330
E8
100
AcDbEntity
  8
LAYERGROUP-1
  6
CONTINUOUS
 62
     3
100
AcDbLine
 10
95.084148
 20
96.33141
 30
0.0
 11
95.084148
 21
95.748077
 31
0.0
  0
LINE
  5
11A
330
E8
100
AcDbEntity
  8
LAYERGROUP-1
  6
CONTINUOUS
 62
     3
100
AcDbLine
 10
95.917481
 20
95.748077
 30
0.0
 11
95.917481
 21
96.039744
 31
0.0
  0
LINE
  5
11B
330
E8
100
AcDbEntity
  8
LAYERGROUP-1
  6
CONTINUOUS
 62
     3
100
AcDbLine
 10
95.917481
 20
95.748077
 30
0.0
 11
96.334148
 21
95.748077
 31
0.0
  0
LINE
  5
11C
330
E8
100
AcDbEntity
  8
LAYERGROUP-1
  6
CONTINUOUS
 62
     3
100
AcDbLine
 10
94.220899
 20
96.33141
 30
0.0
 11
95.084148
 21
96.33141
 31
0.0
  0
ARC
  5
11D
330
E8
100
AcDbEntity
  8
LAYERGROUP-1
  6
CONTINUOUS
 62
     3
100
AcDbCircle
 10
95.500814
 20
95.748077
 30
0.0
 40
0.4166666666666572
100
AcDbArc
 50
180.0
 51
360.0
  0
ARC
  5
11E
330
E8
100
AcDbEntity
  8
LAYERGROUP-1
  6
CONTINUOUS
 62
     3
100
AcDbCircle
 10
98.734148
 20
102.398077
 30
0.0
 40
0.6
100
AcDbArc
 50
0.0
 51
90.0
  0
ARC
  5
11F
330
E8
100
AcDbEntity
  8
LAYERGROUP-1
  6
CONTINUOUS
 62
     3
100
AcDbCircle
 10
71.434148
 20
102.398077
 30
0.0
 40
0.6
100
AcDbArc
 50
90.0
 51
180.0
  0
ENDBLK
  5
EA
330
E8
100
AcDbEntity
  8
0
100
AcDbBlockEnd
  0
BLOCK
  5
1AB
330
1AA
100
AcDbEntity
  8
0
100
AcDbBlockBegin
  2
BLKF023
 70
     0
 71
     0
 10
0.0
 20
0.0
 30
0.0
  3
BLKF023
  1

  0
LINE
  5
1AE
330
1AA
100
AcDbEntity
  8
LAYERGROUP-1
  6
CONTINUOUS
 62
     3
100
AcDbLine
 10
54.734148
 20
92.998077
 30
0.0
 11
45.934148
 21
92.998077
 31
0.0
  0
LINE
  5
1AF
330
1AA
100
AcDbEntity
  8
LAYERGROUP-1
  6
CONTINUOUS
 62
     3
100
AcDbLine
 10
55.334148
 20
93.598077
 30
0.0
 11
55.334148
 21
99.664744
 31
0.0
  0
LINE
  5
1B0
330
1AA
100
AcDbEntity
  8
LAYERGROUP-1
  6
CONTINUOUS
 62
     3
100
AcDbLine
 10
45.334148
 20
93.598077
 30
0.0
 11
45.334148
 21
99.664744
 31
0.0
  0
LINE
  5
1B1
330
1AA
100
AcDbEntity
  8
LAYERGROUP-1
  6
CONTINUOUS
 62
     3
100
AcDbLine
 10
55.334148
 20
99.664744
 30
0.0
 11
53.220899
 21
99.664744
 31
0.0
  0
LINE
  5
1B2
330
1AA
100
AcDbEntity
  8
LAYERGROUP-1
  6
CONTINUOUS
 62
     3
100
AcDbLine
 10
47.447396
 20
99.664744
 30
0.0
 11
42.334148
 21
99.664744
 31
0.0
  0
CIRCLE
  5
1B3
330
1AA
100
AcDbEntity
  8
LAYERGROUP-1
  6
CONTINUOUS
 62
     3
100
AcDbCircle
 10
50.334148
 20
97.998077
 30
0.0
 40
3.333333333333333
  0
LINE
  5
1B4
330
1AA
100
AcDbEntity
  8
LAYERGROUP-1
  6
CONTINUOUS
 62
     3
100
AcDbLine
 10
54.734148
 20
102.998077
 30
0.0
 11
42.934148
 21
102.998077
 31
0.0
  0
ARC
  5
1B5
330
1AA
100
AcDbEntity
  8
LAYERGROUP-1
  6
CONTINUOUS
 62
     3
100
AcDbCircle
 10
54.734148
 20
93.598077
 30
0.0
 40
0.6
100
AcDbArc
 50
270.0
 51
360.0
  0
ARC
  5
1B6
330
1AA
100
AcDbEntity
  8
LAYERGROUP-1
  6
CONTINUOUS
 62
     3
100
AcDbCircle
 10
45.934148
 20
93.598077
 30
0.0
 40
0.6
100
AcDbArc
 50
180.0
 51
270.0
  0
LINE
  5
1B7
330
1AA
100
AcDbEntity
  8
LAYERGROUP-1
  6
CONTINUOUS
 62
     3
100
AcDbLine
 10
70.234148
 20
114.998077
 30
0.0
 11
42.934148
 21
114.998077
 31
0.0
  0
LINE
  5
1B8
330
1AA
100
AcDbEntity
  8
LAYERGROUP-1
  6
CONTINUOUS
 62
     3
100
AcDbLine
 10
55.334148
 20
118.33141
 30
0.0
 11
55.334148
 21
124.398077
 31
0.0
  0
LINE
  5
1B9
330
1AA
100
AcDbEntity
  8
LAYERGROUP-1
  6
CONTINUOUS
 62
     3
100
AcDbLine
 10
45.334148
 20
118.33141
 30
0.0
 11
45.334148
 21
124.398077
 31
0.0
  0
LINE
  5
1BA
330
1AA
100
AcDbEntity
  8
LAYERGROUP-1
  6
CONTINUOUS
 62
     3
100
AcDbLine
 10
55.334148
 20
118.33141
 30
0.0
 11
53.220899
 21
118.33141
 31
0.0
  0
LINE
  5
1BB
330
1AA
100
AcDbEntity
  8
LAYERGROUP-1
  6
CONTINUOUS
 62
     3
100
AcDbLine
 10
47.447396
 20
118.33141
 30
0.0
 11
42.334148
 21
118.33141
 31
0.0
  0
CIRCLE
  5
1BC
330
1AA
100
AcDbEntity
  8
LAYERGROUP-1
  6
CONTINUOUS
 62
     3
100
AcDbCircle
 10
50.334148
 20
119.998077
 30
0.0
 40
3.333333333333333
  0
LINE
  5
1BD
330
1AA
100
AcDbEntity
  8
LAYERGROUP-1
  6
CONTINUOUS
 62
     3
100
AcDbLine
 10
54.734148
 20
124.998077
 30
0.0
 11
45.934148
 21
124.998077
 31
0.0
  0
ARC
  5
1BE
330
1AA
100
AcDbEntity
  8
LAYERGROUP-1
  6
CONTINUOUS
 62
     3
100
AcDbCircle
 10
54.734148
 20
124.398077
 30
0.0
 40
0.6
100
AcDbArc
 50
0.0
 51
90.0
  0
ARC
  5
1BF
330
1AA
100
AcDbEntity
  8
LAYERGROUP-1
  6
CONTINUOUS
 62
     3
100
AcDbCircle
 10
45.934148
 20
124.398077
 30
0.0
 40
0.6
100
AcDbArc
 50
90.0
 51
180.0
  0
LINE
  5
1C0
330
1AA
100
AcDbEntity
  8
LAYERGROUP-1
  6
CONTINUOUS
 62
     3
100
AcDbLine
 10
54.084148
 20
99.386966
 30
0.0
 11
54.500814
 21
99.386966
 31
0.0
  0
LINE
  5
1C1
330
1AA
100
AcDbEntity
  8
LAYERGROUP-1
  6
CONTINUOUS
 62
     3
100
AcDbLine
 10
54.500814
 20
99.386966
 30
0.0
 11
54.500814
 21
96.748077
 31
0.0
  0
LINE
  5
1C2
330
1AA
100
AcDbEntity
  8
LAYERGROUP-1
  6
CONTINUOUS
 62
     3
100
AcDbLine
 10
54.500814
 20
96.748077
 30
0.0
 11
54.084148
 21
96.33141
 31
0.0
  0
LINE
  5
1C3
330
1AA
100
AcDbEntity
  8
LAYERGROUP-1
  6
CONTINUOUS
 62
     3
100
AcDbLine
 10
54.084148
 20
96.33141
 30
0.0
 11
54.084148
 21
95.748077
 31
0.0
  0
LINE
  5
1C4
330
1AA
100
AcDbEntity
  8
LAYERGROUP-1
  6
CONTINUOUS
 62
     3
100
AcDbLine
 10
54.917481
 20
95.748077
 30
0.0
 11
54.917481
 21
96.039744
 31
0.0
  0
LINE
  5
1C5
330
1AA
100
AcDbEntity
  8
LAYERGROUP-1
  6
CONTINUOUS
 62
     3
100
AcDbLine
 10
54.917481
 20
95.748077
 30
0.0
 11
55.334148
 21
95.748077
 31
0.0
  0
LINE
  5
1C6
330
1AA
100
AcDbEntity
  8
LAYERGROUP-1
  6
CONTINUOUS
 62
     3
100
AcDbLine
 10
53.220899
 20
96.33141
 30
0.0
 11
54.084148
 21
96.33141
 31
0.0
  0
ARC
  5
1C7
330
1AA
100
AcDbEntity
  8
LAYERGROUP-1
  6
CONTINUOUS
 62
     3
100
AcDbCircle
 10
54.500814
 20
95.748077
 30
0.0
 40
0.4166666666666572
100
AcDbArc
 50
180.0
 51
360.0
  0
LINE
  5
1C8
330
1AA
100
AcDbEntity
  8
LAYERGROUP-1
  6
CONTINUOUS
 62
     3
100
AcDbLine
 10
46.584148
 20
99.386966
 30
0.0
 11
46.167481
 21
99.386966
 31
0.0
  0
LINE
  5
1C9
330
1AA
100
AcDbEntity
  8
LAYERGROUP-1
  6
CONTINUOUS
 62
     3
100
AcDbLine
 10
46.167481
 20
99.386966
 30
0.0
 11
46.167481
 21
96.748077
 31
0.0
  0
LINE
  5
1CA
330
1AA
100
AcDbEntity
  8
LAYERGROUP-1
  6
CONTINUOUS
 62
     3
100
AcDbLine
 10
46.167481
 20
96.748077
 30
0.0
 11
46.584148
 21
96.33141
 31
0.0
  0
LINE
  5
1CB
330
1AA
100
AcDbEntity
  8
LAYERGROUP-1
  6
CONTINUOUS
 62
     3
100
AcDbLine
 10
46.584148
 20
96.33141
 30
0.0
 11
46.584148
 21
95.748077
 31
0.0
  0
LINE
  5
1CC
330
1AA
100
AcDbEntity
  8
LAYERGROUP-1
  6
CONTINUOUS
 62
     3
100
AcDbLine
 10
45.750814
 20
95.748077
 30
0.0
 11
45.750814
 21
96.039744
 31
0.0
  0
LINE
  5
1CD
330
1AA
100
AcDbEntity
  8
LAYERGROUP-1
  6
CONTINUOUS
 62
     3
100
AcDbLine
 10
45.750814
 20
95.748077
 30
0.0
 11
45.334148
 21
95.748077
 31
0.0
  0
LINE
  5
1CE
330
1AA
100
AcDbEntity
  8
LAYERGROUP-1
  6
CONTINUOUS
 62
     3
100
AcDbLine
 10
47.447396
 20
96.33141
 30
0.0
 11
46.584148
 21
96.33141
 31
0.0
  0
ARC
  5
1CF
330
1AA
100
AcDbEntity
  8
LAYERGROUP-1
  6
CONTINUOUS
 62
     3
100
AcDbCircle
 10
46.167481
 20
95.748077
 30
0.0
 40
0.4166666666666572
100
AcDbArc
 50
180.0
 51
360.0
  0
LINE
  5
1D0
330
1AA
100
AcDbEntity
  8
LAYERGROUP-1
  6
CONTINUOUS
 62
     3
100
AcDbLine
 10
54.084148
 20
118.609188
 30
0.0
 11
54.500814
 21
118.609188
 31
0.0
  0
LINE
  5
1D1
330
1AA
100
AcDbEntity
  8
LAYERGROUP-1
  6
CONTINUOUS
 62
     3
100
AcDbLine
 10
54.500814
 20
118.609188
 30
0.0
 11
54.500814
 21
121.248077
 31
0.0
  0
LINE
  5
1D2
330
1AA
100
AcDbEntity
  8
LAYERGROUP-1
  6
CONTINUOUS
 62
     3
100
AcDbLine
 10
54.500814
 20
121.248077
 30
0.0
 11
54.084148
 21
121.664744
 31
0.0
  0
LINE
  5
1D3
330
1AA
100
AcDbEntity
  8
LAYERGROUP-1
  6
CONTINUOUS
 62
     3
100
AcDbLine
 10
54.084148
 20
121.664744
 30
0.0
 11
54.084148
 21
122.248077
 31
0.0
  0
LINE
  5
1D4
330
1AA
100
AcDbEntity
  8
LAYERGROUP-1
  6
CONTINUOUS
 62
     3
100
AcDbLine
 10
54.917481
 20
122.248077
 30
0.0
 11
54.917481
 21
121.95641
 31
0.0
  0
LINE
  5
1D5
330
1AA
100
AcDbEntity
  8
LAYERGROUP-1
  6
CONTINUOUS
 62
     3
100
AcDbLine
 10
54.917481
 20
122.248077
 30
0.0
 11
55.334148
 21
122.248077
 31
0.0
  0
LINE
  5
1D6
330
1AA
100
AcDbEntity
  8
LAYERGROUP-1
  6
CONTINUOUS
 62
     3
100
AcDbLine
 10
53.220899
 20
121.664744
 30
0.0
 11
54.084148
 21
121.664744
 31
0.0
  0
ARC
  5
1D7
330
1AA
100
AcDbEntity
  8
LAYERGROUP-1
  6
CONTINUOUS
 62
     3
100
AcDbCircle
 10
54.500814
 20
122.248077
 30
0.0
 40
0.4166666666666572
100
AcDbArc
 50
0.0
 51
180.0
  0
LINE
  5
1D8
330
1AA
100
AcDbEntity
  8
LAYERGROUP-1
  6
CONTINUOUS
 62
     3
100
AcDbLine
 10
46.584148
 20
118.609188
 30
0.0
 11
46.167481
 21
118.609188
 31
0.0
  0
LINE
  5
1D9
330
1AA
100
AcDbEntity
  8
LAYERGROUP-1
  6
CONTINUOUS
 62
     3
100
AcDbLine
 10
46.167481
 20
118.609188
 30
0.0
 11
46.167481
 21
121.248077
 31
0.0
  0
LINE
  5
1DA
330
1AA
100
AcDbEntity
  8
LAYERGROUP-1
  6
CONTINUOUS
 62
     3
100
AcDbLine
 10
46.167481
 20
121.248077
 30
0.0
 11
46.584148
 21
121.664744
 31
0.0
  0
LINE
  5
1DB
330
1AA
100
AcDbEntity
  8
LAYERGROUP-1
  6
CONTINUOUS
 62
     3
100
AcDbLine
 10
46.584148
 20
121.664744
 30
0.0
 11
46.584148
 21
122.248077
 31
0.0
  0
LINE
  5
1DC
330
1AA
100
AcDbEntity
  8
LAYERGROUP-1
  6
CONTINUOUS
 62
     3
100
AcDbLine
 10
45.750814
 20
122.248077
 30
0.0
 11
45.750814
 21
121.95641
 31
0.0
  0
LINE
  5
1DD
330
1AA
100
AcDbEntity
  8
LAYERGROUP-1
  6
CONTINUOUS
 62
     3
100
AcDbLine
 10
45.750814
 20
122.248077
 30
0.0
 11
45.334148
 21
122.248077
 31
0.0
  0
LINE
  5
1DE
330
1AA
100
AcDbEntity
  8
LAYERGROUP-1
  6
CONTINUOUS
 62
     3
100
AcDbLine
 10
47.447396
 20
121.664744
 30
0.0
 11
46.584148
 21
121.664744
 31
0.0
  0
ARC
  5
1DF
330
1AA
100
AcDbEntity
  8
LAYERGROUP-1
  6
CONTINUOUS
 62
     3
100
AcDbCircle
 10
46.167481
 20
122.248077
 30
0.0
 40
0.4166666666666572
100
AcDbArc
 50
0.0
 51
180.0
  0
ARC
  5
1E0
330
1AA
100
AcDbEntity
  8
LAYERGROUP-1
  6
CONTINUOUS
 62
     3
100
AcDbCircle
 10
42.934148
 20
115.598077
 30
0.0
 40
0.6
100
AcDbArc
 50
180.0
 51
270.0
  0
ENDBLK
  5
1AC
330
1AA
100
AcDbEntity
  8
0
100
AcDbBlockEnd
  0
BLOCK
  5
1E3
330
1E2
100
AcDbEntity
  8
0
100
AcDbBlockBegin
  2
BLKF024
 70
     0
 71
     0
 10
0.0
 20
0.0
 30
0.0
  3
BLKF024
  1

  0
LINE
  5
1E6
330
1E2
100
AcDbEntity
  8
LAYERGROUP-1
  6
CONTINUOUS
 62
     3
100
AcDbLine
 10
54.734148
 20
124.998077
 30
0.0
 11
45.934148
 21
124.998077
 31
0.0
  0
LINE
  5
1E7
330
1E2
100
AcDbEntity
  8
LAYERGROUP-1
  6
CONTINUOUS
 62
     3
100
AcDbLine
 10
55.334148
 20
124.398077
 30
0.0
 11
55.334148
 21
118.33141
 31
0.0
  0
LINE
  5
1E8
330
1E2
100
AcDbEntity
  8
LAYERGROUP-1
  6
CONTINUOUS
 62
     3
100
AcDbLine
 10
45.334148
 20
124.398077
 30
0.0
 11
45.334148
 21
118.33141
 31
0.0
  0
LINE
  5
1E9
330
1E2
100
AcDbEntity
  8
LAYERGROUP-1
  6
CONTINUOUS
 62
     3
100
AcDbLine
 10
70.834148
 20
118.33141
 30
0.0
 11
53.220899
 21
118.33141
 31
0.0
  0
LINE
  5
1EA
330
1E2
100
AcDbEntity
  8
LAYERGROUP-1
  6
CONTINUOUS
 62
     3
100
AcDbLine
 10
47.447396
 20
118.33141
 30
0.0
 11
42.334148
 21
118.33141
 31
0.0
  0
CIRCLE
  5
1EB
330
1E2
100
AcDbEntity
  8
LAYERGROUP-1
  6
CONTINUOUS
 62
     3
100
AcDbCircle
 10
50.334148
 20
119.998077
 30
0.0
 40
3.333333333333333
  0
LINE
  5
1EC
330
1E2
100
AcDbEntity
  8
LAYERGROUP-1
  6
CONTINUOUS
 62
     3
100
AcDbLine
 10
54.734148
 20
114.998077
 30
0.0
 11
42.934148
 21
114.998077
 31
0.0
  0
ARC
  5
1ED
330
1E2
100
AcDbEntity
  8
LAYERGROUP-1
  6
CONTINUOUS
 62
     3
100
AcDbCircle
 10
54.734148
 20
124.398077
 30
0.0
 40
0.6
100
AcDbArc
 50
0.0
 51
90.0
  0
ARC
  5
1EE
330
1E2
100
AcDbEntity
  8
LAYERGROUP-1
  6
CONTINUOUS
 62
     3
100
AcDbCircle
 10
45.934148
 20
124.398077
 30
0.0
 40
0.6
100
AcDbArc
 50
90.0
 51
180.0
  0
LINE
  5
1EF
330
1E2
100
AcDbEntity
  8
LAYERGROUP-1
  6
CONTINUOUS
 62
     3
100
AcDbLine
 10
70.234148
 20
102.998077
 30
0.0
 11
42.934148
 21
102.998077
 31
0.0
  0
LINE
  5
1F0
330
1E2
100
AcDbEntity
  8
LAYERGROUP-1
  6
CONTINUOUS
 62
     3
100
AcDbLine
 10
55.334148
 20
99.664744
 30
0.0
 11
55.334148
 21
93.598077
 31
0.0
  0
LINE
  5
1F1
330
1E2
100
AcDbEntity
  8
LAYERGROUP-1
  6
CONTINUOUS
 62
     3
100
AcDbLine
 10
45.334148
 20
99.664744
 30
0.0
 11
45.334148
 21
93.598077
 31
0.0
  0
LINE
  5
1F2
330
1E2
100
AcDbEntity
  8
LAYERGROUP-1
  6
CONTINUOUS
 62
     3
100
AcDbLine
 10
70.834148
 20
99.664744
 30
0.0
 11
53.220899
 21
99.664744
 31
0.0
  0
LINE
  5
1F3
330
1E2
100
AcDbEntity
  8
LAYERGROUP-1
  6
CONTINUOUS
 62
     3
100
AcDbLine
 10
47.447396
 20
99.664744
 30
0.0
 11
42.334148
 21
99.664744
 31
0.0
  0
CIRCLE
  5
1F4
330
1E2
100
AcDbEntity
  8
LAYERGROUP-1
  6
CONTINUOUS
 62
     3
100
AcDbCircle
 10
50.334148
 20
97.998077
 30
0.0
 40
3.333333333333333
  0
LINE
  5
1F5
330
1E2
100
AcDbEntity
  8
LAYERGROUP-1
  6
CONTINUOUS
 62
     3
100
AcDbLine
 10
54.734148
 20
92.998077
 30
0.0
 11
45.934148
 21
92.998077
 31
0.0
  0
ARC
  5
1F6
330
1E2
100
AcDbEntity
  8
LAYERGROUP-1
  6
CONTINUOUS
 62
     3
100
AcDbCircle
 10
54.734148
 20
93.598077
 30
0.0
 40
0.6
100
AcDbArc
 50
270.0
 51
360.0
  0
ARC
  5
1F7
330
1E2
100
AcDbEntity
  8
LAYERGROUP-1
  6
CONTINUOUS
 62
     3
100
AcDbCircle
 10
45.934148
 20
93.598077
 30
0.0
 40
0.6
100
AcDbArc
 50
180.0
 51
270.0
  0
LINE
  5
1F8
330
1E2
100
AcDbEntity
  8
LAYERGROUP-1
  6
CONTINUOUS
 62
     3
100
AcDbLine
 10
54.084148
 20
118.609188
 30
0.0
 11
54.500814
 21
118.609188
 31
0.0
  0
LINE
  5
1F9
330
1E2
100
AcDbEntity
  8
LAYERGROUP-1
  6
CONTINUOUS
 62
     3
100
AcDbLine
 10
54.500814
 20
118.609188
 30
0.0
 11
54.500814
 21
121.248077
 31
0.0
  0
LINE
  5
1FA
330
1E2
100
AcDbEntity
  8
LAYERGROUP-1
  6
CONTINUOUS
 62
     3
100
AcDbLine
 10
54.500814
 20
121.248077
 30
0.0
 11
54.084148
 21
121.664744
 31
0.0
  0
LINE
  5
1FB
330
1E2
100
AcDbEntity
  8
LAYERGROUP-1
  6
CONTINUOUS
 62
     3
100
AcDbLine
 10
54.084148
 20
121.664744
 30
0.0
 11
54.084148
 21
122.248077
 31
0.0
  0
LINE
  5
1FC
330
1E2
100
AcDbEntity
  8
LAYERGROUP-1
  6
CONTINUOUS
 62
     3
100
AcDbLine
 10
54.917481
 20
122.248077
 30
0.0
 11
54.917481
 21
121.95641
 31
0.0
  0
LINE
  5
1FD
330
1E2
100
AcDbEntity
  8
LAYERGROUP-1
  6
CONTINUOUS
 62
     3
100
AcDbLine
 10
54.917481
 20
122.248077
 30
0.0
 11
55.334148
 21
122.248077
 31
0.0
  0
LINE
  5
1FE
330
1E2
100
AcDbEntity
  8
LAYERGROUP-1
  6
CONTINUOUS
 62
     3
100
AcDbLine
 10
53.220899
 20
121.664744
 30
0.0
 11
54.084148
 21
121.664744
 31
0.0
  0
ARC
  5
1FF
330
1E2
100
AcDbEntity
  8
LAYERGROUP-1
  6
CONTINUOUS
 62
     3
100
AcDbCircle
 10
54.500814
 20
122.248077
 30
0.0
 40
0.4166666666666572
100
AcDbArc
 50
0.0
 51
180.0
  0
LINE
  5
200
330
1E2
100
AcDbEntity
  8
LAYERGROUP-1
  6
CONTINUOUS
 62
     3
100
AcDbLine
 10
46.584148
 20
118.609188
 30
0.0
 11
46.167481
 21
118.609188
 31
0.0
  0
LINE
  5
201
330
1E2
100
AcDbEntity
  8
LAYERGROUP-1
  6
CONTINUOUS
 62
     3
100
AcDbLine
 10
46.167481
 20
118.609188
 30
0.0
 11
46.167481
 21
121.248077
 31
0.0
  0
LINE
  5
202
330
1E2
100
AcDbEntity
  8
LAYERGROUP-1
  6
CONTINUOUS
 62
     3
100
AcDbLine
 10
46.167481
 20
121.248077
 30
0.0
 11
46.584148
 21
121.664744
 31
0.0
  0
LINE
  5
203
330
1E2
100
AcDbEntity
  8
LAYERGROUP-1
  6
CONTINUOUS
 62
     3
100
AcDbLine
 10
46.584148
 20
121.664744
 30
0.0
 11
46.584148
 21
122.248077
 31
0.0
  0
LINE
  5
204
330
1E2
100
AcDbEntity
  8
LAYERGROUP-1
  6
CONTINUOUS
 62
     3
100
AcDbLine
 10
45.750814
 20
122.248077
 30
0.0
 11
45.750814
 21
121.95641
 31
0.0
  0
LINE
  5
205
330
1E2
100
AcDbEntity
  8
LAYERGROUP-1
  6
CONTINUOUS
 62
     3
100
AcDbLine
 10
45.750814
 20
122.248077
 30
0.0
 11
45.334148
 21
122.248077
 31
0.0
  0
LINE
  5
206
330
1E2
100
AcDbEntity
  8
LAYERGROUP-1
  6
CONTINUOUS
 62
     3
100
AcDbLine
 10
47.447396
 20
121.664744
 30
0.0
 11
46.584148
 21
121.664744
 31
0.0
  0
ARC
  5
207
330
1E2
100
AcDbEntity
  8
LAYERGROUP-1
  6
CONTINUOUS
 62
     3
100
AcDbCircle
 10
46.167481
 20
122.248077
 30
0.0
 40
0.4166666666666572
100
AcDbArc
 50
0.0
 51
180.0
  0
LINE
  5
208
330
1E2
100
AcDbEntity
  8
LAYERGROUP-1
  6
CONTINUOUS
 62
     3
100
AcDbLine
 10
54.084148
 20
99.386966
 30
0.0
 11
54.500814
 21
99.386966
 31
0.0
  0
LINE
  5
209
330
1E2
100
AcDbEntity
  8
LAYERGROUP-1
  6
CONTINUOUS
 62
     3
100
AcDbLine
 10
54.500814
 20
99.386966
 30
0.0
 11
54.500814
 21
96.748077
 31
0.0
  0
LINE
  5
20A
330
1E2
100
AcDbEntity
  8
LAYERGROUP-1
  6
CONTINUOUS
 62
     3
100
AcDbLine
 10
54.500814
 20
96.748077
 30
0.0
 11
54.084148
 21
96.33141
 31
0.0
  0
LINE
  5
20B
330
1E2
100
AcDbEntity
  8
LAYERGROUP-1
  6
CONTINUOUS
 62
     3
100
AcDbLine
 10
54.084148
 20
96.33141
 30
0.0
 11
54.084148
 21
95.748077
 31
0.0
  0
LINE
  5
20C
330
1E2
100
AcDbEntity
  8
LAYERGROUP-1
  6
CONTINUOUS
 62
     3
100
AcDbLine
 10
54.917481
 20
95.748077
 30
0.0
 11
54.917481
 21
96.039744
 31
0.0
  0
LINE
  5
20D
330
1E2
100
AcDbEntity
  8
LAYERGROUP-1
  6
CONTINUOUS
 62
     3
100
AcDbLine
 10
54.917481
 20
95.748077
 30
0.0
 11
55.334148
 21
95.748077
 31
0.0
  0
LINE
  5
20E
330
1E2
100
AcDbEntity
  8
LAYERGROUP-1
  6
CONTINUOUS
 62
     3
100
AcDbLine
 10
53.220899
 20
96.33141
 30
0.0
 11
54.084148
 21
96.33141
 31
0.0
  0
ARC
  5
20F
330
1E2
100
AcDbEntity
  8
LAYERGROUP-1
  6
CONTINUOUS
 62
     3
100
AcDbCircle
 10
54.500814
 20
95.748077
 30
0.0
 40
0.4166666666666572
100
AcDbArc
 50
180.0
 51
360.0
  0
LINE
  5
210
330
1E2
100
AcDbEntity
  8
LAYERGROUP-1
  6
CONTINUOUS
 62
     3
100
AcDbLine
 10
46.584148
 20
99.386966
 30
0.0
 11
46.167481
 21
99.386966
 31
0.0
  0
LINE
  5
211
330
1E2
100
AcDbEntity
  8
LAYERGROUP-1
  6
CONTINUOUS
 62
     3
100
AcDbLine
 10
46.167481
 20
99.386966
 30
0.0
 11
46.167481
 21
96.748077
 31
0.0
  0
LINE
  5
212
330
1E2
100
AcDbEntity
  8
LAYERGROUP-1
  6
CONTINUOUS
 62
     3
100
AcDbLine
 10
46.167481
 20
96.748077
 30
0.0
 11
46.584148
 21
96.33141
 31
0.0
  0
LINE
  5
213
330
1E2
100
AcDbEntity
  8
LAYERGROUP-1
  6
CONTINUOUS
 62
     3
100
AcDbLine
 10
46.584148
 20
96.33141
 30
0.0
 11
46.584148
 21
95.748077
 31
0.0
  0
LINE
  5
214
330
1E2
100
AcDbEntity
  8
LAYERGROUP-1
  6
CONTINUOUS
 62
     3
100
AcDbLine
 10
45.750814
 20
95.748077
 30
0.0
 11
45.750814
 21
96.039744
 31
0.0
  0
LINE
  5
215
330
1E2
100
AcDbEntity
  8
LAYERGROUP-1
  6
CONTINUOUS
 62
     3
100
AcDbLine
 10
45.750814
 20
95.748077
 30
0.0
 11
45.334148
 21
95.748077
 31
0.0
  0
LINE
  5
216
330
1E2
100
AcDbEntity
  8
LAYERGROUP-1
  6
CONTINUOUS
 62
     3
100
AcDbLine
 10
47.447396
 20
96.33141
 30
0.0
 11
46.584148
 21
96.33141
 31
0.0
  0
ARC
  5
217
330
1E2
100
AcDbEntity
  8
LAYERGROUP-1
  6
CONTINUOUS
 62
     3
100
AcDbCircle
 10
46.167481
 20
95.748077
 30
0.0
 40
0.4166666666666572
100
AcDbArc
 50
180.0
 51
360.0
  0
ARC
  5
218
330
1E2
100
AcDbEntity
  8
LAYERGROUP-1
  6
CONTINUOUS
 62
     3
100
AcDbCircle
 10
42.934148
 20
102.398077
 30
0.0
 40
0.6
100
AcDbArc
 50
90.0
 51
180.0
  0
ARC
  5
219
330
1E2
100
AcDbEntity
  8
LAYERGROUP-1
  6
CONTINUOUS
 62
     3
100
AcDbCircle
 10
70.234148
 20
102.398077
 30
0.0
 40
0.6
100
AcDbArc
 50
0.0
 51
90.0
  0
ENDBLK
  5
1E4
330
1E2
100
AcDbEntity
  8
0
100
AcDbBlockEnd
  0
BLOCK
  5
21F
330
21E
100
AcDbEntity
  8
0
100
AcDbBlockBegin
  2
*D23
 70
     1
 71
     0
 10
0.0
 20
0.0
 30
0.0
  3
*D23
  1

  0
TEXT
  5
221
330
21E
100
AcDbEntity
  8
LAYERGROUP-1
  6
CONTINUOUS
 62
     7
100
AcDbText
 10
67.834145
 20
44.382912
 30
0.0
 40
4.0
  1
50
 41
0.851351
  7
FX_VECTOR
 72
     5
 11
73.834145
 21
44.382912
 31
0.0
100
AcDbText
  0
LINE
  5
222
330
21E
100
AcDbEntity
  8
LAYERGROUP-1
  6
CONTINUOUS
 62
     7
100
AcDbLine
 10
45.834148
 20
43.382913
 30
0.0
 11
95.834148
 21
43.382913
 31
0.0
  0
INSERT
  5
223
330
21E
100
AcDbEntity
  8
LAYERGROUP-1
  6
CONTINUOUS
 62
     7
100
AcDbBlockReference
  2
FXTIP_ARROW_S
 10
45.834148
 20
43.382913
 30
0.0
 41
3.0
 42
3.0
 50
180.0
  0
INSERT
  5
224
330
21E
100
AcDbEntity
  8
LAYERGROUP-1
  6
CONTINUOUS
 62
     7
100
AcDbBlockReference
  2
FXTIP_ARROW_E
 10
95.834148
 20
43.382913
 30
0.0
 41
3.0
 42
3.0
 50
360.0
  0
LINE
  5
225
330
21E
100
AcDbEntity
  8
LAYERGROUP-1
  6
CONTINUOUS
 62
     7
100
AcDbLine
 10
45.834148
 20
73.261379
 30
0.0
 11
45.834148
 21
42.382913
 31
0.0
  0
LINE
  5
226
330
21E
100
AcDbEntity
  8
LAYERGROUP-1
  6
CONTINUOUS
 62
     7
100
AcDbLine
 10
95.834148
 20
73.261379
 30
0.0
 11
95.834148
 21
42.382913
 31
0.0
  0
ENDBLK
  5
220
330
21E
100
AcDbEntity
  8
0
100
AcDbBlockEnd
  0
BLOCK
  5
229
330
228
100
AcDbEntity
  8
0
100
AcDbBlockBegin
  2
*D24
 70
     1
 71
     0
 10
0.0
 20
0.0
 30
0.0
  3
*D24
  1

  0
TEXT
  5
22B
330
228
100
AcDbEntity
  8
LAYERGROUP-1
  6
CONTINUOUS
 62
     7
100
AcDbText
 10
67.834145
 20
34.86338
 30
0.0
 40
4.0
  1
57
 41
0.851351
  7
FX_VECTOR
 72
     5
 11
73.834145
 21
34.86338
 31
0.0
100
AcDbText
  0
LINE
  5
22C
330
228
100
AcDbEntity
  8
LAYERGROUP-1
  6
CONTINUOUS
 62
     7
100
AcDbLine
 10
42.334148
 20
33.863382
 30
0.0
 11
99.334148
 21
33.863382
 31
0.0
  0
INSERT
  5
22D
330
228
100
AcDbEntity
  8
LAYERGROUP-1
  6
CONTINUOUS
 62
     7
100
AcDbBlockReference
  2
FXTIP_ARROW_S
 10
42.334148
 20
33.863382
 30
0.0
 41
3.0
 42
3.0
 50
180.0
  0
INSERT
  5
22E
330
228
100
AcDbEntity
  8
LAYERGROUP-1
  6
CONTINUOUS
 62
     7
100
AcDbBlockReference
  2
FXTIP_ARROW_E
 10
99.334148
 20
33.863382
 30
0.0
 41
3.0
 42
3.0
 50
360.0
  0
LINE
  5
22F
330
228
100
AcDbEntity
  8
LAYERGROUP-1
  6
CONTINUOUS
 62
     7
100
AcDbLine
 10
42.334148
 20
98.664744
 30
0.0
 11
42.334148
 21
32.863382
 31
0.0
  0
LINE
  5
230
330
228
100
AcDbEntity
  8
LAYERGROUP-1
  6
CONTINUOUS
 62
     7
100
AcDbLine
 10
99.334148
 20
98.664744
 30
0.0
 11
99.334148
 21
32.863382
 31
0.0
  0
ENDBLK
  5
22A
330
228
100
AcDbEntity
  8
0
100
AcDbBlockEnd
  0
BLOCK
  5
233
330
232
100
AcDbEntity
  8
0
100
AcDbBlockBegin
  2
*D25
 70
     1
 71
     0
 10
0.0
 20
0.0
 30
0.0
  3
*D25
  1

  0
TEXT
  5
235
330
232
100
AcDbEntity
  8
LAYERGROUP-1
  6
CONTINUOUS
 62
     7
100
AcDbText
 10
110.89637
 20
104.498077
 30
0.0
 40
4.0
  1
%%c12
 50
90.0
 41
0.84375
  7
FX_VECTOR
 72
     5
 11
110.89637
 21
113.498077
 31
0.0
100
AcDbText
  0
LINE
  5
236
330
232
100
AcDbEntity
  8
LAYERGROUP-1
  6
CONTINUOUS
 62
     7
100
AcDbLine
 10
111.896371
 20
102.998077
 30
0.0
 11
111.896371
 21
114.998077
 31
0.0
  0
INSERT
  5
237
330
232
100
AcDbEntity
  8
LAYERGROUP-1
  6
CONTINUOUS
 62
     7
100
AcDbBlockReference
  2
FXTIP_ARROW_S
 10
111.896371
 20
102.998077
 30
0.0
 41
3.0
 42
3.0
 50
270.0
  0
INSERT
  5
238
330
232
100
AcDbEntity
  8
LAYERGROUP-1
  6
CONTINUOUS
 62
     7
100
AcDbBlockReference
  2
FXTIP_ARROW_E
 10
111.896371
 20
114.998077
 30
0.0
 41
3.0
 42
3.0
 50
90.0
  0
LINE
  5
239
330
232
100
AcDbEntity
  8
LAYERGROUP-1
  6
CONTINUOUS
 62
     7
100
AcDbLine
 10
99.734148
 20
102.998077
 30
0.0
 11
112.896371
 21
102.998077
 31
0.0
  0
LINE
  5
23A
330
232
100
AcDbEntity
  8
LAYERGROUP-1
  6
CONTINUOUS
 62
     7
100
AcDbLine
 10
99.734148
 20
114.998077
 30
0.0
 11
112.896371
 21
114.998077
 31
0.0
  0
ENDBLK
  5
234
330
232
100
AcDbEntity
  8
0
100
AcDbBlockEnd
  0
BLOCK
  5
23D
330
23C
100
AcDbEntity
  8
0
100
AcDbBlockBegin
  2
*D26
 70
     1
 71
     0
 10
0.0
 20
0.0
 30
0.0
  3
*D26
  1

  0
TEXT
  5
23F
330
23C
100
AcDbEntity
  8
LAYERGROUP-1
  6
CONTINUOUS
 62
     7
100
AcDbText
 10
123.513443
 20
102.998077
 30
0.0
 40
4.0
  1
%%c100
 50
90.0
 41
0.828947
  7
FX_VECTOR
 72
     5
 11
123.513443
 21
114.998077
 31
0.0
100
AcDbText
  0
LINE
  5
240
330
23C
100
AcDbEntity
  8
LAYERGROUP-1
  6
CONTINUOUS
 62
     7
100
AcDbLine
 10
124.513438
 20
58.998077
 30
0.0
 11
124.513438
 21
158.998077
 31
0.0
  0
INSERT
  5
241
330
23C
100
AcDbEntity
  8
LAYERGROUP-1
  6
CONTINUOUS
 62
     7
100
AcDbBlockReference
  2
FXTIP_ARROW_S
 10
124.513438
 20
58.998077
 30
0.0
 41
3.0
 42
3.0
 50
270.0
  0
INSERT
  5
242
330
23C
100
AcDbEntity
  8
LAYERGROUP-1
  6
CONTINUOUS
 62
     7
100
AcDbBlockReference
  2
FXTIP_ARROW_E
 10
124.513438
 20
158.998077
 30
0.0
 41
3.0
 42
3.0
 50
90.0
  0
LINE
  5
243
330
23C
100
AcDbEntity
  8
LAYERGROUP-1
  6
CONTINUOUS
 62
     7
100
AcDbLine
 10
71.834148
 20
58.998077
 30
0.0
 11
125.513438
 21
58.998077
 31
0.0
  0
LINE
  5
244
330
23C
100
AcDbEntity
  8
LAYERGROUP-1
  6
CONTINUOUS
 62
     7
100
AcDbLine
 10
71.834148
 20
158.998077
 30
0.0
 11
125.513438
 21
158.998077
 31
0.0
  0
ENDBLK
  5
23E
330
23C
100
AcDbEntity
  8
0
100
AcDbBlockEnd
  0
BLOCK
  5
248
330
247
100
AcDbEntity
  8
0
100
AcDbBlockBegin
  2
BLKF029
 70
     0
 71
     0
 10
0.0
 20
0.0
 30
0.0
  3
BLKF029
  1

  0
LINE
  5
24B
330
247
100
AcDbEntity
  8
}}ﾊﾊGG血CCТ
  6
CONTINUOUS
 62
     7
100
AcDbLine
 10
10.0
 20
10.0
 30
0.0
 11
287.0
 21
10.0
 31
0.0
  0
LINE
  5
24C
330
247
100
AcDbEntity
  8
}}ﾊﾊGG血CCТ
  6
CONTINUOUS
 62
     7
100
AcDbLine
 10
10.0
 20
10.0
 30
0.0
 11
10.0
 21
200.0
 31
0.0
  0
LINE
  5
24D
330
247
100
AcDbEntity
  8
}}ﾊﾊGG血CCТ
  6
CONTINUOUS
 62
     7
100
AcDbLine
 10
10.0
 20
200.0
 30
0.0
 11
287.0
 21
200.0
 31
0.0
  0
LINE
  5
24E
330
247
100
AcDbEntity
  8
}}ﾊﾊGG血CCТ
  6
CONTINUOUS
 62
     7
100
AcDbLine
 10
287.0
 20
200.0
 30
0.0
 11
287.0
 21
10.0
 31
0.0
  0
LINE
  5
24F
330
247
100
AcDbEntity
  8
}}ﾊﾊGG血CCТ
  6
CONTINUOUS
 62
     7
100
AcDbLine
 10
30.0
 20
10.0
 30
0.0
 11
30.0
 21
20.0
 31
0.0
  0
TEXT
  5
250
330
247
100
AcDbEntity
  8
}}ﾊﾊGG血CCТ
  6
CONTINUOUS
 62
     7
100
AcDbText
 10
14.738815
 20
11.596879
 30
0.0
 40
6.648749
  1
品名
 41
1.083413
  7
FX_VECTOR
 72
     5
 11
26.058355
 21
11.596879
 31
0.0
100
AcDbText
  0
LINE
  5
251
330
247
100
AcDbEntity
  8
}}ﾊﾊGG血CCТ
  6
CONTINUOUS
 62
     7
100
AcDbLine
 10
110.0
 20
20.0
 30
0.0
 11
110.0
 21
10.0
 31
0.0
  0
LINE
  5
252
330
247
100
AcDbEntity
  8
}}ﾊﾊGG血CCТ
  6
CONTINUOUS
 62
     7
100
AcDbLine
 10
10.0
 20
20.0
 30
0.0
 11
287.0
 21
20.0
 31
0.0
  0
INSERT
  5
256
330
247
100
AcDbEntity
  8
0
100
AcDbBlockReference
  2
BLKF030
 10
0.0
 20
0.0
 30
0.0
  0
INSERT
  5
25F
330
247
100
AcDbEntity
  8
0
100
AcDbBlockReference
  2
BLKF031
 10
0.0
 20
0.0
 30
0.0
  0
HATCH
  5
26F
330
247
100
AcDbEntity
  8
GR1-1
  6
CONTINUOUS
 62
     7
100
AcDbHatch
 10
0.0
 20
0.0
 30
0.0
210
0.0
220
0.0
230
1.0
  2

 70
     0
 71
     1
 91
        2
 92
        0
 93
        4
 72
     1
 10
215.8018997861325
 20
17.91346152
 11
221.8018997861325
 21
17.91346152
 72
     1
 10
221.8018997861325
 20
17.91346152
 11
221.8018997861325
 21
11.91346152
 72
     1
 10
221.8018997861325
 20
11.91346152
 11
215.8018997861325
 21
11.91346152
 72
     1
 10
215.8018997861325
 20
11.91346152
 11
215.8018997861325
 21
17.91346152
 97
        0
 92
        0
 93
       15
 72
     1
 10
218.8018997861325
 20
17.76923076000002
 11
215.9461305461325
 21
14.91346152
 72
     1
 10
215.9461305461325
 20
14.91346152
 11
218.8018997861325
 21
12.05769228000001
 72
     1
 10
218.8018997861325
 20
12.05769228000001
 11
220.3595920661325
 21
13.61538462
 72
     1
 10
220.3595920661325
 20
13.61538462
 11
220.3595920661325
 21
12.98076924
 72
     1
 10
220.3595920661325
 20
12.98076924
 11
221.2249766861325
 21
12.98076924
 72
     1
 10
221.2249766861325
 20
12.98076924
 11
221.2249766861325
 21
15.00000000000001
 72
     1
 10
221.2249766861325
 20
15.00000000000001
 11
218.8018997861325
 21
15.00000000000001
 72
     1
 10
218.8018997861325
 20
15.00000000000001
 11
218.8018997861325
 21
14.13461538000001
 72
     1
 10
218.8018997861325
 20
14.13461538000001
 11
219.2461305461325
 21
14.13461538000001
 72
     1
 10
219.2461305461325
 20
14.13461538000001
 11
218.8018997861325
 21
13.69038462
 72
     1
 10
218.8018997861325
 20
13.69038462
 11
217.5788228861325
 21
14.91346152
 72
     1
 10
217.5788228861325
 20
14.91346152
 11
218.8018997861325
 21
16.13653842000003
 72
     1
 10
218.8018997861325
 20
16.13653842000003
 11
219.5922844061325
 21
15.3461538
 72
     1
 10
219.5922844061325
 20
15.3461538
 11
221.2249766861325
 21
15.3461538
 72
     1
 10
221.2249766861325
 20
15.3461538
 11
218.8018997861325
 21
17.76923076000002
 97
        0
 75
     0
 76
     0
 52
45.0
 41
0.05
 77
     0
 78
     1
 53
45.0
 43
0.0
 44
0.0
 45
-0.0353553390593274
 46
0.0353553390593274
 79
     0
 98
        0
  0
TEXT
  5
270
330
247
100
AcDbEntity
  8
}}ﾊﾊGG血CCТ
  6
CONTINUOUS
 62
     7
100
AcDbText
 10
226.225754
 20
11.461285
 30
0.0
 40
6.0
  1
GOLD CASTER
 41
0.719626
  7
FX_VECTOR
 72
     5
 11
270.225754
 21
11.461285
 31
0.0
100
AcDbText
  0
LINE
  5
271
330
247
100
AcDbEntity
  8
}}ﾊﾊGG血CCТ
  6
CONTINUOUS
 62
     7
100
AcDbLine
 10
130.0
 20
10.0
 30
0.0
 11
130.0
 21
20.0
 31
0.0
  0
TEXT
  5
272
330
247
100
AcDbEntity
  8
}}ﾊﾊGG血CCТ
  6
CONTINUOUS
 62
     7
100
AcDbText
 10
114.738815
 20
11.596879
 30
0.0
 40
6.648749
  1
図番
 41
1.083413
  7
FX_VECTOR
 72
     5
 11
126.058355
 21
11.596879
 31
0.0
100
AcDbText
  0
LINE
  5
273
330
247
100
AcDbEntity
  8
}}ﾊﾊGG血CCТ
  6
CONTINUOUS
 62
     7
100
AcDbLine
 10
210.0
 20
20.0
 30
0.0
 11
210.0
 21
10.0
 31
0.0
  0
ENDBLK
  5
249
330
247
100
AcDbEntity
  8
0
100
AcDbBlockEnd
  0
BLOCK
  5
254
330
253
100
AcDbEntity
  8
0
100
AcDbBlockBegin
  2
BLKF030
 70
     0
 71
     0
 10
0.0
 20
0.0
 30
0.0
  3
BLKF030
  1

  0
LINE
  5
258
330
253
100
AcDbEntity
  8
0-1
  6
CONTINUOUS
 62
     7
100
AcDbLine
 10
221.8019
 20
17.913462
 30
0.0
 11
215.8019
 21
17.913462
 31
0.0
  0
LINE
  5
259
330
253
100
AcDbEntity
  8
0-1
  6
CONTINUOUS
 62
     7
100
AcDbLine
 10
215.8019
 20
17.913462
 30
0.0
 11
215.8019
 21
11.913462
 31
0.0
  0
LINE
  5
25A
330
253
100
AcDbEntity
  8
0-1
  6
CONTINUOUS
 62
     7
100
AcDbLine
 10
215.8019
 20
11.913462
 30
0.0
 11
221.8019
 21
11.913462
 31
0.0
  0
LINE
  5
25B
330
253
100
AcDbEntity
  8
0-1
  6
CONTINUOUS
 62
     7
100
AcDbLine
 10
221.8019
 20
11.913462
 30
0.0
 11
221.8019
 21
17.913462
 31
0.0
  0
ENDBLK
  5
255
330
253
100
AcDbEntity
  8
0
100
AcDbBlockEnd
  0
BLOCK
  5
25D
330
25C
100
AcDbEntity
  8
0
100
AcDbBlockBegin
  2
BLKF031
 70
     0
 71
     0
 10
0.0
 20
0.0
 30
0.0
  3
BLKF031
  1

  0
LINE
  5
260
330
25C
100
AcDbEntity
  8
0-1
  6
CONTINUOUS
 62
     7
100
AcDbLine
 10
221.224977
 20
15.346154
 30
0.0
 11
218.8019
 21
17.769231
 31
0.0
  0
LINE
  5
261
330
25C
100
AcDbEntity
  8
0-1
  6
CONTINUOUS
 62
     7
100
AcDbLine
 10
218.8019
 20
17.769231
 30
0.0
 11
215.946131
 21
14.913462
 31
0.0
  0
LINE
  5
262
330
25C
100
AcDbEntity
  8
0-1
  6
CONTINUOUS
 62
     7
100
AcDbLine
 10
215.946131
 20
14.913462
 30
0.0
 11
218.8019
 21
12.057692
 31
0.0
  0
LINE
  5
263
330
25C
100
AcDbEntity
  8
0-1
  6
CONTINUOUS
 62
     7
100
AcDbLine
 10
218.8019
 20
12.057692
 30
0.0
 11
220.359592
 21
13.615385
 31
0.0
  0
LINE
  5
264
330
25C
100
AcDbEntity
  8
0-1
  6
CONTINUOUS
 62
     7
100
AcDbLine
 10
220.359592
 20
13.615385
 30
0.0
 11
220.359592
 21
12.980769
 31
0.0
  0
LINE
  5
265
330
25C
100
AcDbEntity
  8
0-1
  6
CONTINUOUS
 62
     7
100
AcDbLine
 10
220.359592
 20
12.980769
 30
0.0
 11
221.224977
 21
12.980769
 31
0.0
  0
LINE
  5
266
330
25C
100
AcDbEntity
  8
0-1
  6
CONTINUOUS
 62
     7
100
AcDbLine
 10
221.224977
 20
12.980769
 30
0.0
 11
221.224977
 21
15.0
 31
0.0
  0
LINE
  5
267
330
25C
100
AcDbEntity
  8
0-1
  6
CONTINUOUS
 62
     7
100
AcDbLine
 10
221.224977
 20
15.0
 30
0.0
 11
218.8019
 21
15.0
 31
0.0
  0
LINE
  5
268
330
25C
100
AcDbEntity
  8
0-1
  6
CONTINUOUS
 62
     7
100
AcDbLine
 10
218.8019
 20
15.0
 30
0.0
 11
218.8019
 21
14.134615
 31
0.0
  0
LINE
  5
269
330
25C
100
AcDbEntity
  8
0-1
  6
CONTINUOUS
 62
     7
100
AcDbLine
 10
218.8019
 20
14.134615
 30
0.0
 11
219.246131
 21
14.134615
 31
0.0
  0
LINE
  5
26A
330
25C
100
AcDbEntity
  8
0-1
  6
CONTINUOUS
 62
     7
100
AcDbLine
 10
219.246131
 20
14.134615
 30
0.0
 11
218.8019
 21
13.690385
 31
0.0
  0
LINE
  5
26B
330
25C
100
AcDbEntity
  8
0-1
  6
CONTINUOUS
 62
     7
100
AcDbLine
 10
218.8019
 20
13.690385
 30
0.0
 11
217.578823
 21
14.913462
 31
0.0
  0
LINE
  5
26C
330
25C
100
AcDbEntity
  8
0-1
  6
CONTINUOUS
 62
     7
100
AcDbLine
 10
217.578823
 20
14.913462
 30
0.0
 11
218.8019
 21
16.136538
 31
0.0
  0
LINE
  5
26D
330
25C
100
AcDbEntity
  8
0-1
  6
CONTINUOUS
 62
     7
100
AcDbLine
 10
218.8019
 20
16.136538
 30
0.0
 11
219.592284
 21
15.346154
 31
0.0
  0
LINE
  5
26E
330
25C
100
AcDbEntity
  8
0-1
  6
CONTINUOUS
 62
     7
100
AcDbLine
 10
219.592284
 20
15.346154
 30
0.0
 11
221.224977
 21
15.346154
 31
0.0
  0
ENDBLK
  5
25E
330
25C
100
AcDbEntity
  8
0
100
AcDbBlockEnd
  0
ENDSEC
  0
SECTION
  2
ENTITIES
  0
TEXT
  5
A8
330
1F
100
AcDbEntity
  8
}}ﾊﾊGG血CCТ
  6
CONTINUOUS
 62
     7
100
AcDbText
 10
31.859463
 20
12.0
 30
0.0
 40
6.0
  1
Ｈ－１００　ＵＢ
 41
0.794326
  7
FX_VECTOR
 72
     5
 11
63.859463
 21
12.0
 31
0.0
100
AcDbText
  0
TEXT
  5
A9
330
1F
100
AcDbEntity
  8
}}ﾊﾊGG血CCТ
  6
CONTINUOUS
 62
     7
100
AcDbText
 10
132.508957
 20
12.0
 30
0.0
 40
6.0
  1
1H30FBAA-C02
 41
0.697095
  7
FX_VECTOR
 72
     5
 11
180.508957
 21
12.0
 31
0.0
100
AcDbText
  0
INSERT
  5
AD
330
1F
100
AcDbEntity
  8
0
100
AcDbBlockReference
  2
BLKF021
 10
0.0
 20
0.0
 30
0.0
  0
LINE
  5
E2
330
1F
100
AcDbEntity
  8
LAYERGROUP-1
  6
CONTINUOUS
 62
     3
100
AcDbLine
 10
86.334148
 20
96.998077
 30
0.0
 11
84.034148
 21
96.998077
 31
0.0
  0
LINE
  5
E3
330
1F
100
AcDbEntity
  8
LAYERGROUP-1
  6
CONTINUOUS
 62
     3
100
AcDbLine
 10
86.334148
 20
96.998077
 30
0.0
 11
86.334148
 21
93.048077
 31
0.0
  0
LINE
  5
E4
330
1F
100
AcDbEntity
  8
LAYERGROUP-1
  6
CONTINUOUS
 62
     3
100
AcDbLine
 10
99.334148
 20
99.664744
 30
0.0
 11
99.334148
 21
118.33141
 31
0.0
  0
ARC
  5
E5
330
1F
100
AcDbEntity
  8
LAYERGROUP-1
  6
CONTINUOUS
 62
     3
100
AcDbCircle
 10
98.734148
 20
102.398077
 30
0.0
 40
0.6
100
AcDbArc
 50
0.0
 51
90.0
  0
LINE
  5
E7
330
1F
100
AcDbEntity
  8
GR1-1
  6
CONTINUOUS
 62
     3
100
AcDbLine
 10
92.342161
 20
70.998077
 30
0.0
 11
73.834148
 21
70.998077
 31
0.0
  0
INSERT
  5
EB
330
1F
100
AcDbEntity
  8
0
100
AcDbBlockReference
  2
BLKF022
 10
0.0
 20
0.0
 30
0.0
  0
LINE
  5
120
330
1F
100
AcDbEntity
  8
LAYERGROUP-1
  6
CONTINUOUS
 62
     3
100
AcDbLine
 10
84.034148
 20
96.998077
 30
0.0
 11
84.034148
 21
93.248077
 31
0.0
  0
LINE
  5
121
330
1F
100
AcDbEntity
  8
LAYERGROUP-1
  6
CONTINUOUS
 62
     3
100
AcDbLine
 10
86.534148
 20
90.748077
 30
0.0
 11
93.034148
 21
90.748077
 31
0.0
  0
ARC
  5
122
330
1F
100
AcDbEntity
  8
LAYERGROUP-1
  6
CONTINUOUS
 62
     3
100
AcDbCircle
 10
86.534148
 20
93.248077
 30
0.0
 40
2.5
100
AcDbArc
 50
180.0
 51
270.0
  0
ARC
  5
123
330
1F
100
AcDbEntity
  8
LAYERGROUP-1
  6
CONTINUOUS
 62
     3
100
AcDbCircle
 10
92.342161
 20
74.498077
 30
0.0
 40
3.5
100
AcDbArc
 50
270.0
 51
356.12225
  0
ARC
  5
124
330
1F
100
AcDbEntity
  8
LAYERGROUP-1
  6
CONTINUOUS
 62
     3
100
AcDbCircle
 10
73.834148
 20
73.998077
 30
0.0
 40
3.0
100
AcDbArc
 50
180.0
 51
270.0
  0
LINE
  5
125
330
1F
100
AcDbEntity
  8
LAYERGROUP-1
  6
CONTINUOUS
 62
     3
100
AcDbLine
 10
70.834148
 20
73.998077
 30
0.0
 11
70.834148
 21
77.298077
 31
0.0
  0
ARC
  5
126
330
1F
100
AcDbEntity
  8
LAYERGROUP-1
  6
CONTINUOUS
 62
     3
100
AcDbCircle
 10
73.634148
 20
73.798077
 30
0.0
 40
0.5
100
AcDbArc
 50
180.0
 51
270.0
  0
ARC
  5
127
330
1F
100
AcDbEntity
  8
LAYERGROUP-1
  6
CONTINUOUS
 62
     3
100
AcDbCircle
 10
92.534148
 20
74.298077
 30
0.0
 40
1.0
100
AcDbArc
 50
270.0
 51
360.0
  0
LINE
  5
128
330
1F
100
AcDbEntity
  8
LAYERGROUP-1
  6
CONTINUOUS
 62
     3
100
AcDbLine
 10
92.534148
 20
73.298077
 30
0.0
 11
73.634148
 21
73.298077
 31
0.0
  0
LINE
  5
129
330
1F
100
AcDbEntity
  8
LAYERGROUP-1
  6
CONTINUOUS
 62
     3
100
AcDbLine
 10
93.534148
 20
74.298077
 30
0.0
 11
93.534148
 21
76.298077
 31
0.0
  0
LINE
  5
12A
330
1F
100
AcDbEntity
  8
LAYERGROUP-1
  6
CONTINUOUS
 62
     3
100
AcDbLine
 10
94.034148
 20
89.748077
 30
0.0
 11
94.034148
 21
87.872843
 31
0.0
  0
ARC
  5
12B
330
1F
100
AcDbEntity
  8
LAYERGROUP-1
  6
CONTINUOUS
 62
     3
100
AcDbCircle
 10
93.034148
 20
89.748077
 30
0.0
 40
1.0
100
AcDbArc
 50
0.0
 51
90.0
  0
ARC
  5
12C
330
1F
100
AcDbEntity
  8
LAYERGROUP-1
  6
CONTINUOUS
 62
     3
100
AcDbCircle
 10
93.334148
 20
90.048077
 30
0.0
 40
3.0
100
AcDbArc
 50
0.0
 51
90.0
  0
LINE
  5
12D
330
1F
100
AcDbEntity
  8
LAYERGROUP-1
  6
CONTINUOUS
 62
     3
100
AcDbLine
 10
95.834148
 20
70.998077
 30
0.0
 11
95.834148
 21
86.126418
 31
0.0
  0
ARC
  5
12E
330
1F
100
AcDbEntity
  8
LAYERGROUP-1
  6
CONTINUOUS
 62
     3
100
AcDbCircle
 10
95.834148
 20
81.498077
 30
0.0
 40
5.3
100
AcDbArc
 50
138.911422
 51
224.907962
  0
LINE
  5
12F
330
1F
100
AcDbEntity
  8
LAYERGROUP-1
  6
CONTINUOUS
 62
     3
100
AcDbLine
 10
93.534148
 20
76.298077
 30
0.0
 11
92.080467
 21
77.756436
 31
0.0
  0
LINE
  5
130
330
1F
100
AcDbEntity
  8
LAYERGROUP-1
  6
CONTINUOUS
 62
     3
100
AcDbLine
 10
96.334148
 20
90.048077
 30
0.0
 11
96.334148
 21
87.872843
 31
0.0
  0
ARC
  5
131
330
1F
100
AcDbEntity
  8
LAYERGROUP-1
  6
CONTINUOUS
 62
     3
100
AcDbCircle
 10
95.834148
 20
81.498077
 30
0.0
 40
3.0
100
AcDbArc
 50
138.911422
 51
224.907962
  0
LINE
  5
132
330
1F
100
AcDbEntity
  8
LAYERGROUP-1
  6
CONTINUOUS
 62
     3
100
AcDbLine
 10
93.709422
 20
79.380167
 30
0.0
 11
94.958873
 21
78.126696
 31
0.0
  0
ARC
  5
133
330
1F
100
AcDbEntity
  8
LAYERGROUP-1
  6
CONTINUOUS
 62
     3
100
AcDbCircle
 10
92.834148
 20
76.008786
 30
0.0
 40
3.0
100
AcDbArc
 50
0.0
 51
44.907962
  0
LINE
  5
134
330
1F
100
AcDbEntity
  8
LAYERGROUP-1
  6
CONTINUOUS
 62
     3
100
AcDbLine
 10
45.834148
 20
70.998077
 30
0.0
 11
45.834148
 21
86.126418
 31
0.0
  0
LINE
  5
135
330
1F
100
AcDbEntity
  8
LAYERGROUP-1
  6
CONTINUOUS
 62
     6
100
AcDbLine
 10
84.034148
 20
120.998077
 30
0.0
 11
84.034148
 21
118.33141
 31
0.0
  0
LINE
  5
136
330
1F
100
AcDbEntity
  8
LAYERGROUP-1
  6
CENTER
 62
     6
100
AcDbLine
 10
40.693159
 20
108.998077
 30
0.0
 11
101.136512
 21
108.998077
 31
0.0
  0
LINE
  5
137
330
1F
100
AcDbEntity
  8
LAYERGROUP-1
  6
CENTER
 62
     6
100
AcDbLine
 10
70.834148
 20
161.216623
 30
0.0
 11
70.834148
 21
56.193247
 31
0.0
  0
CIRCLE
  5
138
330
1F
100
AcDbEntity
  8
LAYERGROUP-1
  6
CONTINUOUS
 62
     3
100
AcDbCircle
 10
210.184615
 20
108.998077
 30
0.0
 40
38.0
  0
CIRCLE
  5
139
330
1F
100
AcDbEntity
  8
LAYERGROUP-1
  6
CONTINUOUS
 62
     3
100
AcDbCircle
 10
210.184615
 20
108.998077
 30
0.0
 40
16.0
  0
CIRCLE
  5
13A
330
1F
100
AcDbEntity
  8
LAYERGROUP-1
  6
CONTINUOUS
 62
     6
100
AcDbCircle
 10
210.184615
 20
108.998077
 30
0.0
 40
21.5
  0
CIRCLE
  5
13B
330
1F
100
AcDbEntity
  8
LAYERGROUP-1
  6
CONTINUOUS
 62
     6
100
AcDbCircle
 10
210.184615
 20
108.998077
 30
0.0
 40
32.69999999999999
  0
CIRCLE
  5
13C
330
1F
100
AcDbEntity
  8
LAYERGROUP-1
  6
CONTINUOUS
 62
     6
100
AcDbCircle
 10
210.184615
 20
108.998077
 30
0.0
 40
27.5
  0
LINE
  5
13D
330
1F
100
AcDbEntity
  8
LAYERGROUP-1
  6
CENTER
 62
     6
100
AcDbLine
 10
152.915982
 20
108.998077
 30
0.0
 11
266.927176
 21
108.998077
 31
0.0
  0
LINE
  5
13E
330
1F
100
AcDbEntity
  8
LAYERGROUP-1
  6
CENTER
 62
     6
100
AcDbLine
 10
210.184615
 20
165.024196
 30
0.0
 11
210.184615
 21
54.147331
 31
0.0
  0
LINE
  5
13F
330
1F
100
AcDbEntity
  8
LAYERGROUP-1
  6
CONTINUOUS
 62
     3
100
AcDbLine
 10
73.134148
 20
73.798077
 30
0.0
 11
73.134148
 21
77.298077
 31
0.0
  0
LINE
  5
140
330
1F
100
AcDbEntity
  8
LAYERGROUP-1
  6
CONTINUOUS
 62
     3
100
AcDbLine
 10
68.534148
 20
77.298077
 30
0.0
 11
73.134148
 21
77.298077
 31
0.0
  0
LINE
  5
141
330
1F
100
AcDbEntity
  8
LAYERGROUP-1
  6
CONTINUOUS
 62
     3
100
AcDbLine
 10
86.334148
 20
93.048077
 30
0.0
 11
93.334148
 21
93.048077
 31
0.0
  0
LINE
  5
142
330
1F
100
AcDbEntity
  8
LAYERGROUP-1
  6
CONTINUOUS
 62
     3
100
AcDbLine
 10
93.787842
 20
87.215618
 30
0.0
 11
91.839567
 21
84.981369
 31
0.0
  0
ARC
  5
143
330
1F
100
AcDbEntity
  8
LAYERGROUP-1
  6
CONTINUOUS
 62
     3
100
AcDbCircle
 10
93.034148
 20
87.872843
 30
0.0
 40
1.0
100
AcDbArc
 50
318.911422
 51
360.0
  0
LINE
  5
144
330
1F
100
AcDbEntity
  8
LAYERGROUP-1
  6
CONTINUOUS
 62
     3
100
AcDbLine
 10
93.573064
 20
83.469752
 30
0.0
 11
95.521339
 21
85.704
 31
0.0
  0
ARC
  5
145
330
1F
100
AcDbEntity
  8
LAYERGROUP-1
  6
CONTINUOUS
 62
     3
100
AcDbCircle
 10
93.034148
 20
87.872843
 30
0.0
 40
3.3
100
AcDbArc
 50
318.911422
 51
360.0
  0
CIRCLE
  5
146
330
1F
100
AcDbEntity
  8
LAYERGROUP-1
  6
CONTINUOUS
 62
     3
100
AcDbCircle
 10
210.184615
 20
108.998077
 30
0.0
 40
50.00000000000003
  0
CIRCLE
  5
147
330
1F
100
AcDbEntity
  8
LAYERGROUP-1
  6
CONTINUOUS
 62
     3
100
AcDbCircle
 10
210.184615
 20
108.998077
 30
0.0
 40
6.0
  0
CIRCLE
  5
148
330
1F
100
AcDbEntity
  8
LAYERGROUP-1
  6
CONTINUOUS
 62
     3
100
AcDbCircle
 10
210.184615
 20
108.998077
 30
0.0
 40
9.333333333333343
  0
LINE
  5
149
330
1F
100
AcDbEntity
  8
LAYERGROUP-1
  6
CONTINUOUS
 62
     6
100
AcDbLine
 10
84.034148
 20
99.664744
 30
0.0
 11
84.034148
 21
96.998077
 31
0.0
  0
LINE
  5
14A
330
1F
100
AcDbEntity
  8
LAYERGROUP-1
  6
CONTINUOUS
 62
     3
100
AcDbLine
 10
70.834148
 20
99.664744
 30
0.0
 11
70.834148
 21
118.33141
 31
0.0
  0
LINE
  5
14B
330
1F
100
AcDbEntity
  8
LAYERGROUP-1
  6
CONTINUOUS
 62
     3
100
AcDbLine
 10
51.602206
 20
58.998077
 30
0.0
 11
90.06609
 21
58.998077
 31
0.0
  0
ARC
  5
14C
330
1F
100
AcDbEntity
  8
LAYERGROUP-1
  6
CONTINUOUS
 62
     3
100
AcDbCircle
 10
51.602206
 20
60.998077
 30
0.0
 40
2.0
100
AcDbArc
 50
200.0
 51
270.0
  0
LINE
  5
14D
330
1F
100
AcDbEntity
  8
LAYERGROUP-1
  6
CONTINUOUS
 62
     3
100
AcDbLine
 10
49.72282
 20
60.314037
 30
0.0
 11
45.834148
 21
70.998077
 31
0.0
  0
ARC
  5
14E
330
1F
100
AcDbEntity
  8
LAYERGROUP-1
  6
CONTINUOUS
 62
     3
100
AcDbCircle
 10
90.06609
 20
60.998077
 30
0.0
 40
2.0
100
AcDbArc
 50
270.0
 51
340.0
  0
LINE
  5
14F
330
1F
100
AcDbEntity
  8
LAYERGROUP-1
  6
CONTINUOUS
 62
     3
100
AcDbLine
 10
91.945475
 20
60.314037
 30
0.0
 11
95.834148
 21
70.998077
 31
0.0
  0
LINE
  5
150
330
1F
100
AcDbEntity
  8
LAYERGROUP-1
  6
CONTINUOUS
 62
     3
100
AcDbLine
 10
51.602206
 20
158.998077
 30
0.0
 11
90.06609
 21
158.998077
 31
0.0
  0
ARC
  5
151
330
1F
100
AcDbEntity
  8
LAYERGROUP-1
  6
CONTINUOUS
 62
     3
100
AcDbCircle
 10
51.602206
 20
156.998077
 30
0.0
 40
2.0
100
AcDbArc
 50
90.0
 51
160.0
  0
LINE
  5
152
330
1F
100
AcDbEntity
  8
LAYERGROUP-1
  6
CONTINUOUS
 62
     3
100
AcDbLine
 10
49.72282
 20
157.682117
 30
0.0
 11
45.834148
 21
146.998077
 31
0.0
  0
ARC
  5
153
330
1F
100
AcDbEntity
  8
LAYERGROUP-1
  6
CONTINUOUS
 62
     3
100
AcDbCircle
 10
90.06609
 20
156.998077
 30
0.0
 40
2.0
100
AcDbArc
 50
20.0
 51
90.0
  0
LINE
  5
154
330
1F
100
AcDbEntity
  8
LAYERGROUP-1
  6
CONTINUOUS
 62
     3
100
AcDbLine
 10
91.945475
 20
157.682117
 30
0.0
 11
95.834148
 21
146.998077
 31
0.0
  0
LINE
  5
155
330
1F
100
AcDbEntity
  8
LAYERGROUP-1
  6
CONTINUOUS
 62
     3
100
AcDbLine
 10
55.334148
 20
96.998077
 30
0.0
 11
57.634148
 21
96.998077
 31
0.0
  0
LINE
  5
156
330
1F
100
AcDbEntity
  8
LAYERGROUP-1
  6
CONTINUOUS
 62
     3
100
AcDbLine
 10
55.334148
 20
96.998077
 30
0.0
 11
55.334148
 21
93.048077
 31
0.0
  0
LINE
  5
157
330
1F
100
AcDbEntity
  8
GR1-1
  6
CONTINUOUS
 62
     3
100
AcDbLine
 10
49.326135
 20
70.998077
 30
0.0
 11
67.834148
 21
70.998077
 31
0.0
  0
LINE
  5
158
330
1F
100
AcDbEntity
  8
LAYERGROUP-1
  6
CONTINUOUS
 62
     3
100
AcDbLine
 10
57.634148
 20
96.998077
 30
0.0
 11
57.634148
 21
93.248077
 31
0.0
  0
LINE
  5
159
330
1F
100
AcDbEntity
  8
LAYERGROUP-1
  6
CONTINUOUS
 62
     3
100
AcDbLine
 10
55.134148
 20
90.748077
 30
0.0
 11
48.634148
 21
90.748077
 31
0.0
  0
ARC
  5
15A
330
1F
100
AcDbEntity
  8
LAYERGROUP-1
  6
CONTINUOUS
 62
     3
100
AcDbCircle
 10
55.134148
 20
93.248077
 30
0.0
 40
2.5
100
AcDbArc
 50
270.0
 51
360.0
  0
ARC
  5
15B
330
1F
100
AcDbEntity
  8
LAYERGROUP-1
  6
CONTINUOUS
 62
     3
100
AcDbCircle
 10
49.326135
 20
74.498077
 30
0.0
 40
3.5
100
AcDbArc
 50
183.87775
 51
270.0
  0
ARC
  5
15C
330
1F
100
AcDbEntity
  8
LAYERGROUP-1
  6
CONTINUOUS
 62
     3
100
AcDbCircle
 10
67.834148
 20
73.998077
 30
0.0
 40
3.0
100
AcDbArc
 50
270.0
 51
360.0
  0
ARC
  5
15D
330
1F
100
AcDbEntity
  8
LAYERGROUP-1
  6
CONTINUOUS
 62
     3
100
AcDbCircle
 10
68.034148
 20
73.798077
 30
0.0
 40
0.5
100
AcDbArc
 50
270.0
 51
360.0
  0
ARC
  5
15E
330
1F
100
AcDbEntity
  8
LAYERGROUP-1
  6
CONTINUOUS
 62
     3
100
AcDbCircle
 10
49.134148
 20
74.298077
 30
0.0
 40
1.0
100
AcDbArc
 50
180.0
 51
270.0
  0
LINE
  5
15F
330
1F
100
AcDbEntity
  8
LAYERGROUP-1
  6
CONTINUOUS
 62
     3
100
AcDbLine
 10
49.134148
 20
73.298077
 30
0.0
 11
68.034148
 21
73.298077
 31
0.0
  0
LINE
  5
160
330
1F
100
AcDbEntity
  8
LAYERGROUP-1
  6
CONTINUOUS
 62
     3
100
AcDbLine
 10
48.134148
 20
74.298077
 30
0.0
 11
48.134148
 21
76.298077
 31
0.0
  0
LINE
  5
161
330
1F
100
AcDbEntity
  8
LAYERGROUP-1
  6
CONTINUOUS
 62
     3
100
AcDbLine
 10
47.634148
 20
89.748077
 30
0.0
 11
47.634148
 21
87.872843
 31
0.0
  0
ARC
  5
162
330
1F
100
AcDbEntity
  8
LAYERGROUP-1
  6
CONTINUOUS
 62
     3
100
AcDbCircle
 10
48.634148
 20
89.748077
 30
0.0
 40
1.0
100
AcDbArc
 50
90.0
 51
180.0
  0
ARC
  5
163
330
1F
100
AcDbEntity
  8
LAYERGROUP-1
  6
CONTINUOUS
 62
     3
100
AcDbCircle
 10
48.334148
 20
90.048077
 30
0.0
 40
3.0
100
AcDbArc
 50
90.0
 51
180.0
  0
ARC
  5
164
330
1F
100
AcDbEntity
  8
LAYERGROUP-1
  6
CONTINUOUS
 62
     3
100
AcDbCircle
 10
45.834148
 20
81.498077
 30
0.0
 40
5.3
100
AcDbArc
 50
-44.907962
 51
41.088578
  0
LINE
  5
165
330
1F
100
AcDbEntity
  8
LAYERGROUP-1
  6
CONTINUOUS
 62
     3
100
AcDbLine
 10
48.134148
 20
76.298077
 30
0.0
 11
49.587829
 21
77.756436
 31
0.0
  0
LINE
  5
166
330
1F
100
AcDbEntity
  8
LAYERGROUP-1
  6
CONTINUOUS
 62
     3
100
AcDbLine
 10
45.334148
 20
90.048077
 30
0.0
 11
45.334148
 21
87.872843
 31
0.0
  0
ARC
  5
167
330
1F
100
AcDbEntity
  8
LAYERGROUP-1
  6
CONTINUOUS
 62
     3
100
AcDbCircle
 10
45.834148
 20
81.498077
 30
0.0
 40
3.0
100
AcDbArc
 50
-44.907962
 51
41.088578
  0
LINE
  5
168
330
1F
100
AcDbEntity
  8
LAYERGROUP-1
  6
CONTINUOUS
 62
     3
100
AcDbLine
 10
47.958873
 20
79.380167
 30
0.0
 11
46.709422
 21
78.126696
 31
0.0
  0
ARC
  5
169
330
1F
100
AcDbEntity
  8
LAYERGROUP-1
  6
CONTINUOUS
 62
     3
100
AcDbCircle
 10
48.834148
 20
76.008786
 30
0.0
 40
3.0
100
AcDbArc
 50
135.092038
 51
180.0
  0
LINE
  5
16A
330
1F
100
AcDbEntity
  8
LAYERGROUP-1
  6
CONTINUOUS
 62
     3
100
AcDbLine
 10
68.534148
 20
73.798077
 30
0.0
 11
68.534148
 21
77.298077
 31
0.0
  0
LINE
  5
16B
330
1F
100
AcDbEntity
  8
LAYERGROUP-1
  6
CONTINUOUS
 62
     3
100
AcDbLine
 10
55.334148
 20
93.048077
 30
0.0
 11
48.334148
 21
93.048077
 31
0.0
  0
LINE
  5
16C
330
1F
100
AcDbEntity
  8
LAYERGROUP-1
  6
CONTINUOUS
 62
     3
100
AcDbLine
 10
47.880453
 20
87.215618
 30
0.0
 11
49.828728
 21
84.981369
 31
0.0
  0
ARC
  5
16D
330
1F
100
AcDbEntity
  8
LAYERGROUP-1
  6
CONTINUOUS
 62
     3
100
AcDbCircle
 10
48.634148
 20
87.872843
 30
0.0
 40
1.0
100
AcDbArc
 50
180.0
 51
221.088578
  0
LINE
  5
16E
330
1F
100
AcDbEntity
  8
LAYERGROUP-1
  6
CONTINUOUS
 62
     3
100
AcDbLine
 10
48.095231
 20
83.469752
 30
0.0
 11
46.146956
 21
85.704
 31
0.0
  0
ARC
  5
16F
330
1F
100
AcDbEntity
  8
LAYERGROUP-1
  6
CONTINUOUS
 62
     3
100
AcDbCircle
 10
48.634148
 20
87.872843
 30
0.0
 40
3.3
100
AcDbArc
 50
180.0
 51
221.088578
  0
LINE
  5
170
330
1F
100
AcDbEntity
  8
LAYERGROUP-1
  6
CONTINUOUS
 62
     3
100
AcDbLine
 10
86.334148
 20
120.998077
 30
0.0
 11
84.034148
 21
120.998077
 31
0.0
  0
LINE
  5
171
330
1F
100
AcDbEntity
  8
LAYERGROUP-1
  6
CONTINUOUS
 62
     3
100
AcDbLine
 10
86.334148
 20
120.998077
 30
0.0
 11
86.334148
 21
124.948077
 31
0.0
  0
LINE
  5
172
330
1F
100
AcDbEntity
  8
GR1-1
  6
CONTINUOUS
 62
     3
100
AcDbLine
 10
92.342161
 20
146.998077
 30
0.0
 11
73.834148
 21
146.998077
 31
0.0
  0
LINE
  5
173
330
1F
100
AcDbEntity
  8
LAYERGROUP-1
  6
CONTINUOUS
 62
     3
100
AcDbLine
 10
84.034148
 20
120.998077
 30
0.0
 11
84.034148
 21
124.748077
 31
0.0
  0
LINE
  5
174
330
1F
100
AcDbEntity
  8
LAYERGROUP-1
  6
CONTINUOUS
 62
     3
100
AcDbLine
 10
86.534148
 20
127.248077
 30
0.0
 11
93.034148
 21
127.248077
 31
0.0
  0
ARC
  5
175
330
1F
100
AcDbEntity
  8
LAYERGROUP-1
  6
CONTINUOUS
 62
     3
100
AcDbCircle
 10
86.534148
 20
124.748077
 30
0.0
 40
2.5
100
AcDbArc
 50
90.0
 51
180.0
  0
ARC
  5
176
330
1F
100
AcDbEntity
  8
LAYERGROUP-1
  6
CONTINUOUS
 62
     3
100
AcDbCircle
 10
92.342161
 20
143.498077
 30
0.0
 40
3.5
100
AcDbArc
 50
3.87775
 51
90.0
  0
ARC
  5
177
330
1F
100
AcDbEntity
  8
LAYERGROUP-1
  6
CONTINUOUS
 62
     3
100
AcDbCircle
 10
73.834148
 20
143.998077
 30
0.0
 40
3.0
100
AcDbArc
 50
90.0
 51
180.0
  0
LINE
  5
178
330
1F
100
AcDbEntity
  8
LAYERGROUP-1
  6
CONTINUOUS
 62
     3
100
AcDbLine
 10
70.834148
 20
143.998077
 30
0.0
 11
70.834148
 21
140.698077
 31
0.0
  0
ARC
  5
179
330
1F
100
AcDbEntity
  8
LAYERGROUP-1
  6
CONTINUOUS
 62
     3
100
AcDbCircle
 10
73.634148
 20
144.198077
 30
0.0
 40
0.5
100
AcDbArc
 50
90.0
 51
180.0
  0
ARC
  5
17A
330
1F
100
AcDbEntity
  8
LAYERGROUP-1
  6
CONTINUOUS
 62
     3
100
AcDbCircle
 10
92.534148
 20
143.698077
 30
0.0
 40
1.0
100
AcDbArc
 50
0.0
 51
90.0
  0
LINE
  5
17B
330
1F
100
AcDbEntity
  8
LAYERGROUP-1
  6
CONTINUOUS
 62
     3
100
AcDbLine
 10
92.534148
 20
144.698077
 30
0.0
 11
73.634148
 21
144.698077
 31
0.0
  0
LINE
  5
17C
330
1F
100
AcDbEntity
  8
LAYERGROUP-1
  6
CONTINUOUS
 62
     3
100
AcDbLine
 10
93.534148
 20
143.698077
 30
0.0
 11
93.534148
 21
141.698077
 31
0.0
  0
LINE
  5
17D
330
1F
100
AcDbEntity
  8
LAYERGROUP-1
  6
CONTINUOUS
 62
     3
100
AcDbLine
 10
94.034148
 20
128.248077
 30
0.0
 11
94.034148
 21
130.123311
 31
0.0
  0
ARC
  5
17E
330
1F
100
AcDbEntity
  8
LAYERGROUP-1
  6
CONTINUOUS
 62
     3
100
AcDbCircle
 10
93.034148
 20
128.248077
 30
0.0
 40
1.0
100
AcDbArc
 50
270.0
 51
360.0
  0
ARC
  5
17F
330
1F
100
AcDbEntity
  8
LAYERGROUP-1
  6
CONTINUOUS
 62
     3
100
AcDbCircle
 10
93.334148
 20
127.948077
 30
0.0
 40
3.0
100
AcDbArc
 50
270.0
 51
360.0
  0
LINE
  5
180
330
1F
100
AcDbEntity
  8
LAYERGROUP-1
  6
CONTINUOUS
 62
     3
100
AcDbLine
 10
95.834148
 20
146.998077
 30
0.0
 11
95.834148
 21
131.869736
 31
0.0
  0
ARC
  5
181
330
1F
100
AcDbEntity
  8
LAYERGROUP-1
  6
CONTINUOUS
 62
     3
100
AcDbCircle
 10
95.834148
 20
136.498077
 30
0.0
 40
5.3
100
AcDbArc
 50
135.092038
 51
221.088578
  0
LINE
  5
182
330
1F
100
AcDbEntity
  8
LAYERGROUP-1
  6
CONTINUOUS
 62
     3
100
AcDbLine
 10
93.534148
 20
141.698077
 30
0.0
 11
92.080467
 21
140.239718
 31
0.0
  0
LINE
  5
183
330
1F
100
AcDbEntity
  8
LAYERGROUP-1
  6
CONTINUOUS
 62
     3
100
AcDbLine
 10
96.334148
 20
127.948077
 30
0.0
 11
96.334148
 21
130.123311
 31
0.0
  0
ARC
  5
184
330
1F
100
AcDbEntity
  8
LAYERGROUP-1
  6
CONTINUOUS
 62
     3
100
AcDbCircle
 10
95.834148
 20
136.498077
 30
0.0
 40
3.0
100
AcDbArc
 50
135.092038
 51
221.088578
  0
LINE
  5
185
330
1F
100
AcDbEntity
  8
LAYERGROUP-1
  6
CONTINUOUS
 62
     3
100
AcDbLine
 10
93.709422
 20
138.615987
 30
0.0
 11
94.958873
 21
139.869458
 31
0.0
  0
ARC
  5
186
330
1F
100
AcDbEntity
  8
LAYERGROUP-1
  6
CONTINUOUS
 62
     3
100
AcDbCircle
 10
92.834148
 20
141.987368
 30
0.0
 40
3.0
100
AcDbArc
 50
315.092038
 51
360.0
  0
LINE
  5
187
330
1F
100
AcDbEntity
  8
LAYERGROUP-1
  6
CONTINUOUS
 62
     3
100
AcDbLine
 10
45.834148
 20
146.998077
 30
0.0
 11
45.834148
 21
131.869736
 31
0.0
  0
LINE
  5
188
330
1F
100
AcDbEntity
  8
LAYERGROUP-1
  6
CONTINUOUS
 62
     3
100
AcDbLine
 10
73.134148
 20
144.198077
 30
0.0
 11
73.134148
 21
140.698077
 31
0.0
  0
LINE
  5
189
330
1F
100
AcDbEntity
  8
LAYERGROUP-1
  6
CONTINUOUS
 62
     3
100
AcDbLine
 10
68.534148
 20
140.698077
 30
0.0
 11
73.134148
 21
140.698077
 31
0.0
  0
LINE
  5
18A
330
1F
100
AcDbEntity
  8
LAYERGROUP-1
  6
CONTINUOUS
 62
     3
100
AcDbLine
 10
86.334148
 20
124.948077
 30
0.0
 11
93.334148
 21
124.948077
 31
0.0
  0
LINE
  5
18B
330
1F
100
AcDbEntity
  8
LAYERGROUP-1
  6
CONTINUOUS
 62
     3
100
AcDbLine
 10
93.787842
 20
130.780536
 30
0.0
 11
91.839567
 21
133.014784
 31
0.0
  0
ARC
  5
18C
330
1F
100
AcDbEntity
  8
LAYERGROUP-1
  6
CONTINUOUS
 62
     3
100
AcDbCircle
 10
93.034148
 20
130.123311
 30
0.0
 40
1.0
100
AcDbArc
 50
0.0
 51
41.088578
  0
LINE
  5
18D
330
1F
100
AcDbEntity
  8
LAYERGROUP-1
  6
CONTINUOUS
 62
     3
100
AcDbLine
 10
93.573064
 20
134.526402
 30
0.0
 11
95.521339
 21
132.292153
 31
0.0
  0
ARC
  5
18E
330
1F
100
AcDbEntity
  8
LAYERGROUP-1
  6
CONTINUOUS
 62
     3
100
AcDbCircle
 10
93.034148
 20
130.123311
 30
0.0
 40
3.3
100
AcDbArc
 50
0.0
 51
41.088578
  0
LINE
  5
18F
330
1F
100
AcDbEntity
  8
LAYERGROUP-1
  6
CONTINUOUS
 62
     3
100
AcDbLine
 10
55.334148
 20
120.998077
 30
0.0
 11
57.634148
 21
120.998077
 31
0.0
  0
LINE
  5
190
330
1F
100
AcDbEntity
  8
LAYERGROUP-1
  6
CONTINUOUS
 62
     3
100
AcDbLine
 10
55.334148
 20
120.998077
 30
0.0
 11
55.334148
 21
124.948077
 31
0.0
  0
LINE
  5
191
330
1F
100
AcDbEntity
  8
GR1-1
  6
CONTINUOUS
 62
     3
100
AcDbLine
 10
49.326135
 20
146.998077
 30
0.0
 11
67.834148
 21
146.998077
 31
0.0
  0
LINE
  5
192
330
1F
100
AcDbEntity
  8
LAYERGROUP-1
  6
CONTINUOUS
 62
     3
100
AcDbLine
 10
57.634148
 20
120.998077
 30
0.0
 11
57.634148
 21
124.748077
 31
0.0
  0
LINE
  5
193
330
1F
100
AcDbEntity
  8
LAYERGROUP-1
  6
CONTINUOUS
 62
     3
100
AcDbLine
 10
55.134148
 20
127.248077
 30
0.0
 11
48.634148
 21
127.248077
 31
0.0
  0
ARC
  5
194
330
1F
100
AcDbEntity
  8
LAYERGROUP-1
  6
CONTINUOUS
 62
     3
100
AcDbCircle
 10
55.134148
 20
124.748077
 30
0.0
 40
2.5
100
AcDbArc
 50
0.0
 51
90.0
  0
ARC
  5
195
330
1F
100
AcDbEntity
  8
LAYERGROUP-1
  6
CONTINUOUS
 62
     3
100
AcDbCircle
 10
49.326135
 20
143.498077
 30
0.0
 40
3.5
100
AcDbArc
 50
90.0
 51
176.12225
  0
ARC
  5
196
330
1F
100
AcDbEntity
  8
LAYERGROUP-1
  6
CONTINUOUS
 62
     3
100
AcDbCircle
 10
67.834148
 20
143.998077
 30
0.0
 40
3.0
100
AcDbArc
 50
0.0
 51
90.0
  0
ARC
  5
197
330
1F
100
AcDbEntity
  8
LAYERGROUP-1
  6
CONTINUOUS
 62
     3
100
AcDbCircle
 10
68.034148
 20
144.198077
 30
0.0
 40
0.5
100
AcDbArc
 50
0.0
 51
90.0
  0
ARC
  5
198
330
1F
100
AcDbEntity
  8
LAYERGROUP-1
  6
CONTINUOUS
 62
     3
100
AcDbCircle
 10
49.134148
 20
143.698077
 30
0.0
 40
1.0
100
AcDbArc
 50
90.0
 51
180.0
  0
LINE
  5
199
330
1F
100
AcDbEntity
  8
LAYERGROUP-1
  6
CONTINUOUS
 62
     3
100
AcDbLine
 10
49.134148
 20
144.698077
 30
0.0
 11
68.034148
 21
144.698077
 31
0.0
  0
LINE
  5
19A
330
1F
100
AcDbEntity
  8
LAYERGROUP-1
  6
CONTINUOUS
 62
     3
100
AcDbLine
 10
48.134148
 20
143.698077
 30
0.0
 11
48.134148
 21
141.698077
 31
0.0
  0
LINE
  5
19B
330
1F
100
AcDbEntity
  8
LAYERGROUP-1
  6
CONTINUOUS
 62
     3
100
AcDbLine
 10
47.634148
 20
128.248077
 30
0.0
 11
47.634148
 21
130.123311
 31
0.0
  0
ARC
  5
19C
330
1F
100
AcDbEntity
  8
LAYERGROUP-1
  6
CONTINUOUS
 62
     3
100
AcDbCircle
 10
48.634148
 20
128.248077
 30
0.0
 40
1.0
100
AcDbArc
 50
180.0
 51
270.0
  0
ARC
  5
19D
330
1F
100
AcDbEntity
  8
LAYERGROUP-1
  6
CONTINUOUS
 62
     3
100
AcDbCircle
 10
48.334148
 20
127.948077
 30
0.0
 40
3.0
100
AcDbArc
 50
180.0
 51
270.0
  0
ARC
  5
19E
330
1F
100
AcDbEntity
  8
LAYERGROUP-1
  6
CONTINUOUS
 62
     3
100
AcDbCircle
 10
45.834148
 20
136.498077
 30
0.0
 40
5.3
100
AcDbArc
 50
-41.088578
 51
44.907962
  0
LINE
  5
19F
330
1F
100
AcDbEntity
  8
LAYERGROUP-1
  6
CONTINUOUS
 62
     3
100
AcDbLine
 10
48.134148
 20
141.698077
 30
0.0
 11
49.587829
 21
140.239718
 31
0.0
  0
LINE
  5
1A0
330
1F
100
AcDbEntity
  8
LAYERGROUP-1
  6
CONTINUOUS
 62
     3
100
AcDbLine
 10
45.334148
 20
127.948077
 30
0.0
 11
45.334148
 21
130.123311
 31
0.0
  0
ARC
  5
1A1
330
1F
100
AcDbEntity
  8
LAYERGROUP-1
  6
CONTINUOUS
 62
     3
100
AcDbCircle
 10
45.834148
 20
136.498077
 30
0.0
 40
3.0
100
AcDbArc
 50
-41.088578
 51
44.907962
  0
LINE
  5
1A2
330
1F
100
AcDbEntity
  8
LAYERGROUP-1
  6
CONTINUOUS
 62
     3
100
AcDbLine
 10
47.958873
 20
138.615987
 30
0.0
 11
46.709422
 21
139.869458
 31
0.0
  0
ARC
  5
1A3
330
1F
100
AcDbEntity
  8
LAYERGROUP-1
  6
CONTINUOUS
 62
     3
100
AcDbCircle
 10
48.834148
 20
141.987368
 30
0.0
 40
3.0
100
AcDbArc
 50
180.0
 51
224.907962
  0
LINE
  5
1A4
330
1F
100
AcDbEntity
  8
LAYERGROUP-1
  6
CONTINUOUS
 62
     3
100
AcDbLine
 10
68.534148
 20
144.198077
 30
0.0
 11
68.534148
 21
140.698077
 31
0.0
  0
LINE
  5
1A5
330
1F
100
AcDbEntity
  8
LAYERGROUP-1
  6
CONTINUOUS
 62
     3
100
AcDbLine
 10
55.334148
 20
124.948077
 30
0.0
 11
48.334148
 21
124.948077
 31
0.0
  0
LINE
  5
1A6
330
1F
100
AcDbEntity
  8
LAYERGROUP-1
  6
CONTINUOUS
 62
     3
100
AcDbLine
 10
47.880453
 20
130.780536
 30
0.0
 11
49.828728
 21
133.014784
 31
0.0
  0
ARC
  5
1A7
330
1F
100
AcDbEntity
  8
LAYERGROUP-1
  6
CONTINUOUS
 62
     3
100
AcDbCircle
 10
48.634148
 20
130.123311
 30
0.0
 40
1.0
100
AcDbArc
 50
138.911422
 51
180.0
  0
LINE
  5
1A8
330
1F
100
AcDbEntity
  8
LAYERGROUP-1
  6
CONTINUOUS
 62
     3
100
AcDbLine
 10
48.095231
 20
134.526402
 30
0.0
 11
46.146956
 21
132.292153
 31
0.0
  0
ARC
  5
1A9
330
1F
100
AcDbEntity
  8
LAYERGROUP-1
  6
CONTINUOUS
 62
     3
100
AcDbCircle
 10
48.634148
 20
130.123311
 30
0.0
 40
3.3
100
AcDbArc
 50
138.911422
 51
180.0
  0
INSERT
  5
1AD
330
1F
100
AcDbEntity
  8
0
100
AcDbBlockReference
  2
BLKF023
 10
0.0
 20
0.0
 30
0.0
  0
LINE
  5
1E1
330
1F
100
AcDbEntity
  8
LAYERGROUP-1
  6
CONTINUOUS
 62
     3
100
AcDbLine
 10
42.334148
 20
99.664744
 30
0.0
 11
42.334148
 21
118.33141
 31
0.0
  0
INSERT
  5
1E5
330
1F
100
AcDbEntity
  8
0
100
AcDbBlockReference
  2
BLKF024
 10
0.0
 20
0.0
 30
0.0
  0
LINE
  5
21A
330
1F
100
AcDbEntity
  8
LAYERGROUP-1
  6
CONTINUOUS
 62
     6
100
AcDbLine
 10
57.634148
 20
118.33141
 30
0.0
 11
57.634148
 21
120.998077
 31
0.0
  0
LINE
  5
21B
330
1F
100
AcDbEntity
  8
LAYERGROUP-1
  6
CONTINUOUS
 62
     6
100
AcDbLine
 10
57.634148
 20
99.664744
 30
0.0
 11
57.634148
 21
96.998077
 31
0.0
  0
HATCH
  5
21C
330
1F
100
AcDbEntity
  8
LAYERGROUP-1
  6
CONTINUOUS
 62
     6
100
AcDbHatch
 10
0.0
 20
0.0
 30
0.0
210
0.0
220
0.0
230
1.0
  2

 70
     0
 71
     1
 91
        2
 92
        0
 93
       57
 72
     1
 10
92.34216054578806
 20
146.9980769230771
 11
73.83414770466348
 21
146.998076923077
 72
     2
 10
73.83414770466351
 20
143.998076923077
 40
3.0
 50
90.00000000000028
 51
180.0
 73
     1
 72
     2
 10
67.83414770466351
 20
143.998076923077
 40
3.0
 50
0.0
 51
89.99999999999973
 73
     1
 72
     1
 10
67.83414770466351
 20
146.998076923077
 11
49.32613486353893
 21
146.9980769230771
 72
     2
 10
49.3261348635389
 20
143.4980769230771
 40
3.5
 50
89.99999999999953
 51
176.1222503768695
 73
     1
 72
     1
 10
45.83414770466348
 20
143.7347743718365
 11
45.83414770466351
 21
141.9873679467955
 72
     2
 10
48.83414770466351
 20
141.9873679467955
 40
3.0
 50
180.0000000000011
 51
224.9079623328026
 73
     1
 72
     1
 10
46.70942249464559
 20
139.8694579435343
 11
47.95887291468142
 21
138.6159869263382
 72
     2
 10
45.83414770466348
 20
136.498076923077
 40
3.0
 50
318.9114223318475
 51
404.9079623328026
 73
     0
 72
     1
 10
48.0952309943024
 20
134.5264019099686
 11
46.14695608606073
 21
132.2921534616388
 72
     2
 10
48.63414770466349
 20
130.1233109472196
 40
3.3
 50
138.9114223318472
 51
180.0
 73
     1
 72
     1
 10
45.33414770466351
 20
130.1233109472196
 11
45.33414770466351
 21
127.948076923077
 72
     2
 10
48.33414770466351
 20
127.948076923077
 40
3.0
 50
180.0
 51
270.0
 73
     1
 72
     1
 10
48.33414770466351
 20
124.948076923077
 11
55.33414770466348
 21
124.948076923077
 72
     1
 10
55.33414770466348
 20
124.948076923077
 11
55.33414770466348
 21
120.998076923077
 72
     1
 10
55.33414770466348
 20
120.998076923077
 11
57.63414770466349
 21
120.998076923077
 72
     1
 10
57.63414770466349
 20
120.998076923077
 11
57.63414770466349
 21
124.7480769230769
 72
     2
 10
55.13414770466349
 20
124.7480769230769
 40
2.5
 50
0.0
 51
89.99999999999969
 73
     1
 72
     1
 10
55.13414770466352
 20
127.2480769230769
 11
48.63414770466349
 21
127.248076923077
 72
     2
 10
48.63414770466349
 20
128.2480769230769
 40
1.0
 50
180.0
 51
270.0
 73
     0
 72
     1
 10
47.63414770466349
 20
128.2480769230769
 11
47.63414770466349
 21
130.1233109472196
 72
     2
 10
48.63414770466349
 20
130.1233109472196
 40
1.0
 50
138.9114223318469
 51
180.0
 73
     0
 72
     1
 10
47.88045327478389
 20
130.7805359515891
 11
49.82872818302555
 21
133.0147843999189
 72
     2
 10
45.83414770466348
 20
136.498076923077
 40
5.3
 50
318.9114223318469
 51
404.9079623328038
 73
     1
 72
     1
 10
49.58782890902846
 20
140.2397179288386
 11
48.13414770466349
 21
141.6980769230769
 72
     1
 10
48.13414770466349
 20
141.6980769230769
 11
48.13414770466349
 21
143.6980769230769
 72
     2
 10
49.13414770466349
 20
143.6980769230769
 40
1.0
 50
90.0
 51
180.0
 73
     0
 72
     1
 10
49.13414770466349
 20
144.6980769230769
 11
68.0341477046635
 21
144.6980769230769
 72
     2
 10
68.0341477046635
 20
144.1980769230769
 40
0.5
 50
0.0
 51
90.0
 73
     0
 72
     1
 10
68.5341477046635
 20
144.1980769230769
 11
68.53414770466353
 21
140.6980769230769
 72
     1
 10
68.53414770466353
 20
140.6980769230769
 11
73.13414770466346
 21
140.6980769230769
 72
     1
 10
73.13414770466346
 20
140.6980769230769
 11
73.13414770466349
 21
144.1980769230769
 72
     2
 10
73.63414770466346
 20
144.1980769230769
 40
0.5
 50
90.0
 51
180.0
 73
     0
 72
     1
 10
73.63414770466346
 20
144.6980769230769
 11
92.5341477046635
 21
144.6980769230769
 72
     2
 10
92.5341477046635
 20
143.6980769230769
 40
1.0
 50
0.0
 51
90.0
 73
     0
 72
     1
 10
93.5341477046635
 20
143.6980769230769
 11
93.5341477046635
 21
141.698076923077
 72
     1
 10
93.5341477046635
 20
141.698076923077
 11
92.08046650029849
 21
140.2397179288386
 72
     2
 10
95.83414770466351
 20
136.498076923077
 40
5.3
 50
135.092037667197
 51
221.0885776681532
 73
     1
 72
     1
 10
91.83956722630146
 20
133.0147843999189
 11
93.7878421345431
 21
130.7805359515891
 72
     2
 10
93.0341477046635
 20
130.1233109472196
 40
1.0
 50
0.0
 51
41.08857766815312
 73
     0
 72
     1
 10
94.0341477046635
 20
130.1233109472196
 11
94.0341477046635
 21
128.2480769230769
 72
     2
 10
93.0341477046635
 20
128.2480769230769
 40
1.0
 50
270.0
 51
360.0
 73
     0
 72
     1
 10
93.0341477046635
 20
127.248076923077
 11
86.5341477046635
 21
127.2480769230769
 72
     2
 10
86.5341477046635
 20
124.7480769230769
 40
2.5
 50
90.0
 51
180.0
 73
     1
 72
     1
 10
84.0341477046635
 20
124.7480769230769
 11
84.0341477046635
 21
120.998076923077
 72
     1
 10
84.0341477046635
 20
120.998076923077
 11
86.33414770466351
 21
120.998076923077
 72
     1
 10
86.33414770466351
 20
120.998076923077
 11
86.33414770466351
 21
124.9480769230769
 72
     1
 10
86.33414770466351
 20
124.9480769230769
 11
93.33414770466351
 21
124.948076923077
 72
     2
 10
93.33414770466348
 20
127.948076923077
 40
3.0
 50
270.0000000000006
 51
360.0
 73
     1
 72
     1
 10
96.33414770466351
 20
127.948076923077
 11
96.33414770466351
 21
130.1233109472196
 72
     2
 10
93.0341477046635
 20
130.1233109472196
 40
3.3
 50
0.0
 51
41.0885776681528
 73
     1
 72
     1
 10
95.52133932326626
 20
132.2921534616388
 11
93.57306441502459
 21
134.5264019099686
 72
     2
 10
95.83414770466351
 20
136.498076923077
 40
3.0
 50
135.0920376671975
 51
221.0885776681525
 73
     0
 72
     1
 10
93.70942249464557
 20
138.6159869263382
 11
94.95887291468139
 21
139.8694579435343
 72
     2
 10
92.83414770466348
 20
141.9873679467955
 40
3.0
 50
315.0920376671975
 51
359.9999999999994
 73
     1
 72
     1
 10
95.83414770466348
 20
141.9873679467955
 11
95.83414770466348
 21
143.7347743718368
 72
     2
 10
92.34216054578809
 20
143.4980769230771
 40
3.5
 50
3.877749623134238
 51
90.00000000000047
 73
     1
 97
        0
 92
        0
 93
       57
 72
     1
 10
92.34216054578806
 20
70.99807692307684
 11
73.83414770466348
 21
70.99807692307695
 72
     2
 10
73.83414770466351
 20
73.99807692307695
 40
3.0
 50
180.0
 51
269.9999999999997
 73
     0
 72
     2
 10
67.83414770466351
 20
73.99807692307695
 40
3.0
 50
270.0000000000003
 51
360.0
 73
     0
 72
     1
 10
67.83414770466351
 20
70.99807692307695
 11
49.32613486353893
 21
70.99807692307684
 72
     2
 10
49.3261348635389
 20
74.49807692307678
 40
3.5
 50
183.8777496231307
 51
270.0000000000005
 73
     0
 72
     1
 10
45.83414770466348
 20
74.26137947431737
 11
45.83414770466351
 21
76.00878589935842
 72
     2
 10
48.83414770466351
 20
76.00878589935837
 40
3.0
 50
135.0920376671975
 51
179.9999999999992
 73
     0
 72
     1
 10
46.70942249464559
 20
78.12669590261962
 11
47.95887291468142
 21
79.38016691981568
 72
     2
 10
45.83414770466348
 20
81.49807692307695
 40
3.0
 50
315.0920376671974
 51
401.0885776681527
 73
     1
 72
     1
 10
48.0952309943024
 20
83.46975193618529
 11
46.14695608606073
 21
85.70400038451513
 72
     2
 10
48.63414770466349
 20
87.87284289893428
 40
3.3
 50
180.0
 51
221.088577668153
 73
     0
 72
     1
 10
45.33414770466351
 20
87.87284289893428
 11
45.33414770466351
 21
90.04807692307693
 72
     2
 10
48.33414770466351
 20
90.04807692307693
 40
3.0
 50
90.0
 51
180.0
 73
     0
 72
     1
 10
48.33414770466351
 20
93.04807692307693
 11
55.33414770466348
 21
93.04807692307693
 72
     1
 10
55.33414770466348
 20
93.04807692307693
 11
55.33414770466348
 21
96.99807692307695
 72
     1
 10
55.33414770466348
 20
96.99807692307695
 11
57.63414770466349
 21
96.99807692307695
 72
     1
 10
57.63414770466349
 20
96.99807692307695
 11
57.63414770466349
 21
93.24807692307698
 72
     2
 10
55.13414770466349
 20
93.24807692307698
 40
2.5
 50
270.0000000000003
 51
360.0
 73
     0
 72
     1
 10
55.13414770466352
 20
90.74807692307698
 11
48.63414770466349
 21
90.74807692307695
 72
     2
 10
48.63414770466349
 20
89.74807692307698
 40
1.0
 50
90.0
 51
180.0
 73
     1
 72
     1
 10
47.63414770466349
 20
89.74807692307698
 11
47.63414770466349
 21
87.87284289893428
 72
     2
 10
48.63414770466349
 20
87.87284289893428
 40
1.0
 50
180.0
 51
221.0885776681526
 73
     1
 72
     1
 10
47.88045327478388
 20
87.21561789456486
 11
49.82872818302555
 21
84.98136944623502
 72
     2
 10
45.83414770466348
 20
81.49807692307695
 40
5.3
 50
315.0920376671963
 51
401.0885776681529
 73
     0
 72
     1
 10
49.58782890902846
 20
77.75643591731527
 11
48.13414770466349
 21
76.29807692307696
 72
     1
 10
48.13414770466349
 20
76.29807692307696
 11
48.13414770466349
 21
74.29807692307696
 72
     2
 10
49.13414770466349
 20
74.29807692307696
 40
1.0
 50
180.0
 51
270.0
 73
     1
 72
     1
 10
49.13414770466349
 20
73.29807692307696
 11
68.0341477046635
 21
73.29807692307696
 72
     2
 10
68.0341477046635
 20
73.79807692307696
 40
0.5
 50
270.0
 51
360.0
 73
     1
 72
     1
 10
68.5341477046635
 20
73.79807692307696
 11
68.53414770466353
 21
77.29807692307696
 72
     1
 10
68.53414770466353
 20
77.29807692307696
 11
73.13414770466346
 21
77.29807692307696
 72
     1
 10
73.13414770466346
 20
77.29807692307696
 11
73.13414770466349
 21
73.79807692307696
 72
     2
 10
73.63414770466346
 20
73.79807692307696
 40
0.5
 50
180.0
 51
270.0
 73
     1
 72
     1
 10
73.63414770466346
 20
73.29807692307696
 11
92.5341477046635
 21
73.29807692307696
 72
     2
 10
92.5341477046635
 20
74.29807692307696
 40
1.0
 50
270.0
 51
360.0
 73
     1
 72
     1
 10
93.5341477046635
 20
74.29807692307696
 11
93.5341477046635
 21
76.29807692307693
 72
     1
 10
93.5341477046635
 20
76.29807692307693
 11
92.08046650029849
 21
77.7564359173153
 72
     2
 10
95.83414770466351
 20
81.49807692307695
 40
5.3
 50
138.9114223318472
 51
224.9079623328032
 73
     0
 72
     1
 10
91.83956722630143
 20
84.98136944623502
 11
93.7878421345431
 21
87.21561789456486
 72
     2
 10
93.0341477046635
 20
87.87284289893428
 40
1.0
 50
318.9114223318469
 51
360.0
 73
     1
 72
     1
 10
94.0341477046635
 20
87.87284289893428
 11
94.0341477046635
 21
89.74807692307698
 72
     2
 10
93.0341477046635
 20
89.74807692307698
 40
1.0
 50
0.0
 51
90.0
 73
     1
 72
     1
 10
93.0341477046635
 20
90.74807692307695
 11
86.5341477046635
 21
90.74807692307698
 72
     2
 10
86.5341477046635
 20
93.24807692307698
 40
2.5
 50
180.0
 51
270.0
 73
     0
 72
     1
 10
84.0341477046635
 20
93.24807692307698
 11
84.0341477046635
 21
96.99807692307695
 72
     1
 10
84.0341477046635
 20
96.99807692307695
 11
86.33414770466351
 21
96.99807692307695
 72
     1
 10
86.33414770466351
 20
96.99807692307695
 11
86.33414770466351
 21
93.04807692307699
 72
     1
 10
86.33414770466351
 20
93.04807692307699
 11
93.33414770466351
 21
93.04807692307693
 72
     2
 10
93.33414770466348
 20
90.04807692307693
 40
3.0
 50
0.0
 51
89.99999999999946
 73
     0
 72
     1
 10
96.33414770466351
 20
90.04807692307693
 11
96.33414770466351
 21
87.87284289893428
 72
     2
 10
93.0341477046635
 20
87.87284289893428
 40
3.3
 50
318.911422331847
 51
360.0
 73
     0
 72
     1
 10
95.52133932326626
 20
85.70400038451513
 11
93.57306441502459
 21
83.46975193618529
 72
     2
 10
95.83414770466351
 20
81.49807692307695
 40
3.0
 50
138.9114223318473
 51
224.9079623328026
 73
     1
 72
     1
 10
93.70942249464557
 20
79.38016691981568
 11
94.95887291468139
 21
78.12669590261962
 72
     2
 10
92.83414770466348
 20
76.00878589935837
 40
3.0
 50
0.0000000000002714
 51
44.90796233280256
 73
     0
 72
     1
 10
95.83414770466348
 20
76.00878589935839
 11
95.83414770466348
 21
74.26137947431715
 72
     2
 10
92.34216054578809
 20
74.49807692307678
 40
3.5
 50
269.9999999999996
 51
356.1222503768658
 73
     0
 97
        0
 75
     0
 76
     0
 52
45.0
 41
2.0
 77
     0
 78
     1
 53
45.0
 43
0.0
 44
0.0
 45
-1.414213562373095
 46
1.414213562373095
 79
     0
 98
        0
  0
DIMENSION
  5
21D
330
1F
100
AcDbEntity
  8
LAYERGROUP-1
100
AcDbDimension
  2
*D23
 10
95.834148
 20
43.382913
 30
0.0
 11
70.834145
 21
44.382912
 31
0.0
 70
    33
  3
FXDIMINFO
100
AcDbAlignedDimension
 13
45.834148
 23
74.261379
 33
0.0
 14
95.834148
 24
74.261379
 34
0.0
1001
ACAD
1000
DSTYLE
1002
{
1070
     7
1000
FXTIP_ARROW_E
1070
     6
1000
FXTIP_ARROW_S
1070
   173
1070
     1
1002
}
  0
DIMENSION
  5
227
330
1F
100
AcDbEntity
  8
LAYERGROUP-1
100
AcDbDimension
  2
*D24
 10
99.334148
 20
33.863382
 30
0.0
 11
70.834145
 21
34.86338
 31
0.0
 70
    33
  3
FXDIMINFO
100
AcDbAlignedDimension
 13
42.334148
 23
99.664744
 33
0.0
 14
99.334148
 24
99.664744
 34
0.0
1001
ACAD
1000
DSTYLE
1002
{
1070
     7
1000
FXTIP_ARROW_E
1070
     6
1000
FXTIP_ARROW_S
1070
   173
1070
     1
1002
}
  0
DIMENSION
  5
231
330
1F
100
AcDbEntity
  8
LAYERGROUP-1
100
AcDbDimension
  2
*D25
 10
111.896371
 20
114.998077
 30
0.0
 11
110.89637
 21
108.998077
 31
0.0
 70
    33
  3
FXDIMINFO
100
AcDbAlignedDimension
 13
98.734148
 23
102.998077
 33
0.0
 14
98.734148
 24
114.998077
 34
0.0
1001
ACAD
1000
DSTYLE
1002
{
1070
     7
1000
FXTIP_ARROW_E
1070
     6
1000
FXTIP_ARROW_S
1070
   173
1070
     1
1002
}
  0
DIMENSION
  5
23B
330
1F
100
AcDbEntity
  8
LAYERGROUP-1
100
AcDbDimension
  2
*D26
 10
124.513438
 20
158.998077
 30
0.0
 11
123.513443
 21
108.998077
 31
0.0
 70
    33
  3
FXDIMINFO
100
AcDbAlignedDimension
 13
70.834148
 23
58.998077
 33
0.0
 14
70.834148
 24
158.998077
 34
0.0
1001
ACAD
1000
DSTYLE
1002
{
1070
     7
1000
FXTIP_ARROW_E
1070
     6
1000
FXTIP_ARROW_S
1070
   173
1070
     1
1002
}
  0
CIRCLE
  5
245
330
1F
100
AcDbEntity
  8
LAYERGROUP-1
  6
CONTINUOUS
 62
     3
100
AcDbCircle
 10
210.184615
 20
108.998077
 30
0.0
 40
13.25
  0
ARC
  5
246
330
1F
100
AcDbEntity
  8
LAYERGROUP-1
  6
CONTINUOUS
 62
     3
100
AcDbCircle
 10
70.234148
 20
115.598077
 30
0.0
 40
0.6
100
AcDbArc
 50
270.0
 51
360.0
  0
INSERT
  5
24A
330
1F
100
AcDbEntity
  8
0
100
AcDbBlockReference
  2
BLKF029
 10
0.0
 20
0.0
 30
0.0
  0
ENDSEC
  0
SECTION
  2
OBJECTS
  0
DICTIONARY
  5
C
330
0
100
AcDbDictionary
  3
ACAD_GROUP
350
D
  3
ACAD_LAYOUT
350
1A
  3
ACAD_MLINESTYLE
350
17
  3
ACAD_PLOTSETTINGS
350
19
  3
ACDBHEADERROUNDTRIPXREC
350
274
  0
DICTIONARY
  5
D
102
{ACAD_REACTORS
330
C
102
}
330
C
100
AcDbDictionary
  0
DICTIONARY
  5
1A
102
{ACAD_REACTORS
330
C
102
}
330
C
100
AcDbDictionary
  0
DICTIONARY
  5
17
102
{ACAD_REACTORS
330
C
102
}
330
C
100
AcDbDictionary
  3
STANDARD
350
18
  0
DICTIONARY
  5
19
102
{ACAD_REACTORS
330
C
102
}
330
C
100
AcDbDictionary
  0
DICTIONARY
  5
274
102
{ACAD_REACTORS
330
C
102
}
330
C
100
AcDbDictionary
  3
CEPSNTYPE
350
27D
  3
DIMSTYLEDATA
350
293
  3
FINGERPRINTGUID
350
27E
  3
HYPERLINKBASE
350
277
  3
INSUNITS
350
27C
  3
LAYOUTDICT
350
279
  3
LWETCUNION
350
27B
  3
PLOTSETDICT
350
27A
  3
PSVPSCALE
350
280
  3
PUCSBASE
350
283
  3
PUCSORGBACK
350
289
  3
PUCSORGBOTTOM
350
285
  3
PUCSORGFRONT
350
288
  3
PUCSORGLEFT
350
286
  3
PUCSORGRIGHT
350
287
  3
PUCSORGTOP
350
284
  3
PUCSORTHOREF
350
281
  3
PUCSORTHOVIEW
350
282
  3
STYLESHEET
350
278
  3
TSTACKALIGN
350
275
  3
TSTACKSIZE
350
276
  3
UCSBASE
350
28C
  3
UCSORGBACK
350
292
  3
UCSORGBOTTOM
350
28E
  3
UCSORGFRONT
350
291
  3
UCSORGLEFT
350
28F
  3
UCSORGRIGHT
350
290
  3
UCSORGTOP
350
28D
  3
UCSORTHOREF
350
28A
  3
UCSORTHOVIEW
350
28B
  3
VERSIONGUID
350
27F
  0
MLINESTYLE
  5
18
102
{ACAD_REACTORS
330
17
102
}
330
17
100
AcDbMlineStyle
  2
Standard
 70
     0
  3

 62
   256
 51
90.0
 52
90.0
 71
     2
 49
0.5
 62
   256
  6
BYLAYER
 49
-0.5
 62
   256
  6
BYLAYER
  0
XRECORD
  5
27D
102
{ACAD_REACTORS
330
274
102
}
330
274
100
AcDbXrecord
 90
        0
  0
XRECORD
  5
293
102
{ACAD_REACTORS
330
274
102
}
330
274
100
AcDbXrecord
1000
DSTYLE
1002
{
1070
   179
 70
     2
1070
   171
 70
     3
1070
   143
 40
0.03937
1070
   274
 70
     3
1070
    41
 40
3.0
1070
   343
340
41
1070
   344
340
47
1070
   141
 40
2.5
1070
   176
 70
     7
1070
   177
 70
     7
1070
   178
 70
     7
1070
   271
 70
     2
1070
    46
 40
6.0
1070
    43
 40
8.0
1070
    44
 40
1.0
1070
    42
 40
1.0
1070
   147
 40
1.0
1070
   341
340
41
1070
   173
 70
     1
1070
    77
 70
     1
1070
   272
 70
     2
1070
    73
 70
     0
1070
   172
 70
     1
1070
    74
 70
     0
1070
   283
 70
     0
1070
   340
340
3F
1070
   140
 40
4.0
1070
   284
 70
     8
1070
    78
 70
     8
1002
}
  0
XRECORD
  5
27E
102
{ACAD_REACTORS
330
274
102
}
330
274
100
AcDbXrecord
  1
{BB48CA16-21CE-4E9B-A3A7-7C9D44178AEC}
  0
XRECORD
  5
277
102
{ACAD_REACTORS
330
274
102
}
330
274
100
AcDbXrecord
  1

  0
XRECORD
  5
27C
102
{ACAD_REACTORS
330
274
102
}
330
274
100
AcDbXrecord
 90
        1
  0
XRECORD
  5
279
102
{ACAD_REACTORS
330
274
102
}
330
274
100
AcDbXrecord
340
1A
  0
XRECORD
  5
27B
102
{ACAD_REACTORS
330
274
102
}
330
274
100
AcDbXrecord
 90
    10781
  0
XRECORD
  5
27A
102
{ACAD_REACTORS
330
274
102
}
330
274
100
AcDbXrecord
340
19
  0
XRECORD
  5
280
102
{ACAD_REACTORS
330
274
102
}
330
274
100
AcDbXrecord
 40
0.0
  0
XRECORD
  5
283
102
{ACAD_REACTORS
330
274
102
}
330
274
100
AcDbXrecord
340
0
  0
XRECORD
  5
289
102
{ACAD_REACTORS
330
274
102
}
330
274
100
AcDbXrecord
 10
0.0
 20
0.0
 30
0.0
  0
XRECORD
  5
285
102
{ACAD_REACTORS
330
274
102
}
330
274
100
AcDbXrecord
 10
0.0
 20
0.0
 30
0.0
  0
XRECORD
  5
288
102
{ACAD_REACTORS
330
274
102
}
330
274
100
AcDbXrecord
 10
0.0
 20
0.0
 30
0.0
  0
XRECORD
  5
286
102
{ACAD_REACTORS
330
274
102
}
330
274
100
AcDbXrecord
 10
0.0
 20
0.0
 30
0.0
  0
XRECORD
  5
287
102
{ACAD_REACTORS
330
274
102
}
330
274
100
AcDbXrecord
 10
0.0
 20
0.0
 30
0.0
  0
XRECORD
  5
284
102
{ACAD_REACTORS
330
274
102
}
330
274
100
AcDbXrecord
 10
0.0
 20
0.0
 30
0.0
  0
XRECORD
  5
281
102
{ACAD_REACTORS
330
274
102
}
330
274
100
AcDbXrecord
340
0
  0
XRECORD
  5
282
102
{ACAD_REACTORS
330
274
102
}
330
274
100
AcDbXrecord
 70
     0
  0
XRECORD
  5
278
102
{ACAD_REACTORS
330
274
102
}
330
274
100
AcDbXrecord
  1

  0
XRECORD
  5
275
102
{ACAD_REACTORS
330
274
102
}
330
274
100
AcDbXrecord
 90
        1
  0
XRECORD
  5
276
102
{ACAD_REACTORS
330
274
102
}
330
274
100
AcDbXrecord
 90
       70
  0
XRECORD
  5
28C
102
{ACAD_REACTORS
330
274
102
}
330
274
100
AcDbXrecord
340
0
  0
XRECORD
  5
292
102
{ACAD_REACTORS
330
274
102
}
330
274
100
AcDbXrecord
 10
0.0
 20
0.0
 30
0.0
  0
XRECORD
  5
28E
102
{ACAD_REACTORS
330
274
102
}
330
274
100
AcDbXrecord
 10
0.0
 20
0.0
 30
0.0
  0
XRECORD
  5
291
102
{ACAD_REACTORS
330
274
102
}
330
274
100
AcDbXrecord
 10
0.0
 20
0.0
 30
0.0
  0
XRECORD
  5
28F
102
{ACAD_REACTORS
330
274
102
}
330
274
100
AcDbXrecord
 10
0.0
 20
0.0
 30
0.0
  0
XRECORD
  5
290
102
{ACAD_REACTORS
330
274
102
}
330
274
100
AcDbXrecord
 10
0.0
 20
0.0
 30
0.0
  0
XRECORD
  5
28D
102
{ACAD_REACTORS
330
274
102
}
330
274
100
AcDbXrecord
 10
0.0
 20
0.0
 30
0.0
  0
XRECORD
  5
28A
102
{ACAD_REACTORS
330
274
102
}
330
274
100
AcDbXrecord
340
0
  0
XRECORD
  5
28B
102
{ACAD_REACTORS
330
274
102
}
330
274
100
AcDbXrecord
 70
     0
  0
XRECORD
  5
27F
102
{ACAD_REACTORS
330
274
102
}
330
274
100
AcDbXrecord
  1
{FAEB1C32-E019-11D5-929B-00C0DF256EC4}
  0
ENDSEC
  0
EOF
