  0
SECTION
  2
HEADER
  9
$ACADVER
  1
AC1014
  9
$ACADMAINTVER
 70
     9
  9
$DWGCODEPAGE
  3
ANSI_932
  9
$INSBASE
 10
0.0
 20
0.0
 30
0.0
  9
$EXTMIN
 10
0.0
 20
0.0
 30
0.0
  9
$EXTMAX
 10
420.0
 20
297.0
 30
0.0
  9
$LIMMIN
 10
0.0
 20
0.0
  9
$LIMMAX
 10
420.0
 20
297.0
  9
$ORTHOMODE
 70
     0
  9
$REGENMODE
 70
     1
  9
$FILLMODE
 70
     1
  9
$QTEXTMODE
 70
     0
  9
$MIRRTEXT
 70
     1
  9
$DRAGMODE
 70
     2
  9
$LTSCALE
 40
1.0
  9
$OSMODE
 70
    37
  9
$ATTMODE
 70
     1
  9
$TEXTSIZE
 40
0.2
  9
$TRACEWID
 40
0.05
  9
$TEXTSTYLE
  7
STYLE1
  9
$CLAYER
  8
0
  9
$CELTYPE
  6
BYLAYER
  9
$CECOLOR
 62
   256
  9
$CELTSCALE
 40
1.0
  9
$DELOBJ
 70
     1
  9
$DISPSILH
 70
     0
  9
$DIMSCALE
 40
1.0
  9
$DIMASZ
 40
4.0
  9
$DIMEXO
 40
1.0
  9
$DIMDLI
 40
10.0
  9
$DIMRND
 40
0.0
  9
$DIMDLE
 40
6.0
  9
$DIMEXE
 40
1.0
  9
$DIMTP
 40
0.0
  9
$DIMTM
 40
0.0
  9
$DIMTXT
 40
4.0
  9
$DIMCEN
 40
2.5
  9
$DIMTSZ
 40
0.0
  9
$DIMTOL
 70
     0
  9
$DIMLIM
 70
     0
  9
$DIMTIH
 70
     0
  9
$DIMTOH
 70
     0
  9
$DIMSE1
 70
     0
  9
$DIMSE2
 70
     0
  9
$DIMTAD
 70
     1
  9
$DIMZIN
 70
     8
  9
$DIMBLK
  1

  9
$DIMASO
 70
     1
  9
$DIMSHO
 70
     1
  9
$DIMPOST
  1

  9
$DIMAPOST
  1

  9
$DIMALT
 70
     0
  9
$DIMALTD
 70
     3
  9
$DIMALTF
 40
0.03937
  9
$DIMLFAC
 40
1.0
  9
$DIMTOFL
 70
     1
  9
$DIMTVP
 40
0.0
  9
$DIMTIX
 70
     0
  9
$DIMSOXD
 70
     0
  9
$DIMSAH
 70
     1
  9
$DIMBLK1
  1
FXTIP_ARROW_S
  9
$DIMBLK2
  1
FXTIP_ARROW_E
  9
$DIMSTYLE
  2
FXDIMINFO
  9
$DIMCLRD
 70
     7
  9
$DIMCLRE
 70
     7
  9
$DIMCLRT
 70
     7
  9
$DIMTFAC
 40
1.0
  9
$DIMGAP
 40
1.0
  9
$DIMJUST
 70
     0
  9
$DIMSD1
 70
     0
  9
$DIMSD2
 70
     0
  9
$DIMTOLJ
 70
     0
  9
$DIMTZIN
 70
     8
  9
$DIMALTZ
 70
     0
  9
$DIMALTTZ
 70
     0
  9
$DIMFIT
 70
     3
  9
$DIMUPT
 70
     0
  9
$DIMUNIT
 70
     2
  9
$DIMDEC
 70
     2
  9
$DIMTDEC
 70
     2
  9
$DIMALTU
 70
     2
  9
$DIMALTTD
 70
     3
  9
$DIMTXSTY
  7
STYLE1
  9
$DIMAUNIT
 70
     0
  9
$LUNITS
 70
     2
  9
$LUPREC
 70
     4
  9
$SKETCHINC
 40
0.1
  9
$FILLETRAD
 40
0.5
  9
$AUNITS
 70
     0
  9
$AUPREC
 70
     0
  9
$MENU
  1
.
  9
$ELEVATION
 40
0.0
  9
$PELEVATION
 40
0.0
  9
$THICKNESS
 40
0.0
  9
$LIMCHECK
 70
     0
  9
$CHAMFERA
 40
0.5
  9
$CHAMFERB
 40
0.5
  9
$CHAMFERC
 40
1.0
  9
$CHAMFERD
 40
0.0
  9
$SKPOLY
 70
     0
  9
$TDCREATE
 40
2455300.669014757
  9
$TDUPDATE
 40
2455300.669014769
  9
$TDINDWG
 40
0.0000000116
  9
$TDUSRTIMER
 40
0.0000000116
  9
$USRTIMER
 70
     1
  9
$ANGBASE
 50
0.0
  9
$ANGDIR
 70
     0
  9
$PDMODE
 70
     0
  9
$PDSIZE
 40
0.0
  9
$PLINEWID
 40
0.0
  9
$COORDS
 70
     1
  9
$SPLFRAME
 70
     0
  9
$SPLINETYPE
 70
     6
  9
$SPLINESEGS
 70
     8
  9
$ATTDIA
 70
     0
  9
$ATTREQ
 70
     1
  9
$HANDLING
 70
     1
  9
$HANDSEED
  5
2D3
  9
$SURFTAB1
 70
     6
  9
$SURFTAB2
 70
     6
  9
$SURFTYPE
 70
     6
  9
$SURFU
 70
     6
  9
$SURFV
 70
     6
  9
$UCSNAME
  2

  9
$UCSORG
 10
0.0
 20
0.0
 30
0.0
  9
$UCSXDIR
 10
1.0
 20
0.0
 30
0.0
  9
$UCSYDIR
 10
0.0
 20
1.0
 30
0.0
  9
$PUCSNAME
  2

  9
$PUCSORG
 10
0.0
 20
0.0
 30
0.0
  9
$PUCSXDIR
 10
1.0
 20
0.0
 30
0.0
  9
$PUCSYDIR
 10
0.0
 20
1.0
 30
0.0
  9
$USERI1
 70
     0
  9
$USERI2
 70
     0
  9
$USERI3
 70
     0
  9
$USERI4
 70
     0
  9
$USERI5
 70
     0
  9
$USERR1
 40
0.0
  9
$USERR2
 40
0.0
  9
$USERR3
 40
0.0
  9
$USERR4
 40
0.0
  9
$USERR5
 40
0.0
  9
$WORLDVIEW
 70
     1
  9
$SHADEDGE
 70
     3
  9
$SHADEDIF
 70
    70
  9
$TILEMODE
 70
     1
  9
$MAXACTVP
 70
    64
  9
$PINSBASE
 10
0.0
 20
0.0
 30
0.0
  9
$PLIMCHECK
 70
     0
  9
$PEXTMIN
 10
1.000000E+20
 20
1.000000E+20
 30
1.000000E+20
  9
$PEXTMAX
 10
-1.000000E+20
 20
-1.000000E+20
 30
-1.000000E+20
  9
$PLIMMIN
 10
0.0
 20
0.0
  9
$PLIMMAX
 10
12.0
 20
9.0
  9
$UNITMODE
 70
     0
  9
$VISRETAIN
 70
     1
  9
$PLINEGEN
 70
     0
  9
$PSLTSCALE
 70
     1
  9
$TREEDEPTH
 70
  3020
  9
$PICKSTYLE
 70
     1
  9
$CMLSTYLE
  2
STANDARD
  9
$CMLJUST
 70
     0
  9
$CMLSCALE
 40
1.0
  9
$PROXYGRAPHICS
 70
     1
  9
$MEASUREMENT
 70
     0
  0
ENDSEC
  0
SECTION
  2
CLASSES
  0
CLASS
  1
ACDBDICTIONARYWDFLT
  2
AcDbDictionaryWithDefault
  3
ObjectDBX Classes
 90
        0
280
     0
281
     0
  0
CLASS
  1
XRECORD
  2
AcDbXrecord
  3
AutoCAD 2000
 90
        0
280
     0
281
     0
  0
CLASS
  1
LWPOLYLINE
  2
AcDbPolyline
  3
AutoCAD 2000
 90
        0
280
     0
281
     1
  0
CLASS
  1
HATCH
  2
AcDbHatch
  3
AutoCAD 2000
 90
        0
280
     0
281
     1
  0
CLASS
  1
ACDBPLACEHOLDER
  2
AcDbPlaceHolder
  3
ObjectDBX Classes
 90
        0
280
     0
281
     0
  0
CLASS
  1
LAYOUT
  2
AcDbLayout
  3
ObjectDBX Classes
 90
        0
280
     0
281
     0
  0
ENDSEC
  0
SECTION
  2
TABLES
  0
TABLE
  2
VPORT
  5
8
330
0
100
AcDbSymbolTable
 70
     1
  0
VPORT
  5
29
330
8
100
AcDbSymbolTableRecord
100
AcDbViewportTableRecord
  2
*ACTIVE
 70
     0
 10
0.0
 20
0.0
 11
1.0
 21
1.0
 12
210.0
 22
148.5
 13
0.0
 23
0.0
 14
0.5
 24
0.5
 15
0.5
 25
0.5
 16
0.0
 26
0.0
 36
1.0
 17
0.0
 27
0.0
 37
0.0
 40
297.0
 41
1.414141
 42
50.0
 43
0.0
 44
0.0
 50
0.0
 51
0.0
 71
     0
 72
   100
 73
     1
 74
     3
 75
     0
 76
     0
 77
     0
 78
     0
  0
ENDTAB
  0
TABLE
  2
LTYPE
  5
5
330
0
100
AcDbSymbolTable
 70
     4
  0
LTYPE
  5
14
330
5
100
AcDbSymbolTableRecord
100
AcDbLinetypeTableRecord
  2
BYBLOCK
 70
     0
  3

 72
    65
 73
     0
 40
0.0
  0
LTYPE
  5
15
330
5
100
AcDbSymbolTableRecord
100
AcDbLinetypeTableRecord
  2
BYLAYER
 70
     0
  3

 72
    65
 73
     0
 40
0.0
  0
LTYPE
  5
16
330
5
100
AcDbSymbolTableRecord
100
AcDbLinetypeTableRecord
  2
CONTINUOUS
 70
     0
  3
--------------------
 72
    65
 73
     0
 40
0.0
  0
LTYPE
  5
2A
330
5
100
AcDbSymbolTableRecord
100
AcDbLinetypeTableRecord
  2
CENTER
 70
     0
  3
Center ____ _ ____ _ ____ _ ____ _ ____ _ ____
 72
    65
 73
     4
 40
13.0
 49
10.0
 74
     0
 49
-1.0
 74
     0
 49
1.0
 74
     0
 49
-1.0
 74
     0
  0
ENDTAB
  0
TABLE
  2
LAYER
  5
2
330
0
100
AcDbSymbolTable
 70
    20
  0
LAYER
  5
10
330
2
100
AcDbSymbolTableRecord
100
AcDbLayerTableRecord
  2
0
 70
     0
 62
     7
  6
CONTINUOUS
  0
LAYER
  5
2D
330
2
100
AcDbSymbolTableRecord
100
AcDbLayerTableRecord
  2
LAYERGROUP-1
 70
     0
 62
     3
  6
CONTINUOUS
  0
LAYER
  5
3D
330
2
100
AcDbSymbolTableRecord
100
AcDbLayerTableRecord
  2
}}ﾊﾊGG血CCТ
 70
     0
 62
     3
  6
CONTINUOUS
  0
LAYER
  5
12D
330
2
100
AcDbSymbolTableRecord
100
AcDbLayerTableRecord
  2
GR1-1
 70
     0
 62
     7
  6
CONTINUOUS
  0
LAYER
  5
295
330
2
100
AcDbSymbolTableRecord
100
AcDbLayerTableRecord
  2
0-1
 70
     0
 62
     7
  6
CONTINUOUS
  0
ENDTAB
  0
TABLE
  2
STYLE
  5
3
330
0
100
AcDbSymbolTable
 70
     4
  0
STYLE
  5
11
330
3
100
AcDbSymbolTableRecord
100
AcDbTextStyleTableRecord
  2
STANDARD
 70
     0
 40
0.0
 41
1.0
 50
0.0
 71
     0
 42
0.2
  3
txt
  4

  0
STYLE
  5
3F
330
3
100
AcDbSymbolTableRecord
100
AcDbTextStyleTableRecord
  2
STYLE1
 70
     0
 40
0.0
 41
1.0
 50
0.0
 71
     0
 42
0.2
  3
MONOTXT.SHX
  4
extfont.shx
  0
STYLE
  5
40
330
3
100
AcDbSymbolTableRecord
100
AcDbTextStyleTableRecord
  2
FX_VECTOR
 70
     0
 40
0.0
 41
1.0
 50
0.0
 71
     0
 42
0.2
  3
MONOTXT.SHX
  4
BIGFONT.SHX
  0
ENDTAB
  0
TABLE
  2
VIEW
  5
6
330
0
100
AcDbSymbolTable
 70
     0
  0
ENDTAB
  0
TABLE
  2
UCS
  5
7
330
0
100
AcDbSymbolTable
 70
     0
  0
ENDTAB
  0
TABLE
  2
APPID
  5
9
330
0
100
AcDbSymbolTable
 70
     1
  0
APPID
  5
12
330
9
100
AcDbSymbolTableRecord
100
AcDbRegAppTableRecord
  2
ACAD
 70
     0
  0
ENDTAB
  0
TABLE
  2
DIMSTYLE
  5
A
330
0
100
AcDbSymbolTable
 70
     2
  0
DIMSTYLE
105
27
330
A
100
AcDbSymbolTableRecord
100
AcDbDimStyleTableRecord
  2
STANDARD
 70
     0
  3

  4

  5

  6

  7

 40
1.0
 41
0.18
 42
0.0625
 43
0.38
 44
0.18
 45
0.0
 46
0.0
 47
0.0
 48
0.0
140
0.18
141
0.09
142
0.0
143
25.4
144
1.0
145
0.0
146
1.0
147
0.09
 71
     0
 72
     0
 73
     1
 74
     1
 75
     0
 76
     0
 77
     0
 78
     0
170
     0
171
     2
172
     0
173
     0
174
     0
175
     0
176
     0
177
     0
178
     0
270
     2
271
     4
272
     4
273
     2
274
     2
340
11
275
     0
280
     0
281
     0
282
     0
283
     1
284
     0
285
     0
286
     0
287
     3
288
     0
  0
DIMSTYLE
105
A7
102
{ACAD_REACTORS
330
1C0
330
1CA
330
1D4
330
27B
102
}
330
A
100
AcDbSymbolTableRecord
100
AcDbDimStyleTableRecord
  2
FXDIMINFO
 70
     0
  3

  4

  5

  6
FXTIP_ARROW_S
  7
FXTIP_ARROW_E
 40
1.0
 41
4.0
 42
1.0
 43
10.0
 44
1.0
 45
0.0
 46
6.0
 47
0.0
 48
0.0
140
4.0
141
2.5
142
0.0
143
0.03937
144
1.0
145
0.0
146
1.0
147
1.0
 71
     0
 72
     0
 73
     0
 74
     0
 75
     0
 76
     0
 77
     1
 78
     8
170
     0
171
     3
172
     1
173
     1
174
     0
175
     0
176
     7
177
     7
178
     7
179
     2
270
     2
271
     2
272
     2
273
     2
274
     3
340
3F
275
     0
280
     0
281
     0
282
     0
283
     0
284
     8
285
     0
286
     0
287
     3
288
     0
  0
ENDTAB
  0
TABLE
  2
BLOCK_RECORD
  5
1
330
0
100
AcDbSymbolTable
 70
    36
  0
BLOCK_RECORD
  5
1F
330
1
100
AcDbSymbolTableRecord
100
AcDbBlockTableRecord
  2
*MODEL_SPACE
  0
BLOCK_RECORD
  5
1B
330
1
100
AcDbSymbolTableRecord
100
AcDbBlockTableRecord
  2
*PAPER_SPACE
  0
BLOCK_RECORD
  5
41
330
1
100
AcDbSymbolTableRecord
100
AcDbBlockTableRecord
  2
FXTIP_ARROW_S
  0
BLOCK_RECORD
  5
47
330
1
100
AcDbSymbolTableRecord
100
AcDbBlockTableRecord
  2
FXTIP_ARROW_E
  0
BLOCK_RECORD
  5
4D
330
1
100
AcDbSymbolTableRecord
100
AcDbBlockTableRecord
  2
FXTIP_BLACKDOT_S
  0
BLOCK_RECORD
  5
53
330
1
100
AcDbSymbolTableRecord
100
AcDbBlockTableRecord
  2
FXTIP_BLACKDOT_E
  0
BLOCK_RECORD
  5
59
330
1
100
AcDbSymbolTableRecord
100
AcDbBlockTableRecord
  2
FXTIP_TRIANGLE_S
  0
BLOCK_RECORD
  5
60
330
1
100
AcDbSymbolTableRecord
100
AcDbBlockTableRecord
  2
FXTIP_TRIANGLE_E
  0
BLOCK_RECORD
  5
67
330
1
100
AcDbSymbolTableRecord
100
AcDbBlockTableRecord
  2
FXTIP_ARCHITECT_S
  0
BLOCK_RECORD
  5
6D
330
1
100
AcDbSymbolTableRecord
100
AcDbBlockTableRecord
  2
FXTIP_ARCHITECT_E
  0
BLOCK_RECORD
  5
73
330
1
100
AcDbSymbolTableRecord
100
AcDbBlockTableRecord
  2
FXTIP_CIVIL_S
  0
BLOCK_RECORD
  5
79
330
1
100
AcDbSymbolTableRecord
100
AcDbBlockTableRecord
  2
FXTIP_CIVIL_E
  0
BLOCK_RECORD
  5
7F
330
1
100
AcDbSymbolTableRecord
100
AcDbBlockTableRecord
  2
FXTIP_WHITEDOT_S
  0
BLOCK_RECORD
  5
84
330
1
100
AcDbSymbolTableRecord
100
AcDbBlockTableRecord
  2
FXTIP_WHITEDOT_E
  0
BLOCK_RECORD
  5
89
330
1
100
AcDbSymbolTableRecord
100
AcDbBlockTableRecord
  2
FXTIP_UPARROW_S
  0
BLOCK_RECORD
  5
8E
330
1
100
AcDbSymbolTableRecord
100
AcDbBlockTableRecord
  2
FXTIP_UPARROW_E
  0
BLOCK_RECORD
  5
93
330
1
100
AcDbSymbolTableRecord
100
AcDbBlockTableRecord
  2
FXTIP_DOWNARROW_S
  0
BLOCK_RECORD
  5
98
330
1
100
AcDbSymbolTableRecord
100
AcDbBlockTableRecord
  2
FXTIP_DOWNARROW_E
  0
BLOCK_RECORD
  5
9D
330
1
100
AcDbSymbolTableRecord
100
AcDbBlockTableRecord
  2
FXTIP_BLACKTRIANGLE_S
  0
BLOCK_RECORD
  5
A2
330
1
100
AcDbSymbolTableRecord
100
AcDbBlockTableRecord
  2
FXTIP_BLACKTRIANGLE_E
  0
BLOCK_RECORD
  5
129
330
1
100
AcDbSymbolTableRecord
100
AcDbBlockTableRecord
  2
BLKF021
  0
BLOCK_RECORD
  5
1C1
330
1
100
AcDbSymbolTableRecord
100
AcDbBlockTableRecord
  2
*D20
  0
BLOCK_RECORD
  5
1CB
330
1
100
AcDbSymbolTableRecord
100
AcDbBlockTableRecord
  2
*D21
  0
BLOCK_RECORD
  5
1D5
330
1
100
AcDbSymbolTableRecord
100
AcDbBlockTableRecord
  2
*D22
  0
BLOCK_RECORD
  5
1E0
330
1
100
AcDbSymbolTableRecord
100
AcDbBlockTableRecord
  2
BLKF025
  0
BLOCK_RECORD
  5
1E9
330
1
100
AcDbSymbolTableRecord
100
AcDbBlockTableRecord
  2
BLKF026
  0
BLOCK_RECORD
  5
1ED
330
1
100
AcDbSymbolTableRecord
100
AcDbBlockTableRecord
  2
BLKF027
  0
BLOCK_RECORD
  5
20D
330
1
100
AcDbSymbolTableRecord
100
AcDbBlockTableRecord
  2
BLKF028
  0
BLOCK_RECORD
  5
211
330
1
100
AcDbSymbolTableRecord
100
AcDbBlockTableRecord
  2
BLKF029
  0
BLOCK_RECORD
  5
232
330
1
100
AcDbSymbolTableRecord
100
AcDbBlockTableRecord
  2
BLKF030
  0
BLOCK_RECORD
  5
236
330
1
100
AcDbSymbolTableRecord
100
AcDbBlockTableRecord
  2
BLKF031
  0
BLOCK_RECORD
  5
256
330
1
100
AcDbSymbolTableRecord
100
AcDbBlockTableRecord
  2
BLKF032
  0
BLOCK_RECORD
  5
25A
330
1
100
AcDbSymbolTableRecord
100
AcDbBlockTableRecord
  2
BLKF033
  0
BLOCK_RECORD
  5
27C
330
1
100
AcDbSymbolTableRecord
100
AcDbBlockTableRecord
  2
*D32
  0
BLOCK_RECORD
  5
285
330
1
100
AcDbSymbolTableRecord
100
AcDbBlockTableRecord
  2
BLKF035
  0
BLOCK_RECORD
  5
291
330
1
100
AcDbSymbolTableRecord
100
AcDbBlockTableRecord
  2
BLKF036
  0
BLOCK_RECORD
  5
29A
330
1
100
AcDbSymbolTableRecord
100
AcDbBlockTableRecord
  2
BLKF037
  0
ENDTAB
  0
ENDSEC
  0
SECTION
  2
BLOCKS
  0
BLOCK
  5
20
330
1F
100
AcDbEntity
  8
0
100
AcDbBlockBegin
  2
*MODEL_SPACE
 70
     0
 71
     0
 10
0.0
 20
0.0
 30
0.0
  3
*MODEL_SPACE
  1

  0
ENDBLK
  5
21
330
1F
100
AcDbEntity
  8
0
100
AcDbBlockEnd
  0
BLOCK
  5
1C
330
1B
100
AcDbEntity
 67
     1
  8
0
100
AcDbBlockBegin
  2
*PAPER_SPACE
 70
     0
 71
     0
 10
0.0
 20
0.0
 30
0.0
  3
*PAPER_SPACE
  1

  0
ENDBLK
  5
1D
330
1B
100
AcDbEntity
 67
     1
  8
0
100
AcDbBlockEnd
  0
BLOCK
  5
42
330
41
100
AcDbEntity
  8
0
100
AcDbBlockBegin
  2
FXTIP_ARROW_S
 70
     0
 71
     0
 10
0.0
 20
0.0
 30
0.0
  3
FXTIP_ARROW_S
  1

  0
LINE
  5
44
330
41
100
AcDbEntity
  8
0
  6
CONTINUOUS
 62
     0
100
AcDbLine
 10
0.0
 20
0.0
 30
0.0
 11
-1.0
 21
0.0
 31
0.0
  0
LINE
  5
45
330
41
100
AcDbEntity
  8
0
  6
CONTINUOUS
 62
     0
100
AcDbLine
 10
0.0
 20
0.0
 30
0.0
 11
-0.965926
 21
-0.258819
 31
0.0
  0
LINE
  5
46
330
41
100
AcDbEntity
  8
0
  6
CONTINUOUS
 62
     0
100
AcDbLine
 10
0.0
 20
0.0
 30
0.0
 11
-0.965926
 21
0.258819
 31
0.0
  0
ENDBLK
  5
43
330
41
100
AcDbEntity
  8
0
100
AcDbBlockEnd
  0
BLOCK
  5
48
330
47
100
AcDbEntity
  8
0
100
AcDbBlockBegin
  2
FXTIP_ARROW_E
 70
     0
 71
     0
 10
0.0
 20
0.0
 30
0.0
  3
FXTIP_ARROW_E
  1

  0
LINE
  5
4A
330
47
100
AcDbEntity
  8
0
  6
CONTINUOUS
 62
     0
100
AcDbLine
 10
0.0
 20
0.0
 30
0.0
 11
-1.0
 21
0.0
 31
0.0
  0
LINE
  5
4B
330
47
100
AcDbEntity
  8
0
  6
CONTINUOUS
 62
     0
100
AcDbLine
 10
0.0
 20
0.0
 30
0.0
 11
-0.965926
 21
0.258819
 31
0.0
  0
LINE
  5
4C
330
47
100
AcDbEntity
  8
0
  6
CONTINUOUS
 62
     0
100
AcDbLine
 10
0.0
 20
0.0
 30
0.0
 11
-0.965926
 21
-0.258819
 31
0.0
  0
ENDBLK
  5
49
330
47
100
AcDbEntity
  8
0
100
AcDbBlockEnd
  0
BLOCK
  5
4E
330
4D
100
AcDbEntity
  8
0
100
AcDbBlockBegin
  2
FXTIP_BLACKDOT_S
 70
     0
 71
     0
 10
0.0
 20
0.0
 30
0.0
  3
FXTIP_BLACKDOT_S
  1

  0
LINE
  5
50
330
4D
100
AcDbEntity
  8
0
  6
CONTINUOUS
 62
     0
100
AcDbLine
 10
0.0
 20
0.0
 30
0.0
 11
-1.0
 21
0.0
 31
0.0
  0
LWPOLYLINE
  5
51
330
4D
100
AcDbEntity
  8
0
  6
CONTINUOUS
 62
     0
100
AcDbPolyline
 90
        2
 70
     1
 10
-0.25
 20
0.0
 40
0.5
 41
0.5
 42
1.0
 10
0.25
 20
0.0
 40
0.5
 41
0.5
 42
1.0
  0
CIRCLE
  5
52
330
4D
100
AcDbEntity
  8
0
  6
CONTINUOUS
 62
     0
100
AcDbCircle
 10
0.0
 20
0.0
 30
0.0
 40
0.5
  0
ENDBLK
  5
4F
330
4D
100
AcDbEntity
  8
0
100
AcDbBlockEnd
  0
BLOCK
  5
54
330
53
100
AcDbEntity
  8
0
100
AcDbBlockBegin
  2
FXTIP_BLACKDOT_E
 70
     0
 71
     0
 10
0.0
 20
0.0
 30
0.0
  3
FXTIP_BLACKDOT_E
  1

  0
LINE
  5
56
330
53
100
AcDbEntity
  8
0
  6
CONTINUOUS
 62
     0
100
AcDbLine
 10
0.0
 20
0.0
 30
0.0
 11
-1.0
 21
0.0
 31
0.0
  0
LWPOLYLINE
  5
57
330
53
100
AcDbEntity
  8
0
  6
CONTINUOUS
 62
     0
100
AcDbPolyline
 90
        2
 70
     1
 10
-0.25
 20
0.0
 40
0.5
 41
0.5
 42
1.0
 10
0.25
 20
0.0
 40
0.5
 41
0.5
 42
1.0
  0
CIRCLE
  5
58
330
53
100
AcDbEntity
  8
0
  6
CONTINUOUS
 62
     0
100
AcDbCircle
 10
0.0
 20
0.0
 30
0.0
 40
0.5
  0
ENDBLK
  5
55
330
53
100
AcDbEntity
  8
0
100
AcDbBlockEnd
  0
BLOCK
  5
5A
330
59
100
AcDbEntity
  8
0
100
AcDbBlockBegin
  2
FXTIP_TRIANGLE_S
 70
     0
 71
     0
 10
0.0
 20
0.0
 30
0.0
  3
FXTIP_TRIANGLE_S
  1

  0
LINE
  5
5C
330
59
100
AcDbEntity
  8
0
  6
CONTINUOUS
 62
     0
100
AcDbLine
 10
0.0
 20
0.0
 30
0.0
 11
-1.0
 21
0.0
 31
0.0
  0
LINE
  5
5D
330
59
100
AcDbEntity
  8
0
  6
CONTINUOUS
 62
     0
100
AcDbLine
 10
0.0
 20
0.0
 30
0.0
 11
-0.965926
 21
-0.258819
 31
0.0
  0
LINE
  5
5E
330
59
100
AcDbEntity
  8
0
  6
CONTINUOUS
 62
     0
100
AcDbLine
 10
0.0
 20
0.0
 30
0.0
 11
-0.965926
 21
0.258819
 31
0.0
  0
LINE
  5
5F
330
59
100
AcDbEntity
  8
0
  6
CONTINUOUS
 62
     0
100
AcDbLine
 10
-0.965926
 20
-0.258819
 30
0.0
 11
-0.965926
 21
0.258819
 31
0.0
  0
ENDBLK
  5
5B
330
59
100
AcDbEntity
  8
0
100
AcDbBlockEnd
  0
BLOCK
  5
61
330
60
100
AcDbEntity
  8
0
100
AcDbBlockBegin
  2
FXTIP_TRIANGLE_E
 70
     0
 71
     0
 10
0.0
 20
0.0
 30
0.0
  3
FXTIP_TRIANGLE_E
  1

  0
LINE
  5
63
330
60
100
AcDbEntity
  8
0
  6
CONTINUOUS
 62
     0
100
AcDbLine
 10
0.0
 20
0.0
 30
0.0
 11
-1.0
 21
0.0
 31
0.0
  0
LINE
  5
64
330
60
100
AcDbEntity
  8
0
  6
CONTINUOUS
 62
     0
100
AcDbLine
 10
0.0
 20
0.0
 30
0.0
 11
-0.965926
 21
0.258819
 31
0.0
  0
LINE
  5
65
330
60
100
AcDbEntity
  8
0
  6
CONTINUOUS
 62
     0
100
AcDbLine
 10
0.0
 20
0.0
 30
0.0
 11
-0.965926
 21
-0.258819
 31
0.0
  0
LINE
  5
66
330
60
100
AcDbEntity
  8
0
  6
CONTINUOUS
 62
     0
100
AcDbLine
 10
-0.965926
 20
0.258819
 30
0.0
 11
-0.965926
 21
-0.258819
 31
0.0
  0
ENDBLK
  5
62
330
60
100
AcDbEntity
  8
0
100
AcDbBlockEnd
  0
BLOCK
  5
68
330
67
100
AcDbEntity
  8
0
100
AcDbBlockBegin
  2
FXTIP_ARCHITECT_S
 70
     0
 71
     0
 10
0.0
 20
0.0
 30
0.0
  3
FXTIP_ARCHITECT_S
  1

  0
LINE
  5
6A
330
67
100
AcDbEntity
  8
0
  6
CONTINUOUS
 62
     0
100
AcDbLine
 10
0.0
 20
0.0
 30
0.0
 11
-1.0
 21
0.0
 31
0.0
  0
LINE
  5
6B
330
67
100
AcDbEntity
  8
0
  6
CONTINUOUS
 62
     0
100
AcDbLine
 10
0.0
 20
0.0
 30
0.0
 11
-0.707107
 21
-0.707107
 31
0.0
  0
LINE
  5
6C
330
67
100
AcDbEntity
  8
0
  6
CONTINUOUS
 62
     0
100
AcDbLine
 10
0.0
 20
0.0
 30
0.0
 11
0.707107
 21
0.707107
 31
0.0
  0
ENDBLK
  5
69
330
67
100
AcDbEntity
  8
0
100
AcDbBlockEnd
  0
BLOCK
  5
6E
330
6D
100
AcDbEntity
  8
0
100
AcDbBlockBegin
  2
FXTIP_ARCHITECT_E
 70
     0
 71
     0
 10
0.0
 20
0.0
 30
0.0
  3
FXTIP_ARCHITECT_E
  1

  0
LINE
  5
70
330
6D
100
AcDbEntity
  8
0
  6
CONTINUOUS
 62
     0
100
AcDbLine
 10
0.0
 20
0.0
 30
0.0
 11
-1.0
 21
0.0
 31
0.0
  0
LINE
  5
71
330
6D
100
AcDbEntity
  8
0
  6
CONTINUOUS
 62
     0
100
AcDbLine
 10
0.0
 20
0.0
 30
0.0
 11
0.707107
 21
0.707107
 31
0.0
  0
LINE
  5
72
330
6D
100
AcDbEntity
  8
0
  6
CONTINUOUS
 62
     0
100
AcDbLine
 10
0.0
 20
0.0
 30
0.0
 11
-0.707107
 21
-0.707107
 31
0.0
  0
ENDBLK
  5
6F
330
6D
100
AcDbEntity
  8
0
100
AcDbBlockEnd
  0
BLOCK
  5
74
330
73
100
AcDbEntity
  8
0
100
AcDbBlockBegin
  2
FXTIP_CIVIL_S
 70
     0
 71
     0
 10
0.0
 20
0.0
 30
0.0
  3
FXTIP_CIVIL_S
  1

  0
LINE
  5
76
330
73
100
AcDbEntity
  8
0
  6
CONTINUOUS
 62
     0
100
AcDbLine
 10
0.0
 20
0.0
 30
0.0
 11
-1.0
 21
0.0
 31
0.0
  0
LINE
  5
77
330
73
100
AcDbEntity
  8
0
  6
CONTINUOUS
 62
     0
100
AcDbLine
 10
0.0
 20
-0.0625
 30
0.0
 11
-1.0
 21
-0.0625
 31
0.0
  0
LINE
  5
78
330
73
100
AcDbEntity
  8
0
  6
CONTINUOUS
 62
     0
100
AcDbLine
 10
0.0
 20
-0.125
 30
0.0
 11
-1.0
 21
-0.125
 31
0.0
  0
ENDBLK
  5
75
330
73
100
AcDbEntity
  8
0
100
AcDbBlockEnd
  0
BLOCK
  5
7A
330
79
100
AcDbEntity
  8
0
100
AcDbBlockBegin
  2
FXTIP_CIVIL_E
 70
     0
 71
     0
 10
0.0
 20
0.0
 30
0.0
  3
FXTIP_CIVIL_E
  1

  0
LINE
  5
7C
330
79
100
AcDbEntity
  8
0
  6
CONTINUOUS
 62
     0
100
AcDbLine
 10
0.0
 20
0.0
 30
0.0
 11
-1.0
 21
0.0
 31
0.0
  0
LINE
  5
7D
330
79
100
AcDbEntity
  8
0
  6
CONTINUOUS
 62
     0
100
AcDbLine
 10
0.0
 20
0.0625
 30
0.0
 11
-1.0
 21
0.0625
 31
0.0
  0
LINE
  5
7E
330
79
100
AcDbEntity
  8
0
  6
CONTINUOUS
 62
     0
100
AcDbLine
 10
0.0
 20
0.125
 30
0.0
 11
-1.0
 21
0.125
 31
0.0
  0
ENDBLK
  5
7B
330
79
100
AcDbEntity
  8
0
100
AcDbBlockEnd
  0
BLOCK
  5
80
330
7F
100
AcDbEntity
  8
0
100
AcDbBlockBegin
  2
FXTIP_WHITEDOT_S
 70
     0
 71
     0
 10
0.0
 20
0.0
 30
0.0
  3
FXTIP_WHITEDOT_S
  1

  0
LINE
  5
82
330
7F
100
AcDbEntity
  8
0
  6
CONTINUOUS
 62
     0
100
AcDbLine
 10
0.0
 20
0.0
 30
0.0
 11
-1.0
 21
0.0
 31
0.0
  0
CIRCLE
  5
83
330
7F
100
AcDbEntity
  8
0
  6
CONTINUOUS
 62
     0
100
AcDbCircle
 10
0.0
 20
0.0
 30
0.0
 40
0.5
  0
ENDBLK
  5
81
330
7F
100
AcDbEntity
  8
0
100
AcDbBlockEnd
  0
BLOCK
  5
85
330
84
100
AcDbEntity
  8
0
100
AcDbBlockBegin
  2
FXTIP_WHITEDOT_E
 70
     0
 71
     0
 10
0.0
 20
0.0
 30
0.0
  3
FXTIP_WHITEDOT_E
  1

  0
LINE
  5
87
330
84
100
AcDbEntity
  8
0
  6
CONTINUOUS
 62
     0
100
AcDbLine
 10
0.0
 20
0.0
 30
0.0
 11
-1.0
 21
0.0
 31
0.0
  0
CIRCLE
  5
88
330
84
100
AcDbEntity
  8
0
  6
CONTINUOUS
 62
     0
100
AcDbCircle
 10
0.0
 20
0.0
 30
0.0
 40
0.5
  0
ENDBLK
  5
86
330
84
100
AcDbEntity
  8
0
100
AcDbBlockEnd
  0
BLOCK
  5
8A
330
89
100
AcDbEntity
  8
0
100
AcDbBlockBegin
  2
FXTIP_UPARROW_S
 70
     0
 71
     0
 10
0.0
 20
0.0
 30
0.0
  3
FXTIP_UPARROW_S
  1

  0
LINE
  5
8C
330
89
100
AcDbEntity
  8
0
  6
CONTINUOUS
 62
     0
100
AcDbLine
 10
0.0
 20
0.0
 30
0.0
 11
-1.0
 21
0.0
 31
0.0
  0
LINE
  5
8D
330
89
100
AcDbEntity
  8
0
  6
CONTINUOUS
 62
     0
100
AcDbLine
 10
0.0
 20
0.0
 30
0.0
 11
-0.965926
 21
-0.258819
 31
0.0
  0
ENDBLK
  5
8B
330
89
100
AcDbEntity
  8
0
100
AcDbBlockEnd
  0
BLOCK
  5
8F
330
8E
100
AcDbEntity
  8
0
100
AcDbBlockBegin
  2
FXTIP_UPARROW_E
 70
     0
 71
     0
 10
0.0
 20
0.0
 30
0.0
  3
FXTIP_UPARROW_E
  1

  0
LINE
  5
91
330
8E
100
AcDbEntity
  8
0
  6
CONTINUOUS
 62
     0
100
AcDbLine
 10
0.0
 20
0.0
 30
0.0
 11
-1.0
 21
0.0
 31
0.0
  0
LINE
  5
92
330
8E
100
AcDbEntity
  8
0
  6
CONTINUOUS
 62
     0
100
AcDbLine
 10
0.0
 20
0.0
 30
0.0
 11
-0.965926
 21
0.258819
 31
0.0
  0
ENDBLK
  5
90
330
8E
100
AcDbEntity
  8
0
100
AcDbBlockEnd
  0
BLOCK
  5
94
330
93
100
AcDbEntity
  8
0
100
AcDbBlockBegin
  2
FXTIP_DOWNARROW_S
 70
     0
 71
     0
 10
0.0
 20
0.0
 30
0.0
  3
FXTIP_DOWNARROW_S
  1

  0
LINE
  5
96
330
93
100
AcDbEntity
  8
0
  6
CONTINUOUS
 62
     0
100
AcDbLine
 10
0.0
 20
0.0
 30
0.0
 11
-1.0
 21
0.0
 31
0.0
  0
LINE
  5
97
330
93
100
AcDbEntity
  8
0
  6
CONTINUOUS
 62
     0
100
AcDbLine
 10
0.0
 20
0.0
 30
0.0
 11
-0.965926
 21
0.258819
 31
0.0
  0
ENDBLK
  5
95
330
93
100
AcDbEntity
  8
0
100
AcDbBlockEnd
  0
BLOCK
  5
99
330
98
100
AcDbEntity
  8
0
100
AcDbBlockBegin
  2
FXTIP_DOWNARROW_E
 70
     0
 71
     0
 10
0.0
 20
0.0
 30
0.0
  3
FXTIP_DOWNARROW_E
  1

  0
LINE
  5
9B
330
98
100
AcDbEntity
  8
0
  6
CONTINUOUS
 62
     0
100
AcDbLine
 10
0.0
 20
0.0
 30
0.0
 11
-1.0
 21
0.0
 31
0.0
  0
LINE
  5
9C
330
98
100
AcDbEntity
  8
0
  6
CONTINUOUS
 62
     0
100
AcDbLine
 10
0.0
 20
0.0
 30
0.0
 11
-0.965926
 21
-0.258819
 31
0.0
  0
ENDBLK
  5
9A
330
98
100
AcDbEntity
  8
0
100
AcDbBlockEnd
  0
BLOCK
  5
9E
330
9D
100
AcDbEntity
  8
0
100
AcDbBlockBegin
  2
FXTIP_BLACKTRIANGLE_S
 70
     0
 71
     0
 10
0.0
 20
0.0
 30
0.0
  3
FXTIP_BLACKTRIANGLE_S
  1

  0
LINE
  5
A0
330
9D
100
AcDbEntity
  8
0
  6
CONTINUOUS
 62
     0
100
AcDbLine
 10
0.0
 20
0.0
 30
0.0
 11
-1.0
 21
0.0
 31
0.0
  0
SOLID
  5
A1
330
9D
100
AcDbEntity
  8
0
  6
CONTINUOUS
 62
     0
100
AcDbTrace
 10
0.0
 20
0.0
 30
0.0
 11
-0.965926
 21
-0.258819
 31
0.0
 12
-0.965926
 22
0.258819
 32
0.0
 13
-0.965926
 23
0.258819
 33
0.0
  0
ENDBLK
  5
9F
330
9D
100
AcDbEntity
  8
0
100
AcDbBlockEnd
  0
BLOCK
  5
A3
330
A2
100
AcDbEntity
  8
0
100
AcDbBlockBegin
  2
FXTIP_BLACKTRIANGLE_E
 70
     0
 71
     0
 10
0.0
 20
0.0
 30
0.0
  3
FXTIP_BLACKTRIANGLE_E
  1

  0
LINE
  5
A5
330
A2
100
AcDbEntity
  8
0
  6
CONTINUOUS
 62
     0
100
AcDbLine
 10
0.0
 20
0.0
 30
0.0
 11
-1.0
 21
0.0
 31
0.0
  0
SOLID
  5
A6
330
A2
100
AcDbEntity
  8
0
  6
CONTINUOUS
 62
     0
100
AcDbTrace
 10
0.0
 20
0.0
 30
0.0
 11
-0.965926
 21
0.258819
 31
0.0
 12
-0.965926
 22
-0.258819
 32
0.0
 13
-0.965926
 23
-0.258819
 33
0.0
  0
ENDBLK
  5
A4
330
A2
100
AcDbEntity
  8
0
100
AcDbBlockEnd
  0
BLOCK
  5
12A
330
129
100
AcDbEntity
  8
0
100
AcDbBlockBegin
  2
BLKF021
 70
     0
 71
     0
 10
0.0
 20
0.0
 30
0.0
  3
BLKF021
  1

  0
LINE
  5
12E
330
129
100
AcDbEntity
  8
GR1-1
  6
CONTINUOUS
 62
     7
100
AcDbLine
 10
254.475267
 20
197.000209
 30
0.0
 11
254.506128
 21
197.392329
 31
0.0
  0
LINE
  5
12F
330
129
100
AcDbEntity
  8
GR1-1
  6
CONTINUOUS
 62
     7
100
AcDbLine
 10
254.263777
 20
196.819578
 30
0.0
 11
254.325498
 21
197.60382
 31
0.0
  0
LINE
  5
130
330
129
100
AcDbEntity
  8
GR1-1
  6
CONTINUOUS
 62
     7
100
AcDbLine
 10
254.052286
 20
196.638948
 30
0.0
 11
254.144868
 21
197.815311
 31
0.0
  0
LINE
  5
131
330
129
100
AcDbEntity
  8
GR1-1
  6
CONTINUOUS
 62
     7
100
AcDbLine
 10
253.840795
 20
196.458318
 30
0.0
 11
253.964238
 21
198.026801
 31
0.0
  0
LINE
  5
132
330
129
100
AcDbEntity
  8
GR1-1
  6
CONTINUOUS
 62
     7
100
AcDbLine
 10
253.629305
 20
196.277688
 30
0.0
 11
253.73576
 21
197.630327
 31
0.0
  0
LINE
  5
133
330
129
100
AcDbEntity
  8
GR1-1
  6
CONTINUOUS
 62
     7
100
AcDbLine
 10
253.764887
 20
198.000431
 30
0.0
 11
253.783607
 21
198.238292
 31
0.0
  0
LINE
  5
134
330
129
100
AcDbEntity
  8
GR1-1
  6
CONTINUOUS
 62
     7
100
AcDbLine
 10
253.417814
 20
196.097058
 30
0.0
 11
253.524269
 21
197.449697
 31
0.0
  0
LINE
  5
135
330
129
100
AcDbEntity
  8
GR1-1
  6
CONTINUOUS
 62
     7
100
AcDbLine
 10
253.584257
 20
198.211922
 30
0.0
 11
253.602977
 21
198.449783
 31
0.0
  0
LINE
  5
136
330
129
100
AcDbEntity
  8
GR1-1
  6
CONTINUOUS
 62
     7
100
AcDbLine
 10
253.206323
 20
195.916428
 30
0.0
 11
253.312778
 21
197.269067
 31
0.0
  0
LINE
  5
137
330
129
100
AcDbEntity
  8
GR1-1
  6
CONTINUOUS
 62
     7
100
AcDbLine
 10
253.403627
 20
198.423412
 30
0.0
 11
253.422347
 21
198.661274
 31
0.0
  0
LINE
  5
138
330
129
100
AcDbEntity
  8
GR1-1
  6
CONTINUOUS
 62
     7
100
AcDbLine
 10
252.994832
 20
195.735798
 30
0.0
 11
253.113888
 21
197.248547
 31
0.0
  0
LINE
  5
139
330
129
100
AcDbEntity
  8
GR1-1
  6
CONTINUOUS
 62
     7
100
AcDbLine
 10
253.222997
 20
198.634903
 30
0.0
 11
253.241717
 21
198.872764
 31
0.0
  0
LINE
  5
13A
330
129
100
AcDbEntity
  8
GR1-1
  6
CONTINUOUS
 62
     7
100
AcDbLine
 10
252.783342
 20
195.555168
 30
0.0
 11
252.933258
 21
197.460037
 31
0.0
  0
LINE
  5
13B
330
129
100
AcDbEntity
  8
GR1-1
  6
CONTINUOUS
 62
     7
100
AcDbLine
 10
253.042367
 20
198.846394
 30
0.0
 11
253.061087
 21
199.084255
 31
0.0
  0
LINE
  5
13C
330
129
100
AcDbEntity
  8
GR1-1
  6
CONTINUOUS
 62
     7
100
AcDbLine
 10
252.571851
 20
195.374537
 30
0.0
 11
252.752628
 21
197.671528
 31
0.0
  0
LINE
  5
13D
330
129
100
AcDbEntity
  8
GR1-1
  6
CONTINUOUS
 62
     7
100
AcDbLine
 10
252.861737
 20
199.057884
 30
0.0
 11
252.880457
 21
199.295746
 31
0.0
  0
LINE
  5
13E
330
129
100
AcDbEntity
  8
GR1-1
  6
CONTINUOUS
 62
     7
100
AcDbLine
 10
252.36036
 20
195.193907
 30
0.0
 11
252.562982
 21
197.768454
 31
0.0
  0
LINE
  5
13F
330
129
100
AcDbEntity
  8
GR1-1
  6
CONTINUOUS
 62
     7
100
AcDbLine
 10
252.681107
 20
199.269375
 30
0.0
 11
252.699827
 21
199.507236
 31
0.0
  0
LINE
  5
140
330
129
100
AcDbEntity
  8
GR1-1
  6
CONTINUOUS
 62
     7
100
AcDbLine
 10
252.14887
 20
195.013277
 30
0.0
 11
252.17973
 21
195.405398
 31
0.0
  0
LINE
  5
141
330
129
100
AcDbEntity
  8
GR1-1
  6
CONTINUOUS
 62
     7
100
AcDbLine
 10
252.476195
 20
199.172347
 30
0.0
 11
252.519197
 21
199.718727
 31
0.0
  0
LINE
  5
142
330
129
100
AcDbEntity
  8
GR1-1
  6
CONTINUOUS
 62
     7
100
AcDbLine
 10
251.937379
 20
194.832647
 30
0.0
 11
251.98367
 21
195.420828
 31
0.0
  0
LINE
  5
143
330
129
100
AcDbEntity
  8
GR1-1
  6
CONTINUOUS
 62
     7
100
AcDbLine
 10
252.264705
 20
198.991716
 30
0.0
 11
252.338566
 21
199.930218
 31
0.0
  0
LINE
  5
144
330
129
100
AcDbEntity
  8
GR1-1
  6
CONTINUOUS
 62
     7
100
AcDbLine
 10
251.725888
 20
194.652017
 30
0.0
 11
251.787609
 21
195.436259
 31
0.0
  0
LINE
  5
145
330
129
100
AcDbEntity
  8
GR1-1
  6
CONTINUOUS
 62
     7
100
AcDbLine
 10
252.053214
 20
198.811086
 30
0.0
 11
252.085947
 21
199.226993
 31
0.0
  0
LINE
  5
146
330
129
100
AcDbEntity
  8
GR1-1
  6
CONTINUOUS
 62
     7
100
AcDbLine
 10
252.096215
 20
199.357467
 30
0.0
 11
252.157936
 21
200.141708
 31
0.0
  0
LINE
  5
147
330
129
100
AcDbEntity
  8
GR1-1
  6
CONTINUOUS
 62
     7
100
AcDbLine
 10
251.514398
 20
194.471387
 30
0.0
 11
251.591549
 21
195.451689
 31
0.0
  0
LINE
  5
148
330
129
100
AcDbEntity
  8
GR1-1
  6
CONTINUOUS
 62
     7
100
AcDbLine
 10
251.841723
 20
198.630456
 30
0.0
 11
251.874456
 21
199.046363
 31
0.0
  0
LINE
  5
149
330
129
100
AcDbEntity
  8
GR1-1
  6
CONTINUOUS
 62
     7
100
AcDbLine
 10
251.900155
 20
199.372897
 30
0.0
 11
251.977306
 21
200.353199
 31
0.0
  0
LINE
  5
14A
330
129
100
AcDbEntity
  8
GR1-1
  6
CONTINUOUS
 62
     7
100
AcDbLine
 10
251.302907
 20
194.290757
 30
0.0
 11
251.395489
 21
195.467119
 31
0.0
  0
LINE
  5
14B
330
129
100
AcDbEntity
  8
GR1-1
  6
CONTINUOUS
 62
     7
100
AcDbLine
 10
251.630233
 20
198.449826
 30
0.0
 11
251.662965
 21
198.865733
 31
0.0
  0
LINE
  5
14C
330
129
100
AcDbEntity
  8
GR1-1
  6
CONTINUOUS
 62
     7
100
AcDbLine
 10
251.704094
 20
199.388327
 30
0.0
 11
251.796676
 21
200.56469
 31
0.0
  0
LINE
  5
14D
330
129
100
AcDbEntity
  8
GR1-1
  6
CONTINUOUS
 62
     7
100
AcDbLine
 10
251.091416
 20
194.110127
 30
0.0
 11
251.199428
 21
195.482549
 31
0.0
  0
LINE
  5
14E
330
129
100
AcDbEntity
  8
GR1-1
  6
CONTINUOUS
 62
     7
100
AcDbLine
 10
251.27658
 20
196.462852
 30
0.0
 11
251.364022
 21
197.573912
 31
0.0
  0
LINE
  5
14F
330
129
100
AcDbEntity
  8
GR1-1
  6
CONTINUOUS
 62
     7
100
AcDbLine
 10
251.418742
 20
198.269196
 30
0.0
 11
251.451475
 21
198.685103
 31
0.0
  0
LINE
  5
150
330
129
100
AcDbEntity
  8
GR1-1
  6
CONTINUOUS
 62
     7
100
AcDbLine
 10
251.508034
 20
199.403758
 30
0.0
 11
251.616046
 21
200.776181
 31
0.0
  0
LINE
  5
151
330
129
100
AcDbEntity
  8
GR1-1
  6
CONTINUOUS
 62
     7
100
AcDbLine
 10
250.879925
 20
193.929496
 30
0.0
 11
251.003368
 21
195.49798
 31
0.0
  0
LINE
  5
152
330
129
100
AcDbEntity
  8
GR1-1
  6
CONTINUOUS
 62
     7
100
AcDbLine
 10
251.080519
 20
196.478282
 30
0.0
 11
251.152697
 21
197.395388
 31
0.0
  0
LINE
  5
153
330
129
100
AcDbEntity
  8
GR1-1
  6
CONTINUOUS
 62
     7
100
AcDbLine
 10
251.207251
 20
198.088566
 30
0.0
 11
251.239984
 21
198.504473
 31
0.0
  0
LINE
  5
154
330
129
100
AcDbEntity
  8
GR1-1
  6
CONTINUOUS
 62
     7
100
AcDbLine
 10
251.311974
 20
199.419188
 30
0.0
 11
251.435416
 21
200.987671
 31
0.0
  0
LINE
  5
155
330
129
100
AcDbEntity
  8
GR1-1
  6
CONTINUOUS
 62
     7
100
AcDbLine
 10
250.668435
 20
193.748866
 30
0.0
 11
250.807307
 21
195.51341
 31
0.0
  0
LINE
  5
156
330
129
100
AcDbEntity
  8
GR1-1
  6
CONTINUOUS
 62
     7
100
AcDbLine
 10
250.884459
 20
196.493712
 30
0.0
 11
250.941206
 21
197.214757
 31
0.0
  0
LINE
  5
157
330
129
100
AcDbEntity
  8
GR1-1
  6
CONTINUOUS
 62
     7
100
AcDbLine
 10
250.995761
 20
197.907936
 30
0.0
 11
251.038762
 21
198.454316
 31
0.0
  0
LINE
  5
158
330
129
100
AcDbEntity
  8
GR1-1
  6
CONTINUOUS
 62
     7
100
AcDbLine
 10
251.115913
 20
199.434618
 30
0.0
 11
251.254786
 21
201.199162
 31
0.0
  0
LINE
  5
159
330
129
100
AcDbEntity
  8
GR1-1
  6
CONTINUOUS
 62
     7
100
AcDbLine
 10
250.456944
 20
193.568236
 30
0.0
 11
250.611247
 21
195.52884
 31
0.0
  0
LINE
  5
15A
330
129
100
AcDbEntity
  8
GR1-1
  6
CONTINUOUS
 62
     7
100
AcDbLine
 10
250.688398
 20
196.509142
 30
0.0
 11
250.74683
 21
197.251583
 31
0.0
  0
LINE
  5
15B
330
129
100
AcDbEntity
  8
GR1-1
  6
CONTINUOUS
 62
     7
100
AcDbLine
 10
250.78427
 20
197.727306
 30
0.0
 11
250.842701
 21
198.469746
 31
0.0
  0
LINE
  5
15C
330
129
100
AcDbEntity
  8
GR1-1
  6
CONTINUOUS
 62
     7
100
AcDbLine
 10
250.919853
 20
199.450049
 30
0.0
 11
251.074156
 21
201.410653
 31
0.0
  0
LINE
  5
15D
330
129
100
AcDbEntity
  8
GR1-1
  6
CONTINUOUS
 62
     7
100
AcDbLine
 10
250.245453
 20
193.387606
 30
0.0
 11
250.415187
 21
195.544271
 31
0.0
  0
LINE
  5
15E
330
129
100
AcDbEntity
  8
GR1-1
  6
CONTINUOUS
 62
     7
100
AcDbLine
 10
250.492338
 20
196.524573
 30
0.0
 11
250.5662
 21
197.463074
 31
0.0
  0
LINE
  5
15F
330
129
100
AcDbEntity
  8
GR1-1
  6
CONTINUOUS
 62
     7
100
AcDbLine
 10
250.572779
 20
197.546675
 30
0.0
 11
250.646641
 21
198.485177
 31
0.0
  0
LINE
  5
160
330
129
100
AcDbEntity
  8
GR1-1
  6
CONTINUOUS
 62
     7
100
AcDbLine
 10
250.723792
 20
199.465479
 30
0.0
 11
250.893525
 21
201.622143
 31
0.0
  0
LINE
  5
161
330
129
100
AcDbEntity
  8
GR1-1
  6
CONTINUOUS
 62
     7
100
AcDbLine
 10
250.058244
 20
193.515495
 30
0.0
 11
250.219126
 21
195.559701
 31
0.0
  0
LINE
  5
162
330
129
100
AcDbEntity
  8
GR1-1
  6
CONTINUOUS
 62
     7
100
AcDbLine
 10
250.296278
 20
196.540003
 30
0.0
 11
250.45058
 21
198.500607
 31
0.0
  0
LINE
  5
163
330
129
100
AcDbEntity
  8
GR1-1
  6
CONTINUOUS
 62
     7
100
AcDbLine
 10
250.527732
 20
199.480909
 30
0.0
 11
250.688614
 21
201.525115
 31
0.0
  0
LINE
  5
164
330
129
100
AcDbEntity
  8
GR1-1
  6
CONTINUOUS
 62
     7
100
AcDbLine
 10
249.877614
 20
193.726986
 30
0.0
 11
250.023066
 21
195.575131
 31
0.0
  0
LINE
  5
165
330
129
100
AcDbEntity
  8
GR1-1
  6
CONTINUOUS
 62
     7
100
AcDbLine
 10
250.100217
 20
196.555433
 30
0.0
 11
250.25452
 21
198.516037
 31
0.0
  0
LINE
  5
166
330
129
100
AcDbEntity
  8
GR1-1
  6
CONTINUOUS
 62
     7
100
AcDbLine
 10
250.331671
 20
199.496339
 30
0.0
 11
250.477124
 21
201.344485
 31
0.0
  0
LINE
  5
167
330
129
100
AcDbEntity
  8
GR1-1
  6
CONTINUOUS
 62
     7
100
AcDbLine
 10
249.696983
 20
193.938477
 30
0.0
 11
249.827005
 21
195.590561
 31
0.0
  0
LINE
  5
168
330
129
100
AcDbEntity
  8
GR1-1
  6
CONTINUOUS
 62
     7
100
AcDbLine
 10
249.904157
 20
196.570864
 30
0.0
 11
250.05846
 21
198.531468
 31
0.0
  0
LINE
  5
169
330
129
100
AcDbEntity
  8
GR1-1
  6
CONTINUOUS
 62
     7
100
AcDbLine
 10
250.135611
 20
199.51177
 30
0.0
 11
250.265633
 21
201.163854
 31
0.0
  0
LINE
  5
16A
330
129
100
AcDbEntity
  8
GR1-1
  6
CONTINUOUS
 62
     7
100
AcDbLine
 10
249.516353
 20
194.149967
 30
0.0
 11
249.630945
 21
195.605992
 31
0.0
  0
LINE
  5
16B
330
129
100
AcDbEntity
  8
GR1-1
  6
CONTINUOUS
 62
     7
100
AcDbLine
 10
249.708096
 20
196.586294
 30
0.0
 11
249.862399
 21
198.546898
 31
0.0
  0
LINE
  5
16C
330
129
100
AcDbEntity
  8
GR1-1
  6
CONTINUOUS
 62
     7
100
AcDbLine
 10
249.939551
 20
199.5272
 30
0.0
 11
250.054142
 21
200.983224
 31
0.0
  0
LINE
  5
16D
330
129
100
AcDbEntity
  8
GR1-1
  6
CONTINUOUS
 62
     7
100
AcDbLine
 10
249.335723
 20
194.361458
 30
0.0
 11
249.434884
 21
195.621422
 31
0.0
  0
LINE
  5
16E
330
129
100
AcDbEntity
  8
GR1-1
  6
CONTINUOUS
 62
     7
100
AcDbLine
 10
249.512036
 20
196.601724
 30
0.0
 11
249.666339
 21
198.562328
 31
0.0
  0
LINE
  5
16F
330
129
100
AcDbEntity
  8
GR1-1
  6
CONTINUOUS
 62
     7
100
AcDbLine
 10
249.74349
 20
199.54263
 30
0.0
 11
249.842652
 21
200.802594
 31
0.0
  0
LINE
  5
170
330
129
100
AcDbEntity
  8
GR1-1
  6
CONTINUOUS
 62
     7
100
AcDbLine
 10
249.155093
 20
194.572949
 30
0.0
 11
249.238824
 21
195.636852
 31
0.0
  0
LINE
  5
171
330
129
100
AcDbEntity
  8
GR1-1
  6
CONTINUOUS
 62
     7
100
AcDbLine
 10
249.54743
 20
199.558061
 30
0.0
 11
249.631161
 21
200.621964
 31
0.0
  0
LINE
  5
172
330
129
100
AcDbEntity
  8
GR1-1
  6
CONTINUOUS
 62
     7
100
AcDbLine
 10
248.974463
 20
194.784439
 30
0.0
 11
249.042764
 21
195.652283
 31
0.0
  0
LINE
  5
173
330
129
100
AcDbEntity
  8
GR1-1
  6
CONTINUOUS
 62
     7
100
AcDbLine
 10
249.351369
 20
199.573491
 30
0.0
 11
249.41967
 21
200.441334
 31
0.0
  0
LINE
  5
174
330
129
100
AcDbEntity
  8
GR1-1
  6
CONTINUOUS
 62
     7
100
AcDbLine
 10
248.793833
 20
194.99593
 30
0.0
 11
248.846703
 21
195.667713
 31
0.0
  0
LINE
  5
175
330
129
100
AcDbEntity
  8
GR1-1
  6
CONTINUOUS
 62
     7
100
AcDbLine
 10
249.155309
 20
199.588921
 30
0.0
 11
249.208179
 21
200.260704
 31
0.0
  0
LINE
  5
176
330
129
100
AcDbEntity
  8
GR1-1
  6
CONTINUOUS
 62
     7
100
AcDbLine
 10
248.613203
 20
195.207421
 30
0.0
 11
248.650643
 21
195.683143
 31
0.0
  0
LINE
  5
177
330
129
100
AcDbEntity
  8
GR1-1
  6
CONTINUOUS
 62
     7
100
AcDbLine
 10
248.959249
 20
199.604351
 30
0.0
 11
248.996689
 21
200.080074
 31
0.0
  0
LINE
  5
178
330
129
100
AcDbEntity
  8
GR1-1
  6
CONTINUOUS
 62
     7
100
AcDbLine
 10
248.432573
 20
195.418912
 30
0.0
 11
248.454582
 21
195.698573
 31
0.0
  0
LINE
  5
179
330
129
100
AcDbEntity
  8
GR1-1
  6
CONTINUOUS
 62
     7
100
AcDbLine
 10
248.763188
 20
199.619782
 30
0.0
 11
248.785198
 21
199.899444
 31
0.0
  0
LINE
  5
17A
330
129
100
AcDbEntity
  8
GR1-1
  6
CONTINUOUS
 62
     7
100
AcDbLine
 10
248.251942
 20
195.630402
 30
0.0
 11
248.573707
 21
199.718813
 31
0.0
  0
LINE
  5
17B
330
129
100
AcDbEntity
  8
GR1-1
  6
CONTINUOUS
 62
     7
100
AcDbLine
 10
248.071312
 20
195.841893
 30
0.0
 11
248.362217
 21
199.538183
 31
0.0
  0
LINE
  5
17C
330
129
100
AcDbEntity
  8
GR1-1
  6
CONTINUOUS
 62
     7
100
AcDbLine
 10
247.890682
 20
196.053384
 30
0.0
 11
248.150726
 21
199.357553
 31
0.0
  0
LINE
  5
17D
330
129
100
AcDbEntity
  8
GR1-1
  6
CONTINUOUS
 62
     7
100
AcDbLine
 10
247.710052
 20
196.264874
 30
0.0
 11
247.939235
 21
199.176923
 31
0.0
  0
LINE
  5
17E
330
129
100
AcDbEntity
  8
GR1-1
  6
CONTINUOUS
 62
     7
100
AcDbLine
 10
247.529422
 20
196.476365
 30
0.0
 11
247.727745
 21
198.996293
 31
0.0
  0
LINE
  5
17F
330
129
100
AcDbEntity
  8
GR1-1
  6
CONTINUOUS
 62
     7
100
AcDbLine
 10
247.348792
 20
196.687856
 30
0.0
 11
247.516254
 21
198.815663
 31
0.0
  0
LINE
  5
180
330
129
100
AcDbEntity
  8
GR1-1
  6
CONTINUOUS
 62
     7
100
AcDbLine
 10
247.168162
 20
196.899346
 30
0.0
 11
247.304763
 21
198.635033
 31
0.0
  0
LINE
  5
181
330
129
100
AcDbEntity
  8
GR1-1
  6
CONTINUOUS
 62
     7
100
AcDbLine
 10
246.987532
 20
197.110837
 30
0.0
 11
247.093272
 21
198.454403
 31
0.0
  0
LINE
  5
182
330
129
100
AcDbEntity
  8
GR1-1
  6
CONTINUOUS
 62
     7
100
AcDbLine
 10
246.806901
 20
197.322328
 30
0.0
 11
246.881782
 21
198.273773
 31
0.0
  0
LINE
  5
183
330
129
100
AcDbEntity
  8
GR1-1
  6
CONTINUOUS
 62
     7
100
AcDbLine
 10
246.626271
 20
197.533819
 30
0.0
 11
246.670291
 21
198.093142
 31
0.0
  0
LINE
  5
184
330
129
100
AcDbEntity
  8
GR1-1
  6
CONTINUOUS
 62
     7
100
AcDbLine
 10
246.445641
 20
197.745309
 30
0.0
 11
246.4588
 21
197.912512
 31
0.0
  0
ENDBLK
  5
12B
330
129
100
AcDbEntity
  8
0
100
AcDbBlockEnd
  0
BLOCK
  5
1C2
330
1C1
100
AcDbEntity
  8
0
100
AcDbBlockBegin
  2
*D20
 70
     1
 71
     0
 10
0.0
 20
0.0
 30
0.0
  3
*D20
  1

  0
TEXT
  5
1C4
330
1C1
100
AcDbEntity
  8
LAYERGROUP-1
  6
CONTINUOUS
 62
     7
100
AcDbText
 10
101.212631
 20
58.172913
 30
0.0
 40
4.0
  1
50
 41
0.851351
  7
FX_VECTOR
 72
     5
 11
107.212631
 21
58.172913
 31
0.0
100
AcDbText
  0
LINE
  5
1C5
330
1C1
100
AcDbEntity
  8
LAYERGROUP-1
  6
CONTINUOUS
 62
     7
100
AcDbLine
 10
79.212632
 20
57.172915
 30
0.0
 11
129.212632
 21
57.172915
 31
0.0
  0
INSERT
  5
1C6
330
1C1
100
AcDbEntity
  8
LAYERGROUP-1
  6
CONTINUOUS
 62
     7
100
AcDbBlockReference
  2
FXTIP_ARROW_S
 10
79.212632
 20
57.172915
 30
0.0
 41
4.0
 42
4.0
 50
180.0
  0
INSERT
  5
1C7
330
1C1
100
AcDbEntity
  8
LAYERGROUP-1
  6
CONTINUOUS
 62
     7
100
AcDbBlockReference
  2
FXTIP_ARROW_E
 10
129.212632
 20
57.172915
 30
0.0
 41
4.0
 42
4.0
 50
360.0
  0
LINE
  5
1C8
330
1C1
100
AcDbEntity
  8
LAYERGROUP-1
  6
CONTINUOUS
 62
     7
100
AcDbLine
 10
79.212632
 20
91.1
 30
0.0
 11
79.212632
 21
56.172915
 31
0.0
  0
LINE
  5
1C9
330
1C1
100
AcDbEntity
  8
LAYERGROUP-1
  6
CONTINUOUS
 62
     7
100
AcDbLine
 10
129.212632
 20
91.1
 30
0.0
 11
129.212632
 21
56.172915
 31
0.0
  0
ENDBLK
  5
1C3
330
1C1
100
AcDbEntity
  8
0
100
AcDbBlockEnd
  0
BLOCK
  5
1CC
330
1CB
100
AcDbEntity
  8
0
100
AcDbBlockBegin
  2
*D21
 70
     1
 71
     0
 10
0.0
 20
0.0
 30
0.0
  3
*D21
  1

  0
TEXT
  5
1CE
330
1CB
100
AcDbEntity
  8
LAYERGROUP-1
  6
CONTINUOUS
 62
     7
100
AcDbText
 10
101.212631
 20
48.171677
 30
0.0
 40
4.0
  1
60
 41
0.851351
  7
FX_VECTOR
 72
     5
 11
107.212631
 21
48.171677
 31
0.0
100
AcDbText
  0
LINE
  5
1CF
330
1CB
100
AcDbEntity
  8
LAYERGROUP-1
  6
CONTINUOUS
 62
     7
100
AcDbLine
 10
74.212632
 20
47.171678
 30
0.0
 11
134.212632
 21
47.171678
 31
0.0
  0
INSERT
  5
1D0
330
1CB
100
AcDbEntity
  8
LAYERGROUP-1
  6
CONTINUOUS
 62
     7
100
AcDbBlockReference
  2
FXTIP_ARROW_S
 10
74.212632
 20
47.171678
 30
0.0
 41
4.0
 42
4.0
 50
180.0
  0
INSERT
  5
1D1
330
1CB
100
AcDbEntity
  8
LAYERGROUP-1
  6
CONTINUOUS
 62
     7
100
AcDbBlockReference
  2
FXTIP_ARROW_E
 10
134.212632
 20
47.171678
 30
0.0
 41
4.0
 42
4.0
 50
360.0
  0
LINE
  5
1D2
330
1CB
100
AcDbEntity
  8
LAYERGROUP-1
  6
CONTINUOUS
 62
     7
100
AcDbLine
 10
74.212632
 20
133.468037
 30
0.0
 11
74.212632
 21
46.171678
 31
0.0
  0
LINE
  5
1D3
330
1CB
100
AcDbEntity
  8
LAYERGROUP-1
  6
CONTINUOUS
 62
     7
100
AcDbLine
 10
134.212632
 20
133.2
 30
0.0
 11
134.212632
 21
46.171678
 31
0.0
  0
ENDBLK
  5
1CD
330
1CB
100
AcDbEntity
  8
0
100
AcDbBlockEnd
  0
BLOCK
  5
1D6
330
1D5
100
AcDbEntity
  8
0
100
AcDbBlockBegin
  2
*D22
 70
     1
 71
     0
 10
0.0
 20
0.0
 30
0.0
  3
*D22
  1

  0
TEXT
  5
1D8
330
1D5
100
AcDbEntity
  8
LAYERGROUP-1
  6
CONTINUOUS
 62
     7
100
AcDbText
 10
167.415909
 20
142.5
 30
0.0
 40
4.0
  1
%%c150
 50
90.0
 41
0.828947
  7
FX_VECTOR
 72
     5
 11
167.415909
 21
154.5
 31
0.0
100
AcDbText
  0
LINE
  5
1D9
330
1D5
100
AcDbEntity
  8
LAYERGROUP-1
  6
CONTINUOUS
 62
     7
100
AcDbLine
 10
168.415909
 20
73.5
 30
0.0
 11
168.415909
 21
223.5
 31
0.0
  0
INSERT
  5
1DA
330
1D5
100
AcDbEntity
  8
LAYERGROUP-1
  6
CONTINUOUS
 62
     7
100
AcDbBlockReference
  2
FXTIP_ARROW_S
 10
168.415909
 20
73.5
 30
0.0
 41
4.0
 42
4.0
 50
270.0
  0
INSERT
  5
1DB
330
1D5
100
AcDbEntity
  8
LAYERGROUP-1
  6
CONTINUOUS
 62
     7
100
AcDbBlockReference
  2
FXTIP_ARROW_E
 10
168.415909
 20
223.5
 30
0.0
 41
4.0
 42
4.0
 50
90.0
  0
LINE
  5
1DC
330
1D5
100
AcDbEntity
  8
LAYERGROUP-1
  6
CONTINUOUS
 62
     7
100
AcDbLine
 10
105.212632
 20
73.5
 30
0.0
 11
169.415909
 21
73.5
 31
0.0
  0
LINE
  5
1DD
330
1D5
100
AcDbEntity
  8
LAYERGROUP-1
  6
CONTINUOUS
 62
     7
100
AcDbLine
 10
105.212632
 20
223.5
 30
0.0
 11
169.415909
 21
223.5
 31
0.0
  0
ENDBLK
  5
1D7
330
1D5
100
AcDbEntity
  8
0
100
AcDbBlockEnd
  0
BLOCK
  5
1E1
330
1E0
100
AcDbEntity
  8
0
100
AcDbBlockBegin
  2
BLKF025
 70
     0
 71
     0
 10
0.0
 20
0.0
 30
0.0
  3
BLKF025
  1

  0
CIRCLE
  5
1E4
330
1E0
100
AcDbEntity
  8
LAYERGROUP-1
  6
CONTINUOUS
 62
     3
100
AcDbCircle
 10
292.384615
 20
148.5
 30
0.0
 40
23.5
  0
CIRCLE
  5
1E5
330
1E0
100
AcDbEntity
  8
LAYERGROUP-1
  6
CONTINUOUS
 62
     3
100
AcDbCircle
 10
292.384615
 20
148.5
 30
0.0
 40
19.0
  0
CIRCLE
  5
1E6
330
1E0
100
AcDbEntity
  8
LAYERGROUP-1
  6
CONTINUOUS
 62
     3
100
AcDbCircle
 10
292.384615
 20
148.5
 30
0.0
 40
14.5
  0
CIRCLE
  5
1E7
330
1E0
100
AcDbEntity
  8
LAYERGROUP-1
  6
CONTINUOUS
 62
     3
100
AcDbCircle
 10
292.384615
 20
148.5
 30
0.0
 40
10.0
  0
ENDBLK
  5
1E2
330
1E0
100
AcDbEntity
  8
0
100
AcDbBlockEnd
  0
BLOCK
  5
1EA
330
1E9
100
AcDbEntity
  8
0
100
AcDbBlockBegin
  2
BLKF026
 70
     0
 71
     0
 10
0.0
 20
0.0
 30
0.0
  3
BLKF026
  1

  0
INSERT
  5
1F0
330
1E9
100
AcDbEntity
  8
0
100
AcDbBlockReference
  2
BLKF027
 10
0.0
 20
0.0
 30
0.0
  0
ARC
  5
20B
330
1E9
100
AcDbEntity
  8
LAYERGROUP-1
  6
CONTINUOUS
 62
     3
100
AcDbCircle
 10
133.212632
 20
159.5
 30
0.0
 40
1.0
100
AcDbArc
 50
270.0
 51
360.0
  0
LINE
  5
20C
330
1E9
100
AcDbEntity
  8
LAYERGROUP-1
  6
CONTINUOUS
 62
     3
100
AcDbLine
 10
134.212632
 20
163.0
 30
0.0
 11
134.212632
 21
159.5
 31
0.0
  0
ENDBLK
  5
1EB
330
1E9
100
AcDbEntity
  8
0
100
AcDbBlockEnd
  0
BLOCK
  5
1EE
330
1ED
100
AcDbEntity
  8
0
100
AcDbBlockBegin
  2
BLKF027
 70
     0
 71
     0
 10
0.0
 20
0.0
 30
0.0
  3
BLKF027
  1

  0
LINE
  5
1F1
330
1ED
100
AcDbEntity
  8
LAYERGROUP-1
  6
CONTINUOUS
 62
     3
100
AcDbLine
 10
127.212632
 20
172.0
 30
0.0
 11
115.212632
 21
172.0
 31
0.0
  0
LINE
  5
1F2
330
1ED
100
AcDbEntity
  8
LAYERGROUP-1
  6
CONTINUOUS
 62
     3
100
AcDbLine
 10
128.212632
 20
171.0
 30
0.0
 11
128.212632
 21
163.0
 31
0.0
  0
LINE
  5
1F3
330
1ED
100
AcDbEntity
  8
LAYERGROUP-1
  6
CONTINUOUS
 62
     3
100
AcDbLine
 10
114.212632
 20
171.0
 30
0.0
 11
114.212632
 21
159.5
 31
0.0
  0
LINE
  5
1F4
330
1ED
100
AcDbEntity
  8
LAYERGROUP-1
  6
CONTINUOUS
 62
     3
100
AcDbLine
 10
134.212632
 20
163.0
 30
0.0
 11
125.109746
 21
163.0
 31
0.0
  0
LINE
  5
1F5
330
1ED
100
AcDbEntity
  8
LAYERGROUP-1
  6
CONTINUOUS
 62
     3
100
AcDbLine
 10
117.315517
 20
163.0
 30
0.0
 11
114.212632
 21
163.0
 31
0.0
  0
CIRCLE
  5
1F6
330
1ED
100
AcDbEntity
  8
LAYERGROUP-1
  6
CONTINUOUS
 62
     3
100
AcDbCircle
 10
121.212632
 20
165.25
 30
0.0
 40
4.5
  0
LINE
  5
1F7
330
1ED
100
AcDbEntity
  8
LAYERGROUP-1
  6
CONTINUOUS
 62
     3
100
AcDbLine
 10
133.212632
 20
158.5
 30
0.0
 11
115.212632
 21
158.5
 31
0.0
  0
ARC
  5
1F8
330
1ED
100
AcDbEntity
  8
LAYERGROUP-1
  6
CONTINUOUS
 62
     3
100
AcDbCircle
 10
127.212632
 20
171.0
 30
0.0
 40
1.0
100
AcDbArc
 50
0.0
 51
90.0
  0
ARC
  5
1F9
330
1ED
100
AcDbEntity
  8
LAYERGROUP-1
  6
CONTINUOUS
 62
     3
100
AcDbCircle
 10
115.212632
 20
171.0
 30
0.0
 40
1.0
100
AcDbArc
 50
90.0
 51
180.0
  0
ARC
  5
1FA
330
1ED
100
AcDbEntity
  8
LAYERGROUP-1
  6
CONTINUOUS
 62
     3
100
AcDbCircle
 10
115.212632
 20
159.5
 30
0.0
 40
1.0
100
AcDbArc
 50
180.0
 51
270.0
  0
LINE
  5
1FB
330
1ED
100
AcDbEntity
  8
LAYERGROUP-1
  6
CONTINUOUS
 62
     3
100
AcDbLine
 10
126.337632
 20
163.375
 30
0.0
 11
126.962632
 21
163.375
 31
0.0
  0
LINE
  5
1FC
330
1ED
100
AcDbEntity
  8
LAYERGROUP-1
  6
CONTINUOUS
 62
     3
100
AcDbLine
 10
126.962632
 20
163.375
 30
0.0
 11
126.962632
 21
166.875
 31
0.0
  0
LINE
  5
1FD
330
1ED
100
AcDbEntity
  8
LAYERGROUP-1
  6
CONTINUOUS
 62
     3
100
AcDbLine
 10
126.962632
 20
166.875
 30
0.0
 11
126.337632
 21
167.5
 31
0.0
  0
LINE
  5
1FE
330
1ED
100
AcDbEntity
  8
LAYERGROUP-1
  6
CONTINUOUS
 62
     3
100
AcDbLine
 10
126.337632
 20
167.5
 30
0.0
 11
126.337632
 21
168.225
 31
0.0
  0
LINE
  5
1FF
330
1ED
100
AcDbEntity
  8
LAYERGROUP-1
  6
CONTINUOUS
 62
     3
100
AcDbLine
 10
127.587632
 20
168.225
 30
0.0
 11
127.587632
 21
167.8625
 31
0.0
  0
LINE
  5
200
330
1ED
100
AcDbEntity
  8
LAYERGROUP-1
  6
CONTINUOUS
 62
     3
100
AcDbLine
 10
127.587632
 20
168.225
 30
0.0
 11
128.212632
 21
168.225
 31
0.0
  0
LINE
  5
201
330
1ED
100
AcDbEntity
  8
LAYERGROUP-1
  6
CONTINUOUS
 62
     3
100
AcDbLine
 10
125.109746
 20
167.5
 30
0.0
 11
126.337632
 21
167.5
 31
0.0
  0
ARC
  5
202
330
1ED
100
AcDbEntity
  8
LAYERGROUP-1
  6
CONTINUOUS
 62
     3
100
AcDbCircle
 10
126.962632
 20
168.225
 30
0.0
 40
0.625
100
AcDbArc
 50
0.0
 51
180.0
  0
LINE
  5
203
330
1ED
100
AcDbEntity
  8
LAYERGROUP-1
  6
CONTINUOUS
 62
     3
100
AcDbLine
 10
116.087632
 20
163.375
 30
0.0
 11
115.462632
 21
163.375
 31
0.0
  0
LINE
  5
204
330
1ED
100
AcDbEntity
  8
LAYERGROUP-1
  6
CONTINUOUS
 62
     3
100
AcDbLine
 10
115.462632
 20
163.375
 30
0.0
 11
115.462632
 21
166.875
 31
0.0
  0
LINE
  5
205
330
1ED
100
AcDbEntity
  8
LAYERGROUP-1
  6
CONTINUOUS
 62
     3
100
AcDbLine
 10
115.462632
 20
166.875
 30
0.0
 11
116.087632
 21
167.5
 31
0.0
  0
LINE
  5
206
330
1ED
100
AcDbEntity
  8
LAYERGROUP-1
  6
CONTINUOUS
 62
     3
100
AcDbLine
 10
116.087632
 20
167.5
 30
0.0
 11
116.087632
 21
168.225
 31
0.0
  0
LINE
  5
207
330
1ED
100
AcDbEntity
  8
LAYERGROUP-1
  6
CONTINUOUS
 62
     3
100
AcDbLine
 10
114.837632
 20
168.225
 30
0.0
 11
114.837632
 21
167.8625
 31
0.0
  0
LINE
  5
208
330
1ED
100
AcDbEntity
  8
LAYERGROUP-1
  6
CONTINUOUS
 62
     3
100
AcDbLine
 10
114.837632
 20
168.225
 30
0.0
 11
114.212632
 21
168.225
 31
0.0
  0
LINE
  5
209
330
1ED
100
AcDbEntity
  8
LAYERGROUP-1
  6
CONTINUOUS
 62
     3
100
AcDbLine
 10
117.315517
 20
167.5
 30
0.0
 11
116.087632
 21
167.5
 31
0.0
  0
ARC
  5
20A
330
1ED
100
AcDbEntity
  8
LAYERGROUP-1
  6
CONTINUOUS
 62
     3
100
AcDbCircle
 10
115.462632
 20
168.225
 30
0.0
 40
0.625
100
AcDbArc
 50
0.0
 51
180.0
  0
ENDBLK
  5
1EF
330
1ED
100
AcDbEntity
  8
0
100
AcDbBlockEnd
  0
BLOCK
  5
20E
330
20D
100
AcDbEntity
  8
0
100
AcDbBlockBegin
  2
BLKF028
 70
     0
 71
     0
 10
0.0
 20
0.0
 30
0.0
  3
BLKF028
  1

  0
INSERT
  5
214
330
20D
100
AcDbEntity
  8
0
100
AcDbBlockReference
  2
BLKF029
 10
0.0
 20
0.0
 30
0.0
  0
ARC
  5
22F
330
20D
100
AcDbEntity
  8
LAYERGROUP-1
  6
CONTINUOUS
 62
     3
100
AcDbCircle
 10
133.212632
 20
137.5
 30
0.0
 40
1.0
100
AcDbArc
 50
0.0
 51
90.0
  0
LINE
  5
230
330
20D
100
AcDbEntity
  8
LAYERGROUP-1
  6
CONTINUOUS
 62
     3
100
AcDbLine
 10
134.212632
 20
134.0
 30
0.0
 11
134.212632
 21
137.5
 31
0.0
  0
ENDBLK
  5
20F
330
20D
100
AcDbEntity
  8
0
100
AcDbBlockEnd
  0
BLOCK
  5
212
330
211
100
AcDbEntity
  8
0
100
AcDbBlockBegin
  2
BLKF029
 70
     0
 71
     0
 10
0.0
 20
0.0
 30
0.0
  3
BLKF029
  1

  0
LINE
  5
215
330
211
100
AcDbEntity
  8
LAYERGROUP-1
  6
CONTINUOUS
 62
     3
100
AcDbLine
 10
127.212632
 20
125.0
 30
0.0
 11
115.212632
 21
125.0
 31
0.0
  0
LINE
  5
216
330
211
100
AcDbEntity
  8
LAYERGROUP-1
  6
CONTINUOUS
 62
     3
100
AcDbLine
 10
128.212632
 20
126.0
 30
0.0
 11
128.212632
 21
134.0
 31
0.0
  0
LINE
  5
217
330
211
100
AcDbEntity
  8
LAYERGROUP-1
  6
CONTINUOUS
 62
     3
100
AcDbLine
 10
114.212632
 20
126.0
 30
0.0
 11
114.212632
 21
137.5
 31
0.0
  0
LINE
  5
218
330
211
100
AcDbEntity
  8
LAYERGROUP-1
  6
CONTINUOUS
 62
     3
100
AcDbLine
 10
134.212632
 20
134.0
 30
0.0
 11
125.109746
 21
134.0
 31
0.0
  0
LINE
  5
219
330
211
100
AcDbEntity
  8
LAYERGROUP-1
  6
CONTINUOUS
 62
     3
100
AcDbLine
 10
117.315517
 20
134.0
 30
0.0
 11
114.212632
 21
134.0
 31
0.0
  0
CIRCLE
  5
21A
330
211
100
AcDbEntity
  8
LAYERGROUP-1
  6
CONTINUOUS
 62
     3
100
AcDbCircle
 10
121.212632
 20
131.75
 30
0.0
 40
4.5
  0
LINE
  5
21B
330
211
100
AcDbEntity
  8
LAYERGROUP-1
  6
CONTINUOUS
 62
     3
100
AcDbLine
 10
133.212632
 20
138.5
 30
0.0
 11
115.212632
 21
138.5
 31
0.0
  0
ARC
  5
21C
330
211
100
AcDbEntity
  8
LAYERGROUP-1
  6
CONTINUOUS
 62
     3
100
AcDbCircle
 10
127.212632
 20
126.0
 30
0.0
 40
1.0
100
AcDbArc
 50
270.0
 51
360.0
  0
ARC
  5
21D
330
211
100
AcDbEntity
  8
LAYERGROUP-1
  6
CONTINUOUS
 62
     3
100
AcDbCircle
 10
115.212632
 20
126.0
 30
0.0
 40
1.0
100
AcDbArc
 50
180.0
 51
270.0
  0
ARC
  5
21E
330
211
100
AcDbEntity
  8
LAYERGROUP-1
  6
CONTINUOUS
 62
     3
100
AcDbCircle
 10
115.212632
 20
137.5
 30
0.0
 40
1.0
100
AcDbArc
 50
90.0
 51
180.0
  0
LINE
  5
21F
330
211
100
AcDbEntity
  8
LAYERGROUP-1
  6
CONTINUOUS
 62
     3
100
AcDbLine
 10
126.337632
 20
133.625
 30
0.0
 11
126.962632
 21
133.625
 31
0.0
  0
LINE
  5
220
330
211
100
AcDbEntity
  8
LAYERGROUP-1
  6
CONTINUOUS
 62
     3
100
AcDbLine
 10
126.962632
 20
133.625
 30
0.0
 11
126.962632
 21
130.125
 31
0.0
  0
LINE
  5
221
330
211
100
AcDbEntity
  8
LAYERGROUP-1
  6
CONTINUOUS
 62
     3
100
AcDbLine
 10
126.962632
 20
130.125
 30
0.0
 11
126.337632
 21
129.5
 31
0.0
  0
LINE
  5
222
330
211
100
AcDbEntity
  8
LAYERGROUP-1
  6
CONTINUOUS
 62
     3
100
AcDbLine
 10
126.337632
 20
129.5
 30
0.0
 11
126.337632
 21
128.775
 31
0.0
  0
LINE
  5
223
330
211
100
AcDbEntity
  8
LAYERGROUP-1
  6
CONTINUOUS
 62
     3
100
AcDbLine
 10
127.587632
 20
128.775
 30
0.0
 11
127.587632
 21
129.1375
 31
0.0
  0
LINE
  5
224
330
211
100
AcDbEntity
  8
LAYERGROUP-1
  6
CONTINUOUS
 62
     3
100
AcDbLine
 10
127.587632
 20
128.775
 30
0.0
 11
128.212632
 21
128.775
 31
0.0
  0
LINE
  5
225
330
211
100
AcDbEntity
  8
LAYERGROUP-1
  6
CONTINUOUS
 62
     3
100
AcDbLine
 10
125.109746
 20
129.5
 30
0.0
 11
126.337632
 21
129.5
 31
0.0
  0
ARC
  5
226
330
211
100
AcDbEntity
  8
LAYERGROUP-1
  6
CONTINUOUS
 62
     3
100
AcDbCircle
 10
126.962632
 20
128.775
 30
0.0
 40
0.625
100
AcDbArc
 50
180.0
 51
360.0
  0
LINE
  5
227
330
211
100
AcDbEntity
  8
LAYERGROUP-1
  6
CONTINUOUS
 62
     3
100
AcDbLine
 10
116.087632
 20
133.625
 30
0.0
 11
115.462632
 21
133.625
 31
0.0
  0
LINE
  5
228
330
211
100
AcDbEntity
  8
LAYERGROUP-1
  6
CONTINUOUS
 62
     3
100
AcDbLine
 10
115.462632
 20
133.625
 30
0.0
 11
115.462632
 21
130.125
 31
0.0
  0
LINE
  5
229
330
211
100
AcDbEntity
  8
LAYERGROUP-1
  6
CONTINUOUS
 62
     3
100
AcDbLine
 10
115.462632
 20
130.125
 30
0.0
 11
116.087632
 21
129.5
 31
0.0
  0
LINE
  5
22A
330
211
100
AcDbEntity
  8
LAYERGROUP-1
  6
CONTINUOUS
 62
     3
100
AcDbLine
 10
116.087632
 20
129.5
 30
0.0
 11
116.087632
 21
128.775
 31
0.0
  0
LINE
  5
22B
330
211
100
AcDbEntity
  8
LAYERGROUP-1
  6
CONTINUOUS
 62
     3
100
AcDbLine
 10
114.837632
 20
128.775
 30
0.0
 11
114.837632
 21
129.1375
 31
0.0
  0
LINE
  5
22C
330
211
100
AcDbEntity
  8
LAYERGROUP-1
  6
CONTINUOUS
 62
     3
100
AcDbLine
 10
114.837632
 20
128.775
 30
0.0
 11
114.212632
 21
128.775
 31
0.0
  0
LINE
  5
22D
330
211
100
AcDbEntity
  8
LAYERGROUP-1
  6
CONTINUOUS
 62
     3
100
AcDbLine
 10
117.315517
 20
129.5
 30
0.0
 11
116.087632
 21
129.5
 31
0.0
  0
ARC
  5
22E
330
211
100
AcDbEntity
  8
LAYERGROUP-1
  6
CONTINUOUS
 62
     3
100
AcDbCircle
 10
115.462632
 20
128.775
 30
0.0
 40
0.625
100
AcDbArc
 50
180.0
 51
360.0
  0
ENDBLK
  5
213
330
211
100
AcDbEntity
  8
0
100
AcDbBlockEnd
  0
BLOCK
  5
233
330
232
100
AcDbEntity
  8
0
100
AcDbBlockBegin
  2
BLKF030
 70
     0
 71
     0
 10
0.0
 20
0.0
 30
0.0
  3
BLKF030
  1

  0
INSERT
  5
239
330
232
100
AcDbEntity
  8
0
100
AcDbBlockReference
  2
BLKF031
 10
0.0
 20
0.0
 30
0.0
  0
ARC
  5
254
330
232
100
AcDbEntity
  8
LAYERGROUP-1
  6
CONTINUOUS
 62
     3
100
AcDbCircle
 10
75.212632
 20
137.5
 30
0.0
 40
1.0
100
AcDbArc
 50
90.0
 51
180.0
  0
LINE
  5
255
330
232
100
AcDbEntity
  8
LAYERGROUP-1
  6
CONTINUOUS
 62
     3
100
AcDbLine
 10
74.212632
 20
134.0
 30
0.0
 11
74.212632
 21
137.5
 31
0.0
  0
ENDBLK
  5
234
330
232
100
AcDbEntity
  8
0
100
AcDbBlockEnd
  0
BLOCK
  5
237
330
236
100
AcDbEntity
  8
0
100
AcDbBlockBegin
  2
BLKF031
 70
     0
 71
     0
 10
0.0
 20
0.0
 30
0.0
  3
BLKF031
  1

  0
LINE
  5
23A
330
236
100
AcDbEntity
  8
LAYERGROUP-1
  6
CONTINUOUS
 62
     3
100
AcDbLine
 10
81.212632
 20
125.0
 30
0.0
 11
93.212632
 21
125.0
 31
0.0
  0
LINE
  5
23B
330
236
100
AcDbEntity
  8
LAYERGROUP-1
  6
CONTINUOUS
 62
     3
100
AcDbLine
 10
80.212632
 20
126.0
 30
0.0
 11
80.212632
 21
134.0
 31
0.0
  0
LINE
  5
23C
330
236
100
AcDbEntity
  8
LAYERGROUP-1
  6
CONTINUOUS
 62
     3
100
AcDbLine
 10
94.212632
 20
126.0
 30
0.0
 11
94.212632
 21
137.5
 31
0.0
  0
LINE
  5
23D
330
236
100
AcDbEntity
  8
LAYERGROUP-1
  6
CONTINUOUS
 62
     3
100
AcDbLine
 10
74.212632
 20
134.0
 30
0.0
 11
83.315517
 21
134.0
 31
0.0
  0
LINE
  5
23E
330
236
100
AcDbEntity
  8
LAYERGROUP-1
  6
CONTINUOUS
 62
     3
100
AcDbLine
 10
91.109746
 20
134.0
 30
0.0
 11
94.212632
 21
134.0
 31
0.0
  0
CIRCLE
  5
23F
330
236
100
AcDbEntity
  8
LAYERGROUP-1
  6
CONTINUOUS
 62
     3
100
AcDbCircle
 10
87.212632
 20
131.75
 30
0.0
 40
4.5
  0
LINE
  5
240
330
236
100
AcDbEntity
  8
LAYERGROUP-1
  6
CONTINUOUS
 62
     3
100
AcDbLine
 10
75.212632
 20
138.5
 30
0.0
 11
93.212632
 21
138.5
 31
0.0
  0
ARC
  5
241
330
236
100
AcDbEntity
  8
LAYERGROUP-1
  6
CONTINUOUS
 62
     3
100
AcDbCircle
 10
81.212632
 20
126.0
 30
0.0
 40
1.0
100
AcDbArc
 50
180.0
 51
270.0
  0
ARC
  5
242
330
236
100
AcDbEntity
  8
LAYERGROUP-1
  6
CONTINUOUS
 62
     3
100
AcDbCircle
 10
93.212632
 20
126.0
 30
0.0
 40
1.0
100
AcDbArc
 50
270.0
 51
360.0
  0
ARC
  5
243
330
236
100
AcDbEntity
  8
LAYERGROUP-1
  6
CONTINUOUS
 62
     3
100
AcDbCircle
 10
93.212632
 20
137.5
 30
0.0
 40
1.0
100
AcDbArc
 50
0.0
 51
90.0
  0
LINE
  5
244
330
236
100
AcDbEntity
  8
LAYERGROUP-1
  6
CONTINUOUS
 62
     3
100
AcDbLine
 10
82.087632
 20
133.625
 30
0.0
 11
81.462632
 21
133.625
 31
0.0
  0
LINE
  5
245
330
236
100
AcDbEntity
  8
LAYERGROUP-1
  6
CONTINUOUS
 62
     3
100
AcDbLine
 10
81.462632
 20
133.625
 30
0.0
 11
81.462632
 21
130.125
 31
0.0
  0
LINE
  5
246
330
236
100
AcDbEntity
  8
LAYERGROUP-1
  6
CONTINUOUS
 62
     3
100
AcDbLine
 10
81.462632
 20
130.125
 30
0.0
 11
82.087632
 21
129.5
 31
0.0
  0
LINE
  5
247
330
236
100
AcDbEntity
  8
LAYERGROUP-1
  6
CONTINUOUS
 62
     3
100
AcDbLine
 10
82.087632
 20
129.5
 30
0.0
 11
82.087632
 21
128.775
 31
0.0
  0
LINE
  5
248
330
236
100
AcDbEntity
  8
LAYERGROUP-1
  6
CONTINUOUS
 62
     3
100
AcDbLine
 10
80.837632
 20
128.775
 30
0.0
 11
80.837632
 21
129.1375
 31
0.0
  0
LINE
  5
249
330
236
100
AcDbEntity
  8
LAYERGROUP-1
  6
CONTINUOUS
 62
     3
100
AcDbLine
 10
80.837632
 20
128.775
 30
0.0
 11
80.212632
 21
128.775
 31
0.0
  0
LINE
  5
24A
330
236
100
AcDbEntity
  8
LAYERGROUP-1
  6
CONTINUOUS
 62
     3
100
AcDbLine
 10
83.315517
 20
129.5
 30
0.0
 11
82.087632
 21
129.5
 31
0.0
  0
ARC
  5
24B
330
236
100
AcDbEntity
  8
LAYERGROUP-1
  6
CONTINUOUS
 62
     3
100
AcDbCircle
 10
81.462632
 20
128.775
 30
0.0
 40
0.625
100
AcDbArc
 50
180.0
 51
360.0
  0
LINE
  5
24C
330
236
100
AcDbEntity
  8
LAYERGROUP-1
  6
CONTINUOUS
 62
     3
100
AcDbLine
 10
92.337632
 20
133.625
 30
0.0
 11
92.962632
 21
133.625
 31
0.0
  0
LINE
  5
24D
330
236
100
AcDbEntity
  8
LAYERGROUP-1
  6
CONTINUOUS
 62
     3
100
AcDbLine
 10
92.962632
 20
133.625
 30
0.0
 11
92.962632
 21
130.125
 31
0.0
  0
LINE
  5
24E
330
236
100
AcDbEntity
  8
LAYERGROUP-1
  6
CONTINUOUS
 62
     3
100
AcDbLine
 10
92.962632
 20
130.125
 30
0.0
 11
92.337632
 21
129.5
 31
0.0
  0
LINE
  5
24F
330
236
100
AcDbEntity
  8
LAYERGROUP-1
  6
CONTINUOUS
 62
     3
100
AcDbLine
 10
92.337632
 20
129.5
 30
0.0
 11
92.337632
 21
128.775
 31
0.0
  0
LINE
  5
250
330
236
100
AcDbEntity
  8
LAYERGROUP-1
  6
CONTINUOUS
 62
     3
100
AcDbLine
 10
93.587632
 20
128.775
 30
0.0
 11
93.587632
 21
129.1375
 31
0.0
  0
LINE
  5
251
330
236
100
AcDbEntity
  8
LAYERGROUP-1
  6
CONTINUOUS
 62
     3
100
AcDbLine
 10
93.587632
 20
128.775
 30
0.0
 11
94.212632
 21
128.775
 31
0.0
  0
LINE
  5
252
330
236
100
AcDbEntity
  8
LAYERGROUP-1
  6
CONTINUOUS
 62
     3
100
AcDbLine
 10
91.109746
 20
129.5
 30
0.0
 11
92.337632
 21
129.5
 31
0.0
  0
ARC
  5
253
330
236
100
AcDbEntity
  8
LAYERGROUP-1
  6
CONTINUOUS
 62
     3
100
AcDbCircle
 10
92.962632
 20
128.775
 30
0.0
 40
0.625
100
AcDbArc
 50
180.0
 51
360.0
  0
ENDBLK
  5
238
330
236
100
AcDbEntity
  8
0
100
AcDbBlockEnd
  0
BLOCK
  5
257
330
256
100
AcDbEntity
  8
0
100
AcDbBlockBegin
  2
BLKF032
 70
     0
 71
     0
 10
0.0
 20
0.0
 30
0.0
  3
BLKF032
  1

  0
INSERT
  5
25D
330
256
100
AcDbEntity
  8
0
100
AcDbBlockReference
  2
BLKF033
 10
0.0
 20
0.0
 30
0.0
  0
ARC
  5
278
330
256
100
AcDbEntity
  8
LAYERGROUP-1
  6
CONTINUOUS
 62
     3
100
AcDbCircle
 10
75.212632
 20
159.5
 30
0.0
 40
1.0
100
AcDbArc
 50
180.0
 51
270.0
  0
LINE
  5
279
330
256
100
AcDbEntity
  8
LAYERGROUP-1
  6
CONTINUOUS
 62
     3
100
AcDbLine
 10
74.212632
 20
163.0
 30
0.0
 11
74.212632
 21
159.5
 31
0.0
  0
ENDBLK
  5
258
330
256
100
AcDbEntity
  8
0
100
AcDbBlockEnd
  0
BLOCK
  5
25B
330
25A
100
AcDbEntity
  8
0
100
AcDbBlockBegin
  2
BLKF033
 70
     0
 71
     0
 10
0.0
 20
0.0
 30
0.0
  3
BLKF033
  1

  0
LINE
  5
25E
330
25A
100
AcDbEntity
  8
LAYERGROUP-1
  6
CONTINUOUS
 62
     3
100
AcDbLine
 10
81.212632
 20
172.0
 30
0.0
 11
93.212632
 21
172.0
 31
0.0
  0
LINE
  5
25F
330
25A
100
AcDbEntity
  8
LAYERGROUP-1
  6
CONTINUOUS
 62
     3
100
AcDbLine
 10
80.212632
 20
171.0
 30
0.0
 11
80.212632
 21
163.0
 31
0.0
  0
LINE
  5
260
330
25A
100
AcDbEntity
  8
LAYERGROUP-1
  6
CONTINUOUS
 62
     3
100
AcDbLine
 10
94.212632
 20
171.0
 30
0.0
 11
94.212632
 21
159.5
 31
0.0
  0
LINE
  5
261
330
25A
100
AcDbEntity
  8
LAYERGROUP-1
  6
CONTINUOUS
 62
     3
100
AcDbLine
 10
74.212632
 20
163.0
 30
0.0
 11
83.315517
 21
163.0
 31
0.0
  0
LINE
  5
262
330
25A
100
AcDbEntity
  8
LAYERGROUP-1
  6
CONTINUOUS
 62
     3
100
AcDbLine
 10
91.109746
 20
163.0
 30
0.0
 11
94.212632
 21
163.0
 31
0.0
  0
CIRCLE
  5
263
330
25A
100
AcDbEntity
  8
LAYERGROUP-1
  6
CONTINUOUS
 62
     3
100
AcDbCircle
 10
87.212632
 20
165.25
 30
0.0
 40
4.5
  0
LINE
  5
264
330
25A
100
AcDbEntity
  8
LAYERGROUP-1
  6
CONTINUOUS
 62
     3
100
AcDbLine
 10
75.212632
 20
158.5
 30
0.0
 11
93.212632
 21
158.5
 31
0.0
  0
ARC
  5
265
330
25A
100
AcDbEntity
  8
LAYERGROUP-1
  6
CONTINUOUS
 62
     3
100
AcDbCircle
 10
81.212632
 20
171.0
 30
0.0
 40
1.0
100
AcDbArc
 50
90.0
 51
180.0
  0
ARC
  5
266
330
25A
100
AcDbEntity
  8
LAYERGROUP-1
  6
CONTINUOUS
 62
     3
100
AcDbCircle
 10
93.212632
 20
171.0
 30
0.0
 40
1.0
100
AcDbArc
 50
0.0
 51
90.0
  0
ARC
  5
267
330
25A
100
AcDbEntity
  8
LAYERGROUP-1
  6
CONTINUOUS
 62
     3
100
AcDbCircle
 10
93.212632
 20
159.5
 30
0.0
 40
1.0
100
AcDbArc
 50
270.0
 51
360.0
  0
LINE
  5
268
330
25A
100
AcDbEntity
  8
LAYERGROUP-1
  6
CONTINUOUS
 62
     3
100
AcDbLine
 10
82.087632
 20
163.375
 30
0.0
 11
81.462632
 21
163.375
 31
0.0
  0
LINE
  5
269
330
25A
100
AcDbEntity
  8
LAYERGROUP-1
  6
CONTINUOUS
 62
     3
100
AcDbLine
 10
81.462632
 20
163.375
 30
0.0
 11
81.462632
 21
166.875
 31
0.0
  0
LINE
  5
26A
330
25A
100
AcDbEntity
  8
LAYERGROUP-1
  6
CONTINUOUS
 62
     3
100
AcDbLine
 10
81.462632
 20
166.875
 30
0.0
 11
82.087632
 21
167.5
 31
0.0
  0
LINE
  5
26B
330
25A
100
AcDbEntity
  8
LAYERGROUP-1
  6
CONTINUOUS
 62
     3
100
AcDbLine
 10
82.087632
 20
167.5
 30
0.0
 11
82.087632
 21
168.225
 31
0.0
  0
LINE
  5
26C
330
25A
100
AcDbEntity
  8
LAYERGROUP-1
  6
CONTINUOUS
 62
     3
100
AcDbLine
 10
80.837632
 20
168.225
 30
0.0
 11
80.837632
 21
167.8625
 31
0.0
  0
LINE
  5
26D
330
25A
100
AcDbEntity
  8
LAYERGROUP-1
  6
CONTINUOUS
 62
     3
100
AcDbLine
 10
80.837632
 20
168.225
 30
0.0
 11
80.212632
 21
168.225
 31
0.0
  0
LINE
  5
26E
330
25A
100
AcDbEntity
  8
LAYERGROUP-1
  6
CONTINUOUS
 62
     3
100
AcDbLine
 10
83.315517
 20
167.5
 30
0.0
 11
82.087632
 21
167.5
 31
0.0
  0
ARC
  5
26F
330
25A
100
AcDbEntity
  8
LAYERGROUP-1
  6
CONTINUOUS
 62
     3
100
AcDbCircle
 10
81.462632
 20
168.225
 30
0.0
 40
0.625
100
AcDbArc
 50
0.0
 51
180.0
  0
LINE
  5
270
330
25A
100
AcDbEntity
  8
LAYERGROUP-1
  6
CONTINUOUS
 62
     3
100
AcDbLine
 10
92.337632
 20
163.375
 30
0.0
 11
92.962632
 21
163.375
 31
0.0
  0
LINE
  5
271
330
25A
100
AcDbEntity
  8
LAYERGROUP-1
  6
CONTINUOUS
 62
     3
100
AcDbLine
 10
92.962632
 20
163.375
 30
0.0
 11
92.962632
 21
166.875
 31
0.0
  0
LINE
  5
272
330
25A
100
AcDbEntity
  8
LAYERGROUP-1
  6
CONTINUOUS
 62
     3
100
AcDbLine
 10
92.962632
 20
166.875
 30
0.0
 11
92.337632
 21
167.5
 31
0.0
  0
LINE
  5
273
330
25A
100
AcDbEntity
  8
LAYERGROUP-1
  6
CONTINUOUS
 62
     3
100
AcDbLine
 10
92.337632
 20
167.5
 30
0.0
 11
92.337632
 21
168.225
 31
0.0
  0
LINE
  5
274
330
25A
100
AcDbEntity
  8
LAYERGROUP-1
  6
CONTINUOUS
 62
     3
100
AcDbLine
 10
93.587632
 20
168.225
 30
0.0
 11
93.587632
 21
167.8625
 31
0.0
  0
LINE
  5
275
330
25A
100
AcDbEntity
  8
LAYERGROUP-1
  6
CONTINUOUS
 62
     3
100
AcDbLine
 10
93.587632
 20
168.225
 30
0.0
 11
94.212632
 21
168.225
 31
0.0
  0
LINE
  5
276
330
25A
100
AcDbEntity
  8
LAYERGROUP-1
  6
CONTINUOUS
 62
     3
100
AcDbLine
 10
91.109746
 20
167.5
 30
0.0
 11
92.337632
 21
167.5
 31
0.0
  0
ARC
  5
277
330
25A
100
AcDbEntity
  8
LAYERGROUP-1
  6
CONTINUOUS
 62
     3
100
AcDbCircle
 10
92.962632
 20
168.225
 30
0.0
 40
0.625
100
AcDbArc
 50
0.0
 51
180.0
  0
ENDBLK
  5
25C
330
25A
100
AcDbEntity
  8
0
100
AcDbBlockEnd
  0
BLOCK
  5
27D
330
27C
100
AcDbEntity
  8
0
100
AcDbBlockBegin
  2
*D32
 70
     1
 71
     0
 10
0.0
 20
0.0
 30
0.0
  3
*D32
  1

  0
TEXT
  5
27F
330
27C
100
AcDbEntity
  8
LAYERGROUP-1
  6
CONTINUOUS
 62
     7
100
AcDbText
 10
153.867233
 20
144.0
 30
0.0
 40
4.0
  1
%%c20
 50
90.0
 41
0.84375
  7
FX_VECTOR
 72
     5
 11
153.867233
 21
153.0
 31
0.0
100
AcDbText
  0
LINE
  5
280
330
27C
100
AcDbEntity
  8
LAYERGROUP-1
  6
CONTINUOUS
 62
     7
100
AcDbLine
 10
154.867234
 20
138.5
 30
0.0
 11
154.867234
 21
158.5
 31
0.0
  0
INSERT
  5
281
330
27C
100
AcDbEntity
  8
LAYERGROUP-1
  6
CONTINUOUS
 62
     7
100
AcDbBlockReference
  2
FXTIP_ARROW_S
 10
154.867234
 20
138.5
 30
0.0
 41
4.0
 42
4.0
 50
270.0
  0
INSERT
  5
282
330
27C
100
AcDbEntity
  8
LAYERGROUP-1
  6
CONTINUOUS
 62
     7
100
AcDbBlockReference
  2
FXTIP_ARROW_E
 10
154.867234
 20
158.5
 30
0.0
 41
4.0
 42
4.0
 50
90.0
  0
LINE
  5
283
330
27C
100
AcDbEntity
  8
LAYERGROUP-1
  6
CONTINUOUS
 62
     7
100
AcDbLine
 10
134.212632
 20
138.5
 30
0.0
 11
155.867234
 21
138.5
 31
0.0
  0
LINE
  5
284
330
27C
100
AcDbEntity
  8
LAYERGROUP-1
  6
CONTINUOUS
 62
     7
100
AcDbLine
 10
134.212632
 20
158.5
 30
0.0
 11
155.867234
 21
158.5
 31
0.0
  0
ENDBLK
  5
27E
330
27C
100
AcDbEntity
  8
0
100
AcDbBlockEnd
  0
BLOCK
  5
286
330
285
100
AcDbEntity
  8
0
100
AcDbBlockBegin
  2
BLKF035
 70
     0
 71
     0
 10
0.0
 20
0.0
 30
0.0
  3
BLKF035
  1

  0
LINE
  5
289
330
285
100
AcDbEntity
  8
}}ﾊﾊGG血CCТ
  6
CONTINUOUS
 62
     7
100
AcDbLine
 10
10.0
 20
10.0
 30
0.0
 11
410.0
 21
10.0
 31
0.0
  0
LINE
  5
28A
330
285
100
AcDbEntity
  8
}}ﾊﾊGG血CCТ
  6
CONTINUOUS
 62
     7
100
AcDbLine
 10
10.0
 20
10.0
 30
0.0
 11
10.0
 21
287.0
 31
0.0
  0
LINE
  5
28B
330
285
100
AcDbEntity
  8
}}ﾊﾊGG血CCТ
  6
CONTINUOUS
 62
     7
100
AcDbLine
 10
10.0
 20
287.0
 30
0.0
 11
410.0
 21
287.0
 31
0.0
  0
LINE
  5
28C
330
285
100
AcDbEntity
  8
}}ﾊﾊGG血CCТ
  6
CONTINUOUS
 62
     7
100
AcDbLine
 10
410.0
 20
287.0
 30
0.0
 11
410.0
 21
10.0
 31
0.0
  0
LINE
  5
28D
330
285
100
AcDbEntity
  8
}}ﾊﾊGG血CCТ
  6
CONTINUOUS
 62
     7
100
AcDbLine
 10
153.0
 20
10.0
 30
0.0
 11
153.0
 21
20.0
 31
0.0
  0
TEXT
  5
28E
330
285
100
AcDbEntity
  8
}}ﾊﾊGG血CCТ
  6
CONTINUOUS
 62
     7
100
AcDbText
 10
137.738815
 20
11.596879
 30
0.0
 40
6.648749
  1
品名
 41
1.083413
  7
FX_VECTOR
 72
     5
 11
149.058355
 21
11.596879
 31
0.0
100
AcDbText
  0
LINE
  5
28F
330
285
100
AcDbEntity
  8
}}ﾊﾊGG血CCТ
  6
CONTINUOUS
 62
     7
100
AcDbLine
 10
233.0
 20
20.0
 30
0.0
 11
233.0
 21
10.0
 31
0.0
  0
LINE
  5
290
330
285
100
AcDbEntity
  8
}}ﾊﾊGG血CCТ
  6
CONTINUOUS
 62
     7
100
AcDbLine
 10
133.0
 20
20.0
 30
0.0
 11
410.0
 21
20.0
 31
0.0
  0
INSERT
  5
294
330
285
100
AcDbEntity
  8
0
100
AcDbBlockReference
  2
BLKF036
 10
0.0
 20
0.0
 30
0.0
  0
INSERT
  5
29D
330
285
100
AcDbEntity
  8
0
100
AcDbBlockReference
  2
BLKF037
 10
0.0
 20
0.0
 30
0.0
  0
HATCH
  5
2AD
330
285
100
AcDbEntity
  8
GR1-1
  6
CONTINUOUS
 62
     7
100
AcDbHatch
 10
0.0
 20
0.0
 30
0.0
210
0.0
220
0.0
230
1.0
  2

 70
     0
 71
     1
 91
        2
 92
        0
 93
        4
 72
     1
 10
338.8018997861325
 20
17.91346152
 11
344.8018997861325
 21
17.91346152
 72
     1
 10
344.8018997861325
 20
17.91346152
 11
344.8018997861325
 21
11.91346152
 72
     1
 10
344.8018997861325
 20
11.91346152
 11
338.8018997861325
 21
11.91346152
 72
     1
 10
338.8018997861325
 20
11.91346152
 11
338.8018997861325
 21
17.91346152
 97
        0
 92
        0
 93
       15
 72
     1
 10
341.8018997861325
 20
17.76923076000002
 11
338.9461305461325
 21
14.91346152
 72
     1
 10
338.9461305461325
 20
14.91346152
 11
341.8018997861325
 21
12.05769228000001
 72
     1
 10
341.8018997861325
 20
12.05769228000001
 11
343.3595920661325
 21
13.61538462
 72
     1
 10
343.3595920661325
 20
13.61538462
 11
343.3595920661325
 21
12.98076924
 72
     1
 10
343.3595920661325
 20
12.98076924
 11
344.2249766861325
 21
12.98076924
 72
     1
 10
344.2249766861325
 20
12.98076924
 11
344.2249766861325
 21
15.00000000000001
 72
     1
 10
344.2249766861325
 20
15.00000000000001
 11
341.8018997861325
 21
15.00000000000001
 72
     1
 10
341.8018997861325
 20
15.00000000000001
 11
341.8018997861325
 21
14.13461538000001
 72
     1
 10
341.8018997861325
 20
14.13461538000001
 11
342.2461305461325
 21
14.13461538000001
 72
     1
 10
342.2461305461325
 20
14.13461538000001
 11
341.8018997861325
 21
13.69038462
 72
     1
 10
341.8018997861325
 20
13.69038462
 11
340.5788228861325
 21
14.91346152
 72
     1
 10
340.5788228861325
 20
14.91346152
 11
341.8018997861325
 21
16.13653842000003
 72
     1
 10
341.8018997861325
 20
16.13653842000003
 11
342.5922844061325
 21
15.3461538
 72
     1
 10
342.5922844061325
 20
15.3461538
 11
344.2249766861325
 21
15.3461538
 72
     1
 10
344.2249766861325
 20
15.3461538
 11
341.8018997861325
 21
17.76923076000002
 97
        0
 75
     0
 76
     0
 52
45.0
 41
0.05
 77
     0
 78
     1
 53
45.0
 43
0.0
 44
0.0
 45
-0.0353553390593274
 46
0.0353553390593274
 79
     0
 98
        0
  0
TEXT
  5
2AE
330
285
100
AcDbEntity
  8
}}ﾊﾊGG血CCТ
  6
CONTINUOUS
 62
     7
100
AcDbText
 10
349.225769
 20
11.461285
 30
0.0
 40
6.0
  1
GOLD CASTER
 41
0.719626
  7
FX_VECTOR
 72
     5
 11
393.225769
 21
11.461285
 31
0.0
100
AcDbText
  0
LINE
  5
2AF
330
285
100
AcDbEntity
  8
}}ﾊﾊGG血CCТ
  6
CONTINUOUS
 62
     7
100
AcDbLine
 10
253.0
 20
10.0
 30
0.0
 11
253.0
 21
20.0
 31
0.0
  0
TEXT
  5
2B0
330
285
100
AcDbEntity
  8
}}ﾊﾊGG血CCТ
  6
CONTINUOUS
 62
     7
100
AcDbText
 10
237.738815
 20
11.596879
 30
0.0
 40
6.648749
  1
図番
 41
1.083413
  7
FX_VECTOR
 72
     5
 11
249.058355
 21
11.596879
 31
0.0
100
AcDbText
  0
LINE
  5
2B1
330
285
100
AcDbEntity
  8
}}ﾊﾊGG血CCТ
  6
CONTINUOUS
 62
     7
100
AcDbLine
 10
333.0
 20
20.0
 30
0.0
 11
333.0
 21
10.0
 31
0.0
  0
LINE
  5
2B2
330
285
100
AcDbEntity
  8
}}ﾊﾊGG血CCТ
  6
CONTINUOUS
 62
     7
100
AcDbLine
 10
133.0
 20
20.0
 30
0.0
 11
133.0
 21
10.0
 31
0.0
  0
ENDBLK
  5
287
330
285
100
AcDbEntity
  8
0
100
AcDbBlockEnd
  0
BLOCK
  5
292
330
291
100
AcDbEntity
  8
0
100
AcDbBlockBegin
  2
BLKF036
 70
     0
 71
     0
 10
0.0
 20
0.0
 30
0.0
  3
BLKF036
  1

  0
LINE
  5
296
330
291
100
AcDbEntity
  8
0-1
  6
CONTINUOUS
 62
     7
100
AcDbLine
 10
344.8019
 20
17.913462
 30
0.0
 11
338.8019
 21
17.913462
 31
0.0
  0
LINE
  5
297
330
291
100
AcDbEntity
  8
0-1
  6
CONTINUOUS
 62
     7
100
AcDbLine
 10
338.8019
 20
17.913462
 30
0.0
 11
338.8019
 21
11.913462
 31
0.0
  0
LINE
  5
298
330
291
100
AcDbEntity
  8
0-1
  6
CONTINUOUS
 62
     7
100
AcDbLine
 10
338.8019
 20
11.913462
 30
0.0
 11
344.8019
 21
11.913462
 31
0.0
  0
LINE
  5
299
330
291
100
AcDbEntity
  8
0-1
  6
CONTINUOUS
 62
     7
100
AcDbLine
 10
344.8019
 20
11.913462
 30
0.0
 11
344.8019
 21
17.913462
 31
0.0
  0
ENDBLK
  5
293
330
291
100
AcDbEntity
  8
0
100
AcDbBlockEnd
  0
BLOCK
  5
29B
330
29A
100
AcDbEntity
  8
0
100
AcDbBlockBegin
  2
BLKF037
 70
     0
 71
     0
 10
0.0
 20
0.0
 30
0.0
  3
BLKF037
  1

  0
LINE
  5
29E
330
29A
100
AcDbEntity
  8
0-1
  6
CONTINUOUS
 62
     7
100
AcDbLine
 10
344.224977
 20
15.346154
 30
0.0
 11
341.8019
 21
17.769231
 31
0.0
  0
LINE
  5
29F
330
29A
100
AcDbEntity
  8
0-1
  6
CONTINUOUS
 62
     7
100
AcDbLine
 10
341.8019
 20
17.769231
 30
0.0
 11
338.946131
 21
14.913462
 31
0.0
  0
LINE
  5
2A0
330
29A
100
AcDbEntity
  8
0-1
  6
CONTINUOUS
 62
     7
100
AcDbLine
 10
338.946131
 20
14.913462
 30
0.0
 11
341.8019
 21
12.057692
 31
0.0
  0
LINE
  5
2A1
330
29A
100
AcDbEntity
  8
0-1
  6
CONTINUOUS
 62
     7
100
AcDbLine
 10
341.8019
 20
12.057692
 30
0.0
 11
343.359592
 21
13.615385
 31
0.0
  0
LINE
  5
2A2
330
29A
100
AcDbEntity
  8
0-1
  6
CONTINUOUS
 62
     7
100
AcDbLine
 10
343.359592
 20
13.615385
 30
0.0
 11
343.359592
 21
12.980769
 31
0.0
  0
LINE
  5
2A3
330
29A
100
AcDbEntity
  8
0-1
  6
CONTINUOUS
 62
     7
100
AcDbLine
 10
343.359592
 20
12.980769
 30
0.0
 11
344.224977
 21
12.980769
 31
0.0
  0
LINE
  5
2A4
330
29A
100
AcDbEntity
  8
0-1
  6
CONTINUOUS
 62
     7
100
AcDbLine
 10
344.224977
 20
12.980769
 30
0.0
 11
344.224977
 21
15.0
 31
0.0
  0
LINE
  5
2A5
330
29A
100
AcDbEntity
  8
0-1
  6
CONTINUOUS
 62
     7
100
AcDbLine
 10
344.224977
 20
15.0
 30
0.0
 11
341.8019
 21
15.0
 31
0.0
  0
LINE
  5
2A6
330
29A
100
AcDbEntity
  8
0-1
  6
CONTINUOUS
 62
     7
100
AcDbLine
 10
341.8019
 20
15.0
 30
0.0
 11
341.8019
 21
14.134615
 31
0.0
  0
LINE
  5
2A7
330
29A
100
AcDbEntity
  8
0-1
  6
CONTINUOUS
 62
     7
100
AcDbLine
 10
341.8019
 20
14.134615
 30
0.0
 11
342.246131
 21
14.134615
 31
0.0
  0
LINE
  5
2A8
330
29A
100
AcDbEntity
  8
0-1
  6
CONTINUOUS
 62
     7
100
AcDbLine
 10
342.246131
 20
14.134615
 30
0.0
 11
341.8019
 21
13.690385
 31
0.0
  0
LINE
  5
2A9
330
29A
100
AcDbEntity
  8
0-1
  6
CONTINUOUS
 62
     7
100
AcDbLine
 10
341.8019
 20
13.690385
 30
0.0
 11
340.578823
 21
14.913462
 31
0.0
  0
LINE
  5
2AA
330
29A
100
AcDbEntity
  8
0-1
  6
CONTINUOUS
 62
     7
100
AcDbLine
 10
340.578823
 20
14.913462
 30
0.0
 11
341.8019
 21
16.136538
 31
0.0
  0
LINE
  5
2AB
330
29A
100
AcDbEntity
  8
0-1
  6
CONTINUOUS
 62
     7
100
AcDbLine
 10
341.8019
 20
16.136538
 30
0.0
 11
342.592284
 21
15.346154
 31
0.0
  0
LINE
  5
2AC
330
29A
100
AcDbEntity
  8
0-1
  6
CONTINUOUS
 62
     7
100
AcDbLine
 10
342.592284
 20
15.346154
 30
0.0
 11
344.224977
 21
15.346154
 31
0.0
  0
ENDBLK
  5
29C
330
29A
100
AcDbEntity
  8
0
100
AcDbBlockEnd
  0
ENDSEC
  0
SECTION
  2
ENTITIES
  0
TEXT
  5
A8
330
1F
100
AcDbEntity
  8
}}ﾊﾊGG血CCТ
  6
CONTINUOUS
 62
     7
100
AcDbText
 10
155.782761
 20
12.0
 30
0.0
 40
6.0
  1
Ｈ－１５０　ＲＢ
 41
0.794326
  7
FX_VECTOR
 72
     5
 11
187.782761
 21
12.0
 31
0.0
100
AcDbText
  0
TEXT
  5
A9
330
1F
100
AcDbEntity
  8
}}ﾊﾊGG血CCТ
  6
CONTINUOUS
 62
     7
100
AcDbText
 10
255.795135
 20
12.0
 30
0.0
 40
6.0
  1
1H40FAAA-C02
 41
0.705882
  7
FX_VECTOR
 72
     5
 11
303.795135
 21
12.0
 31
0.0
100
AcDbText
  0
LINE
  5
AA
330
1F
100
AcDbEntity
  8
LAYERGROUP-1
  6
CENTER
 62
     6
100
AcDbLine
 10
71.880975
 20
148.5
 30
0.0
 11
136.544289
 21
148.5
 31
0.0
  0
LINE
  5
AB
330
1F
100
AcDbEntity
  8
LAYERGROUP-1
  6
CONTINUOUS
 62
     3
100
AcDbLine
 10
114.212632
 20
126.0
 30
0.0
 11
114.212632
 21
137.5
 31
0.0
  0
LINE
  5
AC
330
1F
100
AcDbEntity
  8
LAYERGROUP-1
  6
CONTINUOUS
 62
     3
100
AcDbLine
 10
115.212632
 20
125.0
 30
0.0
 11
125.612632
 21
125.0
 31
0.0
  0
LINE
  5
AD
330
1F
100
AcDbEntity
  8
LAYERGROUP-1
  6
CONTINUOUS
 62
     3
100
AcDbLine
 10
115.412632
 20
122.4
 30
0.0
 11
125.612632
 21
122.4
 31
0.0
  0
LINE
  5
AE
330
1F
100
AcDbEntity
  8
LAYERGROUP-1
  6
CONTINUOUS
 62
     3
100
AcDbLine
 10
111.912632
 20
125.9
 30
0.0
 11
111.912632
 21
133.0
 31
0.0
  0
ARC
  5
AF
330
1F
100
AcDbEntity
  8
LAYERGROUP-1
  6
CONTINUOUS
 62
     3
100
AcDbCircle
 10
115.212632
 20
126.0
 30
0.0
 40
1.0
100
AcDbArc
 50
180.0
 51
270.0
  0
ARC
  5
B0
330
1F
100
AcDbEntity
  8
LAYERGROUP-1
  6
CONTINUOUS
 62
     3
100
AcDbCircle
 10
115.412632
 20
125.9
 30
0.0
 40
3.5
100
AcDbArc
 50
180.0
 51
270.0
  0
LINE
  5
B1
330
1F
100
AcDbEntity
  8
LAYERGROUP-1
  6
CONTINUOUS
 62
     3
100
AcDbLine
 10
114.212632
 20
133.0
 30
0.0
 11
111.912632
 21
133.0
 31
0.0
  0
ARC
  5
B2
330
1F
100
AcDbEntity
  8
LAYERGROUP-1
  6
CONTINUOUS
 62
     3
100
AcDbCircle
 10
125.612632
 20
121.4
 30
0.0
 40
1.0
100
AcDbArc
 50
0.0
 51
90.0
  0
ARC
  5
B3
330
1F
100
AcDbEntity
  8
LAYERGROUP-1
  6
CONTINUOUS
 62
     3
100
AcDbCircle
 10
125.612632
 20
121.4
 30
0.0
 40
3.6
100
AcDbArc
 50
0.0
 51
90.0
  0
LINE
  5
B4
330
1F
100
AcDbEntity
  8
LAYERGROUP-1
  6
CONTINUOUS
 62
     3
100
AcDbLine
 10
82.812632
 20
125.0
 30
0.0
 11
93.212632
 21
125.0
 31
0.0
  0
LINE
  5
B5
330
1F
100
AcDbEntity
  8
LAYERGROUP-1
  6
CONTINUOUS
 62
     3
100
AcDbLine
 10
94.212632
 20
126.0
 30
0.0
 11
94.212632
 21
137.5
 31
0.0
  0
LINE
  5
B6
330
1F
100
AcDbEntity
  8
LAYERGROUP-1
  6
CONTINUOUS
 62
     3
100
AcDbLine
 10
82.812632
 20
122.4
 30
0.0
 11
93.012632
 21
122.4
 31
0.0
  0
LINE
  5
B7
330
1F
100
AcDbEntity
  8
LAYERGROUP-1
  6
CONTINUOUS
 62
     3
100
AcDbLine
 10
96.512632
 20
125.9
 30
0.0
 11
96.512632
 21
133.0
 31
0.0
  0
ARC
  5
B8
330
1F
100
AcDbEntity
  8
LAYERGROUP-1
  6
CONTINUOUS
 62
     3
100
AcDbCircle
 10
93.212632
 20
126.0
 30
0.0
 40
1.0
100
AcDbArc
 50
270.0
 51
360.0
  0
ARC
  5
B9
330
1F
100
AcDbEntity
  8
LAYERGROUP-1
  6
CONTINUOUS
 62
     3
100
AcDbCircle
 10
93.012632
 20
125.9
 30
0.0
 40
3.5
100
AcDbArc
 50
270.0
 51
360.0
  0
LINE
  5
BA
330
1F
100
AcDbEntity
  8
LAYERGROUP-1
  6
CONTINUOUS
 62
     3
100
AcDbLine
 10
96.512632
 20
133.0
 30
0.0
 11
94.212632
 21
133.0
 31
0.0
  0
ARC
  5
BB
330
1F
100
AcDbEntity
  8
LAYERGROUP-1
  6
CONTINUOUS
 62
     3
100
AcDbCircle
 10
82.812632
 20
121.4
 30
0.0
 40
1.0
100
AcDbArc
 50
90.0
 51
180.0
  0
ARC
  5
BC
330
1F
100
AcDbEntity
  8
LAYERGROUP-1
  6
CONTINUOUS
 62
     3
100
AcDbCircle
 10
82.812632
 20
121.4
 30
0.0
 40
3.6
100
AcDbArc
 50
90.0
 51
180.0
  0
LINE
  5
BD
330
1F
100
AcDbEntity
  8
LAYERGROUP-1
  6
CONTINUOUS
 62
     3
100
AcDbLine
 10
106.812632
 20
95.5
 30
0.0
 11
101.612632
 21
95.5
 31
0.0
  0
LINE
  5
BE
330
1F
100
AcDbEntity
  8
LAYERGROUP-1
  6
CONTINUOUS
 62
     3
100
AcDbLine
 10
106.812632
 20
92.1
 30
0.0
 11
106.812632
 21
95.5
 31
0.0
  0
LINE
  5
BF
330
1F
100
AcDbEntity
  8
LAYERGROUP-1
  6
CONTINUOUS
 62
     3
100
AcDbLine
 10
101.612632
 20
92.1
 30
0.0
 11
101.612632
 21
95.5
 31
0.0
  0
ARC
  5
C0
330
1F
100
AcDbEntity
  8
LAYERGROUP-1
  6
CONTINUOUS
 62
     3
100
AcDbCircle
 10
107.812632
 20
92.1
 30
0.0
 40
1.0
100
AcDbArc
 50
180.0
 51
270.0
  0
ARC
  5
C1
330
1F
100
AcDbEntity
  8
LAYERGROUP-1
  6
CONTINUOUS
 62
     3
100
AcDbCircle
 10
100.612632
 20
92.1
 30
0.0
 40
1.0
100
AcDbArc
 50
270.0
 51
360.0
  0
ARC
  5
C2
330
1F
100
AcDbEntity
  8
LAYERGROUP-1
  6
CONTINUOUS
 62
     3
100
AcDbCircle
 10
107.812632
 20
92.1
 30
0.0
 40
3.6
100
AcDbArc
 50
180.0
 51
270.0
  0
ARC
  5
C3
330
1F
100
AcDbEntity
  8
LAYERGROUP-1
  6
CONTINUOUS
 62
     3
100
AcDbCircle
 10
100.612632
 20
92.1
 30
0.0
 40
3.6
100
AcDbArc
 50
270.0
 51
360.0
  0
LINE
  5
C4
330
1F
100
AcDbEntity
  8
LAYERGROUP-1
  6
CONTINUOUS
 62
     3
100
AcDbLine
 10
125.612632
 20
88.5
 30
0.0
 11
107.812632
 21
88.5
 31
0.0
  0
LINE
  5
C5
330
1F
100
AcDbEntity
  8
LAYERGROUP-1
  6
CONTINUOUS
 62
     3
100
AcDbLine
 10
125.612632
 20
91.1
 30
0.0
 11
107.812632
 21
91.1
 31
0.0
  0
LINE
  5
C6
330
1F
100
AcDbEntity
  8
LAYERGROUP-1
  6
CONTINUOUS
 62
     3
100
AcDbLine
 10
100.612632
 20
88.5
 30
0.0
 11
82.812632
 21
88.5
 31
0.0
  0
LINE
  5
C7
330
1F
100
AcDbEntity
  8
LAYERGROUP-1
  6
CONTINUOUS
 62
     3
100
AcDbLine
 10
100.612632
 20
91.1
 30
0.0
 11
82.812632
 21
91.1
 31
0.0
  0
ARC
  5
C8
330
1F
100
AcDbEntity
  8
LAYERGROUP-1
  6
CONTINUOUS
 62
     3
100
AcDbCircle
 10
82.812632
 20
92.1
 30
0.0
 40
1.0
100
AcDbArc
 50
180.0
 51
270.0
  0
ARC
  5
C9
330
1F
100
AcDbEntity
  8
LAYERGROUP-1
  6
CONTINUOUS
 62
     3
100
AcDbCircle
 10
82.812632
 20
92.1
 30
0.0
 40
3.6
100
AcDbArc
 50
180.0
 51
270.0
  0
ARC
  5
CA
330
1F
100
AcDbEntity
  8
LAYERGROUP-1
  6
CONTINUOUS
 62
     3
100
AcDbCircle
 10
125.612632
 20
92.1
 30
0.0
 40
1.0
100
AcDbArc
 50
270.0
 51
360.0
  0
ARC
  5
CB
330
1F
100
AcDbEntity
  8
LAYERGROUP-1
  6
CONTINUOUS
 62
     3
100
AcDbCircle
 10
125.612632
 20
92.1
 30
0.0
 40
3.6
100
AcDbArc
 50
270.0
 51
360.0
  0
LINE
  5
CC
330
1F
100
AcDbEntity
  8
LAYERGROUP-1
  6
CONTINUOUS
 62
     3
100
AcDbLine
 10
82.812632
 20
172.0
 30
0.0
 11
93.212632
 21
172.0
 31
0.0
  0
LINE
  5
CD
330
1F
100
AcDbEntity
  8
LAYERGROUP-1
  6
CONTINUOUS
 62
     3
100
AcDbLine
 10
115.212632
 20
172.0
 30
0.0
 11
125.612632
 21
172.0
 31
0.0
  0
LINE
  5
CE
330
1F
100
AcDbEntity
  8
LAYERGROUP-1
  6
CONTINUOUS
 62
     3
100
AcDbLine
 10
115.412632
 20
174.6
 30
0.0
 11
125.612632
 21
174.6
 31
0.0
  0
LINE
  5
CF
330
1F
100
AcDbEntity
  8
LAYERGROUP-1
  6
CONTINUOUS
 62
     3
100
AcDbLine
 10
82.812632
 20
174.6
 30
0.0
 11
93.012632
 21
174.6
 31
0.0
  0
ARC
  5
D0
330
1F
100
AcDbEntity
  8
LAYERGROUP-1
  6
CONTINUOUS
 62
     3
100
AcDbCircle
 10
115.212632
 20
171.0
 30
0.0
 40
1.0
100
AcDbArc
 50
90.0
 51
180.0
  0
ARC
  5
D1
330
1F
100
AcDbEntity
  8
LAYERGROUP-1
  6
CONTINUOUS
 62
     3
100
AcDbCircle
 10
93.212632
 20
171.0
 30
0.0
 40
1.0
100
AcDbArc
 50
0.0
 51
90.0
  0
ARC
  5
D2
330
1F
100
AcDbEntity
  8
LAYERGROUP-1
  6
CONTINUOUS
 62
     3
100
AcDbCircle
 10
115.412632
 20
171.1
 30
0.0
 40
3.5
100
AcDbArc
 50
90.0
 51
180.0
  0
ARC
  5
D3
330
1F
100
AcDbEntity
  8
LAYERGROUP-1
  6
CONTINUOUS
 62
     3
100
AcDbCircle
 10
93.012632
 20
171.1
 30
0.0
 40
3.5
100
AcDbArc
 50
0.0
 51
90.0
  0
LINE
  5
D4
330
1F
100
AcDbEntity
  8
LAYERGROUP-1
  6
CONTINUOUS
 62
     3
100
AcDbLine
 10
94.212632
 20
164.0
 30
0.0
 11
96.512632
 21
164.0
 31
0.0
  0
LINE
  5
D5
330
1F
100
AcDbEntity
  8
LAYERGROUP-1
  6
CONTINUOUS
 62
     3
100
AcDbLine
 10
111.912632
 20
164.0
 30
0.0
 11
114.212632
 21
164.0
 31
0.0
  0
LINE
  5
D6
330
1F
100
AcDbEntity
  8
LAYERGROUP-1
  6
CONTINUOUS
 62
     3
100
AcDbLine
 10
111.912632
 20
164.0
 30
0.0
 11
111.912632
 21
171.1
 31
0.0
  0
LINE
  5
D7
330
1F
100
AcDbEntity
  8
LAYERGROUP-1
  6
CONTINUOUS
 62
     3
100
AcDbLine
 10
96.512632
 20
164.0
 30
0.0
 11
96.512632
 21
171.1
 31
0.0
  0
ARC
  5
D8
330
1F
100
AcDbEntity
  8
LAYERGROUP-1
  6
CONTINUOUS
 62
     3
100
AcDbCircle
 10
82.812632
 20
175.6
 30
0.0
 40
1.0
100
AcDbArc
 50
180.0
 51
270.0
  0
ARC
  5
D9
330
1F
100
AcDbEntity
  8
LAYERGROUP-1
  6
CONTINUOUS
 62
     3
100
AcDbCircle
 10
125.612632
 20
175.6
 30
0.0
 40
1.0
100
AcDbArc
 50
270.0
 51
360.0
  0
ARC
  5
DA
330
1F
100
AcDbEntity
  8
LAYERGROUP-1
  6
CONTINUOUS
 62
     3
100
AcDbCircle
 10
125.612632
 20
175.6
 30
0.0
 40
3.6
100
AcDbArc
 50
270.0
 51
360.0
  0
ARC
  5
DB
330
1F
100
AcDbEntity
  8
LAYERGROUP-1
  6
CONTINUOUS
 62
     3
100
AcDbCircle
 10
82.812632
 20
175.6
 30
0.0
 40
3.6
100
AcDbArc
 50
180.0
 51
270.0
  0
LINE
  5
DC
330
1F
100
AcDbEntity
  8
LAYERGROUP-1
  6
CONTINUOUS
 62
     3
100
AcDbLine
 10
125.612632
 20
208.5
 30
0.0
 11
107.812632
 21
208.5
 31
0.0
  0
LINE
  5
DD
330
1F
100
AcDbEntity
  8
LAYERGROUP-1
  6
CONTINUOUS
 62
     3
100
AcDbLine
 10
125.612632
 20
205.9
 30
0.0
 11
107.812632
 21
205.9
 31
0.0
  0
LINE
  5
DE
330
1F
100
AcDbEntity
  8
LAYERGROUP-1
  6
CONTINUOUS
 62
     3
100
AcDbLine
 10
106.812632
 20
201.5
 30
0.0
 11
101.612632
 21
201.5
 31
0.0
  0
LINE
  5
DF
330
1F
100
AcDbEntity
  8
LAYERGROUP-1
  6
CONTINUOUS
 62
     3
100
AcDbLine
 10
106.812632
 20
201.5
 30
0.0
 11
106.812632
 21
204.9
 31
0.0
  0
LINE
  5
E0
330
1F
100
AcDbEntity
  8
LAYERGROUP-1
  6
CONTINUOUS
 62
     3
100
AcDbLine
 10
101.612632
 20
201.5
 30
0.0
 11
101.612632
 21
204.9
 31
0.0
  0
ARC
  5
E1
330
1F
100
AcDbEntity
  8
LAYERGROUP-1
  6
CONTINUOUS
 62
     3
100
AcDbCircle
 10
107.812632
 20
204.9
 30
0.0
 40
1.0
100
AcDbArc
 50
90.0
 51
180.0
  0
ARC
  5
E2
330
1F
100
AcDbEntity
  8
LAYERGROUP-1
  6
CONTINUOUS
 62
     3
100
AcDbCircle
 10
100.612632
 20
204.9
 30
0.0
 40
1.0
100
AcDbArc
 50
0.0
 51
90.0
  0
ARC
  5
E3
330
1F
100
AcDbEntity
  8
LAYERGROUP-1
  6
CONTINUOUS
 62
     3
100
AcDbCircle
 10
107.812632
 20
204.9
 30
0.0
 40
3.6
100
AcDbArc
 50
90.0
 51
180.0
  0
ARC
  5
E4
330
1F
100
AcDbEntity
  8
LAYERGROUP-1
  6
CONTINUOUS
 62
     3
100
AcDbCircle
 10
100.612632
 20
204.9
 30
0.0
 40
3.6
100
AcDbArc
 50
0.0
 51
90.0
  0
LINE
  5
E5
330
1F
100
AcDbEntity
  8
LAYERGROUP-1
  6
CONTINUOUS
 62
     3
100
AcDbLine
 10
100.612632
 20
208.5
 30
0.0
 11
82.812632
 21
208.5
 31
0.0
  0
LINE
  5
E6
330
1F
100
AcDbEntity
  8
LAYERGROUP-1
  6
CONTINUOUS
 62
     3
100
AcDbLine
 10
100.612632
 20
205.9
 30
0.0
 11
82.812632
 21
205.9
 31
0.0
  0
ARC
  5
E7
330
1F
100
AcDbEntity
  8
LAYERGROUP-1
  6
CONTINUOUS
 62
     3
100
AcDbCircle
 10
125.612632
 20
204.9
 30
0.0
 40
1.0
100
AcDbArc
 50
0.0
 51
90.0
  0
ARC
  5
E8
330
1F
100
AcDbEntity
  8
LAYERGROUP-1
  6
CONTINUOUS
 62
     3
100
AcDbCircle
 10
82.812632
 20
204.9
 30
0.0
 40
1.0
100
AcDbArc
 50
90.0
 51
180.0
  0
ARC
  5
E9
330
1F
100
AcDbEntity
  8
LAYERGROUP-1
  6
CONTINUOUS
 62
     3
100
AcDbCircle
 10
125.612632
 20
204.9
 30
0.0
 40
3.6
100
AcDbArc
 50
0.0
 51
90.0
  0
ARC
  5
EA
330
1F
100
AcDbEntity
  8
LAYERGROUP-1
  6
CONTINUOUS
 62
     3
100
AcDbCircle
 10
82.812632
 20
204.9
 30
0.0
 40
3.6
100
AcDbArc
 50
90.0
 51
180.0
  0
LINE
  5
EB
330
1F
100
AcDbEntity
  8
LAYERGROUP-1
  6
CONTINUOUS
 62
     3
100
AcDbLine
 10
81.812632
 20
175.6
 30
0.0
 11
81.812632
 21
178.35
 31
0.0
  0
LINE
  5
EC
330
1F
100
AcDbEntity
  8
LAYERGROUP-1
  6
CONTINUOUS
 62
     3
100
AcDbLine
 10
79.212632
 20
162.8
 30
0.0
 11
79.212632
 21
206.25
 31
0.0
  0
LINE
  5
ED
330
1F
100
AcDbEntity
  8
LAYERGROUP-1
  6
CONTINUOUS
 62
     3
100
AcDbLine
 10
81.812632
 20
201.366764
 30
0.0
 11
81.812632
 21
204.9
 31
0.0
  0
LINE
  5
EE
330
1F
100
AcDbEntity
  8
LAYERGROUP-1
  6
CONTINUOUS
 62
     3
100
AcDbLine
 10
126.612632
 20
175.6
 30
0.0
 11
126.612632
 21
178.252231
 31
0.0
  0
LINE
  5
EF
330
1F
100
AcDbEntity
  8
LAYERGROUP-1
  6
CONTINUOUS
 62
     3
100
AcDbLine
 10
129.212632
 20
162.8
 30
0.0
 11
129.212632
 21
206.25
 31
0.0
  0
LINE
  5
F0
330
1F
100
AcDbEntity
  8
LAYERGROUP-1
  6
CONTINUOUS
 62
     3
100
AcDbLine
 10
126.612632
 20
201.366764
 30
0.0
 11
126.612632
 21
204.9
 31
0.0
  0
LINE
  5
F1
330
1F
100
AcDbEntity
  8
LAYERGROUP-1
  6
CONTINUOUS
 62
     3
100
AcDbLine
 10
81.812632
 20
118.652274
 30
0.0
 11
81.812632
 21
121.4
 31
0.0
  0
LINE
  5
F2
330
1F
100
AcDbEntity
  8
LAYERGROUP-1
  6
CONTINUOUS
 62
     3
100
AcDbLine
 10
79.212632
 20
134.2
 30
0.0
 11
79.212632
 21
90.75
 31
0.0
  0
LINE
  5
F3
330
1F
100
AcDbEntity
  8
LAYERGROUP-1
  6
CONTINUOUS
 62
     3
100
AcDbLine
 10
81.812632
 20
92.1
 30
0.0
 11
81.812632
 21
95.633236
 31
0.0
  0
LINE
  5
F4
330
1F
100
AcDbEntity
  8
LAYERGROUP-1
  6
CONTINUOUS
 62
     3
100
AcDbLine
 10
126.612632
 20
118.747769
 30
0.0
 11
126.612632
 21
121.4
 31
0.0
  0
LINE
  5
F5
330
1F
100
AcDbEntity
  8
LAYERGROUP-1
  6
CONTINUOUS
 62
     3
100
AcDbLine
 10
129.212632
 20
134.2
 30
0.0
 11
129.212632
 21
90.75
 31
0.0
  0
LINE
  5
F6
330
1F
100
AcDbEntity
  8
LAYERGROUP-1
  6
CONTINUOUS
 62
     3
100
AcDbLine
 10
126.612632
 20
92.1
 30
0.0
 11
126.612632
 21
95.633236
 31
0.0
  0
ARC
  5
F7
330
1F
100
AcDbEntity
  8
LAYERGROUP-1
  6
CONTINUOUS
 62
     3
100
AcDbCircle
 10
127.212632
 20
191.5
 30
0.0
 40
4.0
100
AcDbArc
 50
139.717577
 51
208.072487
  0
ARC
  5
F8
330
1F
100
AcDbEntity
  8
LAYERGROUP-1
  6
CONTINUOUS
 62
     3
100
AcDbCircle
 10
127.212632
 20
191.5
 30
0.0
 40
6.6
100
AcDbArc
 50
139.717577
 51
207.831795
  0
LINE
  5
F9
330
1F
100
AcDbEntity
  8
LAYERGROUP-1
  6
CONTINUOUS
 62
     3
100
AcDbLine
 10
126.375498
 20
200.720208
 30
0.0
 11
122.177711
 21
195.767268
 31
0.0
  0
LINE
  5
FA
330
1F
100
AcDbEntity
  8
LAYERGROUP-1
  6
CONTINUOUS
 62
     3
100
AcDbLine
 10
128.358952
 20
199.039163
 30
0.0
 11
124.161165
 21
194.086223
 31
0.0
  0
LINE
  5
FB
330
1F
100
AcDbEntity
  8
LAYERGROUP-1
  6
CONTINUOUS
 62
     3
100
AcDbLine
 10
126.496954
 20
178.719108
 30
0.0
 11
121.376106
 21
188.418609
 31
0.0
  0
LINE
  5
FC
330
1F
100
AcDbEntity
  8
LAYERGROUP-1
  6
CONTINUOUS
 62
     3
100
AcDbLine
 10
128.911869
 20
179.713881
 30
0.0
 11
123.675344
 21
189.63249
 31
0.0
  0
ARC
  5
FD
330
1F
100
AcDbEntity
  8
LAYERGROUP-1
  6
CONTINUOUS
 62
     3
100
AcDbCircle
 10
125.612632
 20
201.366764
 30
0.0
 40
3.6
100
AcDbArc
 50
319.717577
 51
360.0
  0
ARC
  5
FE
330
1F
100
AcDbEntity
  8
LAYERGROUP-1
  6
CONTINUOUS
 62
     3
100
AcDbCircle
 10
125.612632
 20
201.366764
 30
0.0
 40
1.0
100
AcDbArc
 50
319.717577
 51
360.0
  0
ARC
  5
FF
330
1F
100
AcDbEntity
  8
LAYERGROUP-1
  6
CONTINUOUS
 62
     3
100
AcDbCircle
 10
125.612632
 20
178.252231
 30
0.0
 40
3.6
100
AcDbArc
 50
0.0
 51
27.831795
  0
ARC
  5
100
330
1F
100
AcDbEntity
  8
LAYERGROUP-1
  6
CONTINUOUS
 62
     3
100
AcDbCircle
 10
125.612632
 20
178.252231
 30
0.0
 40
1.0
100
AcDbArc
 50
0.0
 51
27.831795
  0
ARC
  5
101
330
1F
100
AcDbEntity
  8
LAYERGROUP-1
  6
CONTINUOUS
 62
     3
100
AcDbCircle
 10
127.212632
 20
105.5
 30
0.0
 40
4.0
100
AcDbArc
 50
151.927513
 51
220.282423
  0
ARC
  5
102
330
1F
100
AcDbEntity
  8
LAYERGROUP-1
  6
CONTINUOUS
 62
     3
100
AcDbCircle
 10
127.212632
 20
105.5
 30
0.0
 40
6.6
100
AcDbArc
 50
152.168205
 51
220.282423
  0
LINE
  5
103
330
1F
100
AcDbEntity
  8
LAYERGROUP-1
  6
CONTINUOUS
 62
     3
100
AcDbLine
 10
126.375498
 20
96.279792
 30
0.0
 11
122.177711
 21
101.232732
 31
0.0
  0
LINE
  5
104
330
1F
100
AcDbEntity
  8
LAYERGROUP-1
  6
CONTINUOUS
 62
     3
100
AcDbLine
 10
128.358952
 20
97.960837
 30
0.0
 11
124.161165
 21
102.913777
 31
0.0
  0
LINE
  5
105
330
1F
100
AcDbEntity
  8
LAYERGROUP-1
  6
CONTINUOUS
 62
     3
100
AcDbLine
 10
126.496954
 20
118.280892
 30
0.0
 11
121.376106
 21
108.581391
 31
0.0
  0
LINE
  5
106
330
1F
100
AcDbEntity
  8
LAYERGROUP-1
  6
CONTINUOUS
 62
     3
100
AcDbLine
 10
128.796191
 20
117.067011
 30
0.0
 11
123.675344
 21
107.36751
 31
0.0
  0
ARC
  5
107
330
1F
100
AcDbEntity
  8
LAYERGROUP-1
  6
CONTINUOUS
 62
     3
100
AcDbCircle
 10
125.612632
 20
95.633236
 30
0.0
 40
3.6
100
AcDbArc
 50
0.0
 51
40.282423
  0
ARC
  5
108
330
1F
100
AcDbEntity
  8
LAYERGROUP-1
  6
CONTINUOUS
 62
     3
100
AcDbCircle
 10
125.612632
 20
95.633236
 30
0.0
 40
1.0
100
AcDbArc
 50
0.0
 51
40.282423
  0
ARC
  5
109
330
1F
100
AcDbEntity
  8
LAYERGROUP-1
  6
CONTINUOUS
 62
     3
100
AcDbCircle
 10
125.612632
 20
118.747769
 30
0.0
 40
3.6
100
AcDbArc
 50
332.168205
 51
360.0
  0
ARC
  5
10A
330
1F
100
AcDbEntity
  8
LAYERGROUP-1
  6
CONTINUOUS
 62
     3
100
AcDbCircle
 10
125.612632
 20
118.747769
 30
0.0
 40
1.0
100
AcDbArc
 50
332.168205
 51
360.0
  0
ARC
  5
10B
330
1F
100
AcDbEntity
  8
LAYERGROUP-1
  6
CONTINUOUS
 62
     3
100
AcDbCircle
 10
81.212632
 20
105.5
 30
0.0
 40
4.0
100
AcDbArc
 50
-40.282423
 51
28.072487
  0
ARC
  5
10C
330
1F
100
AcDbEntity
  8
LAYERGROUP-1
  6
CONTINUOUS
 62
     3
100
AcDbCircle
 10
81.212632
 20
105.5
 30
0.0
 40
6.6
100
AcDbArc
 50
-40.282423
 51
27.831795
  0
LINE
  5
10D
330
1F
100
AcDbEntity
  8
LAYERGROUP-1
  6
CONTINUOUS
 62
     3
100
AcDbLine
 10
82.049765
 20
96.279792
 30
0.0
 11
86.247552
 21
101.232732
 31
0.0
  0
LINE
  5
10E
330
1F
100
AcDbEntity
  8
LAYERGROUP-1
  6
CONTINUOUS
 62
     3
100
AcDbLine
 10
80.066312
 20
97.960837
 30
0.0
 11
84.264099
 21
102.913777
 31
0.0
  0
LINE
  5
10F
330
1F
100
AcDbEntity
  8
LAYERGROUP-1
  6
CONTINUOUS
 62
     3
100
AcDbLine
 10
81.92831
 20
118.280892
 30
0.0
 11
87.049157
 21
108.581391
 31
0.0
  0
LINE
  5
110
330
1F
100
AcDbEntity
  8
LAYERGROUP-1
  6
CONTINUOUS
 62
     3
100
AcDbLine
 10
79.513394
 20
117.286119
 30
0.0
 11
84.74992
 21
107.36751
 31
0.0
  0
ARC
  5
111
330
1F
100
AcDbEntity
  8
LAYERGROUP-1
  6
CONTINUOUS
 62
     3
100
AcDbCircle
 10
82.812632
 20
95.633236
 30
0.0
 40
3.6
100
AcDbArc
 50
139.717577
 51
180.0
  0
ARC
  5
112
330
1F
100
AcDbEntity
  8
LAYERGROUP-1
  6
CONTINUOUS
 62
     3
100
AcDbCircle
 10
82.812632
 20
95.633236
 30
0.0
 40
1.0
100
AcDbArc
 50
139.717577
 51
180.0
  0
ARC
  5
113
330
1F
100
AcDbEntity
  8
LAYERGROUP-1
  6
CONTINUOUS
 62
     3
100
AcDbCircle
 10
82.812632
 20
118.747769
 30
0.0
 40
3.6
100
AcDbArc
 50
180.0
 51
207.831795
  0
ARC
  5
114
330
1F
100
AcDbEntity
  8
LAYERGROUP-1
  6
CONTINUOUS
 62
     3
100
AcDbCircle
 10
82.812632
 20
118.747769
 30
0.0
 40
1.0
100
AcDbArc
 50
180.0
 51
207.831795
  0
ARC
  5
115
330
1F
100
AcDbEntity
  8
LAYERGROUP-1
  6
CONTINUOUS
 62
     3
100
AcDbCircle
 10
81.212632
 20
191.5
 30
0.0
 40
4.0
100
AcDbArc
 50
-28.072487
 51
40.282423
  0
ARC
  5
116
330
1F
100
AcDbEntity
  8
LAYERGROUP-1
  6
CONTINUOUS
 62
     3
100
AcDbCircle
 10
81.212632
 20
191.5
 30
0.0
 40
6.6
100
AcDbArc
 50
-27.831795
 51
40.282423
  0
LINE
  5
117
330
1F
100
AcDbEntity
  8
LAYERGROUP-1
  6
CONTINUOUS
 62
     3
100
AcDbLine
 10
82.049765
 20
200.720208
 30
0.0
 11
86.247552
 21
195.767268
 31
0.0
  0
LINE
  5
118
330
1F
100
AcDbEntity
  8
LAYERGROUP-1
  6
CONTINUOUS
 62
     3
100
AcDbLine
 10
80.066312
 20
199.039163
 30
0.0
 11
84.264099
 21
194.086223
 31
0.0
  0
LINE
  5
119
330
1F
100
AcDbEntity
  8
LAYERGROUP-1
  6
CONTINUOUS
 62
     3
100
AcDbLine
 10
81.92831
 20
178.719108
 30
0.0
 11
87.049157
 21
188.418609
 31
0.0
  0
LINE
  5
11A
330
1F
100
AcDbEntity
  8
LAYERGROUP-1
  6
CONTINUOUS
 62
     3
100
AcDbLine
 10
79.629072
 20
179.932989
 30
0.0
 11
84.74992
 21
189.63249
 31
0.0
  0
ARC
  5
11B
330
1F
100
AcDbEntity
  8
LAYERGROUP-1
  6
CONTINUOUS
 62
     3
100
AcDbCircle
 10
82.812632
 20
201.366764
 30
0.0
 40
3.6
100
AcDbArc
 50
180.0
 51
220.282423
  0
ARC
  5
11C
330
1F
100
AcDbEntity
  8
LAYERGROUP-1
  6
CONTINUOUS
 62
     3
100
AcDbCircle
 10
82.812632
 20
201.366764
 30
0.0
 40
1.0
100
AcDbArc
 50
180.0
 51
220.282423
  0
ARC
  5
11D
330
1F
100
AcDbEntity
  8
LAYERGROUP-1
  6
CONTINUOUS
 62
     3
100
AcDbCircle
 10
82.812632
 20
178.252231
 30
0.0
 40
3.6
100
AcDbArc
 50
152.168205
 51
180.0
  0
ARC
  5
11E
330
1F
100
AcDbEntity
  8
LAYERGROUP-1
  6
CONTINUOUS
 62
     3
100
AcDbCircle
 10
82.812632
 20
178.252231
 30
0.0
 40
1.0
100
AcDbArc
 50
152.168205
 51
180.0
  0
LINE
  5
11F
330
1F
100
AcDbEntity
  8
LAYERGROUP-1
  6
CENTER
 62
     6
100
AcDbLine
 10
104.212632
 20
69.847714
 30
0.0
 11
104.212632
 21
226.20733
 31
0.0
  0
LINE
  5
120
330
1F
100
AcDbEntity
  8
LAYERGROUP-1
  6
CENTER
 62
     6
100
AcDbLine
 10
215.665137
 20
148.5
 30
0.0
 11
369.104093
 21
148.5
 31
0.0
  0
CIRCLE
  5
121
330
1F
100
AcDbEntity
  8
LAYERGROUP-1
  6
CONTINUOUS
 62
     3
100
AcDbCircle
 10
292.384615
 20
148.5
 30
0.0
 40
75.0
  0
CIRCLE
  5
122
330
1F
100
AcDbEntity
  8
LAYERGROUP-1
  6
CONTINUOUS
 62
     6
100
AcDbCircle
 10
292.384615
 20
148.5
 30
0.0
 40
43.0
  0
CIRCLE
  5
123
330
1F
100
AcDbEntity
  8
LAYERGROUP-1
  6
CONTINUOUS
 62
     6
100
AcDbCircle
 10
292.384615
 20
148.5
 30
0.0
 40
30.0
  0
CIRCLE
  5
124
330
1F
100
AcDbEntity
  8
LAYERGROUP-1
  6
CONTINUOUS
 62
     6
100
AcDbCircle
 10
292.384615
 20
148.5
 30
0.0
 40
52.5
  0
LINE
  5
125
330
1F
100
AcDbEntity
  8
LAYERGROUP-1
  6
CENTER
 62
     6
100
AcDbLine
 10
292.384615
 20
69.377061
 30
0.0
 11
292.384615
 21
227.325806
 31
0.0
  0
LINE
  5
126
330
1F
100
AcDbEntity
  8
LAYERGROUP-1
  6
CONTINUOUS
 62
     6
100
AcDbLine
 10
111.912632
 20
133.0
 30
0.0
 11
111.912632
 21
134.2
 31
0.0
  0
ARC
  5
127
330
1F
100
AcDbEntity
  8
LAYERGROUP-1
  6
CONTINUOUS
 62
     3
100
AcDbCircle
 10
104.212632
 20
23.5
 30
0.0
 40
200.0
100
AcDbArc
 50
84.721771
 51
95.134338
  0
ARC
  5
128
330
1F
100
AcDbEntity
  8
LAYERGROUP-1
  6
CONTINUOUS
 62
     3
100
AcDbCircle
 10
104.212632
 20
273.5
 30
0.0
 40
200.0
100
AcDbArc
 50
264.721771
 51
275.278229
  0
INSERT
  5
12C
330
1F
100
AcDbEntity
  8
0
100
AcDbBlockReference
  2
BLKF021
 10
0.0
 20
0.0
 30
0.0
  0
LINE
  5
185
330
1F
100
AcDbEntity
  8
GR1-1
  6
CONTINUOUS
 62
     7
100
AcDbLine
 10
250.200363
 20
193.349095
 30
0.0
 11
254.686758
 21
197.180839
 31
0.0
  0
LINE
  5
186
330
1F
100
AcDbEntity
  8
GR1-1
  6
CONTINUOUS
 62
     7
100
AcDbLine
 10
254.686758
 20
197.180839
 30
0.0
 11
250.855015
 21
201.667234
 31
0.0
  0
LINE
  5
187
330
1F
100
AcDbEntity
  8
GR1-1
  6
CONTINUOUS
 62
     7
100
AcDbLine
 10
250.855015
 20
201.667234
 30
0.0
 11
246.368619
 21
197.83549
 31
0.0
  0
LINE
  5
188
330
1F
100
AcDbEntity
  8
GR1-1
  6
CONTINUOUS
 62
     7
100
AcDbLine
 10
246.368619
 20
197.83549
 30
0.0
 11
250.200363
 21
193.349095
 31
0.0
  0
LINE
  5
189
330
1F
100
AcDbEntity
  8
GR1-1
  6
CONTINUOUS
 62
     7
100
AcDbLine
 10
248.412782
 20
195.701863
 30
0.0
 11
248.721387
 21
199.623071
 31
0.0
  0
LINE
  5
18A
330
1F
100
AcDbEntity
  8
GR1-1
  6
CONTINUOUS
 62
     7
100
AcDbLine
 10
248.721387
 20
199.623071
 30
0.0
 11
252.226689
 21
199.347198
 31
0.0
  0
LINE
  5
18B
330
1F
100
AcDbEntity
  8
GR1-1
  6
CONTINUOUS
 62
     7
100
AcDbLine
 10
252.226689
 20
199.347198
 30
0.0
 11
251.169235
 21
198.444048
 31
0.0
  0
LINE
  5
18C
330
1F
100
AcDbEntity
  8
GR1-1
  6
CONTINUOUS
 62
     7
100
AcDbLine
 10
251.169235
 20
198.444048
 30
0.0
 11
249.624538
 21
198.565618
 31
0.0
  0
LINE
  5
18D
330
1F
100
AcDbEntity
  8
GR1-1
  6
CONTINUOUS
 62
     7
100
AcDbLine
 10
249.624538
 20
198.565618
 30
0.0
 11
249.470235
 21
196.605014
 31
0.0
  0
LINE
  5
18E
330
1F
100
AcDbEntity
  8
GR1-1
  6
CONTINUOUS
 62
     7
100
AcDbLine
 10
249.470235
 20
196.605014
 30
0.0
 11
251.430839
 21
196.450711
 31
0.0
  0
LINE
  5
18F
330
1F
100
AcDbEntity
  8
GR1-1
  6
CONTINUOUS
 62
     7
100
AcDbLine
 10
251.430839
 20
196.450711
 30
0.0
 11
251.511962
 21
197.481471
 31
0.0
  0
ARC
  5
190
330
1F
100
AcDbEntity
  8
GR1-1
  6
CONTINUOUS
 62
     7
100
AcDbCircle
 10
251.413932
 20
197.489186
 30
0.0
 40
0.098333334
100
AcDbArc
 50
-4.5
 51
130.5
  0
LINE
  5
191
330
1F
100
AcDbEntity
  8
GR1-1
  6
CONTINUOUS
 62
     7
100
AcDbLine
 10
251.350069
 20
197.563959
 30
0.0
 11
250.847001
 21
197.134298
 31
0.0
  0
LINE
  5
192
330
1F
100
AcDbEntity
  8
GR1-1
  6
CONTINUOUS
 62
     7
100
AcDbLine
 10
250.847001
 20
197.134298
 30
0.0
 11
250.527689
 21
197.508164
 31
0.0
  0
LINE
  5
193
330
1F
100
AcDbEntity
  8
GR1-1
  6
CONTINUOUS
 62
     7
100
AcDbLine
 10
250.527689
 20
197.508164
 30
0.0
 11
252.642596
 21
199.314466
 31
0.0
  0
LINE
  5
194
330
1F
100
AcDbEntity
  8
GR1-1
  6
CONTINUOUS
 62
     7
100
AcDbLine
 10
252.642596
 20
199.314466
 30
0.0
 11
253.935375
 21
197.800815
 31
0.0
  0
LINE
  5
195
330
1F
100
AcDbEntity
  8
GR1-1
  6
CONTINUOUS
 62
     7
100
AcDbLine
 10
253.935375
 20
197.800815
 30
0.0
 11
253.187643
 21
197.162191
 31
0.0
  0
LINE
  5
196
330
1F
100
AcDbEntity
  8
GR1-1
  6
CONTINUOUS
 62
     7
100
AcDbLine
 10
253.187643
 20
197.162191
 30
0.0
 11
252.687664
 21
197.747591
 31
0.0
  0
ARC
  5
197
330
1F
100
AcDbEntity
  8
GR1-1
  6
CONTINUOUS
 62
     7
100
AcDbCircle
 10
252.612891
 20
197.683728
 30
0.0
 40
0.098333334
100
AcDbArc
 50
40.5
 51
175.5
  0
LINE
  5
198
330
1F
100
AcDbEntity
  8
GR1-1
  6
CONTINUOUS
 62
     7
100
AcDbLine
 10
252.514861
 20
197.691443
 30
0.0
 11
252.33399
 21
195.393258
 31
0.0
  0
LINE
  5
199
330
1F
100
AcDbEntity
  8
GR1-1
  6
CONTINUOUS
 62
     7
100
AcDbLine
 10
252.33399
 20
195.393258
 30
0.0
 11
248.412782
 21
195.701863
 31
0.0
  0
TEXT
  5
19A
330
1F
100
AcDbEntity
  8
LAYERGROUP-1
  6
CONTINUOUS
 62
     7
100
AcDbText
 10
261.732971
 20
201.572876
 30
0.0
 40
7.01604
  1
G
 50
26.5
 41
1.248094
  7
FX_VECTOR
 72
     5
 11
268.450102
 21
204.921914
 31
0.0
100
AcDbText
  0
TEXT
  5
19B
330
1F
100
AcDbEntity
  8
LAYERGROUP-1
  6
CONTINUOUS
 62
     7
100
AcDbText
 10
268.429413
 20
204.912781
 30
0.0
 40
7.01604
  1
O
 50
19.5
 41
1.182405
  7
FX_VECTOR
 72
     5
 11
275.50462
 21
207.418243
 31
0.0
100
AcDbText
  0
TEXT
  5
19C
330
1F
100
AcDbEntity
  8
LAYERGROUP-1
  6
CONTINUOUS
 62
     7
100
AcDbText
 10
275.482941
 20
207.411682
 30
0.0
 40
7.01604
  1
L
 50
12.5
 41
1.404106
  7
FX_VECTOR
 72
     5
 11
282.810749
 21
209.036218
 31
0.0
100
AcDbText
  0
TEXT
  5
19D
330
1F
100
AcDbEntity
  8
LAYERGROUP-1
  6
CONTINUOUS
 62
     7
100
AcDbText
 10
282.788452
 20
209.032364
 30
0.0
 40
7.01604
  1
D
 50
5.5
 41
1.248094
  7
FX_VECTOR
 72
     5
 11
290.259622
 21
209.751756
 31
0.0
100
AcDbText
  0
TEXT
  5
19E
330
1F
100
AcDbEntity
  8
LAYERGROUP-1
  6
CONTINUOUS
 62
     7
100
AcDbText
 10
294.514893
 20
209.751236
 30
0.0
 40
7.01604
  1
C
 50
354.5
 41
1.248094
  7
FX_VECTOR
 72
     5
 11
301.986062
 21
209.031844
 31
0.0
100
AcDbText
  0
TEXT
  5
19F
330
1F
100
AcDbEntity
  8
LAYERGROUP-1
  6
CONTINUOUS
 62
     7
100
AcDbText
 10
302.491547
 20
208.949173
 30
0.0
 40
7.01604
  1
A
 50
347.0
 41
1.321511
  7
FX_VECTOR
 72
     5
 11
309.8049
 21
207.260752
 31
0.0
100
AcDbText
  0
TEXT
  5
1A0
330
1F
100
AcDbEntity
  8
LAYERGROUP-1
  6
CONTINUOUS
 62
     7
100
AcDbText
 10
310.295288
 20
207.112808
 30
0.0
 40
7.01604
  1
S
 50
339.5
 41
1.321511
  7
FX_VECTOR
 72
     5
 11
317.325691
 21
204.484248
 31
0.0
100
AcDbText
  0
TEXT
  5
1A1
330
1F
100
AcDbEntity
  8
LAYERGROUP-1
  6
CONTINUOUS
 62
     7
100
AcDbText
 10
317.792572
 20
204.273544
 30
0.0
 40
7.01604
  1
T
 50
332.0
 41
1.497713
  7
FX_VECTOR
 72
     5
 11
324.419733
 21
200.74982
 31
0.0
100
AcDbText
  0
TEXT
  5
1A2
330
1F
100
AcDbEntity
  8
LAYERGROUP-1
  6
CONTINUOUS
 62
     7
100
AcDbText
 10
324.400269
 20
200.761368
 30
0.0
 40
7.01604
  1
E
 50
325.0
 41
1.321511
  7
FX_VECTOR
 72
     5
 11
330.548598
 21
196.456261
 31
0.0
100
AcDbText
  0
TEXT
  5
1A3
330
1F
100
AcDbEntity
  8
LAYERGROUP-1
  6
CONTINUOUS
 62
     7
100
AcDbText
 10
330.53067
 20
196.470093
 30
0.0
 40
7.01604
  1
R
 50
318.0
 41
1.248094
  7
FX_VECTOR
 72
     5
 11
336.10851
 21
191.447783
 31
0.0
100
AcDbText
  0
TEXT
  5
1A4
330
1F
100
AcDbEntity
  8
LAYERGROUP-1
  6
CONTINUOUS
 62
     7
100
AcDbText
 10
300.663269
 20
87.773109
 30
0.0
 40
7.01604
  1
0
 50
184.25
 41
1.321511
  7
FX_VECTOR
 72
     5
 11
293.178184
 21
87.216872
 31
0.0
100
AcDbText
  0
TEXT
  5
1A5
330
1F
100
AcDbEntity
  8
LAYERGROUP-1
  6
CONTINUOUS
 62
     7
100
AcDbText
 10
308.51889
 20
89.373215
 30
0.0
 40
7.01604
  1
5
 50
191.75
 41
1.321511
  7
FX_VECTOR
 72
     5
 11
301.170445
 21
87.844736
 31
0.0
100
AcDbText
  0
TEXT
  5
1A6
330
1F
100
AcDbEntity
  8
LAYERGROUP-1
  6
CONTINUOUS
 62
     7
100
AcDbText
 10
316.09845
 20
91.985001
 30
0.0
 40
7.01604
  1
1
 50
199.25
 41
2.042336
  7
FX_VECTOR
 72
     5
 11
309.012378
 21
89.510433
 31
0.0
100
AcDbText
  0
TEXT
  5
1A7
330
1F
100
AcDbEntity
  8
LAYERGROUP-1
  6
CONTINUOUS
 62
     7
100
AcDbText
 10
291.596344
 20
87.216476
 30
0.0
 40
7.01604
  1
×
 50
175.75
 41
1.497713
  7
FX_VECTOR
 72
     5
 11
284.111259
 21
87.772714
 31
0.0
100
AcDbText
  0
TEXT
  5
1A8
330
1F
100
AcDbEntity
  8
LAYERGROUP-1
  6
CONTINUOUS
 62
     7
100
AcDbText
 10
282.546692
 20
88.006142
 30
0.0
 40
7.01604
  1
5
 50
167.25
 41
1.321511
  7
FX_VECTOR
 72
     5
 11
275.226041
 21
89.662636
 31
0.0
100
AcDbText
  0
TEXT
  5
1A9
330
1F
100
AcDbEntity
  8
LAYERGROUP-1
  6
CONTINUOUS
 62
     7
100
AcDbText
 10
274.734833
 20
89.807777
 30
0.0
 40
7.01604
  1
0
 50
159.75
 41
1.321511
  7
FX_VECTOR
 72
     5
 11
267.693027
 21
92.405637
 31
0.0
100
AcDbText
  0
LINE
  5
1AA
330
1F
100
AcDbEntity
  8
LAYERGROUP-1
  6
CONTINUOUS
 62
     6
100
AcDbLine
 10
96.512632
 20
133.0
 30
0.0
 11
96.512632
 21
134.2
 31
0.0
  0
LINE
  5
1AB
330
1F
100
AcDbEntity
  8
LAYERGROUP-1
  6
CONTINUOUS
 62
     3
100
AcDbLine
 10
79.212632
 20
206.25
 30
0.0
 11
81.871107
 21
218.757143
 31
0.0
  0
ARC
  5
1AC
330
1F
100
AcDbEntity
  8
LAYERGROUP-1
  6
CONTINUOUS
 62
     3
100
AcDbCircle
 10
86.761845
 20
217.717584
 30
0.0
 40
5.0
100
AcDbArc
 50
95.134338
 51
168.0
  0
LINE
  5
1AD
330
1F
100
AcDbEntity
  8
LAYERGROUP-1
  6
CONTINUOUS
 62
     3
100
AcDbLine
 10
129.212632
 20
206.25
 30
0.0
 11
126.554156
 21
218.757143
 31
0.0
  0
ARC
  5
1AE
330
1F
100
AcDbEntity
  8
LAYERGROUP-1
  6
CONTINUOUS
 62
     3
100
AcDbCircle
 10
121.663418
 20
217.717584
 30
0.0
 40
5.0
100
AcDbArc
 50
12.0
 51
84.865662
  0
LINE
  5
1AF
330
1F
100
AcDbEntity
  8
LAYERGROUP-1
  6
CONTINUOUS
 62
     3
100
AcDbLine
 10
79.212632
 20
90.75
 30
0.0
 11
81.871107
 21
78.242857
 31
0.0
  0
ARC
  5
1B0
330
1F
100
AcDbEntity
  8
LAYERGROUP-1
  6
CONTINUOUS
 62
     3
100
AcDbCircle
 10
86.761845
 20
79.282416
 30
0.0
 40
5.0
100
AcDbArc
 50
192.0
 51
264.865662
  0
LINE
  5
1B1
330
1F
100
AcDbEntity
  8
LAYERGROUP-1
  6
CONTINUOUS
 62
     3
100
AcDbLine
 10
129.212632
 20
90.75
 30
0.0
 11
126.554156
 21
78.242857
 31
0.0
  0
ARC
  5
1B2
330
1F
100
AcDbEntity
  8
LAYERGROUP-1
  6
CONTINUOUS
 62
     3
100
AcDbCircle
 10
121.663418
 20
79.282416
 30
0.0
 40
5.0
100
AcDbArc
 50
275.134338
 51
348.0
  0
LINE
  5
1B3
330
1F
100
AcDbEntity
  8
LAYERGROUP-1
  6
CONTINUOUS
 62
     3
100
AcDbLine
 10
94.212632
 20
171.0
 30
0.0
 11
94.212632
 21
159.5
 31
0.0
  0
LINE
  5
1B4
330
1F
100
AcDbEntity
  8
LAYERGROUP-1
  6
CONTINUOUS
 62
     3
100
AcDbLine
 10
94.212632
 20
159.5
 30
0.0
 11
114.212632
 21
159.5
 31
0.0
  0
LINE
  5
1B5
330
1F
100
AcDbEntity
  8
LAYERGROUP-1
  6
CONTINUOUS
 62
     3
100
AcDbLine
 10
114.212632
 20
162.8
 30
0.0
 11
94.212632
 21
162.8
 31
0.0
  0
LINE
  5
1B6
330
1F
100
AcDbEntity
  8
LAYERGROUP-1
  6
CONTINUOUS
 62
     3
100
AcDbLine
 10
94.212632
 20
137.5
 30
0.0
 11
114.212632
 21
137.5
 31
0.0
  0
LINE
  5
1B7
330
1F
100
AcDbEntity
  8
LAYERGROUP-1
  6
CONTINUOUS
 62
     3
100
AcDbLine
 10
114.212632
 20
134.2
 30
0.0
 11
94.212632
 21
134.2
 31
0.0
  0
HATCH
  5
1B8
330
1F
100
AcDbEntity
  8
LAYERGROUP-1
  6
CONTINUOUS
 62
     6
100
AcDbHatch
 10
0.0
 20
0.0
 30
0.0
210
0.0
220
0.0
230
1.0
  2

 70
     0
 71
     1
 91
        1
 92
        0
 93
        4
 72
     1
 10
94.21263172987324
 20
159.5
 11
114.4126317298732
 21
159.5
 72
     1
 10
114.4126317298732
 20
159.5
 11
114.4126317298732
 21
162.8
 72
     1
 10
114.4126317298732
 20
162.8
 11
94.21263172987324
 21
162.8000000000001
 72
     1
 10
94.21263172987324
 20
162.8000000000001
 11
94.21263172987324
 21
159.5
 97
        0
 75
     0
 76
     0
 52
45.0
 41
1.0
 77
     0
 78
     1
 53
45.0
 43
0.0
 44
0.0
 45
-0.7071067811865475
 46
0.7071067811865476
 79
     0
 98
        0
  0
HATCH
  5
1B9
330
1F
100
AcDbEntity
  8
LAYERGROUP-1
  6
CONTINUOUS
 62
     6
100
AcDbHatch
 10
0.0
 20
0.0
 30
0.0
210
0.0
220
0.0
230
1.0
  2

 70
     0
 71
     1
 91
        1
 92
        0
 93
        4
 72
     1
 10
94.21263172987324
 20
134.2
 11
94.21263172987324
 21
137.5
 72
     1
 10
94.21263172987324
 20
137.5
 11
114.4126317298732
 21
137.5
 72
     1
 10
114.4126317298732
 20
137.5
 11
114.4126317298732
 21
134.2
 72
     1
 10
114.4126317298732
 20
134.2
 11
94.21263172987324
 21
134.2
 97
        0
 75
     0
 76
     0
 52
45.0
 41
1.0
 77
     0
 78
     1
 53
45.0
 43
0.0
 44
0.0
 45
-0.7071067811865475
 46
0.7071067811865476
 79
     0
 98
        0
  0
LINE
  5
1BA
330
1F
100
AcDbEntity
  8
LAYERGROUP-1
  6
CONTINUOUS
 62
     6
100
AcDbLine
 10
94.212632
 20
159.5
 30
0.0
 11
94.212632
 21
137.5
 31
0.0
  0
LINE
  5
1BB
330
1F
100
AcDbEntity
  8
LAYERGROUP-1
  6
CONTINUOUS
 62
     3
100
AcDbLine
 10
114.212632
 20
171.0
 30
0.0
 11
114.212632
 21
159.5
 31
0.0
  0
LINE
  5
1BC
330
1F
100
AcDbEntity
  8
LAYERGROUP-1
  6
CONTINUOUS
 62
     6
100
AcDbLine
 10
114.212632
 20
159.5
 30
0.0
 11
114.212632
 21
137.5
 31
0.0
  0
LINE
  5
1BD
330
1F
100
AcDbEntity
  8
LAYERGROUP-1
  6
CONTINUOUS
 62
     6
100
AcDbLine
 10
96.512632
 20
162.8
 30
0.0
 11
96.512632
 21
164.0
 31
0.0
  0
LINE
  5
1BE
330
1F
100
AcDbEntity
  8
LAYERGROUP-1
  6
CONTINUOUS
 62
     6
100
AcDbLine
 10
111.912632
 20
162.8
 30
0.0
 11
111.912632
 21
164.0
 31
0.0
  0
CIRCLE
  5
1BF
330
1F
100
AcDbEntity
  8
LAYERGROUP-1
  6
CONTINUOUS
 62
     3
100
AcDbCircle
 10
292.384615
 20
148.5
 30
0.0
 40
57.74999999999955
  0
DIMENSION
  5
1C0
330
1F
100
AcDbEntity
  8
LAYERGROUP-1
100
AcDbDimension
  2
*D20
 10
129.212632
 20
57.172915
 30
0.0
 11
104.212631
 21
58.172913
 31
0.0
 70
    33
  3
FXDIMINFO
100
AcDbAlignedDimension
 13
79.212632
 23
92.1
 33
0.0
 14
129.212632
 24
92.1
 34
0.0
1001
ACAD
1000
DSTYLE
1002
{
1070
     7
1000
FXTIP_ARROW_E
1070
     6
1000
FXTIP_ARROW_S
1070
   173
1070
     1
1002
}
  0
DIMENSION
  5
1CA
330
1F
100
AcDbEntity
  8
LAYERGROUP-1
100
AcDbDimension
  2
*D21
 10
134.212632
 20
47.171678
 30
0.0
 11
104.212631
 21
48.171677
 31
0.0
 70
    32
  3
FXDIMINFO
100
AcDbAlignedDimension
 13
74.212632
 23
134.468037
 33
0.0
 14
134.212632
 24
134.2
 34
0.0
 50
180.0
100
AcDbRotatedDimension
1001
ACAD
1000
DSTYLE
1002
{
1070
     7
1000
FXTIP_ARROW_E
1070
     6
1000
FXTIP_ARROW_S
1070
   173
1070
     1
1002
}
  0
DIMENSION
  5
1D4
330
1F
100
AcDbEntity
  8
LAYERGROUP-1
100
AcDbDimension
  2
*D22
 10
168.415909
 20
223.5
 30
0.0
 11
167.415909
 21
148.5
 31
0.0
 70
    33
  3
FXDIMINFO
100
AcDbAlignedDimension
 13
104.212632
 23
73.5
 33
0.0
 14
104.212632
 24
223.5
 34
0.0
1001
ACAD
1000
DSTYLE
1002
{
1070
     7
1000
FXTIP_ARROW_E
1070
     6
1000
FXTIP_ARROW_S
1070
   173
1070
     1
1002
}
  0
CIRCLE
  5
1DE
330
1F
100
AcDbEntity
  8
LAYERGROUP-1
  6
CONTINUOUS
 62
     6
100
AcDbCircle
 10
292.384615
 20
148.5
 30
0.0
 40
27.09999999999997
  0
HATCH
  5
1DF
330
1F
100
AcDbEntity
  8
LAYERGROUP-1
  6
CONTINUOUS
 62
     6
100
AcDbHatch
 10
0.0
 20
0.0
 30
0.0
210
0.0
220
0.0
230
1.0
  2

 70
     0
 71
     1
 91
        2
 92
        0
 93
       61
 72
     1
 10
107.8126317298732
 20
208.5
 11
125.6126317298732
 21
208.5
 72
     2
 10
125.6126317298732
 20
204.9
 40
3.6
 50
0.0
 51
90.0
 73
     0
 72
     1
 10
129.2126317298732
 20
204.9
 11
129.2126317298732
 21
201.3667638533532
 72
     2
 10
125.6126317298732
 20
201.3667638533532
 40
3.6
 50
319.7175765111107
 51
360.0
 73
     0
 72
     1
 10
128.3589518794186
 20
199.0391630206929
 11
124.1611648970449
 21
194.0862231474004
 72
     2
 10
127.2126317298732
 20
191.5
 40
4.0
 50
139.7175765111102
 51
207.8317948732958
 73
     1
 72
     1
 10
123.6753436126029
 20
189.6324902207971
 11
128.7961910354165
 21
179.9329893449282
 72
     2
 10
125.6126317298732
 20
178.2522305436456
 40
3.6
 50
0.0
 51
27.83179487329567
 73
     0
 72
     1
 10
129.2126317298732
 20
178.2522305436456
 11
129.2126317298732
 21
175.6
 72
     2
 10
125.6126317298732
 20
175.6
 40
3.6
 50
270.0
 51
360.0
 73
     0
 72
     1
 10
125.6126317298732
 20
172.0
 11
115.2126317298732
 21
172.0
 72
     2
 10
115.2126317298732
 20
171.0
 40
1.0
 50
90.0
 51
180.0
 73
     1
 72
     1
 10
114.2126317298732
 20
171.0
 11
114.2126317298732
 21
164.0
 72
     1
 10
114.2126317298732
 20
164.0
 11
111.9126317298732
 21
164.0
 72
     1
 10
111.9126317298732
 20
164.0
 11
111.9126317298732
 21
171.1
 72
     2
 10
115.4126317298732
 20
171.1
 40
3.5
 50
90.0
 51
180.0
 73
     0
 72
     1
 10
115.4126317298732
 20
174.6
 11
125.6126317298732
 21
174.6
 72
     2
 10
125.6126317298732
 20
175.6
 40
1.0
 50
270.0
 51
360.0
 73
     1
 72
     1
 10
126.6126317298732
 20
175.6
 11
126.6126317298732
 21
178.2522305436457
 72
     2
 10
125.6126317298731
 20
178.2522305436457
 40
1.0
 50
0.0
 51
27.83179487329578
 73
     1
 72
     1
 10
126.4969537591907
 20
178.7191079884464
 11
121.3761063363772
 21
188.4186088643152
 72
     2
 10
127.2126317298732
 20
191.5
 40
6.6
 50
139.7175765111103
 51
207.8317948732957
 73
     0
 72
     1
 10
122.1777114557066
 20
195.7672681932106
 11
126.3754984380803
 21
200.7202080665031
 72
     2
 10
125.6126317298732
 20
201.3667638533532
 40
1.0
 50
319.7175765111107
 51
360.0
 73
     1
 72
     1
 10
126.6126317298732
 20
201.3667638533532
 11
126.6126317298732
 21
204.9
 72
     2
 10
125.6126317298732
 20
204.9
 40
1.0
 50
0.0
 51
90.0
 73
     1
 72
     1
 10
125.6126317298732
 20
205.9
 11
107.8126317298732
 21
205.9
 72
     2
 10
107.8126317298732
 20
204.9
 40
1.0
 50
90.0
 51
180.0
 73
     1
 72
     1
 10
106.8126317298732
 20
204.9
 11
106.8126317298732
 21
201.5
 72
     1
 10
106.8126317298732
 20
201.5
 11
101.6126317298732
 21
201.5
 72
     1
 10
101.6126317298732
 20
201.5
 11
101.6126317298732
 21
204.9
 72
     2
 10
100.6126317298732
 20
204.9
 40
1.0
 50
0.0
 51
90.0
 73
     1
 72
     1
 10
100.6126317298732
 20
205.9
 11
82.81263172987318
 21
205.9
 72
     2
 10
82.81263172987318
 20
204.9
 40
1.0
 50
90.0
 51
180.0
 73
     1
 72
     1
 10
81.81263172987318
 20
204.9
 11
81.81263172987318
 21
201.3667638533532
 72
     2
 10
82.81263172987318
 20
201.3667638533532
 40
1.0
 50
180.0
 51
220.2824234888892
 73
     1
 72
     1
 10
82.0497650216661
 20
200.7202080665031
 11
86.24755200403976
 21
195.7672681932106
 72
     2
 10
81.21263172987321
 20
191.5
 40
6.6
 50
332.1682051267043
 51
400.28242348889
 73
     0
 72
     1
 10
87.04915712336916
 20
188.4186088643152
 11
81.92830970055564
 21
178.7191079884464
 72
     2
 10
82.8126317298732
 20
178.2522305436457
 40
1.0
 50
152.1682051267042
 51
180.0
 73
     1
 72
     1
 10
81.81263172987318
 20
178.2522305436457
 11
81.81263172987318
 21
175.6
 72
     2
 10
82.81263172987318
 20
175.6
 40
1.0
 50
180.0
 51
270.0
 73
     1
 72
     1
 10
82.81263172987318
 20
174.6
 11
93.01263172987316
 21
174.6
 72
     2
 10
93.01263172987316
 20
171.1
 40
3.5
 50
0.0
 51
90.0
 73
     0
 72
     1
 10
96.51263172987316
 20
171.1
 11
96.51263172987316
 21
164.0
 72
     1
 10
96.51263172987316
 20
164.0
 11
94.2126317298732
 21
164.0
 72
     1
 10
94.2126317298732
 20
164.0
 11
94.21263172987318
 21
171.0
 72
     2
 10
93.21263172987318
 20
171.0
 40
1.0
 50
0.0
 51
90.0
 73
     1
 72
     1
 10
93.21263172987318
 20
172.0
 11
82.81263172987318
 21
172.0
 72
     2
 10
82.81263172987318
 20
175.6
 40
3.6
 50
180.0
 51
270.0
 73
     0
 72
     1
 10
79.21263172987318
 20
175.6
 11
79.21263172987318
 21
178.2522305436456
 72
     2
 10
82.81263172987318
 20
178.2522305436456
 40
3.6
 50
152.1682051267043
 51
180.0
 73
     0
 72
     1
 10
79.62907242432991
 20
179.9329893449282
 11
84.74991984714347
 21
189.6324902207971
 72
     2
 10
81.21263172987321
 20
191.5
 40
4.0
 50
332.1682051267044
 51
400.2824234888898
 73
     1
 72
     1
 10
84.26409856270144
 20
194.0862231474004
 11
80.06631158032775
 21
199.0391630206929
 72
     2
 10
82.81263172987318
 20
201.3667638533532
 40
3.6
 50
180.0
 51
220.2824234888897
 73
     0
 72
     1
 10
79.21263172987318
 20
201.3667638533532
 11
79.21263172987317
 21
204.9
 72
     2
 10
82.81263172987318
 20
204.9
 40
3.6
 50
90.0
 51
180.0000000000005
 73
     0
 72
     1
 10
82.81263172987318
 20
208.5
 11
100.6126317298732
 21
208.5
 72
     2
 10
100.6126317298732
 20
204.9
 40
3.6
 50
0.0
 51
90.0
 73
     0
 72
     2
 10
107.8126317298732
 20
204.9
 40
3.6
 50
90.0
 51
180.0
 73
     0
 97
        0
 92
        0
 93
       61
 72
     1
 10
93.01263172987319
 20
122.4
 11
82.81263172987318
 21
122.4
 72
     2
 10
82.81263172987318
 20
121.4
 40
1.0
 50
90.0
 51
180.0
 73
     1
 72
     1
 10
81.81263172987318
 20
121.4
 11
81.81263172987318
 21
118.7477694563543
 72
     2
 10
82.8126317298732
 20
118.7477694563543
 40
1.0
 50
180.0
 51
207.8317948732958
 73
     1
 72
     1
 10
81.92830970055564
 20
118.2808920115536
 11
87.04915712336916
 21
108.5813911356848
 72
     2
 10
81.21263172987321
 20
105.5
 40
6.6
 50
319.7175765111102
 51
387.8317948732957
 73
     0
 72
     1
 10
86.24755200403978
 20
101.2327318067894
 11
82.0497650216661
 21
96.2797919334969
 72
     2
 10
82.81263172987318
 20
95.63323614664679
 40
1.0
 50
139.7175765111101
 51
180.0
 73
     1
 72
     1
 10
81.81263172987318
 20
95.63323614664679
 11
81.81263172987318
 21
92.09999999999998
 72
     2
 10
82.81263172987318
 20
92.09999999999998
 40
1.0
 50
180.0
 51
270.0
 73
     1
 72
     1
 10
82.81263172987318
 20
91.09999999999999
 11
100.6126317298732
 21
91.09999999999999
 72
     2
 10
100.6126317298732
 20
92.09999999999999
 40
1.0
 50
270.0
 51
360.0
 73
     1
 72
     1
 10
101.6126317298732
 20
92.09999999999999
 11
101.6126317298732
 21
95.50000000000001
 72
     1
 10
101.6126317298732
 20
95.50000000000001
 11
106.8126317298732
 21
95.5
 72
     1
 10
106.8126317298732
 20
95.5
 11
106.8126317298732
 21
92.09999999999999
 72
     2
 10
107.8126317298732
 20
92.09999999999999
 40
1.0
 50
180.0
 51
270.0
 73
     1
 72
     1
 10
107.8126317298732
 20
91.09999999999999
 11
125.6126317298732
 21
91.09999999999999
 72
     2
 10
125.6126317298732
 20
92.09999999999999
 40
1.0
 50
270.0
 51
360.0
 73
     1
 72
     1
 10
126.6126317298732
 20
92.09999999999999
 11
126.6126317298732
 21
95.63323614664679
 72
     2
 10
125.6126317298732
 20
95.63323614664679
 40
1.0
 50
0.0
 51
40.28242348888927
 73
     1
 72
     1
 10
126.3754984380803
 20
96.27979193349688
 11
122.1777114557066
 21
101.2327318067895
 72
     2
 10
127.2126317298732
 20
105.5
 40
6.6
 50
152.1682051267044
 51
220.2824234888896
 73
     0
 72
     1
 10
121.3761063363772
 20
108.5813911356848
 11
126.4969537591907
 21
118.2808920115536
 72
     2
 10
125.6126317298731
 20
118.7477694563543
 40
1.0
 50
332.1682051267042
 51
360.0
 73
     1
 72
     1
 10
126.6126317298732
 20
118.7477694563543
 11
126.6126317298732
 21
121.4
 72
     2
 10
125.6126317298732
 20
121.4
 40
1.0
 50
0.0
 51
90.0
 73
     1
 72
     1
 10
125.6126317298732
 20
122.4
 11
115.4126317298732
 21
122.4
 72
     2
 10
115.4126317298732
 20
125.9
 40
3.5
 50
180.0
 51
270.0
 73
     0
 72
     1
 10
111.9126317298732
 20
125.9
 11
111.9126317298732
 21
133.0
 72
     1
 10
111.9126317298732
 20
133.0
 11
114.2126317298732
 21
133.0
 72
     1
 10
114.2126317298732
 20
133.0
 11
114.2126317298732
 21
126.0
 72
     2
 10
115.2126317298731
 20
126.0
 40
1.0
 50
180.0
 51
270.0
 73
     1
 72
     1
 10
115.2126317298731
 20
125.0
 11
125.6126317298732
 21
125.0
 72
     2
 10
125.6126317298732
 20
121.4
 40
3.6
 50
0.0
 51
90.0
 73
     0
 72
     1
 10
129.2126317298732
 20
121.4
 11
129.2126317298732
 21
118.7477694563544
 72
     2
 10
125.6126317298732
 20
118.7477694563544
 40
3.6
 50
332.1682051267043
 51
360.0
 73
     0
 72
     1
 10
128.7961910354165
 20
117.0670106550718
 11
123.6753436126029
 21
107.3675097792029
 72
     2
 10
127.2126317298732
 20
105.5
 40
4.0
 50
152.1682051267044
 51
220.2824234888897
 73
     1
 72
     1
 10
124.1611648970449
 20
102.9137768525997
 11
128.3589518794186
 21
97.96083697930708
 72
     2
 10
125.6126317298732
 20
95.63323614664677
 40
3.6
 50
0.0
 51
40.28242348888953
 73
     0
 72
     1
 10
129.2126317298732
 20
95.63323614664677
 11
129.2126317298732
 21
92.09999999999999
 72
     2
 10
125.6126317298732
 20
92.09999999999999
 40
3.6
 50
270.0
 51
360.0
 73
     0
 72
     1
 10
125.6126317298732
 20
88.5
 11
107.8126317298732
 21
88.5
 72
     2
 10
107.8126317298732
 20
92.10000000000001
 40
3.6
 50
180.0
 51
270.0
 73
     0
 72
     2
 10
100.6126317298732
 20
92.10000000000001
 40
3.6
 50
270.0
 51
360.0
 73
     0
 72
     1
 10
100.6126317298732
 20
88.5
 11
82.81263172987318
 21
88.5
 72
     2
 10
82.81263172987318
 20
92.09999999999999
 40
3.6
 50
180.0
 51
270.0
 73
     0
 72
     1
 10
79.21263172987318
 20
92.09999999999999
 11
79.21263172987318
 21
95.63323614664677
 72
     2
 10
82.81263172987318
 20
95.63323614664677
 40
3.6
 50
139.7175765111103
 51
180.0
 73
     0
 72
     1
 10
80.06631158032775
 20
97.96083697930709
 11
84.26409856270144
 21
102.9137768525997
 72
     2
 10
81.21263172987321
 20
105.5
 40
4.0
 50
319.7175765111102
 51
387.8317948732957
 73
     1
 72
     1
 10
84.74991984714347
 20
107.3675097792029
 11
79.62907242432991
 21
117.0670106550718
 72
     2
 10
82.81263172987318
 20
118.7477694563544
 40
3.6
 50
180.0
 51
207.8317948732959
 73
     0
 72
     1
 10
79.21263172987318
 20
118.7477694563544
 11
79.21263172987318
 21
121.4
 72
     2
 10
82.81263172987318
 20
121.4
 40
3.6
 50
90.0
 51
180.0
 73
     0
 72
     1
 10
82.81263172987318
 20
125.0
 11
93.21263172987315
 21
125.0
 72
     2
 10
93.21263172987315
 20
126.0
 40
1.0
 50
270.0
 51
360.0
 73
     1
 72
     1
 10
94.21263172987318
 20
126.0
 11
94.21263172987318
 21
133.0
 72
     1
 10
94.21263172987318
 20
133.0
 11
96.51263172987316
 21
133.0
 72
     1
 10
96.51263172987316
 20
133.0
 11
96.51263172987316
 21
125.9
 72
     2
 10
93.01263172987319
 20
125.9
 40
3.5
 50
270.0
 51
360.0
 73
     0
 97
        0
 75
     0
 76
     0
 52
45.0
 41
2.0
 77
     0
 78
     1
 53
45.0
 43
0.0
 44
0.0
 45
-1.414213562373095
 46
1.414213562373095
 79
     0
 98
        0
  0
INSERT
  5
1E3
330
1F
100
AcDbEntity
  8
0
100
AcDbBlockReference
  2
BLKF025
 10
0.0
 20
0.0
 30
0.0
  0
CIRCLE
  5
1E8
330
1F
100
AcDbEntity
  8
LAYERGROUP-1
  6
CONTINUOUS
 62
     6
100
AcDbCircle
 10
292.384615
 20
148.5
 30
0.0
 40
11.00000000000006
  0
INSERT
  5
1EC
330
1F
100
AcDbEntity
  8
0
100
AcDbBlockReference
  2
BLKF026
 10
0.0
 20
0.0
 30
0.0
  0
INSERT
  5
210
330
1F
100
AcDbEntity
  8
0
100
AcDbBlockReference
  2
BLKF028
 10
0.0
 20
0.0
 30
0.0
  0
LINE
  5
231
330
1F
100
AcDbEntity
  8
LAYERGROUP-1
  6
CONTINUOUS
 62
     6
100
AcDbLine
 10
134.212632
 20
159.5
 30
0.0
 11
134.212632
 21
137.5
 31
0.0
  0
INSERT
  5
235
330
1F
100
AcDbEntity
  8
0
100
AcDbBlockReference
  2
BLKF030
 10
0.0
 20
0.0
 30
0.0
  0
INSERT
  5
259
330
1F
100
AcDbEntity
  8
0
100
AcDbBlockReference
  2
BLKF032
 10
0.0
 20
0.0
 30
0.0
  0
LINE
  5
27A
330
1F
100
AcDbEntity
  8
LAYERGROUP-1
  6
CONTINUOUS
 62
     6
100
AcDbLine
 10
74.212632
 20
137.5
 30
0.0
 11
74.212632
 21
159.5
 31
0.0
  0
DIMENSION
  5
27B
330
1F
100
AcDbEntity
  8
LAYERGROUP-1
100
AcDbDimension
  2
*D32
 10
154.867234
 20
158.5
 30
0.0
 11
153.867233
 21
148.5
 31
0.0
 70
    33
  3
FXDIMINFO
100
AcDbAlignedDimension
 13
133.212632
 23
138.5
 33
0.0
 14
133.212632
 24
158.5
 34
0.0
1001
ACAD
1000
DSTYLE
1002
{
1070
     7
1000
FXTIP_ARROW_E
1070
     6
1000
FXTIP_ARROW_S
1070
   173
1070
     1
1002
}
  0
INSERT
  5
288
330
1F
100
AcDbEntity
  8
0
100
AcDbBlockReference
  2
BLKF035
 10
0.0
 20
0.0
 30
0.0
  0
ENDSEC
  0
SECTION
  2
OBJECTS
  0
DICTIONARY
  5
C
330
0
100
AcDbDictionary
  3
ACAD_GROUP
350
D
  3
ACAD_LAYOUT
350
1A
  3
ACAD_MLINESTYLE
350
17
  3
ACAD_PLOTSETTINGS
350
19
  3
ACDBHEADERROUNDTRIPXREC
350
2B3
  0
DICTIONARY
  5
D
102
{ACAD_REACTORS
330
C
102
}
330
C
100
AcDbDictionary
  0
DICTIONARY
  5
1A
102
{ACAD_REACTORS
330
C
102
}
330
C
100
AcDbDictionary
  0
DICTIONARY
  5
17
102
{ACAD_REACTORS
330
C
102
}
330
C
100
AcDbDictionary
  3
STANDARD
350
18
  0
DICTIONARY
  5
19
102
{ACAD_REACTORS
330
C
102
}
330
C
100
AcDbDictionary
  0
DICTIONARY
  5
2B3
102
{ACAD_REACTORS
330
C
102
}
330
C
100
AcDbDictionary
  3
CEPSNTYPE
350
2BC
  3
DIMSTYLEDATA
350
2D2
  3
FINGERPRINTGUID
350
2BD
  3
HYPERLINKBASE
350
2B6
  3
INSUNITS
350
2BB
  3
LAYOUTDICT
350
2B8
  3
LWETCUNION
350
2BA
  3
PLOTSETDICT
350
2B9
  3
PSVPSCALE
350
2BF
  3
PUCSBASE
350
2C2
  3
PUCSORGBACK
350
2C8
  3
PUCSORGBOTTOM
350
2C4
  3
PUCSORGFRONT
350
2C7
  3
PUCSORGLEFT
350
2C5
  3
PUCSORGRIGHT
350
2C6
  3
PUCSORGTOP
350
2C3
  3
PUCSORTHOREF
350
2C0
  3
PUCSORTHOVIEW
350
2C1
  3
STYLESHEET
350
2B7
  3
TSTACKALIGN
350
2B4
  3
TSTACKSIZE
350
2B5
  3
UCSBASE
350
2CB
  3
UCSORGBACK
350
2D1
  3
UCSORGBOTTOM
350
2CD
  3
UCSORGFRONT
350
2D0
  3
UCSORGLEFT
350
2CE
  3
UCSORGRIGHT
350
2CF
  3
UCSORGTOP
350
2CC
  3
UCSORTHOREF
350
2C9
  3
UCSORTHOVIEW
350
2CA
  3
VERSIONGUID
350
2BE
  0
MLINESTYLE
  5
18
102
{ACAD_REACTORS
330
17
102
}
330
17
100
AcDbMlineStyle
  2
Standard
 70
     0
  3

 62
   256
 51
90.0
 52
90.0
 71
     2
 49
0.5
 62
   256
  6
BYLAYER
 49
-0.5
 62
   256
  6
BYLAYER
  0
XRECORD
  5
2BC
102
{ACAD_REACTORS
330
2B3
102
}
330
2B3
100
AcDbXrecord
 90
        0
  0
XRECORD
  5
2D2
102
{ACAD_REACTORS
330
2B3
102
}
330
2B3
100
AcDbXrecord
1000
DSTYLE
1002
{
1070
   179
 70
     2
1070
   171
 70
     3
1070
   143
 40
0.03937
1070
   274
 70
     3
1070
    41
 40
4.0
1070
   343
340
41
1070
   344
340
47
1070
   141
 40
2.5
1070
   176
 70
     7
1070
   177
 70
     7
1070
   178
 70
     7
1070
   271
 70
     2
1070
    46
 40
6.0
1070
    43
 40
10.0
1070
    44
 40
1.0
1070
    42
 40
1.0
1070
   147
 40
1.0
1070
   341
340
41
1070
   173
 70
     1
1070
    77
 70
     1
1070
   272
 70
     2
1070
    73
 70
     0
1070
   172
 70
     1
1070
    74
 70
     0
1070
   283
 70
     0
1070
   340
340
3F
1070
   140
 40
4.0
1070
   284
 70
     8
1070
    78
 70
     8
1002
}
  0
XRECORD
  5
2BD
102
{ACAD_REACTORS
330
2B3
102
}
330
2B3
100
AcDbXrecord
  1
{F199EA3E-5D65-496F-84B2-E943DB2CD563}
  0
XRECORD
  5
2B6
102
{ACAD_REACTORS
330
2B3
102
}
330
2B3
100
AcDbXrecord
  1

  0
XRECORD
  5
2BB
102
{ACAD_REACTORS
330
2B3
102
}
330
2B3
100
AcDbXrecord
 90
        1
  0
XRECORD
  5
2B8
102
{ACAD_REACTORS
330
2B3
102
}
330
2B3
100
AcDbXrecord
340
1A
  0
XRECORD
  5
2BA
102
{ACAD_REACTORS
330
2B3
102
}
330
2B3
100
AcDbXrecord
 90
    10781
  0
XRECORD
  5
2B9
102
{ACAD_REACTORS
330
2B3
102
}
330
2B3
100
AcDbXrecord
340
19
  0
XRECORD
  5
2BF
102
{ACAD_REACTORS
330
2B3
102
}
330
2B3
100
AcDbXrecord
 40
0.0
  0
XRECORD
  5
2C2
102
{ACAD_REACTORS
330
2B3
102
}
330
2B3
100
AcDbXrecord
340
0
  0
XRECORD
  5
2C8
102
{ACAD_REACTORS
330
2B3
102
}
330
2B3
100
AcDbXrecord
 10
0.0
 20
0.0
 30
0.0
  0
XRECORD
  5
2C4
102
{ACAD_REACTORS
330
2B3
102
}
330
2B3
100
AcDbXrecord
 10
0.0
 20
0.0
 30
0.0
  0
XRECORD
  5
2C7
102
{ACAD_REACTORS
330
2B3
102
}
330
2B3
100
AcDbXrecord
 10
0.0
 20
0.0
 30
0.0
  0
XRECORD
  5
2C5
102
{ACAD_REACTORS
330
2B3
102
}
330
2B3
100
AcDbXrecord
 10
0.0
 20
0.0
 30
0.0
  0
XRECORD
  5
2C6
102
{ACAD_REACTORS
330
2B3
102
}
330
2B3
100
AcDbXrecord
 10
0.0
 20
0.0
 30
0.0
  0
XRECORD
  5
2C3
102
{ACAD_REACTORS
330
2B3
102
}
330
2B3
100
AcDbXrecord
 10
0.0
 20
0.0
 30
0.0
  0
XRECORD
  5
2C0
102
{ACAD_REACTORS
330
2B3
102
}
330
2B3
100
AcDbXrecord
340
0
  0
XRECORD
  5
2C1
102
{ACAD_REACTORS
330
2B3
102
}
330
2B3
100
AcDbXrecord
 70
     0
  0
XRECORD
  5
2B7
102
{ACAD_REACTORS
330
2B3
102
}
330
2B3
100
AcDbXrecord
  1

  0
XRECORD
  5
2B4
102
{ACAD_REACTORS
330
2B3
102
}
330
2B3
100
AcDbXrecord
 90
        1
  0
XRECORD
  5
2B5
102
{ACAD_REACTORS
330
2B3
102
}
330
2B3
100
AcDbXrecord
 90
       70
  0
XRECORD
  5
2CB
102
{ACAD_REACTORS
330
2B3
102
}
330
2B3
100
AcDbXrecord
340
0
  0
XRECORD
  5
2D1
102
{ACAD_REACTORS
330
2B3
102
}
330
2B3
100
AcDbXrecord
 10
0.0
 20
0.0
 30
0.0
  0
XRECORD
  5
2CD
102
{ACAD_REACTORS
330
2B3
102
}
330
2B3
100
AcDbXrecord
 10
0.0
 20
0.0
 30
0.0
  0
XRECORD
  5
2D0
102
{ACAD_REACTORS
330
2B3
102
}
330
2B3
100
AcDbXrecord
 10
0.0
 20
0.0
 30
0.0
  0
XRECORD
  5
2CE
102
{ACAD_REACTORS
330
2B3
102
}
330
2B3
100
AcDbXrecord
 10
0.0
 20
0.0
 30
0.0
  0
XRECORD
  5
2CF
102
{ACAD_REACTORS
330
2B3
102
}
330
2B3
100
AcDbXrecord
 10
0.0
 20
0.0
 30
0.0
  0
XRECORD
  5
2CC
102
{ACAD_REACTORS
330
2B3
102
}
330
2B3
100
AcDbXrecord
 10
0.0
 20
0.0
 30
0.0
  0
XRECORD
  5
2C9
102
{ACAD_REACTORS
330
2B3
102
}
330
2B3
100
AcDbXrecord
340
0
  0
XRECORD
  5
2CA
102
{ACAD_REACTORS
330
2B3
102
}
330
2B3
100
AcDbXrecord
 70
     0
  0
XRECORD
  5
2BE
102
{ACAD_REACTORS
330
2B3
102
}
330
2B3
100
AcDbXrecord
  1
{FAEB1C32-E019-11D5-929B-00C0DF256EC4}
  0
ENDSEC
  0
EOF
