  0
SECTION
  2
HEADER
  9
$ACADVER
  1
AC1014
  9
$ACADMAINTVER
 70
     9
  9
$DWGCODEPAGE
  3
ANSI_932
  9
$INSBASE
 10
0.0
 20
0.0
 30
0.0
  9
$EXTMIN
 10
0.0
 20
0.0
 30
0.0
  9
$EXTMAX
 10
297.0
 20
210.0
 30
0.0
  9
$LIMMIN
 10
0.0
 20
0.0
  9
$LIMMAX
 10
297.0
 20
210.0
  9
$ORTHOMODE
 70
     0
  9
$REGENMODE
 70
     1
  9
$FILLMODE
 70
     1
  9
$QTEXTMODE
 70
     0
  9
$MIRRTEXT
 70
     1
  9
$DRAGMODE
 70
     2
  9
$LTSCALE
 40
1.0
  9
$OSMODE
 70
    37
  9
$ATTMODE
 70
     1
  9
$TEXTSIZE
 40
0.2
  9
$TRACEWID
 40
0.05
  9
$TEXTSTYLE
  7
STYLE1
  9
$CLAYER
  8
0
  9
$CELTYPE
  6
BYLAYER
  9
$CECOLOR
 62
   256
  9
$CELTSCALE
 40
1.0
  9
$DELOBJ
 70
     1
  9
$DISPSILH
 70
     0
  9
$DIMSCALE
 40
1.0
  9
$DIMASZ
 40
3.0
  9
$DIMEXO
 40
1.0
  9
$DIMDLI
 40
8.0
  9
$DIMRND
 40
0.0
  9
$DIMDLE
 40
6.0
  9
$DIMEXE
 40
1.0
  9
$DIMTP
 40
0.0
  9
$DIMTM
 40
0.0
  9
$DIMTXT
 40
4.0
  9
$DIMCEN
 40
2.5
  9
$DIMTSZ
 40
0.0
  9
$DIMTOL
 70
     0
  9
$DIMLIM
 70
     0
  9
$DIMTIH
 70
     0
  9
$DIMTOH
 70
     0
  9
$DIMSE1
 70
     0
  9
$DIMSE2
 70
     0
  9
$DIMTAD
 70
     1
  9
$DIMZIN
 70
     8
  9
$DIMBLK
  1

  9
$DIMASO
 70
     1
  9
$DIMSHO
 70
     1
  9
$DIMPOST
  1

  9
$DIMAPOST
  1

  9
$DIMALT
 70
     0
  9
$DIMALTD
 70
     3
  9
$DIMALTF
 40
0.03937
  9
$DIMLFAC
 40
1.0
  9
$DIMTOFL
 70
     1
  9
$DIMTVP
 40
0.0
  9
$DIMTIX
 70
     0
  9
$DIMSOXD
 70
     0
  9
$DIMSAH
 70
     1
  9
$DIMBLK1
  1
FXTIP_ARROW_S
  9
$DIMBLK2
  1
FXTIP_ARROW_E
  9
$DIMSTYLE
  2
FXDIMINFO
  9
$DIMCLRD
 70
     7
  9
$DIMCLRE
 70
     7
  9
$DIMCLRT
 70
     7
  9
$DIMTFAC
 40
1.0
  9
$DIMGAP
 40
1.0
  9
$DIMJUST
 70
     0
  9
$DIMSD1
 70
     0
  9
$DIMSD2
 70
     0
  9
$DIMTOLJ
 70
     0
  9
$DIMTZIN
 70
     8
  9
$DIMALTZ
 70
     0
  9
$DIMALTTZ
 70
     0
  9
$DIMFIT
 70
     3
  9
$DIMUPT
 70
     0
  9
$DIMUNIT
 70
     2
  9
$DIMDEC
 70
     2
  9
$DIMTDEC
 70
     2
  9
$DIMALTU
 70
     2
  9
$DIMALTTD
 70
     3
  9
$DIMTXSTY
  7
STYLE1
  9
$DIMAUNIT
 70
     0
  9
$LUNITS
 70
     2
  9
$LUPREC
 70
     4
  9
$SKETCHINC
 40
0.1
  9
$FILLETRAD
 40
0.5
  9
$AUNITS
 70
     0
  9
$AUPREC
 70
     0
  9
$MENU
  1
.
  9
$ELEVATION
 40
0.0
  9
$PELEVATION
 40
0.0
  9
$THICKNESS
 40
0.0
  9
$LIMCHECK
 70
     0
  9
$CHAMFERA
 40
0.5
  9
$CHAMFERB
 40
0.5
  9
$CHAMFERC
 40
1.0
  9
$CHAMFERD
 40
0.0
  9
$SKPOLY
 70
     0
  9
$TDCREATE
 40
2455301.476119109
  9
$TDUPDATE
 40
2455301.47611912
  9
$TDINDWG
 40
0.0000000116
  9
$TDUSRTIMER
 40
0.0000000116
  9
$USRTIMER
 70
     1
  9
$ANGBASE
 50
0.0
  9
$ANGDIR
 70
     0
  9
$PDMODE
 70
     0
  9
$PDSIZE
 40
0.0
  9
$PLINEWID
 40
0.0
  9
$COORDS
 70
     1
  9
$SPLFRAME
 70
     0
  9
$SPLINETYPE
 70
     6
  9
$SPLINESEGS
 70
     8
  9
$ATTDIA
 70
     0
  9
$ATTREQ
 70
     1
  9
$HANDLING
 70
     1
  9
$HANDSEED
  5
2CE
  9
$SURFTAB1
 70
     6
  9
$SURFTAB2
 70
     6
  9
$SURFTYPE
 70
     6
  9
$SURFU
 70
     6
  9
$SURFV
 70
     6
  9
$UCSNAME
  2

  9
$UCSORG
 10
0.0
 20
0.0
 30
0.0
  9
$UCSXDIR
 10
1.0
 20
0.0
 30
0.0
  9
$UCSYDIR
 10
0.0
 20
1.0
 30
0.0
  9
$PUCSNAME
  2

  9
$PUCSORG
 10
0.0
 20
0.0
 30
0.0
  9
$PUCSXDIR
 10
1.0
 20
0.0
 30
0.0
  9
$PUCSYDIR
 10
0.0
 20
1.0
 30
0.0
  9
$USERI1
 70
     0
  9
$USERI2
 70
     0
  9
$USERI3
 70
     0
  9
$USERI4
 70
     0
  9
$USERI5
 70
     0
  9
$USERR1
 40
0.0
  9
$USERR2
 40
0.0
  9
$USERR3
 40
0.0
  9
$USERR4
 40
0.0
  9
$USERR5
 40
0.0
  9
$WORLDVIEW
 70
     1
  9
$SHADEDGE
 70
     3
  9
$SHADEDIF
 70
    70
  9
$TILEMODE
 70
     1
  9
$MAXACTVP
 70
    64
  9
$PINSBASE
 10
0.0
 20
0.0
 30
0.0
  9
$PLIMCHECK
 70
     0
  9
$PEXTMIN
 10
1.000000E+20
 20
1.000000E+20
 30
1.000000E+20
  9
$PEXTMAX
 10
-1.000000E+20
 20
-1.000000E+20
 30
-1.000000E+20
  9
$PLIMMIN
 10
0.0
 20
0.0
  9
$PLIMMAX
 10
12.0
 20
9.0
  9
$UNITMODE
 70
     0
  9
$VISRETAIN
 70
     1
  9
$PLINEGEN
 70
     0
  9
$PSLTSCALE
 70
     1
  9
$TREEDEPTH
 70
  3020
  9
$PICKSTYLE
 70
     1
  9
$CMLSTYLE
  2
STANDARD
  9
$CMLJUST
 70
     0
  9
$CMLSCALE
 40
1.0
  9
$PROXYGRAPHICS
 70
     1
  9
$MEASUREMENT
 70
     0
  0
ENDSEC
  0
SECTION
  2
CLASSES
  0
CLASS
  1
ACDBDICTIONARYWDFLT
  2
AcDbDictionaryWithDefault
  3
ObjectDBX Classes
 90
        0
280
     0
281
     0
  0
CLASS
  1
XRECORD
  2
AcDbXrecord
  3
AutoCAD 2000
 90
        0
280
     0
281
     0
  0
CLASS
  1
LWPOLYLINE
  2
AcDbPolyline
  3
AutoCAD 2000
 90
        0
280
     0
281
     1
  0
CLASS
  1
HATCH
  2
AcDbHatch
  3
AutoCAD 2000
 90
        0
280
     0
281
     1
  0
CLASS
  1
ACDBPLACEHOLDER
  2
AcDbPlaceHolder
  3
ObjectDBX Classes
 90
        0
280
     0
281
     0
  0
CLASS
  1
LAYOUT
  2
AcDbLayout
  3
ObjectDBX Classes
 90
        0
280
     0
281
     0
  0
ENDSEC
  0
SECTION
  2
TABLES
  0
TABLE
  2
VPORT
  5
8
330
0
100
AcDbSymbolTable
 70
     1
  0
VPORT
  5
29
330
8
100
AcDbSymbolTableRecord
100
AcDbViewportTableRecord
  2
*ACTIVE
 70
     0
 10
0.0
 20
0.0
 11
1.0
 21
1.0
 12
148.5
 22
105.0
 13
0.0
 23
0.0
 14
0.5
 24
0.5
 15
0.5
 25
0.5
 16
0.0
 26
0.0
 36
1.0
 17
0.0
 27
0.0
 37
0.0
 40
210.0
 41
1.414286
 42
50.0
 43
0.0
 44
0.0
 50
0.0
 51
0.0
 71
     0
 72
   100
 73
     1
 74
     3
 75
     0
 76
     0
 77
     0
 78
     0
  0
ENDTAB
  0
TABLE
  2
LTYPE
  5
5
330
0
100
AcDbSymbolTable
 70
     4
  0
LTYPE
  5
14
330
5
100
AcDbSymbolTableRecord
100
AcDbLinetypeTableRecord
  2
BYBLOCK
 70
     0
  3

 72
    65
 73
     0
 40
0.0
  0
LTYPE
  5
15
330
5
100
AcDbSymbolTableRecord
100
AcDbLinetypeTableRecord
  2
BYLAYER
 70
     0
  3

 72
    65
 73
     0
 40
0.0
  0
LTYPE
  5
16
330
5
100
AcDbSymbolTableRecord
100
AcDbLinetypeTableRecord
  2
CONTINUOUS
 70
     0
  3
--------------------
 72
    65
 73
     0
 40
0.0
  0
LTYPE
  5
2A
330
5
100
AcDbSymbolTableRecord
100
AcDbLinetypeTableRecord
  2
CENTER
 70
     0
  3
Center ____ _ ____ _ ____ _ ____ _ ____ _ ____
 72
    65
 73
     4
 40
13.0
 49
10.0
 74
     0
 49
-1.0
 74
     0
 49
1.0
 74
     0
 49
-1.0
 74
     0
  0
ENDTAB
  0
TABLE
  2
LAYER
  5
2
330
0
100
AcDbSymbolTable
 70
    20
  0
LAYER
  5
10
330
2
100
AcDbSymbolTableRecord
100
AcDbLayerTableRecord
  2
0
 70
     0
 62
     7
  6
CONTINUOUS
  0
LAYER
  5
2D
330
2
100
AcDbSymbolTableRecord
100
AcDbLayerTableRecord
  2
LAYERGROUP-1
 70
     0
 62
     3
  6
CONTINUOUS
  0
LAYER
  5
3D
330
2
100
AcDbSymbolTableRecord
100
AcDbLayerTableRecord
  2
}}ﾊﾊGG血CCТ
 70
     0
 62
     3
  6
CONTINUOUS
  0
LAYER
  5
A9
330
2
100
AcDbSymbolTableRecord
100
AcDbLayerTableRecord
  2
GR1-1
 70
     0
 62
     7
  6
CONTINUOUS
  0
LAYER
  5
291
330
2
100
AcDbSymbolTableRecord
100
AcDbLayerTableRecord
  2
0-1
 70
     0
 62
     7
  6
CONTINUOUS
  0
ENDTAB
  0
TABLE
  2
STYLE
  5
3
330
0
100
AcDbSymbolTable
 70
     4
  0
STYLE
  5
11
330
3
100
AcDbSymbolTableRecord
100
AcDbTextStyleTableRecord
  2
STANDARD
 70
     0
 40
0.0
 41
1.0
 50
0.0
 71
     0
 42
0.2
  3
txt
  4

  0
STYLE
  5
3F
330
3
100
AcDbSymbolTableRecord
100
AcDbTextStyleTableRecord
  2
STYLE1
 70
     0
 40
0.0
 41
1.0
 50
0.0
 71
     0
 42
0.2
  3
MONOTXT.SHX
  4
extfont.shx
  0
STYLE
  5
40
330
3
100
AcDbSymbolTableRecord
100
AcDbTextStyleTableRecord
  2
FX_VECTOR
 70
     0
 40
0.0
 41
1.0
 50
0.0
 71
     0
 42
0.2
  3
MONOTXT.SHX
  4
BIGFONT.SHX
  0
ENDTAB
  0
TABLE
  2
VIEW
  5
6
330
0
100
AcDbSymbolTable
 70
     0
  0
ENDTAB
  0
TABLE
  2
UCS
  5
7
330
0
100
AcDbSymbolTable
 70
     0
  0
ENDTAB
  0
TABLE
  2
APPID
  5
9
330
0
100
AcDbSymbolTable
 70
     1
  0
APPID
  5
12
330
9
100
AcDbSymbolTableRecord
100
AcDbRegAppTableRecord
  2
ACAD
 70
     0
  0
ENDTAB
  0
TABLE
  2
DIMSTYLE
  5
A
330
0
100
AcDbSymbolTable
 70
     2
  0
DIMSTYLE
105
27
330
A
100
AcDbSymbolTableRecord
100
AcDbDimStyleTableRecord
  2
STANDARD
 70
     0
  3

  4

  5

  6

  7

 40
1.0
 41
0.18
 42
0.0625
 43
0.38
 44
0.18
 45
0.0
 46
0.0
 47
0.0
 48
0.0
140
0.18
141
0.09
142
0.0
143
25.4
144
1.0
145
0.0
146
1.0
147
0.09
 71
     0
 72
     0
 73
     1
 74
     1
 75
     0
 76
     0
 77
     0
 78
     0
170
     0
171
     2
172
     0
173
     0
174
     0
175
     0
176
     0
177
     0
178
     0
270
     2
271
     4
272
     4
273
     2
274
     2
340
11
275
     0
280
     0
281
     0
282
     0
283
     1
284
     0
285
     0
286
     0
287
     3
288
     0
  0
DIMSTYLE
105
A7
102
{ACAD_REACTORS
330
12B
330
13F
330
269
330
275
102
}
330
A
100
AcDbSymbolTableRecord
100
AcDbDimStyleTableRecord
  2
FXDIMINFO
 70
     0
  3

  4

  5

  6
FXTIP_ARROW_S
  7
FXTIP_ARROW_E
 40
1.0
 41
3.0
 42
1.0
 43
8.0
 44
1.0
 45
0.0
 46
6.0
 47
0.0
 48
0.0
140
4.0
141
2.5
142
0.0
143
0.03937
144
1.0
145
0.0
146
1.0
147
1.0
 71
     0
 72
     0
 73
     0
 74
     0
 75
     0
 76
     0
 77
     1
 78
     8
170
     0
171
     3
172
     1
173
     1
174
     0
175
     0
176
     7
177
     7
178
     7
179
     2
270
     2
271
     2
272
     2
273
     2
274
     3
340
3F
275
     0
280
     0
281
     0
282
     0
283
     0
284
     8
285
     0
286
     0
287
     3
288
     0
  0
ENDTAB
  0
TABLE
  2
BLOCK_RECORD
  5
1
330
0
100
AcDbSymbolTable
 70
    29
  0
BLOCK_RECORD
  5
1F
330
1
100
AcDbSymbolTableRecord
100
AcDbBlockTableRecord
  2
*MODEL_SPACE
  0
BLOCK_RECORD
  5
1B
330
1
100
AcDbSymbolTableRecord
100
AcDbBlockTableRecord
  2
*PAPER_SPACE
  0
BLOCK_RECORD
  5
41
330
1
100
AcDbSymbolTableRecord
100
AcDbBlockTableRecord
  2
FXTIP_ARROW_S
  0
BLOCK_RECORD
  5
47
330
1
100
AcDbSymbolTableRecord
100
AcDbBlockTableRecord
  2
FXTIP_ARROW_E
  0
BLOCK_RECORD
  5
4D
330
1
100
AcDbSymbolTableRecord
100
AcDbBlockTableRecord
  2
FXTIP_BLACKDOT_S
  0
BLOCK_RECORD
  5
53
330
1
100
AcDbSymbolTableRecord
100
AcDbBlockTableRecord
  2
FXTIP_BLACKDOT_E
  0
BLOCK_RECORD
  5
59
330
1
100
AcDbSymbolTableRecord
100
AcDbBlockTableRecord
  2
FXTIP_TRIANGLE_S
  0
BLOCK_RECORD
  5
60
330
1
100
AcDbSymbolTableRecord
100
AcDbBlockTableRecord
  2
FXTIP_TRIANGLE_E
  0
BLOCK_RECORD
  5
67
330
1
100
AcDbSymbolTableRecord
100
AcDbBlockTableRecord
  2
FXTIP_ARCHITECT_S
  0
BLOCK_RECORD
  5
6D
330
1
100
AcDbSymbolTableRecord
100
AcDbBlockTableRecord
  2
FXTIP_ARCHITECT_E
  0
BLOCK_RECORD
  5
73
330
1
100
AcDbSymbolTableRecord
100
AcDbBlockTableRecord
  2
FXTIP_CIVIL_S
  0
BLOCK_RECORD
  5
79
330
1
100
AcDbSymbolTableRecord
100
AcDbBlockTableRecord
  2
FXTIP_CIVIL_E
  0
BLOCK_RECORD
  5
7F
330
1
100
AcDbSymbolTableRecord
100
AcDbBlockTableRecord
  2
FXTIP_WHITEDOT_S
  0
BLOCK_RECORD
  5
84
330
1
100
AcDbSymbolTableRecord
100
AcDbBlockTableRecord
  2
FXTIP_WHITEDOT_E
  0
BLOCK_RECORD
  5
89
330
1
100
AcDbSymbolTableRecord
100
AcDbBlockTableRecord
  2
FXTIP_UPARROW_S
  0
BLOCK_RECORD
  5
8E
330
1
100
AcDbSymbolTableRecord
100
AcDbBlockTableRecord
  2
FXTIP_UPARROW_E
  0
BLOCK_RECORD
  5
93
330
1
100
AcDbSymbolTableRecord
100
AcDbBlockTableRecord
  2
FXTIP_DOWNARROW_S
  0
BLOCK_RECORD
  5
98
330
1
100
AcDbSymbolTableRecord
100
AcDbBlockTableRecord
  2
FXTIP_DOWNARROW_E
  0
BLOCK_RECORD
  5
9D
330
1
100
AcDbSymbolTableRecord
100
AcDbBlockTableRecord
  2
FXTIP_BLACKTRIANGLE_S
  0
BLOCK_RECORD
  5
A2
330
1
100
AcDbSymbolTableRecord
100
AcDbBlockTableRecord
  2
FXTIP_BLACKTRIANGLE_E
  0
BLOCK_RECORD
  5
EC
330
1
100
AcDbSymbolTableRecord
100
AcDbBlockTableRecord
  2
BLKF021
  0
BLOCK_RECORD
  5
12C
330
1
100
AcDbSymbolTableRecord
100
AcDbBlockTableRecord
  2
*D20
  0
BLOCK_RECORD
  5
140
330
1
100
AcDbSymbolTableRecord
100
AcDbBlockTableRecord
  2
*D21
  0
BLOCK_RECORD
  5
156
330
1
100
AcDbSymbolTableRecord
100
AcDbBlockTableRecord
  2
BLKF024
  0
BLOCK_RECORD
  5
1F7
330
1
100
AcDbSymbolTableRecord
100
AcDbBlockTableRecord
  2
BLKF025
  0
BLOCK_RECORD
  5
26A
330
1
100
AcDbSymbolTableRecord
100
AcDbBlockTableRecord
  2
*D24
  0
BLOCK_RECORD
  5
276
330
1
100
AcDbSymbolTableRecord
100
AcDbBlockTableRecord
  2
*D25
  0
BLOCK_RECORD
  5
281
330
1
100
AcDbSymbolTableRecord
100
AcDbBlockTableRecord
  2
BLKF028
  0
BLOCK_RECORD
  5
28D
330
1
100
AcDbSymbolTableRecord
100
AcDbBlockTableRecord
  2
BLKF029
  0
BLOCK_RECORD
  5
296
330
1
100
AcDbSymbolTableRecord
100
AcDbBlockTableRecord
  2
BLKF030
  0
ENDTAB
  0
ENDSEC
  0
SECTION
  2
BLOCKS
  0
BLOCK
  5
20
330
1F
100
AcDbEntity
  8
0
100
AcDbBlockBegin
  2
*MODEL_SPACE
 70
     0
 71
     0
 10
0.0
 20
0.0
 30
0.0
  3
*MODEL_SPACE
  1

  0
ENDBLK
  5
21
330
1F
100
AcDbEntity
  8
0
100
AcDbBlockEnd
  0
BLOCK
  5
1C
330
1B
100
AcDbEntity
 67
     1
  8
0
100
AcDbBlockBegin
  2
*PAPER_SPACE
 70
     0
 71
     0
 10
0.0
 20
0.0
 30
0.0
  3
*PAPER_SPACE
  1

  0
ENDBLK
  5
1D
330
1B
100
AcDbEntity
 67
     1
  8
0
100
AcDbBlockEnd
  0
BLOCK
  5
42
330
41
100
AcDbEntity
  8
0
100
AcDbBlockBegin
  2
FXTIP_ARROW_S
 70
     0
 71
     0
 10
0.0
 20
0.0
 30
0.0
  3
FXTIP_ARROW_S
  1

  0
LINE
  5
44
330
41
100
AcDbEntity
  8
0
  6
CONTINUOUS
 62
     0
100
AcDbLine
 10
0.0
 20
0.0
 30
0.0
 11
-1.0
 21
0.0
 31
0.0
  0
LINE
  5
45
330
41
100
AcDbEntity
  8
0
  6
CONTINUOUS
 62
     0
100
AcDbLine
 10
0.0
 20
0.0
 30
0.0
 11
-0.965926
 21
-0.258819
 31
0.0
  0
LINE
  5
46
330
41
100
AcDbEntity
  8
0
  6
CONTINUOUS
 62
     0
100
AcDbLine
 10
0.0
 20
0.0
 30
0.0
 11
-0.965926
 21
0.258819
 31
0.0
  0
ENDBLK
  5
43
330
41
100
AcDbEntity
  8
0
100
AcDbBlockEnd
  0
BLOCK
  5
48
330
47
100
AcDbEntity
  8
0
100
AcDbBlockBegin
  2
FXTIP_ARROW_E
 70
     0
 71
     0
 10
0.0
 20
0.0
 30
0.0
  3
FXTIP_ARROW_E
  1

  0
LINE
  5
4A
330
47
100
AcDbEntity
  8
0
  6
CONTINUOUS
 62
     0
100
AcDbLine
 10
0.0
 20
0.0
 30
0.0
 11
-1.0
 21
0.0
 31
0.0
  0
LINE
  5
4B
330
47
100
AcDbEntity
  8
0
  6
CONTINUOUS
 62
     0
100
AcDbLine
 10
0.0
 20
0.0
 30
0.0
 11
-0.965926
 21
0.258819
 31
0.0
  0
LINE
  5
4C
330
47
100
AcDbEntity
  8
0
  6
CONTINUOUS
 62
     0
100
AcDbLine
 10
0.0
 20
0.0
 30
0.0
 11
-0.965926
 21
-0.258819
 31
0.0
  0
ENDBLK
  5
49
330
47
100
AcDbEntity
  8
0
100
AcDbBlockEnd
  0
BLOCK
  5
4E
330
4D
100
AcDbEntity
  8
0
100
AcDbBlockBegin
  2
FXTIP_BLACKDOT_S
 70
     0
 71
     0
 10
0.0
 20
0.0
 30
0.0
  3
FXTIP_BLACKDOT_S
  1

  0
LINE
  5
50
330
4D
100
AcDbEntity
  8
0
  6
CONTINUOUS
 62
     0
100
AcDbLine
 10
0.0
 20
0.0
 30
0.0
 11
-1.0
 21
0.0
 31
0.0
  0
LWPOLYLINE
  5
51
330
4D
100
AcDbEntity
  8
0
  6
CONTINUOUS
 62
     0
100
AcDbPolyline
 90
        2
 70
     1
 10
-0.25
 20
0.0
 40
0.5
 41
0.5
 42
1.0
 10
0.25
 20
0.0
 40
0.5
 41
0.5
 42
1.0
  0
CIRCLE
  5
52
330
4D
100
AcDbEntity
  8
0
  6
CONTINUOUS
 62
     0
100
AcDbCircle
 10
0.0
 20
0.0
 30
0.0
 40
0.5
  0
ENDBLK
  5
4F
330
4D
100
AcDbEntity
  8
0
100
AcDbBlockEnd
  0
BLOCK
  5
54
330
53
100
AcDbEntity
  8
0
100
AcDbBlockBegin
  2
FXTIP_BLACKDOT_E
 70
     0
 71
     0
 10
0.0
 20
0.0
 30
0.0
  3
FXTIP_BLACKDOT_E
  1

  0
LINE
  5
56
330
53
100
AcDbEntity
  8
0
  6
CONTINUOUS
 62
     0
100
AcDbLine
 10
0.0
 20
0.0
 30
0.0
 11
-1.0
 21
0.0
 31
0.0
  0
LWPOLYLINE
  5
57
330
53
100
AcDbEntity
  8
0
  6
CONTINUOUS
 62
     0
100
AcDbPolyline
 90
        2
 70
     1
 10
-0.25
 20
0.0
 40
0.5
 41
0.5
 42
1.0
 10
0.25
 20
0.0
 40
0.5
 41
0.5
 42
1.0
  0
CIRCLE
  5
58
330
53
100
AcDbEntity
  8
0
  6
CONTINUOUS
 62
     0
100
AcDbCircle
 10
0.0
 20
0.0
 30
0.0
 40
0.5
  0
ENDBLK
  5
55
330
53
100
AcDbEntity
  8
0
100
AcDbBlockEnd
  0
BLOCK
  5
5A
330
59
100
AcDbEntity
  8
0
100
AcDbBlockBegin
  2
FXTIP_TRIANGLE_S
 70
     0
 71
     0
 10
0.0
 20
0.0
 30
0.0
  3
FXTIP_TRIANGLE_S
  1

  0
LINE
  5
5C
330
59
100
AcDbEntity
  8
0
  6
CONTINUOUS
 62
     0
100
AcDbLine
 10
0.0
 20
0.0
 30
0.0
 11
-1.0
 21
0.0
 31
0.0
  0
LINE
  5
5D
330
59
100
AcDbEntity
  8
0
  6
CONTINUOUS
 62
     0
100
AcDbLine
 10
0.0
 20
0.0
 30
0.0
 11
-0.965926
 21
-0.258819
 31
0.0
  0
LINE
  5
5E
330
59
100
AcDbEntity
  8
0
  6
CONTINUOUS
 62
     0
100
AcDbLine
 10
0.0
 20
0.0
 30
0.0
 11
-0.965926
 21
0.258819
 31
0.0
  0
LINE
  5
5F
330
59
100
AcDbEntity
  8
0
  6
CONTINUOUS
 62
     0
100
AcDbLine
 10
-0.965926
 20
-0.258819
 30
0.0
 11
-0.965926
 21
0.258819
 31
0.0
  0
ENDBLK
  5
5B
330
59
100
AcDbEntity
  8
0
100
AcDbBlockEnd
  0
BLOCK
  5
61
330
60
100
AcDbEntity
  8
0
100
AcDbBlockBegin
  2
FXTIP_TRIANGLE_E
 70
     0
 71
     0
 10
0.0
 20
0.0
 30
0.0
  3
FXTIP_TRIANGLE_E
  1

  0
LINE
  5
63
330
60
100
AcDbEntity
  8
0
  6
CONTINUOUS
 62
     0
100
AcDbLine
 10
0.0
 20
0.0
 30
0.0
 11
-1.0
 21
0.0
 31
0.0
  0
LINE
  5
64
330
60
100
AcDbEntity
  8
0
  6
CONTINUOUS
 62
     0
100
AcDbLine
 10
0.0
 20
0.0
 30
0.0
 11
-0.965926
 21
0.258819
 31
0.0
  0
LINE
  5
65
330
60
100
AcDbEntity
  8
0
  6
CONTINUOUS
 62
     0
100
AcDbLine
 10
0.0
 20
0.0
 30
0.0
 11
-0.965926
 21
-0.258819
 31
0.0
  0
LINE
  5
66
330
60
100
AcDbEntity
  8
0
  6
CONTINUOUS
 62
     0
100
AcDbLine
 10
-0.965926
 20
0.258819
 30
0.0
 11
-0.965926
 21
-0.258819
 31
0.0
  0
ENDBLK
  5
62
330
60
100
AcDbEntity
  8
0
100
AcDbBlockEnd
  0
BLOCK
  5
68
330
67
100
AcDbEntity
  8
0
100
AcDbBlockBegin
  2
FXTIP_ARCHITECT_S
 70
     0
 71
     0
 10
0.0
 20
0.0
 30
0.0
  3
FXTIP_ARCHITECT_S
  1

  0
LINE
  5
6A
330
67
100
AcDbEntity
  8
0
  6
CONTINUOUS
 62
     0
100
AcDbLine
 10
0.0
 20
0.0
 30
0.0
 11
-1.0
 21
0.0
 31
0.0
  0
LINE
  5
6B
330
67
100
AcDbEntity
  8
0
  6
CONTINUOUS
 62
     0
100
AcDbLine
 10
0.0
 20
0.0
 30
0.0
 11
-0.707107
 21
-0.707107
 31
0.0
  0
LINE
  5
6C
330
67
100
AcDbEntity
  8
0
  6
CONTINUOUS
 62
     0
100
AcDbLine
 10
0.0
 20
0.0
 30
0.0
 11
0.707107
 21
0.707107
 31
0.0
  0
ENDBLK
  5
69
330
67
100
AcDbEntity
  8
0
100
AcDbBlockEnd
  0
BLOCK
  5
6E
330
6D
100
AcDbEntity
  8
0
100
AcDbBlockBegin
  2
FXTIP_ARCHITECT_E
 70
     0
 71
     0
 10
0.0
 20
0.0
 30
0.0
  3
FXTIP_ARCHITECT_E
  1

  0
LINE
  5
70
330
6D
100
AcDbEntity
  8
0
  6
CONTINUOUS
 62
     0
100
AcDbLine
 10
0.0
 20
0.0
 30
0.0
 11
-1.0
 21
0.0
 31
0.0
  0
LINE
  5
71
330
6D
100
AcDbEntity
  8
0
  6
CONTINUOUS
 62
     0
100
AcDbLine
 10
0.0
 20
0.0
 30
0.0
 11
0.707107
 21
0.707107
 31
0.0
  0
LINE
  5
72
330
6D
100
AcDbEntity
  8
0
  6
CONTINUOUS
 62
     0
100
AcDbLine
 10
0.0
 20
0.0
 30
0.0
 11
-0.707107
 21
-0.707107
 31
0.0
  0
ENDBLK
  5
6F
330
6D
100
AcDbEntity
  8
0
100
AcDbBlockEnd
  0
BLOCK
  5
74
330
73
100
AcDbEntity
  8
0
100
AcDbBlockBegin
  2
FXTIP_CIVIL_S
 70
     0
 71
     0
 10
0.0
 20
0.0
 30
0.0
  3
FXTIP_CIVIL_S
  1

  0
LINE
  5
76
330
73
100
AcDbEntity
  8
0
  6
CONTINUOUS
 62
     0
100
AcDbLine
 10
0.0
 20
0.0
 30
0.0
 11
-1.0
 21
0.0
 31
0.0
  0
LINE
  5
77
330
73
100
AcDbEntity
  8
0
  6
CONTINUOUS
 62
     0
100
AcDbLine
 10
0.0
 20
-0.083333
 30
0.0
 11
-1.0
 21
-0.083333
 31
0.0
  0
LINE
  5
78
330
73
100
AcDbEntity
  8
0
  6
CONTINUOUS
 62
     0
100
AcDbLine
 10
0.0
 20
-0.166667
 30
0.0
 11
-1.0
 21
-0.166667
 31
0.0
  0
ENDBLK
  5
75
330
73
100
AcDbEntity
  8
0
100
AcDbBlockEnd
  0
BLOCK
  5
7A
330
79
100
AcDbEntity
  8
0
100
AcDbBlockBegin
  2
FXTIP_CIVIL_E
 70
     0
 71
     0
 10
0.0
 20
0.0
 30
0.0
  3
FXTIP_CIVIL_E
  1

  0
LINE
  5
7C
330
79
100
AcDbEntity
  8
0
  6
CONTINUOUS
 62
     0
100
AcDbLine
 10
0.0
 20
0.0
 30
0.0
 11
-1.0
 21
0.0
 31
0.0
  0
LINE
  5
7D
330
79
100
AcDbEntity
  8
0
  6
CONTINUOUS
 62
     0
100
AcDbLine
 10
0.0
 20
0.083333
 30
0.0
 11
-1.0
 21
0.083333
 31
0.0
  0
LINE
  5
7E
330
79
100
AcDbEntity
  8
0
  6
CONTINUOUS
 62
     0
100
AcDbLine
 10
0.0
 20
0.166667
 30
0.0
 11
-1.0
 21
0.166667
 31
0.0
  0
ENDBLK
  5
7B
330
79
100
AcDbEntity
  8
0
100
AcDbBlockEnd
  0
BLOCK
  5
80
330
7F
100
AcDbEntity
  8
0
100
AcDbBlockBegin
  2
FXTIP_WHITEDOT_S
 70
     0
 71
     0
 10
0.0
 20
0.0
 30
0.0
  3
FXTIP_WHITEDOT_S
  1

  0
LINE
  5
82
330
7F
100
AcDbEntity
  8
0
  6
CONTINUOUS
 62
     0
100
AcDbLine
 10
0.0
 20
0.0
 30
0.0
 11
-1.0
 21
0.0
 31
0.0
  0
CIRCLE
  5
83
330
7F
100
AcDbEntity
  8
0
  6
CONTINUOUS
 62
     0
100
AcDbCircle
 10
0.0
 20
0.0
 30
0.0
 40
0.5
  0
ENDBLK
  5
81
330
7F
100
AcDbEntity
  8
0
100
AcDbBlockEnd
  0
BLOCK
  5
85
330
84
100
AcDbEntity
  8
0
100
AcDbBlockBegin
  2
FXTIP_WHITEDOT_E
 70
     0
 71
     0
 10
0.0
 20
0.0
 30
0.0
  3
FXTIP_WHITEDOT_E
  1

  0
LINE
  5
87
330
84
100
AcDbEntity
  8
0
  6
CONTINUOUS
 62
     0
100
AcDbLine
 10
0.0
 20
0.0
 30
0.0
 11
-1.0
 21
0.0
 31
0.0
  0
CIRCLE
  5
88
330
84
100
AcDbEntity
  8
0
  6
CONTINUOUS
 62
     0
100
AcDbCircle
 10
0.0
 20
0.0
 30
0.0
 40
0.5
  0
ENDBLK
  5
86
330
84
100
AcDbEntity
  8
0
100
AcDbBlockEnd
  0
BLOCK
  5
8A
330
89
100
AcDbEntity
  8
0
100
AcDbBlockBegin
  2
FXTIP_UPARROW_S
 70
     0
 71
     0
 10
0.0
 20
0.0
 30
0.0
  3
FXTIP_UPARROW_S
  1

  0
LINE
  5
8C
330
89
100
AcDbEntity
  8
0
  6
CONTINUOUS
 62
     0
100
AcDbLine
 10
0.0
 20
0.0
 30
0.0
 11
-1.0
 21
0.0
 31
0.0
  0
LINE
  5
8D
330
89
100
AcDbEntity
  8
0
  6
CONTINUOUS
 62
     0
100
AcDbLine
 10
0.0
 20
0.0
 30
0.0
 11
-0.965926
 21
-0.258819
 31
0.0
  0
ENDBLK
  5
8B
330
89
100
AcDbEntity
  8
0
100
AcDbBlockEnd
  0
BLOCK
  5
8F
330
8E
100
AcDbEntity
  8
0
100
AcDbBlockBegin
  2
FXTIP_UPARROW_E
 70
     0
 71
     0
 10
0.0
 20
0.0
 30
0.0
  3
FXTIP_UPARROW_E
  1

  0
LINE
  5
91
330
8E
100
AcDbEntity
  8
0
  6
CONTINUOUS
 62
     0
100
AcDbLine
 10
0.0
 20
0.0
 30
0.0
 11
-1.0
 21
0.0
 31
0.0
  0
LINE
  5
92
330
8E
100
AcDbEntity
  8
0
  6
CONTINUOUS
 62
     0
100
AcDbLine
 10
0.0
 20
0.0
 30
0.0
 11
-0.965926
 21
0.258819
 31
0.0
  0
ENDBLK
  5
90
330
8E
100
AcDbEntity
  8
0
100
AcDbBlockEnd
  0
BLOCK
  5
94
330
93
100
AcDbEntity
  8
0
100
AcDbBlockBegin
  2
FXTIP_DOWNARROW_S
 70
     0
 71
     0
 10
0.0
 20
0.0
 30
0.0
  3
FXTIP_DOWNARROW_S
  1

  0
LINE
  5
96
330
93
100
AcDbEntity
  8
0
  6
CONTINUOUS
 62
     0
100
AcDbLine
 10
0.0
 20
0.0
 30
0.0
 11
-1.0
 21
0.0
 31
0.0
  0
LINE
  5
97
330
93
100
AcDbEntity
  8
0
  6
CONTINUOUS
 62
     0
100
AcDbLine
 10
0.0
 20
0.0
 30
0.0
 11
-0.965926
 21
0.258819
 31
0.0
  0
ENDBLK
  5
95
330
93
100
AcDbEntity
  8
0
100
AcDbBlockEnd
  0
BLOCK
  5
99
330
98
100
AcDbEntity
  8
0
100
AcDbBlockBegin
  2
FXTIP_DOWNARROW_E
 70
     0
 71
     0
 10
0.0
 20
0.0
 30
0.0
  3
FXTIP_DOWNARROW_E
  1

  0
LINE
  5
9B
330
98
100
AcDbEntity
  8
0
  6
CONTINUOUS
 62
     0
100
AcDbLine
 10
0.0
 20
0.0
 30
0.0
 11
-1.0
 21
0.0
 31
0.0
  0
LINE
  5
9C
330
98
100
AcDbEntity
  8
0
  6
CONTINUOUS
 62
     0
100
AcDbLine
 10
0.0
 20
0.0
 30
0.0
 11
-0.965926
 21
-0.258819
 31
0.0
  0
ENDBLK
  5
9A
330
98
100
AcDbEntity
  8
0
100
AcDbBlockEnd
  0
BLOCK
  5
9E
330
9D
100
AcDbEntity
  8
0
100
AcDbBlockBegin
  2
FXTIP_BLACKTRIANGLE_S
 70
     0
 71
     0
 10
0.0
 20
0.0
 30
0.0
  3
FXTIP_BLACKTRIANGLE_S
  1

  0
LINE
  5
A0
330
9D
100
AcDbEntity
  8
0
  6
CONTINUOUS
 62
     0
100
AcDbLine
 10
0.0
 20
0.0
 30
0.0
 11
-1.0
 21
0.0
 31
0.0
  0
SOLID
  5
A1
330
9D
100
AcDbEntity
  8
0
  6
CONTINUOUS
 62
     0
100
AcDbTrace
 10
0.0
 20
0.0
 30
0.0
 11
-0.965926
 21
-0.258819
 31
0.0
 12
-0.965926
 22
0.258819
 32
0.0
 13
-0.965926
 23
0.258819
 33
0.0
  0
ENDBLK
  5
9F
330
9D
100
AcDbEntity
  8
0
100
AcDbBlockEnd
  0
BLOCK
  5
A3
330
A2
100
AcDbEntity
  8
0
100
AcDbBlockBegin
  2
FXTIP_BLACKTRIANGLE_E
 70
     0
 71
     0
 10
0.0
 20
0.0
 30
0.0
  3
FXTIP_BLACKTRIANGLE_E
  1

  0
LINE
  5
A5
330
A2
100
AcDbEntity
  8
0
  6
CONTINUOUS
 62
     0
100
AcDbLine
 10
0.0
 20
0.0
 30
0.0
 11
-1.0
 21
0.0
 31
0.0
  0
SOLID
  5
A6
330
A2
100
AcDbEntity
  8
0
  6
CONTINUOUS
 62
     0
100
AcDbTrace
 10
0.0
 20
0.0
 30
0.0
 11
-0.965926
 21
0.258819
 31
0.0
 12
-0.965926
 22
-0.258819
 32
0.0
 13
-0.965926
 23
-0.258819
 33
0.0
  0
ENDBLK
  5
A4
330
A2
100
AcDbEntity
  8
0
100
AcDbBlockEnd
  0
BLOCK
  5
ED
330
EC
100
AcDbEntity
  8
0
100
AcDbBlockBegin
  2
BLKF021
 70
     0
 71
     0
 10
0.0
 20
0.0
 30
0.0
  3
BLKF021
  1

  0
LINE
  5
F0
330
EC
100
AcDbEntity
  8
GR1-1
  6
CONTINUOUS
 62
     3
100
AcDbLine
 10
97.597414
 20
129.035324
 30
0.0
 11
106.397414
 21
129.035324
 31
0.0
  0
LINE
  5
F1
330
EC
100
AcDbEntity
  8
GR1-1
  6
CONTINUOUS
 62
     3
100
AcDbLine
 10
96.997414
 20
128.435324
 30
0.0
 11
96.997414
 21
122.135324
 31
0.0
  0
LINE
  5
F2
330
EC
100
AcDbEntity
  8
GR1-1
  6
CONTINUOUS
 62
     3
100
AcDbLine
 10
106.997414
 20
128.435324
 30
0.0
 11
106.997414
 21
122.135324
 31
0.0
  0
CIRCLE
  5
F3
330
EC
100
AcDbEntity
  8
GR1-1
  6
CONTINUOUS
 62
     3
100
AcDbCircle
 10
101.997414
 20
124.035324
 30
0.0
 40
3.333333333333334
  0
ARC
  5
F4
330
EC
100
AcDbEntity
  8
GR1-1
  6
CONTINUOUS
 62
     3
100
AcDbCircle
 10
97.597414
 20
128.435324
 30
0.0
 40
0.6
100
AcDbArc
 50
90.0
 51
180.0
  0
ARC
  5
F5
330
EC
100
AcDbEntity
  8
GR1-1
  6
CONTINUOUS
 62
     3
100
AcDbCircle
 10
106.397414
 20
128.435324
 30
0.0
 40
0.6
100
AcDbArc
 50
0.0
 51
90.0
  0
LINE
  5
F6
330
EC
100
AcDbEntity
  8
GR1-1
  6
CONTINUOUS
 62
     3
100
AcDbLine
 10
96.997414
 20
103.935324
 30
0.0
 11
96.997414
 21
97.635324
 31
0.0
  0
LINE
  5
F7
330
EC
100
AcDbEntity
  8
GR1-1
  6
CONTINUOUS
 62
     3
100
AcDbLine
 10
106.997414
 20
103.935324
 30
0.0
 11
106.997414
 21
97.635324
 31
0.0
  0
CIRCLE
  5
F8
330
EC
100
AcDbEntity
  8
GR1-1
  6
CONTINUOUS
 62
     3
100
AcDbCircle
 10
101.997414
 20
102.035324
 30
0.0
 40
3.333333333333334
  0
LINE
  5
F9
330
EC
100
AcDbEntity
  8
GR1-1
  6
CONTINUOUS
 62
     3
100
AcDbLine
 10
97.597414
 20
97.035324
 30
0.0
 11
106.397414
 21
97.035324
 31
0.0
  0
ARC
  5
FA
330
EC
100
AcDbEntity
  8
GR1-1
  6
CONTINUOUS
 62
     3
100
AcDbCircle
 10
97.597414
 20
97.635324
 30
0.0
 40
0.6
100
AcDbArc
 50
180.0
 51
270.0
  0
ARC
  5
FB
330
EC
100
AcDbEntity
  8
GR1-1
  6
CONTINUOUS
 62
     3
100
AcDbCircle
 10
106.397414
 20
97.635324
 30
0.0
 40
0.6
100
AcDbArc
 50
270.0
 51
360.0
  0
LINE
  5
FC
330
EC
100
AcDbEntity
  8
GR1-1
  6
CONTINUOUS
 62
     3
100
AcDbLine
 10
98.247414
 20
122.646435
 30
0.0
 11
97.830747
 21
122.646435
 31
0.0
  0
LINE
  5
FD
330
EC
100
AcDbEntity
  8
GR1-1
  6
CONTINUOUS
 62
     3
100
AcDbLine
 10
97.830747
 20
122.646435
 30
0.0
 11
97.830747
 21
125.285324
 31
0.0
  0
LINE
  5
FE
330
EC
100
AcDbEntity
  8
GR1-1
  6
CONTINUOUS
 62
     3
100
AcDbLine
 10
97.830747
 20
125.285324
 30
0.0
 11
98.247414
 21
125.701991
 31
0.0
  0
LINE
  5
FF
330
EC
100
AcDbEntity
  8
GR1-1
  6
CONTINUOUS
 62
     3
100
AcDbLine
 10
98.247414
 20
125.701991
 30
0.0
 11
98.247414
 21
126.285324
 31
0.0
  0
LINE
  5
100
330
EC
100
AcDbEntity
  8
GR1-1
  6
CONTINUOUS
 62
     3
100
AcDbLine
 10
97.414081
 20
126.285324
 30
0.0
 11
97.414081
 21
125.993657
 31
0.0
  0
LINE
  5
101
330
EC
100
AcDbEntity
  8
GR1-1
  6
CONTINUOUS
 62
     3
100
AcDbLine
 10
97.414081
 20
126.285324
 30
0.0
 11
96.997414
 21
126.285324
 31
0.0
  0
LINE
  5
102
330
EC
100
AcDbEntity
  8
GR1-1
  6
CONTINUOUS
 62
     3
100
AcDbLine
 10
99.110663
 20
125.701991
 30
0.0
 11
98.247414
 21
125.701991
 31
0.0
  0
ARC
  5
103
330
EC
100
AcDbEntity
  8
GR1-1
  6
CONTINUOUS
 62
     3
100
AcDbCircle
 10
97.830747
 20
126.285324
 30
0.0
 40
0.4166666666666572
100
AcDbArc
 50
0.0
 51
180.0
  0
LINE
  5
104
330
EC
100
AcDbEntity
  8
GR1-1
  6
CONTINUOUS
 62
     3
100
AcDbLine
 10
105.747414
 20
122.646435
 30
0.0
 11
106.164081
 21
122.646435
 31
0.0
  0
LINE
  5
105
330
EC
100
AcDbEntity
  8
GR1-1
  6
CONTINUOUS
 62
     3
100
AcDbLine
 10
106.164081
 20
122.646435
 30
0.0
 11
106.164081
 21
125.285324
 31
0.0
  0
LINE
  5
106
330
EC
100
AcDbEntity
  8
GR1-1
  6
CONTINUOUS
 62
     3
100
AcDbLine
 10
106.164081
 20
125.285324
 30
0.0
 11
105.747414
 21
125.701991
 31
0.0
  0
LINE
  5
107
330
EC
100
AcDbEntity
  8
GR1-1
  6
CONTINUOUS
 62
     3
100
AcDbLine
 10
105.747414
 20
125.701991
 30
0.0
 11
105.747414
 21
126.285324
 31
0.0
  0
LINE
  5
108
330
EC
100
AcDbEntity
  8
GR1-1
  6
CONTINUOUS
 62
     3
100
AcDbLine
 10
106.580747
 20
126.285324
 30
0.0
 11
106.580747
 21
125.993657
 31
0.0
  0
LINE
  5
109
330
EC
100
AcDbEntity
  8
GR1-1
  6
CONTINUOUS
 62
     3
100
AcDbLine
 10
106.580747
 20
126.285324
 30
0.0
 11
106.997414
 21
126.285324
 31
0.0
  0
LINE
  5
10A
330
EC
100
AcDbEntity
  8
GR1-1
  6
CONTINUOUS
 62
     3
100
AcDbLine
 10
104.884165
 20
125.701991
 30
0.0
 11
105.747414
 21
125.701991
 31
0.0
  0
ARC
  5
10B
330
EC
100
AcDbEntity
  8
GR1-1
  6
CONTINUOUS
 62
     3
100
AcDbCircle
 10
106.164081
 20
126.285324
 30
0.0
 40
0.4166666666666572
100
AcDbArc
 50
0.0
 51
180.0
  0
LINE
  5
10C
330
EC
100
AcDbEntity
  8
GR1-1
  6
CONTINUOUS
 62
     3
100
AcDbLine
 10
98.247414
 20
103.424213
 30
0.0
 11
97.830747
 21
103.424213
 31
0.0
  0
LINE
  5
10D
330
EC
100
AcDbEntity
  8
GR1-1
  6
CONTINUOUS
 62
     3
100
AcDbLine
 10
97.830747
 20
103.424213
 30
0.0
 11
97.830747
 21
100.785324
 31
0.0
  0
LINE
  5
10E
330
EC
100
AcDbEntity
  8
GR1-1
  6
CONTINUOUS
 62
     3
100
AcDbLine
 10
97.830747
 20
100.785324
 30
0.0
 11
98.247414
 21
100.368657
 31
0.0
  0
LINE
  5
10F
330
EC
100
AcDbEntity
  8
GR1-1
  6
CONTINUOUS
 62
     3
100
AcDbLine
 10
98.247414
 20
100.368657
 30
0.0
 11
98.247414
 21
99.785324
 31
0.0
  0
LINE
  5
110
330
EC
100
AcDbEntity
  8
GR1-1
  6
CONTINUOUS
 62
     3
100
AcDbLine
 10
97.414081
 20
99.785324
 30
0.0
 11
97.414081
 21
100.076991
 31
0.0
  0
LINE
  5
111
330
EC
100
AcDbEntity
  8
GR1-1
  6
CONTINUOUS
 62
     3
100
AcDbLine
 10
97.414081
 20
99.785324
 30
0.0
 11
96.997414
 21
99.785324
 31
0.0
  0
LINE
  5
112
330
EC
100
AcDbEntity
  8
GR1-1
  6
CONTINUOUS
 62
     3
100
AcDbLine
 10
99.110663
 20
100.368657
 30
0.0
 11
98.247414
 21
100.368657
 31
0.0
  0
ARC
  5
113
330
EC
100
AcDbEntity
  8
GR1-1
  6
CONTINUOUS
 62
     3
100
AcDbCircle
 10
97.830747
 20
99.785324
 30
0.0
 40
0.4166666666666572
100
AcDbArc
 50
180.0
 51
360.0
  0
LINE
  5
114
330
EC
100
AcDbEntity
  8
GR1-1
  6
CONTINUOUS
 62
     3
100
AcDbLine
 10
105.747414
 20
103.424213
 30
0.0
 11
106.164081
 21
103.424213
 31
0.0
  0
LINE
  5
115
330
EC
100
AcDbEntity
  8
GR1-1
  6
CONTINUOUS
 62
     3
100
AcDbLine
 10
106.164081
 20
103.424213
 30
0.0
 11
106.164081
 21
100.785324
 31
0.0
  0
LINE
  5
116
330
EC
100
AcDbEntity
  8
GR1-1
  6
CONTINUOUS
 62
     3
100
AcDbLine
 10
106.164081
 20
100.785324
 30
0.0
 11
105.747414
 21
100.368657
 31
0.0
  0
LINE
  5
117
330
EC
100
AcDbEntity
  8
GR1-1
  6
CONTINUOUS
 62
     3
100
AcDbLine
 10
105.747414
 20
100.368657
 30
0.0
 11
105.747414
 21
99.785324
 31
0.0
  0
LINE
  5
118
330
EC
100
AcDbEntity
  8
GR1-1
  6
CONTINUOUS
 62
     3
100
AcDbLine
 10
106.580747
 20
99.785324
 30
0.0
 11
106.580747
 21
100.076991
 31
0.0
  0
LINE
  5
119
330
EC
100
AcDbEntity
  8
GR1-1
  6
CONTINUOUS
 62
     3
100
AcDbLine
 10
106.580747
 20
99.785324
 30
0.0
 11
106.997414
 21
99.785324
 31
0.0
  0
LINE
  5
11A
330
EC
100
AcDbEntity
  8
GR1-1
  6
CONTINUOUS
 62
     3
100
AcDbLine
 10
104.884165
 20
100.368657
 30
0.0
 11
105.747414
 21
100.368657
 31
0.0
  0
ARC
  5
11B
330
EC
100
AcDbEntity
  8
GR1-1
  6
CONTINUOUS
 62
     3
100
AcDbCircle
 10
106.164081
 20
99.785324
 30
0.0
 40
0.4166666666666572
100
AcDbArc
 50
180.0
 51
360.0
  0
ENDBLK
  5
EE
330
EC
100
AcDbEntity
  8
0
100
AcDbBlockEnd
  0
BLOCK
  5
12D
330
12C
100
AcDbEntity
  8
0
100
AcDbBlockBegin
  2
*D20
 70
     1
 71
     0
 10
0.0
 20
0.0
 30
0.0
  3
*D20
  1

  0
TEXT
  5
12F
330
12C
100
AcDbEntity
  8
GR1-1
  6
CONTINUOUS
 62
     7
100
AcDbText
 10
85.997414
 20
47.566826
 30
0.0
 40
4.0
  1
42
 41
0.851351
  7
FX_VECTOR
 72
     5
 11
91.997414
 21
47.566826
 31
0.0
100
AcDbText
  0
LINE
  5
130
330
12C
100
AcDbEntity
  8
GR1-1
  6
CONTINUOUS
 62
     7
100
AcDbLine
 10
67.997414
 20
46.566822
 30
0.0
 11
109.997414
 21
46.566822
 31
0.0
  0
INSERT
  5
131
330
12C
100
AcDbEntity
  8
GR1-1
  6
CONTINUOUS
 62
     7
100
AcDbBlockReference
  2
FXTIP_ARROW_S
 10
67.997414
 20
46.566822
 30
0.0
 41
3.0
 42
3.0
 50
180.0
  0
INSERT
  5
132
330
12C
100
AcDbEntity
  8
GR1-1
  6
CONTINUOUS
 62
     7
100
AcDbBlockReference
  2
FXTIP_ARROW_E
 10
109.997414
 20
46.566822
 30
0.0
 41
3.0
 42
3.0
 50
360.0
  0
LINE
  5
133
330
12C
100
AcDbEntity
  8
GR1-1
  6
CONTINUOUS
 62
     7
100
AcDbLine
 10
67.997414
 20
103.235324
 30
0.0
 11
67.997414
 21
45.566822
 31
0.0
  0
LINE
  5
134
330
12C
100
AcDbEntity
  8
GR1-1
  6
CONTINUOUS
 62
     7
100
AcDbLine
 10
109.997414
 20
103.235324
 30
0.0
 11
109.997414
 21
45.566822
 31
0.0
  0
ENDBLK
  5
12E
330
12C
100
AcDbEntity
  8
0
100
AcDbBlockEnd
  0
BLOCK
  5
141
330
140
100
AcDbEntity
  8
0
100
AcDbBlockBegin
  2
*D21
 70
     1
 71
     0
 10
0.0
 20
0.0
 30
0.0
  3
*D21
  1

  0
TEXT
  5
143
330
140
100
AcDbEntity
  8
GR1-1
  6
CONTINUOUS
 62
     7
100
AcDbText
 10
85.997414
 20
55.616356
 30
0.0
 40
4.0
  1
35
 41
0.851351
  7
FX_VECTOR
 72
     5
 11
91.997414
 21
55.616356
 31
0.0
100
AcDbText
  0
LINE
  5
144
330
140
100
AcDbEntity
  8
GR1-1
  6
CONTINUOUS
 62
     7
100
AcDbLine
 10
71.497414
 20
54.616354
 30
0.0
 11
106.497414
 21
54.616354
 31
0.0
  0
INSERT
  5
145
330
140
100
AcDbEntity
  8
GR1-1
  6
CONTINUOUS
 62
     7
100
AcDbBlockReference
  2
FXTIP_ARROW_S
 10
71.497414
 20
54.616354
 30
0.0
 41
3.0
 42
3.0
 50
180.0
  0
INSERT
  5
146
330
140
100
AcDbEntity
  8
GR1-1
  6
CONTINUOUS
 62
     7
100
AcDbBlockReference
  2
FXTIP_ARROW_E
 10
106.497414
 20
54.616354
 30
0.0
 41
3.0
 42
3.0
 50
360.0
  0
LINE
  5
147
330
140
100
AcDbEntity
  8
GR1-1
  6
CONTINUOUS
 62
     7
100
AcDbLine
 10
71.497414
 20
75.535324
 30
0.0
 11
71.497414
 21
53.616354
 31
0.0
  0
LINE
  5
148
330
140
100
AcDbEntity
  8
GR1-1
  6
CONTINUOUS
 62
     7
100
AcDbLine
 10
106.497414
 20
75.535324
 30
0.0
 11
106.497414
 21
53.616354
 31
0.0
  0
ENDBLK
  5
142
330
140
100
AcDbEntity
  8
0
100
AcDbBlockEnd
  0
BLOCK
  5
157
330
156
100
AcDbEntity
  8
0
100
AcDbBlockBegin
  2
BLKF024
 70
     0
 71
     0
 10
0.0
 20
0.0
 30
0.0
  3
BLKF024
  1

  0
LINE
  5
15A
330
156
100
AcDbEntity
  8
GR1-1
  6
CONTINUOUS
 62
     7
100
AcDbLine
 10
180.573924
 20
142.145649
 30
0.0
 11
180.556549
 21
142.477194
 31
0.0
  0
LINE
  5
15B
330
156
100
AcDbEntity
  8
GR1-1
  6
CONTINUOUS
 62
     7
100
AcDbLine
 10
180.41684
 20
141.971189
 30
0.0
 11
180.382089
 21
142.634279
 31
0.0
  0
LINE
  5
15C
330
156
100
AcDbEntity
  8
GR1-1
  6
CONTINUOUS
 62
     7
100
AcDbLine
 10
180.259755
 20
141.796729
 30
0.0
 11
180.207628
 21
142.791364
 31
0.0
  0
LINE
  5
15D
330
156
100
AcDbEntity
  8
GR1-1
  6
CONTINUOUS
 62
     7
100
AcDbLine
 10
180.10267
 20
141.622268
 30
0.0
 11
180.033168
 21
142.948449
 31
0.0
  0
LINE
  5
15E
330
156
100
AcDbEntity
  8
GR1-1
  6
CONTINUOUS
 62
     7
100
AcDbLine
 10
179.945585
 20
141.447808
 30
0.0
 11
179.885648
 21
142.591488
 31
0.0
  0
LINE
  5
15F
330
156
100
AcDbEntity
  8
GR1-1
  6
CONTINUOUS
 62
     7
100
AcDbLine
 10
179.869248
 20
142.904417
 30
0.0
 11
179.858708
 21
143.105533
 31
0.0
  0
LINE
  5
160
330
156
100
AcDbEntity
  8
GR1-1
  6
CONTINUOUS
 62
     7
100
AcDbLine
 10
179.788501
 20
141.273348
 30
0.0
 11
179.728563
 21
142.417028
 31
0.0
  0
LINE
  5
161
330
156
100
AcDbEntity
  8
GR1-1
  6
CONTINUOUS
 62
     7
100
AcDbLine
 10
179.694787
 20
143.061502
 30
0.0
 11
179.684247
 21
143.262618
 31
0.0
  0
LINE
  5
162
330
156
100
AcDbEntity
  8
GR1-1
  6
CONTINUOUS
 62
     7
100
AcDbLine
 10
179.631416
 20
141.098888
 30
0.0
 11
179.571478
 21
142.242568
 31
0.0
  0
LINE
  5
163
330
156
100
AcDbEntity
  8
GR1-1
  6
CONTINUOUS
 62
     7
100
AcDbLine
 10
179.520327
 20
143.218587
 30
0.0
 11
179.509787
 21
143.419703
 31
0.0
  0
LINE
  5
164
330
156
100
AcDbEntity
  8
GR1-1
  6
CONTINUOUS
 62
     7
100
AcDbLine
 10
179.474331
 20
140.924427
 30
0.0
 11
179.407299
 21
142.203483
 31
0.0
  0
LINE
  5
165
330
156
100
AcDbEntity
  8
GR1-1
  6
CONTINUOUS
 62
     7
100
AcDbLine
 10
179.345867
 20
143.375672
 30
0.0
 11
179.335327
 21
143.576787
 31
0.0
  0
LINE
  5
166
330
156
100
AcDbEntity
  8
GR1-1
  6
CONTINUOUS
 62
     7
100
AcDbLine
 10
179.317246
 20
140.749967
 30
0.0
 11
179.232838
 21
142.360568
 31
0.0
  0
LINE
  5
167
330
156
100
AcDbEntity
  8
GR1-1
  6
CONTINUOUS
 62
     7
100
AcDbLine
 10
179.171407
 20
143.532756
 30
0.0
 11
179.160867
 21
143.733872
 31
0.0
  0
LINE
  5
168
330
156
100
AcDbEntity
  8
GR1-1
  6
CONTINUOUS
 62
     7
100
AcDbLine
 10
179.160162
 20
140.575507
 30
0.0
 11
179.058378
 21
142.517653
 31
0.0
  0
LINE
  5
169
330
156
100
AcDbEntity
  8
GR1-1
  6
CONTINUOUS
 62
     7
100
AcDbLine
 10
178.996946
 20
143.689841
 30
0.0
 11
178.986406
 21
143.890957
 31
0.0
  0
LINE
  5
16A
330
156
100
AcDbEntity
  8
GR1-1
  6
CONTINUOUS
 62
     7
100
AcDbLine
 10
179.003077
 20
140.401047
 30
0.0
 11
178.888994
 21
142.577871
 31
0.0
  0
LINE
  5
16B
330
156
100
AcDbEntity
  8
GR1-1
  6
CONTINUOUS
 62
     7
100
AcDbLine
 10
178.822486
 20
143.846926
 30
0.0
 11
178.811946
 21
144.048042
 31
0.0
  0
LINE
  5
16C
330
156
100
AcDbEntity
  8
GR1-1
  6
CONTINUOUS
 62
     7
100
AcDbLine
 10
178.845992
 20
140.226586
 30
0.0
 11
178.828617
 21
140.558131
 31
0.0
  0
LINE
  5
16D
330
156
100
AcDbEntity
  8
GR1-1
  6
CONTINUOUS
 62
     7
100
AcDbLine
 10
178.661697
 20
143.743152
 30
0.0
 11
178.637486
 21
144.205126
 31
0.0
  0
LINE
  5
16E
330
156
100
AcDbEntity
  8
GR1-1
  6
CONTINUOUS
 62
     7
100
AcDbLine
 10
178.688908
 20
140.052126
 30
0.0
 11
178.662844
 21
140.549444
 31
0.0
  0
LINE
  5
16F
330
156
100
AcDbEntity
  8
GR1-1
  6
CONTINUOUS
 62
     7
100
AcDbLine
 10
178.504612
 20
143.568692
 30
0.0
 11
178.463026
 21
144.362211
 31
0.0
  0
LINE
  5
170
330
156
100
AcDbEntity
  8
GR1-1
  6
CONTINUOUS
 62
     7
100
AcDbLine
 10
178.531823
 20
139.877666
 30
0.0
 11
178.497072
 21
140.540756
 31
0.0
  0
LINE
  5
171
330
156
100
AcDbEntity
  8
GR1-1
  6
CONTINUOUS
 62
     7
100
AcDbLine
 10
178.347527
 20
143.394232
 30
0.0
 11
178.329098
 21
143.745888
 31
0.0
  0
LINE
  5
172
330
156
100
AcDbEntity
  8
GR1-1
  6
CONTINUOUS
 62
     7
100
AcDbLine
 10
178.323316
 20
143.856206
 30
0.0
 11
178.288565
 21
144.519296
 31
0.0
  0
LINE
  5
173
330
156
100
AcDbEntity
  8
GR1-1
  6
CONTINUOUS
 62
     7
100
AcDbLine
 10
178.374738
 20
139.703205
 30
0.0
 11
178.331299
 21
140.532068
 31
0.0
  0
LINE
  5
174
330
156
100
AcDbEntity
  8
GR1-1
  6
CONTINUOUS
 62
     7
100
AcDbLine
 10
178.190443
 20
143.219771
 30
0.0
 11
178.172013
 21
143.571428
 31
0.0
  0
LINE
  5
175
330
156
100
AcDbEntity
  8
GR1-1
  6
CONTINUOUS
 62
     7
100
AcDbLine
 10
178.157544
 20
143.847518
 30
0.0
 11
178.114105
 21
144.676381
 31
0.0
  0
LINE
  5
176
330
156
100
AcDbEntity
  8
GR1-1
  6
CONTINUOUS
 62
     7
100
AcDbLine
 10
178.217653
 20
139.528745
 30
0.0
 11
178.165527
 21
140.52338
 31
0.0
  0
LINE
  5
177
330
156
100
AcDbEntity
  8
GR1-1
  6
CONTINUOUS
 62
     7
100
AcDbLine
 10
178.033358
 20
143.045311
 30
0.0
 11
178.014928
 21
143.396968
 31
0.0
  0
LINE
  5
178
330
156
100
AcDbEntity
  8
GR1-1
  6
CONTINUOUS
 62
     7
100
AcDbLine
 10
177.991771
 20
143.83883
 30
0.0
 11
177.939645
 21
144.833465
 31
0.0
  0
LINE
  5
179
330
156
100
AcDbEntity
  8
GR1-1
  6
CONTINUOUS
 62
     7
100
AcDbLine
 10
178.060569
 20
139.354285
 30
0.0
 11
177.999754
 21
140.514692
 31
0.0
  0
LINE
  5
17A
330
156
100
AcDbEntity
  8
GR1-1
  6
CONTINUOUS
 62
     7
100
AcDbLine
 10
177.956315
 20
141.343555
 30
0.0
 11
177.907082
 21
142.282976
 31
0.0
  0
LINE
  5
17B
330
156
100
AcDbEntity
  8
GR1-1
  6
CONTINUOUS
 62
     7
100
AcDbLine
 10
177.876273
 20
142.870851
 30
0.0
 11
177.857844
 21
143.222507
 31
0.0
  0
LINE
  5
17C
330
156
100
AcDbEntity
  8
GR1-1
  6
CONTINUOUS
 62
     7
100
AcDbLine
 10
177.825999
 20
143.830143
 30
0.0
 11
177.765184
 21
144.99055
 31
0.0
  0
LINE
  5
17D
330
156
100
AcDbEntity
  8
GR1-1
  6
CONTINUOUS
 62
     7
100
AcDbLine
 10
177.903484
 20
139.179825
 30
0.0
 11
177.833982
 21
140.506005
 31
0.0
  0
LINE
  5
17E
330
156
100
AcDbEntity
  8
GR1-1
  6
CONTINUOUS
 62
     7
100
AcDbLine
 10
177.790543
 20
141.334867
 30
0.0
 11
177.749904
 21
142.110296
 31
0.0
  0
LINE
  5
17F
330
156
100
AcDbEntity
  8
GR1-1
  6
CONTINUOUS
 62
     7
100
AcDbLine
 10
177.719188
 20
142.696391
 30
0.0
 11
177.700759
 21
143.048047
 31
0.0
  0
LINE
  5
180
330
156
100
AcDbEntity
  8
GR1-1
  6
CONTINUOUS
 62
     7
100
AcDbLine
 10
177.660226
 20
143.821455
 30
0.0
 11
177.590724
 21
145.147635
 31
0.0
  0
LINE
  5
181
330
156
100
AcDbEntity
  8
GR1-1
  6
CONTINUOUS
 62
     7
100
AcDbLine
 10
177.746399
 20
139.005364
 30
0.0
 11
177.668209
 21
140.497317
 31
0.0
  0
LINE
  5
182
330
156
100
AcDbEntity
  8
GR1-1
  6
CONTINUOUS
 62
     7
100
AcDbLine
 10
177.62477
 20
141.326179
 30
0.0
 11
177.59282
 21
141.935836
 31
0.0
  0
LINE
  5
183
330
156
100
AcDbEntity
  8
GR1-1
  6
CONTINUOUS
 62
     7
100
AcDbLine
 10
177.562104
 20
142.52193
 30
0.0
 11
177.537893
 21
142.983904
 31
0.0
  0
LINE
  5
184
330
156
100
AcDbEntity
  8
GR1-1
  6
CONTINUOUS
 62
     7
100
AcDbLine
 10
177.494454
 20
143.812767
 30
0.0
 11
177.416264
 21
145.30472
 31
0.0
  0
LINE
  5
185
330
156
100
AcDbEntity
  8
GR1-1
  6
CONTINUOUS
 62
     7
100
AcDbLine
 10
177.589314
 20
138.830904
 30
0.0
 11
177.502437
 21
140.488629
 31
0.0
  0
LINE
  5
186
330
156
100
AcDbEntity
  8
GR1-1
  6
CONTINUOUS
 62
     7
100
AcDbLine
 10
177.458998
 20
141.317492
 30
0.0
 11
177.426099
 21
141.945238
 31
0.0
  0
LINE
  5
187
330
156
100
AcDbEntity
  8
GR1-1
  6
CONTINUOUS
 62
     7
100
AcDbLine
 10
177.405019
 20
142.34747
 30
0.0
 11
177.37212
 21
142.975217
 31
0.0
  0
LINE
  5
188
330
156
100
AcDbEntity
  8
GR1-1
  6
CONTINUOUS
 62
     7
100
AcDbLine
 10
177.328681
 20
143.804079
 30
0.0
 11
177.241804
 21
145.461804
 31
0.0
  0
LINE
  5
189
330
156
100
AcDbEntity
  8
GR1-1
  6
CONTINUOUS
 62
     7
100
AcDbLine
 10
177.43223
 20
138.656444
 30
0.0
 11
177.336664
 21
140.479941
 31
0.0
  0
LINE
  5
18A
330
156
100
AcDbEntity
  8
GR1-1
  6
CONTINUOUS
 62
     7
100
AcDbLine
 10
177.293225
 20
141.308804
 30
0.0
 11
177.251639
 21
142.102323
 31
0.0
  0
LINE
  5
18B
330
156
100
AcDbEntity
  8
GR1-1
  6
CONTINUOUS
 62
     7
100
AcDbLine
 10
177.247934
 20
142.17301
 30
0.0
 11
177.206348
 21
142.966529
 31
0.0
  0
LINE
  5
18C
330
156
100
AcDbEntity
  8
GR1-1
  6
CONTINUOUS
 62
     7
100
AcDbLine
 10
177.162909
 20
143.795391
 30
0.0
 11
177.067343
 21
145.618889
 31
0.0
  0
LINE
  5
18D
330
156
100
AcDbEntity
  8
GR1-1
  6
CONTINUOUS
 62
     7
100
AcDbLine
 10
177.261474
 20
138.742842
 30
0.0
 11
177.170892
 21
140.471254
 31
0.0
  0
LINE
  5
18E
330
156
100
AcDbEntity
  8
GR1-1
  6
CONTINUOUS
 62
     7
100
AcDbLine
 10
177.127453
 20
141.300116
 30
0.0
 11
177.040575
 21
142.957841
 31
0.0
  0
LINE
  5
18F
330
156
100
AcDbEntity
  8
GR1-1
  6
CONTINUOUS
 62
     7
100
AcDbLine
 10
176.997136
 20
143.786704
 30
0.0
 11
176.906554
 21
145.515115
 31
0.0
  0
LINE
  5
190
330
156
100
AcDbEntity
  8
GR1-1
  6
CONTINUOUS
 62
     7
100
AcDbLine
 10
177.087014
 20
138.899927
 30
0.0
 11
177.005119
 21
140.462566
 31
0.0
  0
LINE
  5
191
330
156
100
AcDbEntity
  8
GR1-1
  6
CONTINUOUS
 62
     7
100
AcDbLine
 10
176.96168
 20
141.291428
 30
0.0
 11
176.874803
 21
142.949153
 31
0.0
  0
LINE
  5
192
330
156
100
AcDbEntity
  8
GR1-1
  6
CONTINUOUS
 62
     7
100
AcDbLine
 10
176.831364
 20
143.778016
 30
0.0
 11
176.749469
 21
145.340655
 31
0.0
  0
LINE
  5
193
330
156
100
AcDbEntity
  8
GR1-1
  6
CONTINUOUS
 62
     7
100
AcDbLine
 10
176.912553
 20
139.057012
 30
0.0
 11
176.839347
 21
140.453878
 31
0.0
  0
LINE
  5
194
330
156
100
AcDbEntity
  8
GR1-1
  6
CONTINUOUS
 62
     7
100
AcDbLine
 10
176.795908
 20
141.282741
 30
0.0
 11
176.70903
 21
142.940466
 31
0.0
  0
LINE
  5
195
330
156
100
AcDbEntity
  8
GR1-1
  6
CONTINUOUS
 62
     7
100
AcDbLine
 10
176.665591
 20
143.769328
 30
0.0
 11
176.592385
 21
145.166195
 31
0.0
  0
LINE
  5
196
330
156
100
AcDbEntity
  8
GR1-1
  6
CONTINUOUS
 62
     7
100
AcDbLine
 10
176.738093
 20
139.214096
 30
0.0
 11
176.673574
 21
140.44519
 31
0.0
  0
LINE
  5
197
330
156
100
AcDbEntity
  8
GR1-1
  6
CONTINUOUS
 62
     7
100
AcDbLine
 10
176.630135
 20
141.274053
 30
0.0
 11
176.543258
 21
142.931778
 31
0.0
  0
LINE
  5
198
330
156
100
AcDbEntity
  8
GR1-1
  6
CONTINUOUS
 62
     7
100
AcDbLine
 10
176.499819
 20
143.76064
 30
0.0
 11
176.4353
 21
144.991734
 31
0.0
  0
LINE
  5
199
330
156
100
AcDbEntity
  8
GR1-1
  6
CONTINUOUS
 62
     7
100
AcDbLine
 10
176.563633
 20
139.371181
 30
0.0
 11
176.507802
 21
140.436503
 31
0.0
  0
LINE
  5
19A
330
156
100
AcDbEntity
  8
GR1-1
  6
CONTINUOUS
 62
     7
100
AcDbLine
 10
176.464363
 20
141.265365
 30
0.0
 11
176.377485
 21
142.92309
 31
0.0
  0
LINE
  5
19B
330
156
100
AcDbEntity
  8
GR1-1
  6
CONTINUOUS
 62
     7
100
AcDbLine
 10
176.334046
 20
143.751953
 30
0.0
 11
176.278215
 21
144.817274
 31
0.0
  0
LINE
  5
19C
330
156
100
AcDbEntity
  8
GR1-1
  6
CONTINUOUS
 62
     7
100
AcDbLine
 10
176.389173
 20
139.528266
 30
0.0
 11
176.342029
 21
140.427815
 31
0.0
  0
LINE
  5
19D
330
156
100
AcDbEntity
  8
GR1-1
  6
CONTINUOUS
 62
     7
100
AcDbLine
 10
176.168274
 20
143.743265
 30
0.0
 11
176.12113
 21
144.642814
 31
0.0
  0
LINE
  5
19E
330
156
100
AcDbEntity
  8
GR1-1
  6
CONTINUOUS
 62
     7
100
AcDbLine
 10
176.214712
 20
139.68535
 30
0.0
 11
176.176257
 21
140.419127
 31
0.0
  0
LINE
  5
19F
330
156
100
AcDbEntity
  8
GR1-1
  6
CONTINUOUS
 62
     7
100
AcDbLine
 10
176.002501
 20
143.734577
 30
0.0
 11
175.964046
 21
144.468354
 31
0.0
  0
LINE
  5
1A0
330
156
100
AcDbEntity
  8
GR1-1
  6
CONTINUOUS
 62
     7
100
AcDbLine
 10
176.040252
 20
139.842435
 30
0.0
 11
176.010484
 21
140.410439
 31
0.0
  0
LINE
  5
1A1
330
156
100
AcDbEntity
  8
GR1-1
  6
CONTINUOUS
 62
     7
100
AcDbLine
 10
175.836729
 20
143.725889
 30
0.0
 11
175.806961
 21
144.293893
 31
0.0
  0
LINE
  5
1A2
330
156
100
AcDbEntity
  8
GR1-1
  6
CONTINUOUS
 62
     7
100
AcDbLine
 10
175.865792
 20
139.99952
 30
0.0
 11
175.844712
 21
140.401751
 31
0.0
  0
LINE
  5
1A3
330
156
100
AcDbEntity
  8
GR1-1
  6
CONTINUOUS
 62
     7
100
AcDbLine
 10
175.670956
 20
143.717202
 30
0.0
 11
175.649876
 21
144.119433
 31
0.0
  0
LINE
  5
1A4
330
156
100
AcDbEntity
  8
GR1-1
  6
CONTINUOUS
 62
     7
100
AcDbLine
 10
175.691331
 20
140.156605
 30
0.0
 11
175.678939
 21
140.393064
 31
0.0
  0
LINE
  5
1A5
330
156
100
AcDbEntity
  8
GR1-1
  6
CONTINUOUS
 62
     7
100
AcDbLine
 10
175.505184
 20
143.708514
 30
0.0
 11
175.492792
 21
143.944973
 31
0.0
  0
LINE
  5
1A6
330
156
100
AcDbEntity
  8
GR1-1
  6
CONTINUOUS
 62
     7
100
AcDbLine
 10
175.516871
 20
140.313689
 30
0.0
 11
175.335707
 21
143.770513
 31
0.0
  0
LINE
  5
1A7
330
156
100
AcDbEntity
  8
GR1-1
  6
CONTINUOUS
 62
     7
100
AcDbLine
 10
175.342411
 20
140.470774
 30
0.0
 11
175.178622
 21
143.596052
 31
0.0
  0
LINE
  5
1A8
330
156
100
AcDbEntity
  8
GR1-1
  6
CONTINUOUS
 62
     7
100
AcDbLine
 10
175.167951
 20
140.627859
 30
0.0
 11
175.021537
 21
143.421592
 31
0.0
  0
LINE
  5
1A9
330
156
100
AcDbEntity
  8
GR1-1
  6
CONTINUOUS
 62
     7
100
AcDbLine
 10
174.99349
 20
140.784944
 30
0.0
 11
174.864453
 21
143.247132
 31
0.0
  0
LINE
  5
1AA
330
156
100
AcDbEntity
  8
GR1-1
  6
CONTINUOUS
 62
     7
100
AcDbLine
 10
174.81903
 20
140.942028
 30
0.0
 11
174.707368
 21
143.072671
 31
0.0
  0
LINE
  5
1AB
330
156
100
AcDbEntity
  8
GR1-1
  6
CONTINUOUS
 62
     7
100
AcDbLine
 10
174.64457
 20
141.099113
 30
0.0
 11
174.550283
 21
142.898211
 31
0.0
  0
LINE
  5
1AC
330
156
100
AcDbEntity
  8
GR1-1
  6
CONTINUOUS
 62
     7
100
AcDbLine
 10
174.47011
 20
141.256198
 30
0.0
 11
174.393198
 21
142.723751
 31
0.0
  0
LINE
  5
1AD
330
156
100
AcDbEntity
  8
GR1-1
  6
CONTINUOUS
 62
     7
100
AcDbLine
 10
174.295649
 20
141.413283
 30
0.0
 11
174.236114
 21
142.549291
 31
0.0
  0
LINE
  5
1AE
330
156
100
AcDbEntity
  8
GR1-1
  6
CONTINUOUS
 62
     7
100
AcDbLine
 10
174.121189
 20
141.570367
 30
0.0
 11
174.079029
 21
142.37483
 31
0.0
  0
LINE
  5
1AF
330
156
100
AcDbEntity
  8
GR1-1
  6
CONTINUOUS
 62
     7
100
AcDbLine
 10
173.946729
 20
141.727452
 30
0.0
 11
173.921944
 21
142.20037
 31
0.0
  0
LINE
  5
1B0
330
156
100
AcDbEntity
  8
GR1-1
  6
CONTINUOUS
 62
     7
100
AcDbLine
 10
173.772268
 20
141.884537
 30
0.0
 11
173.764859
 21
142.02591
 31
0.0
  0
ENDBLK
  5
158
330
156
100
AcDbEntity
  8
0
100
AcDbBlockEnd
  0
BLOCK
  5
1F8
330
1F7
100
AcDbEntity
  8
0
100
AcDbBlockBegin
  2
BLKF025
 70
     0
 71
     0
 10
0.0
 20
0.0
 30
0.0
  3
BLKF025
  1

  0
LINE
  5
1FB
330
1F7
100
AcDbEntity
  8
GR1-1
  6
CONTINUOUS
 62
     3
100
AcDbLine
 10
80.397414
 20
129.035324
 30
0.0
 11
71.597414
 21
129.035324
 31
0.0
  0
LINE
  5
1FC
330
1F7
100
AcDbEntity
  8
GR1-1
  6
CONTINUOUS
 62
     3
100
AcDbLine
 10
80.997414
 20
128.435324
 30
0.0
 11
80.997414
 21
122.135324
 31
0.0
  0
LINE
  5
1FD
330
1F7
100
AcDbEntity
  8
GR1-1
  6
CONTINUOUS
 62
     3
100
AcDbLine
 10
70.997414
 20
128.435324
 30
0.0
 11
70.997414
 21
122.135324
 31
0.0
  0
CIRCLE
  5
1FE
330
1F7
100
AcDbEntity
  8
GR1-1
  6
CONTINUOUS
 62
     3
100
AcDbCircle
 10
75.997414
 20
124.035324
 30
0.0
 40
3.333333333333334
  0
ARC
  5
1FF
330
1F7
100
AcDbEntity
  8
GR1-1
  6
CONTINUOUS
 62
     3
100
AcDbCircle
 10
80.397414
 20
128.435324
 30
0.0
 40
0.6
100
AcDbArc
 50
0.0
 51
90.0
  0
ARC
  5
200
330
1F7
100
AcDbEntity
  8
GR1-1
  6
CONTINUOUS
 62
     3
100
AcDbCircle
 10
71.597414
 20
128.435324
 30
0.0
 40
0.6
100
AcDbArc
 50
90.0
 51
180.0
  0
LINE
  5
201
330
1F7
100
AcDbEntity
  8
GR1-1
  6
CONTINUOUS
 62
     3
100
AcDbLine
 10
80.997414
 20
103.935324
 30
0.0
 11
80.997414
 21
97.635324
 31
0.0
  0
LINE
  5
202
330
1F7
100
AcDbEntity
  8
GR1-1
  6
CONTINUOUS
 62
     3
100
AcDbLine
 10
70.997414
 20
103.935324
 30
0.0
 11
70.997414
 21
97.635324
 31
0.0
  0
CIRCLE
  5
203
330
1F7
100
AcDbEntity
  8
GR1-1
  6
CONTINUOUS
 62
     3
100
AcDbCircle
 10
75.997414
 20
102.035324
 30
0.0
 40
3.333333333333334
  0
LINE
  5
204
330
1F7
100
AcDbEntity
  8
GR1-1
  6
CONTINUOUS
 62
     3
100
AcDbLine
 10
80.397414
 20
97.035324
 30
0.0
 11
71.597414
 21
97.035324
 31
0.0
  0
ARC
  5
205
330
1F7
100
AcDbEntity
  8
GR1-1
  6
CONTINUOUS
 62
     3
100
AcDbCircle
 10
80.397414
 20
97.635324
 30
0.0
 40
0.6
100
AcDbArc
 50
270.0
 51
360.0
  0
ARC
  5
206
330
1F7
100
AcDbEntity
  8
GR1-1
  6
CONTINUOUS
 62
     3
100
AcDbCircle
 10
71.597414
 20
97.635324
 30
0.0
 40
0.6
100
AcDbArc
 50
180.0
 51
270.0
  0
LINE
  5
207
330
1F7
100
AcDbEntity
  8
GR1-1
  6
CONTINUOUS
 62
     3
100
AcDbLine
 10
79.747414
 20
122.646435
 30
0.0
 11
80.164081
 21
122.646435
 31
0.0
  0
LINE
  5
208
330
1F7
100
AcDbEntity
  8
GR1-1
  6
CONTINUOUS
 62
     3
100
AcDbLine
 10
80.164081
 20
122.646435
 30
0.0
 11
80.164081
 21
125.285324
 31
0.0
  0
LINE
  5
209
330
1F7
100
AcDbEntity
  8
GR1-1
  6
CONTINUOUS
 62
     3
100
AcDbLine
 10
80.164081
 20
125.285324
 30
0.0
 11
79.747414
 21
125.701991
 31
0.0
  0
LINE
  5
20A
330
1F7
100
AcDbEntity
  8
GR1-1
  6
CONTINUOUS
 62
     3
100
AcDbLine
 10
79.747414
 20
125.701991
 30
0.0
 11
79.747414
 21
126.285324
 31
0.0
  0
LINE
  5
20B
330
1F7
100
AcDbEntity
  8
GR1-1
  6
CONTINUOUS
 62
     3
100
AcDbLine
 10
80.580747
 20
126.285324
 30
0.0
 11
80.580747
 21
125.993657
 31
0.0
  0
LINE
  5
20C
330
1F7
100
AcDbEntity
  8
GR1-1
  6
CONTINUOUS
 62
     3
100
AcDbLine
 10
80.580747
 20
126.285324
 30
0.0
 11
80.997414
 21
126.285324
 31
0.0
  0
LINE
  5
20D
330
1F7
100
AcDbEntity
  8
GR1-1
  6
CONTINUOUS
 62
     3
100
AcDbLine
 10
78.884165
 20
125.701991
 30
0.0
 11
79.747414
 21
125.701991
 31
0.0
  0
ARC
  5
20E
330
1F7
100
AcDbEntity
  8
GR1-1
  6
CONTINUOUS
 62
     3
100
AcDbCircle
 10
80.164081
 20
126.285324
 30
0.0
 40
0.4166666666666572
100
AcDbArc
 50
0.0
 51
180.0
  0
LINE
  5
20F
330
1F7
100
AcDbEntity
  8
GR1-1
  6
CONTINUOUS
 62
     3
100
AcDbLine
 10
72.247414
 20
122.646435
 30
0.0
 11
71.830747
 21
122.646435
 31
0.0
  0
LINE
  5
210
330
1F7
100
AcDbEntity
  8
GR1-1
  6
CONTINUOUS
 62
     3
100
AcDbLine
 10
71.830747
 20
122.646435
 30
0.0
 11
71.830747
 21
125.285324
 31
0.0
  0
LINE
  5
211
330
1F7
100
AcDbEntity
  8
GR1-1
  6
CONTINUOUS
 62
     3
100
AcDbLine
 10
71.830747
 20
125.285324
 30
0.0
 11
72.247414
 21
125.701991
 31
0.0
  0
LINE
  5
212
330
1F7
100
AcDbEntity
  8
GR1-1
  6
CONTINUOUS
 62
     3
100
AcDbLine
 10
72.247414
 20
125.701991
 30
0.0
 11
72.247414
 21
126.285324
 31
0.0
  0
LINE
  5
213
330
1F7
100
AcDbEntity
  8
GR1-1
  6
CONTINUOUS
 62
     3
100
AcDbLine
 10
71.414081
 20
126.285324
 30
0.0
 11
71.414081
 21
125.993657
 31
0.0
  0
LINE
  5
214
330
1F7
100
AcDbEntity
  8
GR1-1
  6
CONTINUOUS
 62
     3
100
AcDbLine
 10
71.414081
 20
126.285324
 30
0.0
 11
70.997414
 21
126.285324
 31
0.0
  0
LINE
  5
215
330
1F7
100
AcDbEntity
  8
GR1-1
  6
CONTINUOUS
 62
     3
100
AcDbLine
 10
73.110663
 20
125.701991
 30
0.0
 11
72.247414
 21
125.701991
 31
0.0
  0
ARC
  5
216
330
1F7
100
AcDbEntity
  8
GR1-1
  6
CONTINUOUS
 62
     3
100
AcDbCircle
 10
71.830747
 20
126.285324
 30
0.0
 40
0.4166666666666572
100
AcDbArc
 50
0.0
 51
180.0
  0
LINE
  5
217
330
1F7
100
AcDbEntity
  8
GR1-1
  6
CONTINUOUS
 62
     3
100
AcDbLine
 10
79.747414
 20
103.424213
 30
0.0
 11
80.164081
 21
103.424213
 31
0.0
  0
LINE
  5
218
330
1F7
100
AcDbEntity
  8
GR1-1
  6
CONTINUOUS
 62
     3
100
AcDbLine
 10
80.164081
 20
103.424213
 30
0.0
 11
80.164081
 21
100.785324
 31
0.0
  0
LINE
  5
219
330
1F7
100
AcDbEntity
  8
GR1-1
  6
CONTINUOUS
 62
     3
100
AcDbLine
 10
80.164081
 20
100.785324
 30
0.0
 11
79.747414
 21
100.368657
 31
0.0
  0
LINE
  5
21A
330
1F7
100
AcDbEntity
  8
GR1-1
  6
CONTINUOUS
 62
     3
100
AcDbLine
 10
79.747414
 20
100.368657
 30
0.0
 11
79.747414
 21
99.785324
 31
0.0
  0
LINE
  5
21B
330
1F7
100
AcDbEntity
  8
GR1-1
  6
CONTINUOUS
 62
     3
100
AcDbLine
 10
80.580747
 20
99.785324
 30
0.0
 11
80.580747
 21
100.076991
 31
0.0
  0
LINE
  5
21C
330
1F7
100
AcDbEntity
  8
GR1-1
  6
CONTINUOUS
 62
     3
100
AcDbLine
 10
80.580747
 20
99.785324
 30
0.0
 11
80.997414
 21
99.785324
 31
0.0
  0
LINE
  5
21D
330
1F7
100
AcDbEntity
  8
GR1-1
  6
CONTINUOUS
 62
     3
100
AcDbLine
 10
78.884165
 20
100.368657
 30
0.0
 11
79.747414
 21
100.368657
 31
0.0
  0
ARC
  5
21E
330
1F7
100
AcDbEntity
  8
GR1-1
  6
CONTINUOUS
 62
     3
100
AcDbCircle
 10
80.164081
 20
99.785324
 30
0.0
 40
0.4166666666666572
100
AcDbArc
 50
180.0
 51
360.0
  0
LINE
  5
21F
330
1F7
100
AcDbEntity
  8
GR1-1
  6
CONTINUOUS
 62
     3
100
AcDbLine
 10
72.247414
 20
103.424213
 30
0.0
 11
71.830747
 21
103.424213
 31
0.0
  0
LINE
  5
220
330
1F7
100
AcDbEntity
  8
GR1-1
  6
CONTINUOUS
 62
     3
100
AcDbLine
 10
71.830747
 20
103.424213
 30
0.0
 11
71.830747
 21
100.785324
 31
0.0
  0
LINE
  5
221
330
1F7
100
AcDbEntity
  8
GR1-1
  6
CONTINUOUS
 62
     3
100
AcDbLine
 10
71.830747
 20
100.785324
 30
0.0
 11
72.247414
 21
100.368657
 31
0.0
  0
LINE
  5
222
330
1F7
100
AcDbEntity
  8
GR1-1
  6
CONTINUOUS
 62
     3
100
AcDbLine
 10
72.247414
 20
100.368657
 30
0.0
 11
72.247414
 21
99.785324
 31
0.0
  0
LINE
  5
223
330
1F7
100
AcDbEntity
  8
GR1-1
  6
CONTINUOUS
 62
     3
100
AcDbLine
 10
71.414081
 20
99.785324
 30
0.0
 11
71.414081
 21
100.076991
 31
0.0
  0
LINE
  5
224
330
1F7
100
AcDbEntity
  8
GR1-1
  6
CONTINUOUS
 62
     3
100
AcDbLine
 10
71.414081
 20
99.785324
 30
0.0
 11
70.997414
 21
99.785324
 31
0.0
  0
LINE
  5
225
330
1F7
100
AcDbEntity
  8
GR1-1
  6
CONTINUOUS
 62
     3
100
AcDbLine
 10
73.110663
 20
100.368657
 30
0.0
 11
72.247414
 21
100.368657
 31
0.0
  0
ARC
  5
226
330
1F7
100
AcDbEntity
  8
GR1-1
  6
CONTINUOUS
 62
     3
100
AcDbCircle
 10
71.830747
 20
99.785324
 30
0.0
 40
0.4166666666666572
100
AcDbArc
 50
180.0
 51
360.0
  0
ENDBLK
  5
1F9
330
1F7
100
AcDbEntity
  8
0
100
AcDbBlockEnd
  0
BLOCK
  5
26B
330
26A
100
AcDbEntity
  8
0
100
AcDbBlockBegin
  2
*D24
 70
     1
 71
     0
 10
0.0
 20
0.0
 30
0.0
  3
*D24
  1

  0
TEXT
  5
26D
330
26A
100
AcDbEntity
  8
GR1-1
  6
CONTINUOUS
 62
     7
100
AcDbText
 10
125.799812
 20
108.535324
 30
0.0
 40
4.0
  1
%%c12
 50
90.0
 41
0.84375
  7
FX_VECTOR
 72
     5
 11
125.799812
 21
117.535324
 31
0.0
100
AcDbText
  0
LINE
  5
26E
330
26A
100
AcDbEntity
  8
GR1-1
  6
CONTINUOUS
 62
     7
100
AcDbLine
 10
117.799813
 20
107.005324
 30
0.0
 11
117.799813
 21
119.065324
 31
0.0
  0
LINE
  5
26F
330
26A
100
AcDbEntity
  8
GR1-1
  6
CONTINUOUS
 62
     7
100
AcDbLine
 10
110.497414
 20
107.005324
 30
0.0
 11
118.799813
 21
107.005324
 31
0.0
  0
LINE
  5
270
330
26A
100
AcDbEntity
  8
GR1-1
  6
CONTINUOUS
 62
     7
100
AcDbLine
 10
110.497414
 20
119.065324
 30
0.0
 11
118.799813
 21
119.065324
 31
0.0
  0
LINE
  5
271
330
26A
100
AcDbEntity
  8
GR1-1
  6
CONTINUOUS
 62
     7
100
AcDbLine
 10
117.799813
 20
101.005324
 30
0.0
 11
117.799813
 21
107.005324
 31
0.0
  0
INSERT
  5
272
330
26A
100
AcDbEntity
  8
GR1-1
  6
CONTINUOUS
 62
     7
100
AcDbBlockReference
  2
FXTIP_ARROW_E
 10
117.799813
 20
107.005324
 30
0.0
 41
3.0
 42
3.0
 50
90.0
  0
LINE
  5
273
330
26A
100
AcDbEntity
  8
GR1-1
  6
CONTINUOUS
 62
     7
100
AcDbLine
 10
117.799813
 20
119.065324
 30
0.0
 11
117.799813
 21
125.065324
 31
0.0
  0
INSERT
  5
274
330
26A
100
AcDbEntity
  8
GR1-1
  6
CONTINUOUS
 62
     7
100
AcDbBlockReference
  2
FXTIP_ARROW_S
 10
117.799813
 20
119.065324
 30
0.0
 41
3.0
 42
3.0
 50
270.0
  0
ENDBLK
  5
26C
330
26A
100
AcDbEntity
  8
0
100
AcDbBlockEnd
  0
BLOCK
  5
277
330
276
100
AcDbEntity
  8
0
100
AcDbBlockBegin
  2
*D25
 70
     1
 71
     0
 10
0.0
 20
0.0
 30
0.0
  3
*D25
  1

  0
TEXT
  5
279
330
276
100
AcDbEntity
  8
GR1-1
  6
CONTINUOUS
 62
     7
100
AcDbText
 10
136.247894
 20
107.035324
 30
0.0
 40
4.0
  1
%%c100
 50
90.0
 41
0.828947
  7
FX_VECTOR
 72
     5
 11
136.247894
 21
119.035324
 31
0.0
100
AcDbText
  0
LINE
  5
27A
330
276
100
AcDbEntity
  8
GR1-1
  6
CONTINUOUS
 62
     7
100
AcDbLine
 10
137.247895
 20
63.035324
 30
0.0
 11
137.247895
 21
163.035324
 31
0.0
  0
INSERT
  5
27B
330
276
100
AcDbEntity
  8
GR1-1
  6
CONTINUOUS
 62
     7
100
AcDbBlockReference
  2
FXTIP_ARROW_S
 10
137.247895
 20
63.035324
 30
0.0
 41
3.0
 42
3.0
 50
270.0
  0
INSERT
  5
27C
330
276
100
AcDbEntity
  8
GR1-1
  6
CONTINUOUS
 62
     7
100
AcDbBlockReference
  2
FXTIP_ARROW_E
 10
137.247895
 20
163.035324
 30
0.0
 41
3.0
 42
3.0
 50
90.0
  0
LINE
  5
27D
330
276
100
AcDbEntity
  8
GR1-1
  6
CONTINUOUS
 62
     7
100
AcDbLine
 10
89.997414
 20
63.035324
 30
0.0
 11
138.247895
 21
63.035324
 31
0.0
  0
LINE
  5
27E
330
276
100
AcDbEntity
  8
GR1-1
  6
CONTINUOUS
 62
     7
100
AcDbLine
 10
89.997414
 20
163.035324
 30
0.0
 11
138.247895
 21
163.035324
 31
0.0
  0
ENDBLK
  5
278
330
276
100
AcDbEntity
  8
0
100
AcDbBlockEnd
  0
BLOCK
  5
282
330
281
100
AcDbEntity
  8
0
100
AcDbBlockBegin
  2
BLKF028
 70
     0
 71
     0
 10
0.0
 20
0.0
 30
0.0
  3
BLKF028
  1

  0
LINE
  5
285
330
281
100
AcDbEntity
  8
}}ﾊﾊGG血CCТ
  6
CONTINUOUS
 62
     7
100
AcDbLine
 10
10.0
 20
10.0
 30
0.0
 11
287.0
 21
10.0
 31
0.0
  0
LINE
  5
286
330
281
100
AcDbEntity
  8
}}ﾊﾊGG血CCТ
  6
CONTINUOUS
 62
     7
100
AcDbLine
 10
10.0
 20
10.0
 30
0.0
 11
10.0
 21
200.0
 31
0.0
  0
LINE
  5
287
330
281
100
AcDbEntity
  8
}}ﾊﾊGG血CCТ
  6
CONTINUOUS
 62
     7
100
AcDbLine
 10
10.0
 20
200.0
 30
0.0
 11
287.0
 21
200.0
 31
0.0
  0
LINE
  5
288
330
281
100
AcDbEntity
  8
}}ﾊﾊGG血CCТ
  6
CONTINUOUS
 62
     7
100
AcDbLine
 10
287.0
 20
200.0
 30
0.0
 11
287.0
 21
10.0
 31
0.0
  0
LINE
  5
289
330
281
100
AcDbEntity
  8
}}ﾊﾊGG血CCТ
  6
CONTINUOUS
 62
     7
100
AcDbLine
 10
30.0
 20
10.0
 30
0.0
 11
30.0
 21
20.0
 31
0.0
  0
TEXT
  5
28A
330
281
100
AcDbEntity
  8
}}ﾊﾊGG血CCТ
  6
CONTINUOUS
 62
     7
100
AcDbText
 10
14.738815
 20
11.596879
 30
0.0
 40
6.648749
  1
品名
 41
1.083413
  7
FX_VECTOR
 72
     5
 11
26.058355
 21
11.596879
 31
0.0
100
AcDbText
  0
LINE
  5
28B
330
281
100
AcDbEntity
  8
}}ﾊﾊGG血CCТ
  6
CONTINUOUS
 62
     7
100
AcDbLine
 10
110.0
 20
20.0
 30
0.0
 11
110.0
 21
10.0
 31
0.0
  0
LINE
  5
28C
330
281
100
AcDbEntity
  8
}}ﾊﾊGG血CCТ
  6
CONTINUOUS
 62
     7
100
AcDbLine
 10
10.0
 20
20.0
 30
0.0
 11
287.0
 21
20.0
 31
0.0
  0
INSERT
  5
290
330
281
100
AcDbEntity
  8
0
100
AcDbBlockReference
  2
BLKF029
 10
0.0
 20
0.0
 30
0.0
  0
INSERT
  5
299
330
281
100
AcDbEntity
  8
0
100
AcDbBlockReference
  2
BLKF030
 10
0.0
 20
0.0
 30
0.0
  0
HATCH
  5
2A9
330
281
100
AcDbEntity
  8
GR1-1
  6
CONTINUOUS
 62
     7
100
AcDbHatch
 10
0.0
 20
0.0
 30
0.0
210
0.0
220
0.0
230
1.0
  2

 70
     0
 71
     1
 91
        2
 92
        0
 93
        4
 72
     1
 10
215.8018997861325
 20
17.91346152
 11
221.8018997861325
 21
17.91346152
 72
     1
 10
221.8018997861325
 20
17.91346152
 11
221.8018997861325
 21
11.91346152
 72
     1
 10
221.8018997861325
 20
11.91346152
 11
215.8018997861325
 21
11.91346152
 72
     1
 10
215.8018997861325
 20
11.91346152
 11
215.8018997861325
 21
17.91346152
 97
        0
 92
        0
 93
       15
 72
     1
 10
218.8018997861325
 20
17.76923076000002
 11
215.9461305461325
 21
14.91346152
 72
     1
 10
215.9461305461325
 20
14.91346152
 11
218.8018997861325
 21
12.05769228000001
 72
     1
 10
218.8018997861325
 20
12.05769228000001
 11
220.3595920661325
 21
13.61538462
 72
     1
 10
220.3595920661325
 20
13.61538462
 11
220.3595920661325
 21
12.98076924
 72
     1
 10
220.3595920661325
 20
12.98076924
 11
221.2249766861325
 21
12.98076924
 72
     1
 10
221.2249766861325
 20
12.98076924
 11
221.2249766861325
 21
15.00000000000001
 72
     1
 10
221.2249766861325
 20
15.00000000000001
 11
218.8018997861325
 21
15.00000000000001
 72
     1
 10
218.8018997861325
 20
15.00000000000001
 11
218.8018997861325
 21
14.13461538000001
 72
     1
 10
218.8018997861325
 20
14.13461538000001
 11
219.2461305461325
 21
14.13461538000001
 72
     1
 10
219.2461305461325
 20
14.13461538000001
 11
218.8018997861325
 21
13.69038462
 72
     1
 10
218.8018997861325
 20
13.69038462
 11
217.5788228861325
 21
14.91346152
 72
     1
 10
217.5788228861325
 20
14.91346152
 11
218.8018997861325
 21
16.13653842000003
 72
     1
 10
218.8018997861325
 20
16.13653842000003
 11
219.5922844061325
 21
15.3461538
 72
     1
 10
219.5922844061325
 20
15.3461538
 11
221.2249766861325
 21
15.3461538
 72
     1
 10
221.2249766861325
 20
15.3461538
 11
218.8018997861325
 21
17.76923076000002
 97
        0
 75
     0
 76
     0
 52
45.0
 41
0.05
 77
     0
 78
     1
 53
45.0
 43
0.0
 44
0.0
 45
-0.0353553390593274
 46
0.0353553390593274
 79
     0
 98
        0
  0
TEXT
  5
2AA
330
281
100
AcDbEntity
  8
}}ﾊﾊGG血CCТ
  6
CONTINUOUS
 62
     7
100
AcDbText
 10
226.225754
 20
11.461285
 30
0.0
 40
6.0
  1
GOLD CASTER
 41
0.719626
  7
FX_VECTOR
 72
     5
 11
270.225754
 21
11.461285
 31
0.0
100
AcDbText
  0
LINE
  5
2AB
330
281
100
AcDbEntity
  8
}}ﾊﾊGG血CCТ
  6
CONTINUOUS
 62
     7
100
AcDbLine
 10
130.0
 20
10.0
 30
0.0
 11
130.0
 21
20.0
 31
0.0
  0
TEXT
  5
2AC
330
281
100
AcDbEntity
  8
}}ﾊﾊGG血CCТ
  6
CONTINUOUS
 62
     7
100
AcDbText
 10
114.738815
 20
11.596879
 30
0.0
 40
6.648749
  1
図番
 41
1.083413
  7
FX_VECTOR
 72
     5
 11
126.058355
 21
11.596879
 31
0.0
100
AcDbText
  0
LINE
  5
2AD
330
281
100
AcDbEntity
  8
}}ﾊﾊGG血CCТ
  6
CONTINUOUS
 62
     7
100
AcDbLine
 10
210.0
 20
20.0
 30
0.0
 11
210.0
 21
10.0
 31
0.0
  0
ENDBLK
  5
283
330
281
100
AcDbEntity
  8
0
100
AcDbBlockEnd
  0
BLOCK
  5
28E
330
28D
100
AcDbEntity
  8
0
100
AcDbBlockBegin
  2
BLKF029
 70
     0
 71
     0
 10
0.0
 20
0.0
 30
0.0
  3
BLKF029
  1

  0
LINE
  5
292
330
28D
100
AcDbEntity
  8
0-1
  6
CONTINUOUS
 62
     7
100
AcDbLine
 10
221.8019
 20
17.913462
 30
0.0
 11
215.8019
 21
17.913462
 31
0.0
  0
LINE
  5
293
330
28D
100
AcDbEntity
  8
0-1
  6
CONTINUOUS
 62
     7
100
AcDbLine
 10
215.8019
 20
17.913462
 30
0.0
 11
215.8019
 21
11.913462
 31
0.0
  0
LINE
  5
294
330
28D
100
AcDbEntity
  8
0-1
  6
CONTINUOUS
 62
     7
100
AcDbLine
 10
215.8019
 20
11.913462
 30
0.0
 11
221.8019
 21
11.913462
 31
0.0
  0
LINE
  5
295
330
28D
100
AcDbEntity
  8
0-1
  6
CONTINUOUS
 62
     7
100
AcDbLine
 10
221.8019
 20
11.913462
 30
0.0
 11
221.8019
 21
17.913462
 31
0.0
  0
ENDBLK
  5
28F
330
28D
100
AcDbEntity
  8
0
100
AcDbBlockEnd
  0
BLOCK
  5
297
330
296
100
AcDbEntity
  8
0
100
AcDbBlockBegin
  2
BLKF030
 70
     0
 71
     0
 10
0.0
 20
0.0
 30
0.0
  3
BLKF030
  1

  0
LINE
  5
29A
330
296
100
AcDbEntity
  8
0-1
  6
CONTINUOUS
 62
     7
100
AcDbLine
 10
221.224977
 20
15.346154
 30
0.0
 11
218.8019
 21
17.769231
 31
0.0
  0
LINE
  5
29B
330
296
100
AcDbEntity
  8
0-1
  6
CONTINUOUS
 62
     7
100
AcDbLine
 10
218.8019
 20
17.769231
 30
0.0
 11
215.946131
 21
14.913462
 31
0.0
  0
LINE
  5
29C
330
296
100
AcDbEntity
  8
0-1
  6
CONTINUOUS
 62
     7
100
AcDbLine
 10
215.946131
 20
14.913462
 30
0.0
 11
218.8019
 21
12.057692
 31
0.0
  0
LINE
  5
29D
330
296
100
AcDbEntity
  8
0-1
  6
CONTINUOUS
 62
     7
100
AcDbLine
 10
218.8019
 20
12.057692
 30
0.0
 11
220.359592
 21
13.615385
 31
0.0
  0
LINE
  5
29E
330
296
100
AcDbEntity
  8
0-1
  6
CONTINUOUS
 62
     7
100
AcDbLine
 10
220.359592
 20
13.615385
 30
0.0
 11
220.359592
 21
12.980769
 31
0.0
  0
LINE
  5
29F
330
296
100
AcDbEntity
  8
0-1
  6
CONTINUOUS
 62
     7
100
AcDbLine
 10
220.359592
 20
12.980769
 30
0.0
 11
221.224977
 21
12.980769
 31
0.0
  0
LINE
  5
2A0
330
296
100
AcDbEntity
  8
0-1
  6
CONTINUOUS
 62
     7
100
AcDbLine
 10
221.224977
 20
12.980769
 30
0.0
 11
221.224977
 21
15.0
 31
0.0
  0
LINE
  5
2A1
330
296
100
AcDbEntity
  8
0-1
  6
CONTINUOUS
 62
     7
100
AcDbLine
 10
221.224977
 20
15.0
 30
0.0
 11
218.8019
 21
15.0
 31
0.0
  0
LINE
  5
2A2
330
296
100
AcDbEntity
  8
0-1
  6
CONTINUOUS
 62
     7
100
AcDbLine
 10
218.8019
 20
15.0
 30
0.0
 11
218.8019
 21
14.134615
 31
0.0
  0
LINE
  5
2A3
330
296
100
AcDbEntity
  8
0-1
  6
CONTINUOUS
 62
     7
100
AcDbLine
 10
218.8019
 20
14.134615
 30
0.0
 11
219.246131
 21
14.134615
 31
0.0
  0
LINE
  5
2A4
330
296
100
AcDbEntity
  8
0-1
  6
CONTINUOUS
 62
     7
100
AcDbLine
 10
219.246131
 20
14.134615
 30
0.0
 11
218.8019
 21
13.690385
 31
0.0
  0
LINE
  5
2A5
330
296
100
AcDbEntity
  8
0-1
  6
CONTINUOUS
 62
     7
100
AcDbLine
 10
218.8019
 20
13.690385
 30
0.0
 11
217.578823
 21
14.913462
 31
0.0
  0
LINE
  5
2A6
330
296
100
AcDbEntity
  8
0-1
  6
CONTINUOUS
 62
     7
100
AcDbLine
 10
217.578823
 20
14.913462
 30
0.0
 11
218.8019
 21
16.136538
 31
0.0
  0
LINE
  5
2A7
330
296
100
AcDbEntity
  8
0-1
  6
CONTINUOUS
 62
     7
100
AcDbLine
 10
218.8019
 20
16.136538
 30
0.0
 11
219.592284
 21
15.346154
 31
0.0
  0
LINE
  5
2A8
330
296
100
AcDbEntity
  8
0-1
  6
CONTINUOUS
 62
     7
100
AcDbLine
 10
219.592284
 20
15.346154
 30
0.0
 11
221.224977
 21
15.346154
 31
0.0
  0
ENDBLK
  5
298
330
296
100
AcDbEntity
  8
0
100
AcDbBlockEnd
  0
ENDSEC
  0
SECTION
  2
ENTITIES
  0
TEXT
  5
A8
330
1F
100
AcDbEntity
  8
}}ﾊﾊGG血CCТ
  6
CONTINUOUS
 62
     7
100
AcDbText
 10
31.862137
 20
12.0
 30
0.0
 40
6.0
  1
Ｗ－１００　ＲＢ
 41
0.794326
  7
FX_VECTOR
 72
     5
 11
63.862137
 21
12.0
 31
0.0
100
AcDbText
  0
LINE
  5
AA
330
1F
100
AcDbEntity
  8
GR1-1
  6
CENTER
 62
     6
100
AcDbLine
 10
88.997414
 20
75.535324
 30
0.0
 11
88.997414
 21
150.435324
 31
0.0
  0
LINE
  5
AB
330
1F
100
AcDbEntity
  8
GR1-1
  6
CENTER
 62
     6
100
AcDbLine
 10
65.373096
 20
113.035324
 30
0.0
 11
113.182677
 21
113.035324
 31
0.0
  0
LINE
  5
AC
330
1F
100
AcDbEntity
  8
GR1-1
  6
CONTINUOUS
 62
     3
100
AcDbLine
 10
97.497414
 20
129.035324
 30
0.0
 11
104.797414
 21
129.035324
 31
0.0
  0
LINE
  5
AD
330
1F
100
AcDbEntity
  8
GR1-1
  6
CONTINUOUS
 62
     3
100
AcDbLine
 10
97.797414
 20
130.235324
 30
0.0
 11
104.797414
 21
130.235324
 31
0.0
  0
LINE
  5
AE
330
1F
100
AcDbEntity
  8
GR1-1
  6
CONTINUOUS
 62
     3
100
AcDbLine
 10
97.497414
 20
97.035324
 30
0.0
 11
106.247414
 21
97.035324
 31
0.0
  0
LINE
  5
AF
330
1F
100
AcDbEntity
  8
GR1-1
  6
CONTINUOUS
 62
     3
100
AcDbLine
 10
97.797414
 20
95.835324
 30
0.0
 11
104.797414
 21
95.835324
 31
0.0
  0
LINE
  5
B0
330
1F
100
AcDbEntity
  8
GR1-1
  6
CONTINUOUS
 62
     3
100
AcDbLine
 10
96.997414
 20
126.635324
 30
0.0
 11
96.997414
 21
128.535324
 31
0.0
  0
LINE
  5
B1
330
1F
100
AcDbEntity
  8
GR1-1
  6
CONTINUOUS
 62
     3
100
AcDbLine
 10
95.797414
 20
126.635324
 30
0.0
 11
95.797414
 21
128.235324
 31
0.0
  0
ARC
  5
B2
330
1F
100
AcDbEntity
  8
GR1-1
  6
CONTINUOUS
 62
     3
100
AcDbCircle
 10
97.797414
 20
128.235324
 30
0.0
 40
2.0
100
AcDbArc
 50
90.0
 51
180.0
  0
LINE
  5
B3
330
1F
100
AcDbEntity
  8
GR1-1
  6
CONTINUOUS
 62
     3
100
AcDbLine
 10
96.997414
 20
99.435324
 30
0.0
 11
96.997414
 21
97.535324
 31
0.0
  0
LINE
  5
B4
330
1F
100
AcDbEntity
  8
GR1-1
  6
CONTINUOUS
 62
     3
100
AcDbLine
 10
95.797414
 20
99.435324
 30
0.0
 11
95.797414
 21
97.835324
 31
0.0
  0
ARC
  5
B5
330
1F
100
AcDbEntity
  8
GR1-1
  6
CONTINUOUS
 62
     3
100
AcDbCircle
 10
97.797414
 20
97.835324
 30
0.0
 40
2.0
100
AcDbArc
 50
180.0
 51
270.0
  0
LINE
  5
B6
330
1F
100
AcDbEntity
  8
GR1-1
  6
CONTINUOUS
 62
     3
100
AcDbLine
 10
106.997414
 20
92.815171
 30
0.0
 11
106.997414
 21
94.835324
 31
0.0
  0
LINE
  5
B7
330
1F
100
AcDbEntity
  8
GR1-1
  6
CONTINUOUS
 62
     3
100
AcDbLine
 10
105.797414
 20
92.721589
 30
0.0
 11
105.797414
 21
94.835324
 31
0.0
  0
LINE
  5
B8
330
1F
100
AcDbEntity
  8
GR1-1
  6
CONTINUOUS
 62
     3
100
AcDbLine
 10
106.497414
 20
145.490239
 30
0.0
 11
106.497414
 21
149.535324
 31
0.0
  0
LINE
  5
B9
330
1F
100
AcDbEntity
  8
GR1-1
  6
CONTINUOUS
 62
     6
100
AcDbLine
 10
96.997414
 20
99.535324
 30
0.0
 11
96.997414
 21
126.535324
 31
0.0
  0
LINE
  5
BA
330
1F
100
AcDbEntity
  8
GR1-1
  6
CONTINUOUS
 62
     6
100
AcDbLine
 10
95.797414
 20
99.535324
 30
0.0
 11
95.797414
 21
126.535324
 31
0.0
  0
ARC
  5
BB
330
1F
100
AcDbEntity
  8
GR1-1
  6
CONTINUOUS
 62
     3
100
AcDbCircle
 10
104.797414
 20
131.235324
 30
0.0
 40
1.0
100
AcDbArc
 50
270.0
 51
360.0
  0
ARC
  5
BC
330
1F
100
AcDbEntity
  8
GR1-1
  6
CONTINUOUS
 62
     3
100
AcDbCircle
 10
104.797414
 20
131.235324
 30
0.0
 40
2.2
100
AcDbArc
 50
270.0
 51
360.0
  0
ARC
  5
BD
330
1F
100
AcDbEntity
  8
GR1-1
  6
CONTINUOUS
 62
     3
100
AcDbCircle
 10
104.797414
 20
94.835324
 30
0.0
 40
1.0
100
AcDbArc
 50
0.0
 51
90.0
  0
ARC
  5
BE
330
1F
100
AcDbEntity
  8
GR1-1
  6
CONTINUOUS
 62
     3
100
AcDbCircle
 10
104.797414
 20
94.835324
 30
0.0
 40
2.2
100
AcDbArc
 50
0.0
 51
90.0
  0
LINE
  5
BF
330
1F
100
AcDbEntity
  8
GR1-1
  6
CONTINUOUS
 62
     3
100
AcDbLine
 10
95.797414
 20
99.435324
 30
0.0
 11
96.997414
 21
99.435324
 31
0.0
  0
LINE
  5
C0
330
1F
100
AcDbEntity
  8
GR1-1
  6
CONTINUOUS
 62
     3
100
AcDbLine
 10
95.797414
 20
126.635324
 30
0.0
 11
96.997414
 21
126.635324
 31
0.0
  0
LINE
  5
C1
330
1F
100
AcDbEntity
  8
GR1-1
  6
CONTINUOUS
 62
     3
100
AcDbLine
 10
106.997414
 20
133.255477
 30
0.0
 11
106.997414
 21
131.235324
 31
0.0
  0
LINE
  5
C2
330
1F
100
AcDbEntity
  8
GR1-1
  6
CONTINUOUS
 62
     3
100
AcDbLine
 10
105.797414
 20
133.349059
 30
0.0
 11
105.797414
 21
131.235324
 31
0.0
  0
ARC
  5
C3
330
1F
100
AcDbEntity
  8
GR1-1
  6
CONTINUOUS
 62
     3
100
AcDbCircle
 10
104.797414
 20
133.349059
 30
0.0
 40
1.0
100
AcDbArc
 50
0.0
 51
34.649442
  0
ARC
  5
C4
330
1F
100
AcDbEntity
  8
GR1-1
  6
CONTINUOUS
 62
     3
100
AcDbCircle
 10
104.497414
 20
133.255477
 30
0.0
 40
2.5
100
AcDbArc
 50
0.0
 51
36.869898
  0
LINE
  5
C5
330
1F
100
AcDbEntity
  8
GR1-1
  6
CONTINUOUS
 62
     3
100
AcDbLine
 10
71.497414
 20
145.490239
 30
0.0
 11
71.497414
 21
149.535324
 31
0.0
  0
ARC
  5
C6
330
1F
100
AcDbEntity
  8
LAYERGROUP-1
  6
CONTINUOUS
 62
     3
100
AcDbCircle
 10
91.197414
 20
75.535324
 30
0.0
 40
1.0
100
AcDbArc
 50
90.0
 51
180.0
  0
ARC
  5
C7
330
1F
100
AcDbEntity
  8
LAYERGROUP-1
  6
CONTINUOUS
 62
     3
100
AcDbCircle
 10
91.197414
 20
75.535324
 30
0.0
 40
2.2
100
AcDbArc
 50
90.0
 51
180.0
  0
LINE
  5
C8
330
1F
100
AcDbEntity
  8
GR1-1
  6
CONTINUOUS
 62
     3
100
AcDbLine
 10
104.297414
 20
76.535324
 30
0.0
 11
91.197414
 21
76.535324
 31
0.0
  0
LINE
  5
C9
330
1F
100
AcDbEntity
  8
GR1-1
  6
CONTINUOUS
 62
     3
100
AcDbLine
 10
104.297414
 20
77.735324
 30
0.0
 11
91.197414
 21
77.735324
 31
0.0
  0
ARC
  5
CA
330
1F
100
AcDbEntity
  8
LAYERGROUP-1
  6
CONTINUOUS
 62
     3
100
AcDbCircle
 10
86.797414
 20
75.535324
 30
0.0
 40
1.0
100
AcDbArc
 50
0.0
 51
90.0
  0
ARC
  5
CB
330
1F
100
AcDbEntity
  8
LAYERGROUP-1
  6
CONTINUOUS
 62
     3
100
AcDbCircle
 10
86.797414
 20
75.535324
 30
0.0
 40
2.2
100
AcDbArc
 50
0.0
 51
90.0
  0
LINE
  5
CC
330
1F
100
AcDbEntity
  8
GR1-1
  6
CONTINUOUS
 62
     3
100
AcDbLine
 10
73.697414
 20
76.535324
 30
0.0
 11
86.797414
 21
76.535324
 31
0.0
  0
LINE
  5
CD
330
1F
100
AcDbEntity
  8
GR1-1
  6
CONTINUOUS
 62
     3
100
AcDbLine
 10
73.697414
 20
77.735324
 30
0.0
 11
86.797414
 21
77.735324
 31
0.0
  0
ARC
  5
CE
330
1F
100
AcDbEntity
  8
GR1-1
  6
CONTINUOUS
 62
     3
100
AcDbCircle
 10
106.497414
 20
86.035324
 30
0.0
 40
3.0
100
AcDbArc
 50
145.350558
 51
221.810315
  0
ARC
  5
CF
330
1F
100
AcDbEntity
  8
GR1-1
  6
CONTINUOUS
 62
     3
100
AcDbCircle
 10
104.297414
 20
80.694999
 30
0.0
 40
1.0
100
AcDbArc
 50
0.0
 51
41.810315
  0
ARC
  5
D0
330
1F
100
AcDbEntity
  8
GR1-1
  6
CONTINUOUS
 62
     3
100
AcDbCircle
 10
103.997414
 20
80.580409
 30
0.0
 40
2.5
100
AcDbArc
 50
0.0
 51
41.810315
  0
ARC
  5
D1
330
1F
100
AcDbEntity
  8
GR1-1
  6
CONTINUOUS
 62
     3
100
AcDbCircle
 10
106.497414
 20
86.035324
 30
0.0
 40
4.2
100
AcDbArc
 50
145.350558
 51
221.810315
  0
LINE
  5
D2
330
1F
100
AcDbEntity
  8
GR1-1
  6
CONTINUOUS
 62
     3
100
AcDbLine
 10
105.860804
 20
82.247076
 30
0.0
 11
104.261346
 21
84.035324
 31
0.0
  0
LINE
  5
D3
330
1F
100
AcDbEntity
  8
GR1-1
  6
CONTINUOUS
 62
     3
100
AcDbLine
 10
105.04277
 20
81.361666
 30
0.0
 11
103.366919
 21
83.235324
 31
0.0
  0
LINE
  5
D4
330
1F
100
AcDbEntity
  8
GR1-1
  6
CONTINUOUS
 62
     3
100
AcDbLine
 10
106.554029
 20
91.393786
 30
0.0
 11
104.029476
 21
87.740986
 31
0.0
  0
LINE
  5
D5
330
1F
100
AcDbEntity
  8
GR1-1
  6
CONTINUOUS
 62
     3
100
AcDbLine
 10
105.62006
 20
92.153035
 30
0.0
 11
103.042301
 21
88.42325
 31
0.0
  0
ARC
  5
D6
330
1F
100
AcDbEntity
  8
GR1-1
  6
CONTINUOUS
 62
     3
100
AcDbCircle
 10
104.797414
 20
92.721589
 30
0.0
 40
1.0
100
AcDbArc
 50
-34.649442
 51
0.0
  0
ARC
  5
D7
330
1F
100
AcDbEntity
  8
GR1-1
  6
CONTINUOUS
 62
     3
100
AcDbCircle
 10
104.497414
 20
92.815171
 30
0.0
 40
2.5
100
AcDbArc
 50
-34.649442
 51
0.0
  0
LINE
  5
D8
330
1F
100
AcDbEntity
  8
GR1-1
  6
CONTINUOUS
 62
     3
100
AcDbLine
 10
71.497414
 20
80.580409
 30
0.0
 11
71.497414
 21
76.535324
 31
0.0
  0
ARC
  5
D9
330
1F
100
AcDbEntity
  8
LAYERGROUP-1
  6
CONTINUOUS
 62
     3
100
AcDbCircle
 10
73.697414
 20
78.735324
 30
0.0
 40
1.0
100
AcDbArc
 50
180.0
 51
270.0
  0
ARC
  5
DA
330
1F
100
AcDbEntity
  8
LAYERGROUP-1
  6
CONTINUOUS
 62
     3
100
AcDbCircle
 10
73.697414
 20
78.735324
 30
0.0
 40
2.2
100
AcDbArc
 50
180.0
 51
270.0
  0
LINE
  5
DB
330
1F
100
AcDbEntity
  8
GR1-1
  6
CONTINUOUS
 62
     3
100
AcDbLine
 10
72.697414
 20
80.694999
 30
0.0
 11
72.697414
 21
78.735324
 31
0.0
  0
LINE
  5
DC
330
1F
100
AcDbEntity
  8
GR1-1
  6
CONTINUOUS
 62
     3
100
AcDbLine
 10
106.497414
 20
80.580409
 30
0.0
 11
106.497414
 21
76.535324
 31
0.0
  0
ARC
  5
DD
330
1F
100
AcDbEntity
  8
LAYERGROUP-1
  6
CONTINUOUS
 62
     3
100
AcDbCircle
 10
104.297414
 20
78.735324
 30
0.0
 40
1.0
100
AcDbArc
 50
270.0
 51
360.0
  0
ARC
  5
DE
330
1F
100
AcDbEntity
  8
LAYERGROUP-1
  6
CONTINUOUS
 62
     3
100
AcDbCircle
 10
104.297414
 20
78.735324
 30
0.0
 40
2.2
100
AcDbArc
 50
270.0
 51
360.0
  0
LINE
  5
DF
330
1F
100
AcDbEntity
  8
GR1-1
  6
CONTINUOUS
 62
     3
100
AcDbLine
 10
105.297414
 20
80.694999
 30
0.0
 11
105.297414
 21
78.735324
 31
0.0
  0
LINE
  5
E0
330
1F
100
AcDbEntity
  8
GR1-1
  6
CENTER
 62
     6
100
AcDbLine
 10
88.997414
 20
164.348175
 30
0.0
 11
88.997414
 21
151.535324
 31
0.0
  0
LINE
  5
E1
330
1F
100
AcDbEntity
  8
GR1-1
  6
CONTINUOUS
 62
     3
100
AcDbLine
 10
88.997414
 20
75.635324
 30
0.0
 11
88.997414
 21
74.535324
 31
0.0
  0
LINE
  5
E2
330
1F
100
AcDbEntity
  8
GR1-1
  6
CONTINUOUS
 62
     3
100
AcDbLine
 10
87.797414
 20
75.535324
 30
0.0
 11
87.797414
 21
74.835324
 31
0.0
  0
ARC
  5
E3
330
1F
100
AcDbEntity
  8
LAYERGROUP-1
  6
CONTINUOUS
 62
     3
100
AcDbCircle
 10
89.297414
 20
74.835324
 30
0.0
 40
1.5
100
AcDbArc
 50
180.0
 51
270.0
  0
LINE
  5
E4
330
1F
100
AcDbEntity
  8
LAYERGROUP-1
  6
CONTINUOUS
 62
     3
100
AcDbLine
 10
90.197414
 20
74.535324
 30
0.0
 11
90.197414
 21
75.535324
 31
0.0
  0
LINE
  5
E5
330
1F
100
AcDbEntity
  8
GR1-1
  6
CONTINUOUS
 62
     3
100
AcDbLine
 10
90.197414
 20
74.535324
 30
0.0
 11
90.792247
 21
76.037139
 31
0.0
  0
LINE
  5
E6
330
1F
100
AcDbEntity
  8
GR1-1
  6
CONTINUOUS
 62
     3
100
AcDbLine
 10
91.272996
 20
74.535324
 30
0.0
 11
91.721977
 21
75.668896
 31
0.0
  0
ARC
  5
E7
330
1F
100
AcDbEntity
  8
GR1-1
  6
CONTINUOUS
 62
     3
100
AcDbCircle
 10
89.513386
 20
75.205984
 30
0.0
 40
1.883085903551073
100
AcDbArc
 50
263.414235
 51
339.136093
  0
LINE
  5
E8
330
1F
100
AcDbEntity
  8
GR1-1
  6
CONTINUOUS
 62
     3
100
AcDbLine
 10
91.721977
 20
75.668896
 30
0.0
 11
90.792247
 21
76.037139
 31
0.0
  0
LINE
  5
E9
330
1F
100
AcDbEntity
  8
GR1-1
  6
CENTER
 62
     6
100
AcDbLine
 10
88.997414
 20
60.167756
 30
0.0
 11
88.997414
 21
74.535324
 31
0.0
  0
LINE
  5
EA
330
1F
100
AcDbEntity
  8
GR1-1
  6
CONTINUOUS
 62
     3
100
AcDbLine
 10
109.497414
 20
107.005324
 30
0.0
 11
97.297414
 21
107.005324
 31
0.0
  0
LINE
  5
EB
330
1F
100
AcDbEntity
  8
GR1-1
  6
CONTINUOUS
 62
     3
100
AcDbLine
 10
109.497414
 20
119.065324
 30
0.0
 11
97.297414
 21
119.065324
 31
0.0
  0
INSERT
  5
EF
330
1F
100
AcDbEntity
  8
0
100
AcDbBlockReference
  2
BLKF021
 10
0.0
 20
0.0
 30
0.0
  0
ARC
  5
11C
330
1F
100
AcDbEntity
  8
GR1-1
  6
CONTINUOUS
 62
     3
100
AcDbCircle
 10
109.497414
 20
106.505324
 30
0.0
 40
0.5
100
AcDbArc
 50
0.0
 51
90.0
  0
ARC
  5
11D
330
1F
100
AcDbEntity
  8
GR1-1
  6
CONTINUOUS
 62
     3
100
AcDbCircle
 10
109.497414
 20
119.565324
 30
0.0
 40
0.5
100
AcDbArc
 50
270.0
 51
360.0
  0
LINE
  5
11E
330
1F
100
AcDbEntity
  8
GR1-1
  6
CONTINUOUS
 62
     3
100
AcDbLine
 10
97.297414
 20
107.005324
 30
0.0
 11
96.997414
 21
106.705324
 31
0.0
  0
LINE
  5
11F
330
1F
100
AcDbEntity
  8
GR1-1
  6
CONTINUOUS
 62
     3
100
AcDbLine
 10
97.297414
 20
119.065324
 30
0.0
 11
96.997414
 21
119.365324
 31
0.0
  0
LINE
  5
120
330
1F
100
AcDbEntity
  8
GR1-1
  6
CONTINUOUS
 62
     3
100
AcDbLine
 10
109.997414
 20
121.835324
 30
0.0
 11
109.797414
 21
122.035324
 31
0.0
  0
LINE
  5
121
330
1F
100
AcDbEntity
  8
GR1-1
  6
CONTINUOUS
 62
     3
100
AcDbLine
 10
104.664081
 20
122.035324
 30
0.0
 11
109.797414
 21
122.035324
 31
0.0
  0
LINE
  5
122
330
1F
100
AcDbEntity
  8
GR1-1
  6
CONTINUOUS
 62
     3
100
AcDbLine
 10
99.330747
 20
122.035324
 30
0.0
 11
96.997414
 21
122.035324
 31
0.0
  0
LINE
  5
123
330
1F
100
AcDbEntity
  8
GR1-1
  6
CONTINUOUS
 62
     3
100
AcDbLine
 10
109.997414
 20
104.235324
 30
0.0
 11
109.797414
 21
104.035324
 31
0.0
  0
LINE
  5
124
330
1F
100
AcDbEntity
  8
GR1-1
  6
CONTINUOUS
 62
     3
100
AcDbLine
 10
104.664081
 20
104.035324
 30
0.0
 11
109.797414
 21
104.035324
 31
0.0
  0
LINE
  5
125
330
1F
100
AcDbEntity
  8
GR1-1
  6
CONTINUOUS
 62
     3
100
AcDbLine
 10
99.330747
 20
104.035324
 30
0.0
 11
96.997414
 21
104.035324
 31
0.0
  0
ARC
  5
126
330
1F
100
AcDbEntity
  8
GR1-1
  6
CONTINUOUS
 62
     3
100
AcDbCircle
 10
97.497414
 20
128.535324
 30
0.0
 40
0.5
100
AcDbArc
 50
90.0
 51
180.0
  0
ARC
  5
127
330
1F
100
AcDbEntity
  8
GR1-1
  6
CONTINUOUS
 62
     3
100
AcDbCircle
 10
97.497414
 20
97.535324
 30
0.0
 40
0.5
100
AcDbArc
 50
180.0
 51
270.0
  0
LINE
  5
128
330
1F
100
AcDbEntity
  8
GR1-1
  6
CONTINUOUS
 62
     3
100
AcDbLine
 10
90.197414
 20
74.535324
 30
0.0
 11
88.997414
 21
74.535324
 31
0.0
  0
LINE
  5
129
330
1F
100
AcDbEntity
  8
GR1-1
  6
CONTINUOUS
 62
     3
100
AcDbLine
 10
109.997414
 20
121.835324
 30
0.0
 11
109.997414
 21
104.235324
 31
0.0
  0
LINE
  5
12A
330
1F
100
AcDbEntity
  8
GR1-1
  6
CONTINUOUS
 62
     3
100
AcDbLine
 10
96.997414
 20
122.035324
 30
0.0
 11
96.997414
 21
104.035324
 31
0.0
  0
DIMENSION
  5
12B
330
1F
100
AcDbEntity
  8
GR1-1
100
AcDbDimension
  2
*D20
 10
109.997414
 20
46.566822
 30
0.0
 11
88.997414
 21
47.566826
 31
0.0
 70
    33
  3
FXDIMINFO
100
AcDbAlignedDimension
 13
67.997414
 23
104.235324
 33
0.0
 14
109.997414
 24
104.235324
 34
0.0
1001
ACAD
1000
DSTYLE
1002
{
1070
     7
1000
FXTIP_ARROW_E
1070
     6
1000
FXTIP_ARROW_S
1070
   173
1070
     1
1002
}
  0
ARC
  5
135
330
1F
100
AcDbEntity
  8
GR1-1
  6
CONTINUOUS
 62
     3
100
AcDbCircle
 10
88.997414
 20
128.035324
 30
0.0
 40
35.0
100
AcDbArc
 50
73.326167
 51
106.673833
  0
LINE
  5
136
330
1F
100
AcDbEntity
  8
GR1-1
  6
CONTINUOUS
 62
     3
100
AcDbLine
 10
75.858184
 20
158.887024
 30
0.0
 11
71.497414
 21
149.535324
 31
0.0
  0
ARC
  5
137
330
1F
100
AcDbEntity
  8
GR1-1
  6
CONTINUOUS
 62
     3
100
AcDbCircle
 10
80.389723
 20
156.773933
 30
0.0
 40
5.0
100
AcDbArc
 50
106.673833
 51
155.0
  0
LINE
  5
138
330
1F
100
AcDbEntity
  8
GR1-1
  6
CONTINUOUS
 62
     3
100
AcDbLine
 10
102.136645
 20
158.887024
 30
0.0
 11
106.497414
 21
149.535324
 31
0.0
  0
ARC
  5
139
330
1F
100
AcDbEntity
  8
GR1-1
  6
CONTINUOUS
 62
     3
100
AcDbCircle
 10
97.605106
 20
156.773933
 30
0.0
 40
5.0
100
AcDbArc
 50
25.0
 51
73.326167
  0
ARC
  5
13A
330
1F
100
AcDbEntity
  8
GR1-1
  6
CONTINUOUS
 62
     3
100
AcDbCircle
 10
88.997414
 20
98.035324
 30
0.0
 40
35.0
100
AcDbArc
 50
253.326167
 51
286.673833
  0
LINE
  5
13B
330
1F
100
AcDbEntity
  8
GR1-1
  6
CONTINUOUS
 62
     3
100
AcDbLine
 10
75.858184
 20
67.183624
 30
0.0
 11
71.497414
 21
76.535324
 31
0.0
  0
ARC
  5
13C
330
1F
100
AcDbEntity
  8
GR1-1
  6
CONTINUOUS
 62
     3
100
AcDbCircle
 10
80.389723
 20
69.296715
 30
0.0
 40
5.0
100
AcDbArc
 50
205.0
 51
253.326167
  0
LINE
  5
13D
330
1F
100
AcDbEntity
  8
GR1-1
  6
CONTINUOUS
 62
     3
100
AcDbLine
 10
102.136645
 20
67.183624
 30
0.0
 11
106.497414
 21
76.535324
 31
0.0
  0
ARC
  5
13E
330
1F
100
AcDbEntity
  8
GR1-1
  6
CONTINUOUS
 62
     3
100
AcDbCircle
 10
97.605106
 20
69.296715
 30
0.0
 40
5.0
100
AcDbArc
 50
286.673833
 51
335.0
  0
DIMENSION
  5
13F
330
1F
100
AcDbEntity
  8
GR1-1
100
AcDbDimension
  2
*D21
 10
106.497414
 20
54.616354
 30
0.0
 11
88.997414
 21
55.616356
 31
0.0
 70
    33
  3
FXDIMINFO
100
AcDbAlignedDimension
 13
71.497414
 23
76.535324
 33
0.0
 14
106.497414
 24
76.535324
 34
0.0
1001
ACAD
1000
DSTYLE
1002
{
1070
     7
1000
FXTIP_ARROW_E
1070
     6
1000
FXTIP_ARROW_S
1070
   173
1070
     1
1002
}
  0
LINE
  5
149
330
1F
100
AcDbEntity
  8
GR1-1
  6
CENTER
 62
     6
100
AcDbLine
 10
156.645874
 20
113.035324
 30
0.0
 11
262.67765
 21
113.035324
 31
0.0
  0
LINE
  5
14A
330
1F
100
AcDbEntity
  8
GR1-1
  6
CENTER
 62
     6
100
AcDbLine
 10
209.533812
 20
166.199532
 30
0.0
 11
209.533812
 21
59.612616
 31
0.0
  0
CIRCLE
  5
14B
330
1F
100
AcDbEntity
  8
GR1-1
  6
CONTINUOUS
 62
     6
100
AcDbCircle
 10
209.533812
 20
113.035324
 30
0.0
 40
36.5
  0
CIRCLE
  5
14C
330
1F
100
AcDbEntity
  8
GR1-1
  6
CONTINUOUS
 62
     6
100
AcDbCircle
 10
209.533812
 20
113.035324
 30
0.0
 40
21.0
  0
CIRCLE
  5
14D
330
1F
100
AcDbEntity
  8
GR1-1
  6
CONTINUOUS
 62
     6
100
AcDbCircle
 10
209.533812
 20
113.035324
 30
0.0
 40
27.0
  0
CIRCLE
  5
14E
330
1F
100
AcDbEntity
  8
GR1-1
  6
CONTINUOUS
 62
     6
100
AcDbCircle
 10
209.533812
 20
113.035324
 30
0.0
 40
31.5
  0
CIRCLE
  5
14F
330
1F
100
AcDbEntity
  8
GR1-1
  6
CONTINUOUS
 62
     3
100
AcDbCircle
 10
209.533812
 20
113.035324
 30
0.0
 40
16.0
  0
TEXT
  5
150
330
1F
100
AcDbEntity
  8
GR1-1
  6
CONTINUOUS
 62
     7
100
AcDbText
 10
213.763901
 20
134.381042
 30
0.0
 40
4.404505
  1
0
 50
344.0
 41
1.127877
  7
FX_VECTOR
 72
     5
 11
217.629617
 21
133.272566
 31
0.0
100
AcDbText
  0
TEXT
  5
151
330
1F
100
AcDbEntity
  8
GR1-1
  6
CONTINUOUS
 62
     7
100
AcDbText
 10
210.615616
 20
134.758835
 30
0.0
 40
4.404505
  1
0
 50
352.0
 41
1.127877
  7
FX_VECTOR
 72
     5
 11
214.597981
 21
134.19915
 31
0.0
100
AcDbText
  0
TEXT
  5
152
330
1F
100
AcDbEntity
  8
GR1-1
  6
CONTINUOUS
 62
     7
100
AcDbText
 10
207.593246
 20
134.821793
 30
0.0
 40
4.404505
  1
1
 41
1.743082
  7
FX_VECTOR
 72
     5
 11
211.614749
 21
134.821793
 31
0.0
100
AcDbText
  0
TEXT
  5
153
330
1F
100
AcDbEntity
  8
GR1-1
  6
CONTINUOUS
 62
     7
100
AcDbText
 10
205.326477
 20
134.255096
 30
0.0
 40
4.404505
  1
-
 50
8.0
 41
0.871541
  7
FX_VECTOR
 72
     5
 11
209.308843
 21
134.814781
 31
0.0
100
AcDbText
  0
TEXT
  5
154
330
1F
100
AcDbEntity
  8
GR1-1
  6
CONTINUOUS
 62
     7
100
AcDbText
 10
202.052246
 20
133.499512
 30
0.0
 40
4.404505
  1
W
 50
16.0
 41
0.871541
  7
FX_VECTOR
 72
     5
 11
205.917962
 21
134.607988
 31
0.0
100
AcDbText
  0
CIRCLE
  5
155
330
1F
100
AcDbEntity
  8
GR1-1
  6
CONTINUOUS
 62
     3
100
AcDbCircle
 10
209.533812
 20
113.035324
 30
0.0
 40
50.0
  0
INSERT
  5
159
330
1F
100
AcDbEntity
  8
0
100
AcDbBlockReference
  2
BLKF024
 10
0.0
 20
0.0
 30
0.0
  0
TEXT
  5
1B1
330
1F
100
AcDbEntity
  8
GR1-1
  6
CONTINUOUS
 62
     7
100
AcDbText
 10
185.250549
 20
145.823181
 30
0.0
 40
6.114097
  1
G
 50
31.0
 41
1.306272
  7
FX_VECTOR
 72
     5
 11
191.118478
 21
149.348988
 31
0.0
100
AcDbText
  0
TEXT
  5
1B2
330
1F
100
AcDbEntity
  8
GR1-1
  6
CONTINUOUS
 62
     7
100
AcDbText
 10
190.050049
 20
148.883667
 30
0.0
 40
6.114097
  1
O
 50
23.0
 41
1.237521
  7
FX_VECTOR
 72
     5
 11
196.351568
 21
151.558503
 31
0.0
100
AcDbText
  0
TEXT
  5
1B3
330
1F
100
AcDbEntity
  8
GR1-1
  6
CONTINUOUS
 62
     7
100
AcDbText
 10
195.22879
 20
151.246414
 30
0.0
 40
6.114097
  1
L
 50
15.0
 41
1.469556
  7
FX_VECTOR
 72
     5
 11
201.841249
 21
153.018217
 31
0.0
100
AcDbText
  0
TEXT
  5
1B4
330
1F
100
AcDbEntity
  8
GR1-1
  6
CONTINUOUS
 62
     7
100
AcDbText
 10
200.685974
 20
152.865417
 30
0.0
 40
6.114097
  1
D
 50
7.0
 41
1.306272
  7
FX_VECTOR
 72
     5
 11
207.480668
 21
153.699701
 31
0.0
100
AcDbText
  0
TEXT
  5
1B5
330
1F
100
AcDbEntity
  8
GR1-1
  6
CONTINUOUS
 62
     7
100
AcDbText
 10
212.007385
 20
153.761261
 30
0.0
 40
6.114097
  1
C
 50
351.0
 41
1.306272
  7
FX_VECTOR
 72
     5
 11
218.768824
 21
152.690354
 31
0.0
100
AcDbText
  0
TEXT
  5
1B6
330
1F
100
AcDbEntity
  8
GR1-1
  6
CONTINUOUS
 62
     7
100
AcDbText
 10
217.651276
 20
153.020676
 30
0.0
 40
6.114097
  1
A
 50
343.0
 41
1.383112
  7
FX_VECTOR
 72
     5
 11
224.197871
 21
151.01918
 31
0.0
100
AcDbText
  0
TEXT
  5
1B7
330
1F
100
AcDbEntity
  8
GR1-1
  6
CONTINUOUS
 62
     7
100
AcDbText
 10
223.137146
 20
151.501801
 30
0.0
 40
6.114097
  1
S
 50
335.0
 41
1.383112
  7
FX_VECTOR
 72
     5
 11
229.341476
 21
148.608674
 31
0.0
100
AcDbText
  0
TEXT
  5
1B8
330
1F
100
AcDbEntity
  8
GR1-1
  6
CONTINUOUS
 62
     7
100
AcDbText
 10
228.358276
 20
149.234238
 30
0.0
 40
6.114097
  1
T
 50
327.0
 41
1.567527
  7
FX_VECTOR
 72
     5
 11
234.099581
 21
145.505791
 31
0.0
100
AcDbText
  0
TEXT
  5
1B9
330
1F
100
AcDbEntity
  8
GR1-1
  6
CONTINUOUS
 62
     7
100
AcDbText
 10
233.212982
 20
146.262085
 30
0.0
 40
6.114097
  1
E
 50
319.0
 41
1.383112
  7
FX_VECTOR
 72
     5
 11
238.379514
 21
141.770888
 31
0.0
100
AcDbText
  0
TEXT
  5
1BA
330
1F
100
AcDbEntity
  8
GR1-1
  6
CONTINUOUS
 62
     7
100
AcDbText
 10
237.606812
 20
142.643234
 30
0.0
 40
6.114097
  1
R
 50
311.0
 41
1.306272
  7
FX_VECTOR
 72
     5
 11
242.098009
 21
137.476703
 31
0.0
100
AcDbText
  0
LINE
  5
1BB
330
1F
100
AcDbEntity
  8
GR1-1
  6
CONTINUOUS
 62
     7
100
AcDbLine
 10
173.697877
 20
141.951519
 30
0.0
 11
177.030148
 21
145.65238
 31
0.0
  0
LINE
  5
1BC
330
1F
100
AcDbEntity
  8
GR1-1
  6
CONTINUOUS
 62
     7
100
AcDbLine
 10
177.030148
 20
145.65238
 30
0.0
 11
180.731009
 21
142.32011
 31
0.0
  0
LINE
  5
1BD
330
1F
100
AcDbEntity
  8
GR1-1
  6
CONTINUOUS
 62
     7
100
AcDbLine
 10
180.731009
 20
142.32011
 30
0.0
 11
177.398739
 21
138.619248
 31
0.0
  0
LINE
  5
1BE
330
1F
100
AcDbEntity
  8
GR1-1
  6
CONTINUOUS
 62
     7
100
AcDbLine
 10
177.398739
 20
138.619248
 30
0.0
 11
173.697877
 21
141.951519
 31
0.0
  0
LINE
  5
1BF
330
1F
100
AcDbEntity
  8
GR1-1
  6
CONTINUOUS
 62
     7
100
AcDbLine
 10
175.643596
 20
140.391211
 30
0.0
 11
175.469841
 21
143.706661
 31
0.0
  0
LINE
  5
1C0
330
1F
100
AcDbEntity
  8
GR1-1
  6
CONTINUOUS
 62
     7
100
AcDbLine
 10
175.469841
 20
143.706661
 30
0.0
 11
178.433634
 21
143.861987
 31
0.0
  0
LINE
  5
1C1
330
1F
100
AcDbEntity
  8
GR1-1
  6
CONTINUOUS
 62
     7
100
AcDbLine
 10
178.433634
 20
143.861987
 30
0.0
 11
177.64821
 21
142.989686
 31
0.0
  0
LINE
  5
1C2
330
1F
100
AcDbEntity
  8
GR1-1
  6
CONTINUOUS
 62
     7
100
AcDbLine
 10
177.64821
 20
142.989686
 30
0.0
 11
176.342142
 21
142.921238
 31
0.0
  0
LINE
  5
1C3
330
1F
100
AcDbEntity
  8
GR1-1
  6
CONTINUOUS
 62
     7
100
AcDbLine
 10
176.342142
 20
142.921238
 30
0.0
 11
176.42902
 21
141.263513
 31
0.0
  0
LINE
  5
1C4
330
1F
100
AcDbEntity
  8
GR1-1
  6
CONTINUOUS
 62
     7
100
AcDbLine
 10
176.42902
 20
141.263513
 30
0.0
 11
178.086745
 21
141.35039
 31
0.0
  0
LINE
  5
1C5
330
1F
100
AcDbEntity
  8
GR1-1
  6
CONTINUOUS
 62
     7
100
AcDbLine
 10
178.086745
 20
141.35039
 30
0.0
 11
178.04107
 21
142.221916
 31
0.0
  0
ARC
  5
1C6
330
1F
100
AcDbEntity
  8
GR1-1
  6
CONTINUOUS
 62
     7
100
AcDbCircle
 10
177.958184
 20
142.217572
 30
0.0
 40
0.083
100
AcDbArc
 50
3.0
 51
138.0
  0
LINE
  5
1C7
330
1F
100
AcDbEntity
  8
GR1-1
  6
CONTINUOUS
 62
     7
100
AcDbLine
 10
177.896503
 20
142.27311
 30
0.0
 11
177.522848
 21
141.858125
 31
0.0
  0
LINE
  5
1C8
330
1F
100
AcDbEntity
  8
GR1-1
  6
CONTINUOUS
 62
     7
100
AcDbLine
 10
177.522848
 20
141.858125
 30
0.0
 11
177.214443
 21
142.135814
 31
0.0
  0
LINE
  5
1C9
330
1F
100
AcDbEntity
  8
GR1-1
  6
CONTINUOUS
 62
     7
100
AcDbLine
 10
177.214443
 20
142.135814
 30
0.0
 11
178.785291
 21
143.880417
 31
0.0
  0
LINE
  5
1CA
330
1F
100
AcDbEntity
  8
GR1-1
  6
CONTINUOUS
 62
     7
100
AcDbLine
 10
178.785291
 20
143.880417
 30
0.0
 11
180.033912
 21
142.756153
 31
0.0
  0
LINE
  5
1CB
330
1F
100
AcDbEntity
  8
GR1-1
  6
CONTINUOUS
 62
     7
100
AcDbLine
 10
180.033912
 20
142.756153
 30
0.0
 11
179.478534
 21
142.139343
 31
0.0
  0
LINE
  5
1CC
330
1F
100
AcDbEntity
  8
GR1-1
  6
CONTINUOUS
 62
     7
100
AcDbLine
 10
179.478534
 20
142.139343
 30
0.0
 11
178.995634
 21
142.574148
 31
0.0
  0
ARC
  5
1CD
330
1F
100
AcDbEntity
  8
GR1-1
  6
CONTINUOUS
 62
     7
100
AcDbCircle
 10
178.940096
 20
142.512467
 30
0.0
 40
0.083
100
AcDbArc
 50
48.0
 51
183.0
  0
LINE
  5
1CE
330
1F
100
AcDbEntity
  8
GR1-1
  6
CONTINUOUS
 62
     7
100
AcDbLine
 10
178.857209
 20
142.508123
 30
0.0
 11
178.959046
 21
140.564967
 31
0.0
  0
LINE
  5
1CF
330
1F
100
AcDbEntity
  8
GR1-1
  6
CONTINUOUS
 62
     7
100
AcDbLine
 10
178.959046
 20
140.564967
 30
0.0
 11
175.643596
 21
140.391211
 31
0.0
  0
TEXT
  5
1D0
330
1F
100
AcDbEntity
  8
GR1-1
  6
CONTINUOUS
 62
     7
100
AcDbText
 10
228.177002
 20
76.794327
 30
0.0
 40
6.142174
  1
1
 50
202.5
 41
2.084646
  7
FX_VECTOR
 72
     5
 11
221.980549
 21
74.227672
 31
0.0
100
AcDbText
  0
TEXT
  5
1D1
330
1F
100
AcDbEntity
  8
GR1-1
  6
CONTINUOUS
 62
     7
100
AcDbText
 10
222.278137
 20
74.324081
 30
0.0
 40
6.142174
  1
0
 50
193.5
 41
1.348889
  7
FX_VECTOR
 72
     5
 11
215.756459
 21
72.758365
 31
0.0
100
AcDbText
  0
TEXT
  5
1D2
330
1F
100
AcDbEntity
  8
GR1-1
  6
CONTINUOUS
 62
     7
100
AcDbText
 10
216.06546
 20
72.807022
 30
0.0
 40
6.142174
  1
0
 50
184.5
 41
1.348889
  7
FX_VECTOR
 72
     5
 11
209.379143
 21
72.280798
 31
0.0
100
AcDbText
  0
TEXT
  5
1D3
330
1F
100
AcDbEntity
  8
GR1-1
  6
CONTINUOUS
 62
     7
100
AcDbText
 10
209.691956
 20
72.280533
 30
0.0
 40
6.142174
  1
X
 50
175.5
 41
1.348889
  7
FX_VECTOR
 72
     5
 11
203.005638
 21
72.806757
 31
0.0
100
AcDbText
  0
TEXT
  5
1D4
330
1F
100
AcDbEntity
  8
GR1-1
  6
CONTINUOUS
 62
     7
100
AcDbText
 10
203.314545
 20
72.757553
 30
0.0
 40
6.142174
  1
3
 50
166.5
 41
1.348889
  7
FX_VECTOR
 72
     5
 11
196.792867
 21
74.323269
 31
0.0
100
AcDbText
  0
TEXT
  5
1D5
330
1F
100
AcDbEntity
  8
GR1-1
  6
CONTINUOUS
 62
     7
100
AcDbText
 10
197.090271
 20
74.226349
 30
0.0
 40
6.142174
  1
5
 50
157.5
 41
1.348889
  7
FX_VECTOR
 72
     5
 11
190.893818
 21
76.793004
 31
0.0
100
AcDbText
  0
ARC
  5
1D6
330
1F
100
AcDbEntity
  8
GR1-1
  6
CONTINUOUS
 62
     3
100
AcDbCircle
 10
73.697414
 20
80.694999
 30
0.0
 40
1.0
100
AcDbArc
 50
138.189685
 51
180.0
  0
LINE
  5
1D7
330
1F
100
AcDbEntity
  8
GR1-1
  6
CONTINUOUS
 62
     6
100
AcDbLine
 10
71.497414
 20
80.580409
 30
0.0
 11
71.497414
 21
91.311869
 31
0.0
  0
LINE
  5
1D8
330
1F
100
AcDbEntity
  8
GR1-1
  6
CONTINUOUS
 62
     6
100
AcDbLine
 10
106.497414
 20
134.755477
 30
0.0
 11
106.497414
 21
145.490239
 31
0.0
  0
CIRCLE
  5
1D9
330
1F
100
AcDbEntity
  8
GR1-1
  6
CONTINUOUS
 62
     3
100
AcDbCircle
 10
209.533812
 20
113.035324
 30
0.0
 40
6.0
  0
CIRCLE
  5
1DA
330
1F
100
AcDbEntity
  8
GR1-1
  6
CONTINUOUS
 62
     3
100
AcDbCircle
 10
209.533812
 20
113.035324
 30
0.0
 40
9.609999999999999
  0
CIRCLE
  5
1DB
330
1F
100
AcDbEntity
  8
GR1-1
  6
CONTINUOUS
 62
     6
100
AcDbCircle
 10
209.533812
 20
113.035324
 30
0.0
 40
14.0
  0
CIRCLE
  5
1DC
330
1F
100
AcDbEntity
  8
GR1-1
  6
CONTINUOUS
 62
     6
100
AcDbCircle
 10
209.533812
 20
113.035324
 30
0.0
 40
10.11
  0
CIRCLE
  5
1DD
330
1F
100
AcDbEntity
  8
GR1-1
  6
CONTINUOUS
 62
     6
100
AcDbCircle
 10
209.533812
 20
113.035324
 30
0.0
 40
6.3
  0
CIRCLE
  5
1DE
330
1F
100
AcDbEntity
  8
GR1-1
  6
CONTINUOUS
 62
     3
100
AcDbCircle
 10
209.533812
 20
113.035324
 30
0.0
 40
34.5
  0
LINE
  5
1DF
330
1F
100
AcDbEntity
  8
GR1-1
  6
CONTINUOUS
 62
     3
100
AcDbLine
 10
80.497414
 20
129.035324
 30
0.0
 11
73.197414
 21
129.035324
 31
0.0
  0
LINE
  5
1E0
330
1F
100
AcDbEntity
  8
GR1-1
  6
CONTINUOUS
 62
     3
100
AcDbLine
 10
80.197414
 20
130.235324
 30
0.0
 11
73.197414
 21
130.235324
 31
0.0
  0
LINE
  5
1E1
330
1F
100
AcDbEntity
  8
GR1-1
  6
CONTINUOUS
 62
     3
100
AcDbLine
 10
80.497414
 20
97.035324
 30
0.0
 11
71.747414
 21
97.035324
 31
0.0
  0
LINE
  5
1E2
330
1F
100
AcDbEntity
  8
GR1-1
  6
CONTINUOUS
 62
     3
100
AcDbLine
 10
80.197414
 20
95.835324
 30
0.0
 11
73.197414
 21
95.835324
 31
0.0
  0
LINE
  5
1E3
330
1F
100
AcDbEntity
  8
GR1-1
  6
CONTINUOUS
 62
     3
100
AcDbLine
 10
80.997414
 20
126.635324
 30
0.0
 11
80.997414
 21
128.535324
 31
0.0
  0
LINE
  5
1E4
330
1F
100
AcDbEntity
  8
GR1-1
  6
CONTINUOUS
 62
     3
100
AcDbLine
 10
82.197414
 20
126.635324
 30
0.0
 11
82.197414
 21
128.235324
 31
0.0
  0
ARC
  5
1E5
330
1F
100
AcDbEntity
  8
GR1-1
  6
CONTINUOUS
 62
     3
100
AcDbCircle
 10
80.197414
 20
128.235324
 30
0.0
 40
2.0
100
AcDbArc
 50
0.0
 51
90.0
  0
LINE
  5
1E6
330
1F
100
AcDbEntity
  8
GR1-1
  6
CONTINUOUS
 62
     3
100
AcDbLine
 10
80.997414
 20
99.435324
 30
0.0
 11
80.997414
 21
97.535324
 31
0.0
  0
LINE
  5
1E7
330
1F
100
AcDbEntity
  8
GR1-1
  6
CONTINUOUS
 62
     3
100
AcDbLine
 10
82.197414
 20
99.435324
 30
0.0
 11
82.197414
 21
97.835324
 31
0.0
  0
ARC
  5
1E8
330
1F
100
AcDbEntity
  8
GR1-1
  6
CONTINUOUS
 62
     3
100
AcDbCircle
 10
80.197414
 20
97.835324
 30
0.0
 40
2.0
100
AcDbArc
 50
270.0
 51
360.0
  0
LINE
  5
1E9
330
1F
100
AcDbEntity
  8
GR1-1
  6
CONTINUOUS
 62
     6
100
AcDbLine
 10
80.997414
 20
99.535324
 30
0.0
 11
80.997414
 21
126.535324
 31
0.0
  0
LINE
  5
1EA
330
1F
100
AcDbEntity
  8
GR1-1
  6
CONTINUOUS
 62
     6
100
AcDbLine
 10
82.197414
 20
99.535324
 30
0.0
 11
82.197414
 21
126.535324
 31
0.0
  0
ARC
  5
1EB
330
1F
100
AcDbEntity
  8
GR1-1
  6
CONTINUOUS
 62
     3
100
AcDbCircle
 10
73.197414
 20
131.235324
 30
0.0
 40
1.0
100
AcDbArc
 50
180.0
 51
270.0
  0
ARC
  5
1EC
330
1F
100
AcDbEntity
  8
GR1-1
  6
CONTINUOUS
 62
     3
100
AcDbCircle
 10
73.197414
 20
131.235324
 30
0.0
 40
2.2
100
AcDbArc
 50
180.0
 51
270.0
  0
ARC
  5
1ED
330
1F
100
AcDbEntity
  8
GR1-1
  6
CONTINUOUS
 62
     3
100
AcDbCircle
 10
73.197414
 20
94.835324
 30
0.0
 40
1.0
100
AcDbArc
 50
90.0
 51
180.0
  0
ARC
  5
1EE
330
1F
100
AcDbEntity
  8
GR1-1
  6
CONTINUOUS
 62
     3
100
AcDbCircle
 10
73.197414
 20
94.835324
 30
0.0
 40
2.2
100
AcDbArc
 50
90.0
 51
180.0
  0
LINE
  5
1EF
330
1F
100
AcDbEntity
  8
GR1-1
  6
CONTINUOUS
 62
     3
100
AcDbLine
 10
82.197414
 20
99.435324
 30
0.0
 11
80.997414
 21
99.435324
 31
0.0
  0
LINE
  5
1F0
330
1F
100
AcDbEntity
  8
GR1-1
  6
CONTINUOUS
 62
     3
100
AcDbLine
 10
82.197414
 20
126.635324
 30
0.0
 11
80.997414
 21
126.635324
 31
0.0
  0
LINE
  5
1F1
330
1F
100
AcDbEntity
  8
GR1-1
  6
CONTINUOUS
 62
     3
100
AcDbLine
 10
70.997414
 20
133.255477
 30
0.0
 11
70.997414
 21
131.235324
 31
0.0
  0
LINE
  5
1F2
330
1F
100
AcDbEntity
  8
GR1-1
  6
CONTINUOUS
 62
     3
100
AcDbLine
 10
72.197414
 20
133.349059
 30
0.0
 11
72.197414
 21
131.235324
 31
0.0
  0
ARC
  5
1F3
330
1F
100
AcDbEntity
  8
GR1-1
  6
CONTINUOUS
 62
     3
100
AcDbCircle
 10
73.197414
 20
133.349059
 30
0.0
 40
1.0
100
AcDbArc
 50
145.350558
 51
180.0
  0
ARC
  5
1F4
330
1F
100
AcDbEntity
  8
GR1-1
  6
CONTINUOUS
 62
     3
100
AcDbCircle
 10
73.497414
 20
133.255477
 30
0.0
 40
2.5
100
AcDbArc
 50
143.130102
 51
180.0
  0
LINE
  5
1F5
330
1F
100
AcDbEntity
  8
GR1-1
  6
CONTINUOUS
 62
     3
100
AcDbLine
 10
68.497414
 20
107.005324
 30
0.0
 11
80.697414
 21
107.005324
 31
0.0
  0
LINE
  5
1F6
330
1F
100
AcDbEntity
  8
GR1-1
  6
CONTINUOUS
 62
     3
100
AcDbLine
 10
68.497414
 20
119.065324
 30
0.0
 11
80.697414
 21
119.065324
 31
0.0
  0
INSERT
  5
1FA
330
1F
100
AcDbEntity
  8
0
100
AcDbBlockReference
  2
BLKF025
 10
0.0
 20
0.0
 30
0.0
  0
ARC
  5
227
330
1F
100
AcDbEntity
  8
GR1-1
  6
CONTINUOUS
 62
     3
100
AcDbCircle
 10
68.497414
 20
106.505324
 30
0.0
 40
0.5
100
AcDbArc
 50
90.0
 51
180.0
  0
ARC
  5
228
330
1F
100
AcDbEntity
  8
GR1-1
  6
CONTINUOUS
 62
     3
100
AcDbCircle
 10
68.497414
 20
119.565324
 30
0.0
 40
0.5
100
AcDbArc
 50
180.0
 51
270.0
  0
LINE
  5
229
330
1F
100
AcDbEntity
  8
GR1-1
  6
CONTINUOUS
 62
     6
100
AcDbLine
 10
80.697414
 20
107.005324
 30
0.0
 11
80.997414
 21
106.705324
 31
0.0
  0
LINE
  5
22A
330
1F
100
AcDbEntity
  8
GR1-1
  6
CONTINUOUS
 62
     6
100
AcDbLine
 10
80.697414
 20
119.065324
 30
0.0
 11
80.997414
 21
119.365324
 31
0.0
  0
LINE
  5
22B
330
1F
100
AcDbEntity
  8
GR1-1
  6
CONTINUOUS
 62
     3
100
AcDbLine
 10
67.997414
 20
121.835324
 30
0.0
 11
68.197414
 21
122.035324
 31
0.0
  0
LINE
  5
22C
330
1F
100
AcDbEntity
  8
GR1-1
  6
CONTINUOUS
 62
     3
100
AcDbLine
 10
73.330747
 20
122.035324
 30
0.0
 11
68.197414
 21
122.035324
 31
0.0
  0
LINE
  5
22D
330
1F
100
AcDbEntity
  8
GR1-1
  6
CONTINUOUS
 62
     3
100
AcDbLine
 10
78.664081
 20
122.035324
 30
0.0
 11
80.997414
 21
122.035324
 31
0.0
  0
LINE
  5
22E
330
1F
100
AcDbEntity
  8
GR1-1
  6
CONTINUOUS
 62
     3
100
AcDbLine
 10
67.997414
 20
104.235324
 30
0.0
 11
68.197414
 21
104.035324
 31
0.0
  0
LINE
  5
22F
330
1F
100
AcDbEntity
  8
GR1-1
  6
CONTINUOUS
 62
     3
100
AcDbLine
 10
73.330747
 20
104.035324
 30
0.0
 11
68.197414
 21
104.035324
 31
0.0
  0
LINE
  5
230
330
1F
100
AcDbEntity
  8
GR1-1
  6
CONTINUOUS
 62
     3
100
AcDbLine
 10
78.664081
 20
104.035324
 30
0.0
 11
80.997414
 21
104.035324
 31
0.0
  0
ARC
  5
231
330
1F
100
AcDbEntity
  8
GR1-1
  6
CONTINUOUS
 62
     3
100
AcDbCircle
 10
80.497414
 20
128.535324
 30
0.0
 40
0.5
100
AcDbArc
 50
0.0
 51
90.0
  0
ARC
  5
232
330
1F
100
AcDbEntity
  8
GR1-1
  6
CONTINUOUS
 62
     3
100
AcDbCircle
 10
80.497414
 20
97.535324
 30
0.0
 40
0.5
100
AcDbArc
 50
270.0
 51
360.0
  0
LINE
  5
233
330
1F
100
AcDbEntity
  8
GR1-1
  6
CONTINUOUS
 62
     3
100
AcDbLine
 10
67.997414
 20
121.835324
 30
0.0
 11
67.997414
 21
104.235324
 31
0.0
  0
LINE
  5
234
330
1F
100
AcDbEntity
  8
GR1-1
  6
CONTINUOUS
 62
     3
100
AcDbLine
 10
80.997414
 20
122.035324
 30
0.0
 11
80.997414
 21
104.035324
 31
0.0
  0
LINE
  5
235
330
1F
100
AcDbEntity
  8
GR1-1
  6
CONTINUOUS
 62
     3
100
AcDbLine
 10
70.997414
 20
92.815171
 30
0.0
 11
70.997414
 21
94.835324
 31
0.0
  0
LINE
  5
236
330
1F
100
AcDbEntity
  8
GR1-1
  6
CONTINUOUS
 62
     3
100
AcDbLine
 10
72.197414
 20
92.721589
 30
0.0
 11
72.197414
 21
94.835324
 31
0.0
  0
ARC
  5
237
330
1F
100
AcDbEntity
  8
GR1-1
  6
CONTINUOUS
 62
     3
100
AcDbCircle
 10
71.497414
 20
86.035324
 30
0.0
 40
3.0
100
AcDbArc
 50
-41.810315
 51
34.649442
  0
ARC
  5
238
330
1F
100
AcDbEntity
  8
GR1-1
  6
CONTINUOUS
 62
     3
100
AcDbCircle
 10
73.997414
 20
80.580409
 30
0.0
 40
2.5
100
AcDbArc
 50
138.189685
 51
180.0
  0
ARC
  5
239
330
1F
100
AcDbEntity
  8
GR1-1
  6
CONTINUOUS
 62
     3
100
AcDbCircle
 10
71.497414
 20
86.035324
 30
0.0
 40
4.2
100
AcDbArc
 50
-41.810315
 51
34.649442
  0
LINE
  5
23A
330
1F
100
AcDbEntity
  8
GR1-1
  6
CONTINUOUS
 62
     3
100
AcDbLine
 10
72.134024
 20
82.247076
 30
0.0
 11
73.733482
 21
84.035324
 31
0.0
  0
LINE
  5
23B
330
1F
100
AcDbEntity
  8
GR1-1
  6
CONTINUOUS
 62
     3
100
AcDbLine
 10
72.952058
 20
81.361666
 30
0.0
 11
74.627909
 21
83.235324
 31
0.0
  0
LINE
  5
23C
330
1F
100
AcDbEntity
  8
GR1-1
  6
CONTINUOUS
 62
     3
100
AcDbLine
 10
71.440799
 20
91.393786
 30
0.0
 11
73.965352
 21
87.740986
 31
0.0
  0
LINE
  5
23D
330
1F
100
AcDbEntity
  8
GR1-1
  6
CONTINUOUS
 62
     3
100
AcDbLine
 10
72.374768
 20
92.153035
 30
0.0
 11
74.952528
 21
88.42325
 31
0.0
  0
ARC
  5
23E
330
1F
100
AcDbEntity
  8
GR1-1
  6
CONTINUOUS
 62
     3
100
AcDbCircle
 10
73.197414
 20
92.721589
 30
0.0
 40
1.0
100
AcDbArc
 50
180.0
 51
214.649442
  0
ARC
  5
23F
330
1F
100
AcDbEntity
  8
GR1-1
  6
CONTINUOUS
 62
     3
100
AcDbCircle
 10
73.497414
 20
92.815171
 30
0.0
 40
2.5
100
AcDbArc
 50
180.0
 51
214.649442
  0
ARC
  5
240
330
1F
100
AcDbEntity
  8
LAYERGROUP-1
  6
CONTINUOUS
 62
     3
100
AcDbCircle
 10
91.197414
 20
150.535324
 30
0.0
 40
1.0
100
AcDbArc
 50
180.0
 51
270.0
  0
ARC
  5
241
330
1F
100
AcDbEntity
  8
LAYERGROUP-1
  6
CONTINUOUS
 62
     3
100
AcDbCircle
 10
91.197414
 20
150.535324
 30
0.0
 40
2.2
100
AcDbArc
 50
180.0
 51
270.0
  0
LINE
  5
242
330
1F
100
AcDbEntity
  8
GR1-1
  6
CONTINUOUS
 62
     3
100
AcDbLine
 10
104.297414
 20
149.535324
 30
0.0
 11
91.197414
 21
149.535324
 31
0.0
  0
LINE
  5
243
330
1F
100
AcDbEntity
  8
GR1-1
  6
CONTINUOUS
 62
     3
100
AcDbLine
 10
104.297414
 20
148.335324
 30
0.0
 11
91.197414
 21
148.335324
 31
0.0
  0
ARC
  5
244
330
1F
100
AcDbEntity
  8
LAYERGROUP-1
  6
CONTINUOUS
 62
     3
100
AcDbCircle
 10
86.797414
 20
150.535324
 30
0.0
 40
1.0
100
AcDbArc
 50
270.0
 51
360.0
  0
ARC
  5
245
330
1F
100
AcDbEntity
  8
LAYERGROUP-1
  6
CONTINUOUS
 62
     3
100
AcDbCircle
 10
86.797414
 20
150.535324
 30
0.0
 40
2.2
100
AcDbArc
 50
270.0
 51
360.0
  0
LINE
  5
246
330
1F
100
AcDbEntity
  8
GR1-1
  6
CONTINUOUS
 62
     3
100
AcDbLine
 10
73.697414
 20
149.535324
 30
0.0
 11
86.797414
 21
149.535324
 31
0.0
  0
LINE
  5
247
330
1F
100
AcDbEntity
  8
GR1-1
  6
CONTINUOUS
 62
     3
100
AcDbLine
 10
73.697414
 20
148.335324
 30
0.0
 11
86.797414
 21
148.335324
 31
0.0
  0
ARC
  5
248
330
1F
100
AcDbEntity
  8
GR1-1
  6
CONTINUOUS
 62
     3
100
AcDbCircle
 10
106.497414
 20
140.035324
 30
0.0
 40
3.0
100
AcDbArc
 50
138.189685
 51
214.649442
  0
ARC
  5
249
330
1F
100
AcDbEntity
  8
GR1-1
  6
CONTINUOUS
 62
     3
100
AcDbCircle
 10
104.297414
 20
145.375649
 30
0.0
 40
1.0
100
AcDbArc
 50
318.189685
 51
360.0
  0
ARC
  5
24A
330
1F
100
AcDbEntity
  8
GR1-1
  6
CONTINUOUS
 62
     3
100
AcDbCircle
 10
103.997414
 20
145.490239
 30
0.0
 40
2.5
100
AcDbArc
 50
-41.810315
 51
0.0
  0
ARC
  5
24B
330
1F
100
AcDbEntity
  8
GR1-1
  6
CONTINUOUS
 62
     3
100
AcDbCircle
 10
106.497414
 20
140.035324
 30
0.0
 40
4.2
100
AcDbArc
 50
138.189685
 51
214.649442
  0
LINE
  5
24C
330
1F
100
AcDbEntity
  8
GR1-1
  6
CONTINUOUS
 62
     3
100
AcDbLine
 10
105.860804
 20
143.823572
 30
0.0
 11
104.261346
 21
142.035324
 31
0.0
  0
LINE
  5
24D
330
1F
100
AcDbEntity
  8
GR1-1
  6
CONTINUOUS
 62
     3
100
AcDbLine
 10
105.04277
 20
144.708983
 30
0.0
 11
103.366919
 21
142.835324
 31
0.0
  0
LINE
  5
24E
330
1F
100
AcDbEntity
  8
GR1-1
  6
CONTINUOUS
 62
     3
100
AcDbLine
 10
106.554029
 20
134.676862
 30
0.0
 11
104.029476
 21
138.329663
 31
0.0
  0
LINE
  5
24F
330
1F
100
AcDbEntity
  8
GR1-1
  6
CONTINUOUS
 62
     3
100
AcDbLine
 10
105.62006
 20
133.917613
 30
0.0
 11
103.042301
 21
137.647398
 31
0.0
  0
ARC
  5
250
330
1F
100
AcDbEntity
  8
LAYERGROUP-1
  6
CONTINUOUS
 62
     3
100
AcDbCircle
 10
73.697414
 20
147.335324
 30
0.0
 40
1.0
100
AcDbArc
 50
90.0
 51
180.0
  0
ARC
  5
251
330
1F
100
AcDbEntity
  8
LAYERGROUP-1
  6
CONTINUOUS
 62
     3
100
AcDbCircle
 10
73.697414
 20
147.335324
 30
0.0
 40
2.2
100
AcDbArc
 50
90.0
 51
180.0
  0
LINE
  5
252
330
1F
100
AcDbEntity
  8
GR1-1
  6
CONTINUOUS
 62
     3
100
AcDbLine
 10
72.697414
 20
145.375649
 30
0.0
 11
72.697414
 21
147.335324
 31
0.0
  0
ARC
  5
253
330
1F
100
AcDbEntity
  8
LAYERGROUP-1
  6
CONTINUOUS
 62
     3
100
AcDbCircle
 10
104.297414
 20
147.335324
 30
0.0
 40
1.0
100
AcDbArc
 50
0.0
 51
90.0
  0
ARC
  5
254
330
1F
100
AcDbEntity
  8
LAYERGROUP-1
  6
CONTINUOUS
 62
     3
100
AcDbCircle
 10
104.297414
 20
147.335324
 30
0.0
 40
2.2
100
AcDbArc
 50
0.0
 51
90.0
  0
LINE
  5
255
330
1F
100
AcDbEntity
  8
GR1-1
  6
CONTINUOUS
 62
     3
100
AcDbLine
 10
105.297414
 20
145.375649
 30
0.0
 11
105.297414
 21
147.335324
 31
0.0
  0
LINE
  5
256
330
1F
100
AcDbEntity
  8
GR1-1
  6
CONTINUOUS
 62
     3
100
AcDbLine
 10
88.997414
 20
150.435324
 30
0.0
 11
88.997414
 21
151.535324
 31
0.0
  0
LINE
  5
257
330
1F
100
AcDbEntity
  8
GR1-1
  6
CONTINUOUS
 62
     3
100
AcDbLine
 10
87.797414
 20
150.535324
 30
0.0
 11
87.797414
 21
151.235324
 31
0.0
  0
ARC
  5
258
330
1F
100
AcDbEntity
  8
LAYERGROUP-1
  6
CONTINUOUS
 62
     3
100
AcDbCircle
 10
89.297414
 20
151.235324
 30
0.0
 40
1.5
100
AcDbArc
 50
90.0
 51
180.0
  0
LINE
  5
259
330
1F
100
AcDbEntity
  8
LAYERGROUP-1
  6
CONTINUOUS
 62
     3
100
AcDbLine
 10
90.197414
 20
151.535324
 30
0.0
 11
90.197414
 21
150.535324
 31
0.0
  0
LINE
  5
25A
330
1F
100
AcDbEntity
  8
GR1-1
  6
CONTINUOUS
 62
     3
100
AcDbLine
 10
90.197414
 20
151.535324
 30
0.0
 11
90.792247
 21
150.033509
 31
0.0
  0
LINE
  5
25B
330
1F
100
AcDbEntity
  8
GR1-1
  6
CONTINUOUS
 62
     3
100
AcDbLine
 10
91.272996
 20
151.535324
 30
0.0
 11
91.721977
 21
150.401752
 31
0.0
  0
ARC
  5
25C
330
1F
100
AcDbEntity
  8
GR1-1
  6
CONTINUOUS
 62
     3
100
AcDbCircle
 10
89.513386
 20
150.864664
 30
0.0
 40
1.883085903551073
100
AcDbArc
 50
20.863907
 51
96.585765
  0
LINE
  5
25D
330
1F
100
AcDbEntity
  8
GR1-1
  6
CONTINUOUS
 62
     3
100
AcDbLine
 10
91.721977
 20
150.401752
 30
0.0
 11
90.792247
 21
150.033509
 31
0.0
  0
LINE
  5
25E
330
1F
100
AcDbEntity
  8
GR1-1
  6
CONTINUOUS
 62
     3
100
AcDbLine
 10
90.197414
 20
151.535324
 30
0.0
 11
88.997414
 21
151.535324
 31
0.0
  0
ARC
  5
25F
330
1F
100
AcDbEntity
  8
GR1-1
  6
CONTINUOUS
 62
     3
100
AcDbCircle
 10
73.697414
 20
145.375649
 30
0.0
 40
1.0
100
AcDbArc
 50
180.0
 51
221.810315
  0
ARC
  5
260
330
1F
100
AcDbEntity
  8
GR1-1
  6
CONTINUOUS
 62
     3
100
AcDbCircle
 10
71.497414
 20
140.035324
 30
0.0
 40
3.0
100
AcDbArc
 50
-34.649442
 51
41.810315
  0
ARC
  5
261
330
1F
100
AcDbEntity
  8
GR1-1
  6
CONTINUOUS
 62
     3
100
AcDbCircle
 10
73.997414
 20
145.490239
 30
0.0
 40
2.5
100
AcDbArc
 50
180.0
 51
221.810315
  0
ARC
  5
262
330
1F
100
AcDbEntity
  8
GR1-1
  6
CONTINUOUS
 62
     3
100
AcDbCircle
 10
71.497414
 20
140.035324
 30
0.0
 40
4.2
100
AcDbArc
 50
-34.649442
 51
41.810315
  0
LINE
  5
263
330
1F
100
AcDbEntity
  8
GR1-1
  6
CONTINUOUS
 62
     3
100
AcDbLine
 10
72.134024
 20
143.823572
 30
0.0
 11
73.733482
 21
142.035324
 31
0.0
  0
LINE
  5
264
330
1F
100
AcDbEntity
  8
GR1-1
  6
CONTINUOUS
 62
     3
100
AcDbLine
 10
72.952058
 20
144.708983
 30
0.0
 11
74.627909
 21
142.835324
 31
0.0
  0
LINE
  5
265
330
1F
100
AcDbEntity
  8
GR1-1
  6
CONTINUOUS
 62
     3
100
AcDbLine
 10
71.440799
 20
134.676862
 30
0.0
 11
73.965352
 21
138.329663
 31
0.0
  0
LINE
  5
266
330
1F
100
AcDbEntity
  8
GR1-1
  6
CONTINUOUS
 62
     3
100
AcDbLine
 10
72.374768
 20
133.917613
 30
0.0
 11
74.952528
 21
137.647398
 31
0.0
  0
LINE
  5
267
330
1F
100
AcDbEntity
  8
GR1-1
  6
CONTINUOUS
 62
     6
100
AcDbLine
 10
71.497414
 20
134.758779
 30
0.0
 11
71.497414
 21
145.490239
 31
0.0
  0
LINE
  5
268
330
1F
100
AcDbEntity
  8
GR1-1
  6
CONTINUOUS
 62
     6
100
AcDbLine
 10
106.497414
 20
80.580409
 30
0.0
 11
106.497414
 21
91.311869
 31
0.0
  0
DIMENSION
  5
269
330
1F
100
AcDbEntity
  8
GR1-1
100
AcDbDimension
  2
*D24
 10
117.799813
 20
119.065324
 30
0.0
 11
125.799812
 21
113.035324
 31
0.0
 70
    33
  3
FXDIMINFO
100
AcDbAlignedDimension
 13
109.497414
 23
107.005324
 33
0.0
 14
109.497414
 24
119.065324
 34
0.0
  0
DIMENSION
  5
275
330
1F
100
AcDbEntity
  8
GR1-1
100
AcDbDimension
  2
*D25
 10
137.247895
 20
163.035324
 30
0.0
 11
136.247894
 21
113.035324
 31
0.0
 70
    33
  3
FXDIMINFO
100
AcDbAlignedDimension
 13
88.997414
 23
63.035324
 33
0.0
 14
88.997414
 24
163.035324
 34
0.0
1001
ACAD
1000
DSTYLE
1002
{
1070
     7
1000
FXTIP_ARROW_E
1070
     6
1000
FXTIP_ARROW_S
1070
   173
1070
     1
1002
}
  0
HATCH
  5
27F
330
1F
100
AcDbEntity
  8
GR1-1
  6
CONTINUOUS
 62
     6
100
AcDbHatch
 10
0.0
 20
0.0
 30
0.0
210
0.0
220
0.0
230
1.0
  2

 70
     0
 71
     1
 91
        2
 92
        0
 93
       68
 72
     1
 10
104.2974141406762
 20
149.5353240882897
 11
91.19741414067617
 21
149.5353240882897
 72
     2
 10
91.19741414067617
 20
150.5353240882897
 40
1.0
 50
180.0
 51
270.0
 73
     0
 72
     1
 10
90.19741414067617
 20
150.5353240882897
 11
90.19741414067617
 21
151.5353240882897
 72
     1
 10
90.19741414067617
 20
151.5353240882897
 11
90.79224747958486
 21
150.0335087178153
 72
     1
 10
90.79224747958486
 20
150.0335087178153
 11
91.72197679723965
 21
150.401752381567
 72
     1
 10
91.72197679723965
 20
150.401752381567
 11
91.27299601274437
 21
151.5353240882902
 72
     2
 10
89.51338590616061
 20
150.864664120079
 40
1.883085903551073
 50
20.86390664333591
 51
96.58576475318107
 73
     1
 72
     2
 10
89.29741414067618
 20
151.2353240882898
 40
1.5
 50
90.00000000000217
 51
180.0
 73
     1
 72
     1
 10
87.7974141406762
 20
151.2353240882898
 11
87.7974141406762
 21
150.5353240882897
 72
     2
 10
86.7974141406762
 20
150.5353240882897
 40
1.0
 50
270.0
 51
360.0
 73
     0
 72
     1
 10
86.7974141406762
 20
149.5353240882897
 11
73.6974141406762
 21
149.5353240882897
 72
     2
 10
73.6974141406762
 20
147.3353240882898
 40
2.2
 50
90.0
 51
179.9999999999993
 73
     1
 72
     1
 10
71.49741414067621
 20
147.3353240882898
 11
71.4974141406762
 21
146.1686574216232
 72
     1
 10
71.4974141406762
 20
146.1686574216232
 11
71.4974141406762
 21
145.490239116415
 72
     2
 10
73.99741414067619
 20
145.490239116415
 40
2.5
 50
180.0
 51
221.8103148957787
 73
     1
 72
     1
 10
72.13402415942637
 20
143.8235724497484
 11
73.73348211817599
 21
142.0353240882898
 72
     2
 10
71.49741414067619
 20
140.0353240882897
 40
3.0
 50
325.350558074555
 51
401.8103148957788
 73
     0
 72
     1
 10
73.9653523084057
 20
138.3296625743123
 11
71.44079900090156
 21
134.6768619377262
 72
     2
 10
73.49741414067616
 20
133.255477342745
 40
2.5
 50
145.3505580745553
 51
180.0000000000007
 73
     1
 72
     1
 10
70.99741414067617
 20
133.255477342745
 11
70.9974141406762
 21
131.2353240882896
 72
     2
 10
73.1974141406762
 20
131.2353240882897
 40
2.2
 50
180.0000000000007
 51
270.0000000000003
 73
     1
 72
     1
 10
73.19741414067622
 20
129.0353240882897
 11
80.49741414067617
 21
129.0353240882897
 72
     2
 10
80.49741414067617
 20
128.5353240882898
 40
0.5
 50
0.0
 51
90.0
 73
     0
 72
     1
 10
80.99741414067619
 20
128.5353240882898
 11
80.99741414067619
 21
126.6353240882897
 72
     1
 10
80.99741414067619
 20
126.6353240882897
 11
82.19741414067619
 21
126.6353240882897
 72
     1
 10
82.19741414067619
 20
126.6353240882897
 11
82.19741414067619
 21
128.2353240882897
 72
     2
 10
80.1974141406762
 20
128.2353240882897
 40
2.0
 50
0.0
 51
90.00000000000043
 73
     1
 72
     1
 10
80.19741414067619
 20
130.2353240882897
 11
73.19741414067622
 21
130.2353240882897
 72
     2
 10
73.1974141406762
 20
131.2353240882897
 40
1.0
 50
180.0000000000016
 51
270.0000000000008
 73
     0
 72
     1
 10
72.19741414067622
 20
131.2353240882896
 11
72.19741414067617
 21
133.3490589522104
 72
     2
 10
73.19741414067617
 20
133.3490589522104
 40
1.0
 50
168.7315542902984
 51
180.0000000000016
 73
     0
 72
     2
 10
73.19741414067617
 20
133.3490589522104
 40
1.0
 50
145.3505580745552
 51
168.7315542902984
 73
     0
 72
     1
 10
72.37476808476633
 20
133.9176127902029
 11
74.9525275754975
 21
137.6473979687213
 72
     2
 10
71.49741414067619
 20
140.0353240882897
 40
4.2
 50
325.3505580745547
 51
401.8103148957782
 73
     1
 72
     1
 10
74.62790930917592
 20
142.8353240882897
 11
72.95205814817628
 21
144.7089826463733
 72
     2
 10
73.69741414067622
 20
145.37564931304
 40
1.0
 50
180.0
 51
221.8103148957779
 73
     0
 72
     1
 10
72.69741414067619
 20
145.37564931304
 11
72.6974141406762
 21
147.3353240882898
 72
     2
 10
73.6974141406762
 20
147.3353240882898
 40
1.0
 50
90.0
 51
180.0
 73
     0
 72
     1
 10
73.6974141406762
 20
148.3353240882897
 11
86.79741414067618
 21
148.3353240882897
 72
     2
 10
86.79741414067618
 20
150.5353240882897
 40
2.2
 50
270.0
 51
360.0
 73
     1
 72
     2
 10
91.19741414067619
 20
150.5353240882897
 40
2.2
 50
180.0
 51
270.0
 73
     1
 72
     1
 10
91.19741414067619
 20
148.3353240882897
 11
104.2974141406762
 21
148.3353240882897
 72
     2
 10
104.2974141406762
 20
147.3353240882898
 40
1.0
 50
0.0
 51
90.0
 73
     0
 72
     1
 10
105.2974141406762
 20
147.3353240882898
 11
105.2974141406762
 21
145.37564931304
 72
     2
 10
104.2974141406762
 20
145.37564931304
 40
1.0
 50
318.1896851042222
 51
360.0
 73
     0
 72
     1
 10
105.0427701331761
 20
144.7089826463733
 11
103.3669189721764
 21
142.8353240882897
 72
     2
 10
106.4974141406762
 20
140.0353240882897
 40
4.2
 50
138.1896851042223
 51
214.6494419254453
 73
     1
 72
     1
 10
103.0423007058549
 20
137.6473979687213
 11
105.620060196586
 21
133.9176127902029
 72
     2
 10
104.7974141406762
 20
133.3490589522104
 40
1.0
 50
359.9999999999984
 51
394.6494419254449
 73
     0
 72
     1
 10
105.7974141406762
 20
133.3490589522104
 11
105.7974141406762
 21
131.2353240882896
 72
     2
 10
104.7974141406762
 20
131.2353240882897
 40
1.0
 50
269.9999999999992
 51
359.9999999999984
 73
     0
 72
     1
 10
104.7974141406762
 20
130.2353240882897
 11
97.79741414067618
 21
130.2353240882897
 72
     2
 10
97.79741414067617
 20
128.2353240882897
 40
2.0
 50
89.9999999999996
 51
180.0
 73
     1
 72
     1
 10
95.79741414067618
 20
128.2353240882897
 11
95.79741414067618
 21
126.6353240882897
 72
     1
 10
95.79741414067618
 20
126.6353240882897
 11
96.9974141406762
 21
126.6353240882897
 72
     1
 10
96.9974141406762
 20
126.6353240882897
 11
96.99741414067619
 21
128.5353240882898
 72
     2
 10
97.4974141406762
 20
128.5353240882898
 40
0.5
 50
90.0
 51
180.0
 73
     0
 72
     1
 10
97.4974141406762
 20
129.0353240882897
 11
104.7974141406762
 21
129.0353240882897
 72
     2
 10
104.7974141406762
 20
131.2353240882897
 40
2.2
 50
269.9999999999997
 51
359.9999999999993
 73
     1
 72
     1
 10
106.9974141406762
 20
131.2353240882896
 11
106.9974141406762
 21
133.255477342745
 72
     2
 10
104.4974141406762
 20
133.255477342745
 40
2.5
 50
359.9999999999994
 51
394.6494419254448
 73
     1
 72
     1
 10
106.5540292804508
 20
134.6768619377262
 11
104.0294759729467
 21
138.3296625743123
 72
     2
 10
106.4974141406762
 20
140.0353240882897
 40
3.0
 50
138.1896851042213
 51
214.649441925445
 73
     0
 72
     1
 10
104.2613461631764
 20
142.0353240882898
 11
105.860804121926
 21
143.8235724497484
 72
     2
 10
103.9974141406762
 20
145.490239116415
 40
2.5
 50
318.1896851042211
 51
360.0000000000006
 73
     1
 72
     1
 10
106.4974141406762
 20
145.490239116415
 11
106.4974141406762
 21
147.2353240882897
 72
     1
 10
106.4974141406762
 20
147.2353240882897
 11
106.4974141406762
 21
147.3353240882898
 72
     2
 10
104.2974141406762
 20
147.3353240882898
 40
2.2
 50
0.0
 51
90.0
 73
     1
 97
        0
 92
        0
 93
       68
 72
     1
 10
91.19741414067619
 20
77.73532408828973
 11
104.2974141406762
 21
77.73532408828973
 72
     2
 10
104.2974141406762
 20
78.73532408828964
 40
1.0
 50
270.0
 51
359.9999999999993
 73
     1
 72
     1
 10
105.2974141406762
 20
78.73532408828963
 11
105.2974141406762
 21
80.69499886353945
 72
     2
 10
104.2974141406762
 20
80.69499886353947
 40
1.0
 50
359.9999999999992
 51
401.8103148957785
 73
     1
 72
     1
 10
105.0427701331761
 20
81.36166553020614
 11
103.3669189721765
 21
83.23532408828974
 72
     2
 10
106.4974141406762
 20
86.03532408828971
 40
4.2
 50
145.3505580745549
 51
221.810314895778
 73
     0
 72
     1
 10
103.0423007058549
 20
88.42325020785815
 11
105.620060196586
 21
92.15303538637659
 72
     2
 10
104.7974141406762
 20
92.72158922436907
 40
1.0
 50
325.3505580745552
 51
360.0
 73
     1
 72
     1
 10
105.7974141406762
 20
92.72158922436907
 11
105.7974141406762
 21
94.83532408828978
 72
     2
 10
104.7974141406762
 20
94.83532408828978
 40
1.0
 50
0.0
 51
90.00000000000081
 73
     1
 72
     1
 10
104.7974141406762
 20
95.83532408828977
 11
97.79741414067618
 21
95.8353240882897
 72
     2
 10
97.79741414067617
 20
97.8353240882897
 40
2.0
 50
180.0
 51
270.0000000000004
 73
     0
 72
     1
 10
95.79741414067618
 20
97.8353240882897
 11
95.79741414067618
 21
99.43532408828973
 72
     1
 10
95.79741414067618
 20
99.43532408828973
 11
96.99741414067621
 21
99.43532408828975
 72
     1
 10
96.99741414067621
 20
99.43532408828975
 11
96.9974141406762
 21
97.63532408828971
 72
     1
 10
96.9974141406762
 20
97.63532408828971
 11
96.99741414067619
 21
97.53532408828976
 72
     2
 10
97.49741414067619
 20
97.53532408828968
 40
0.5
 50
179.9999999999918
 51
270.0
 73
     1
 72
     1
 10
97.49741414067619
 20
97.03532408828968
 11
104.7974141406762
 21
97.03532408828976
 72
     2
 10
104.7974141406762
 20
94.83532408828978
 40
2.2
 50
0.0000000000007402
 51
90.00000000000075
 73
     0
 72
     1
 10
106.9974141406762
 20
94.83532408828981
 11
106.9974141406762
 21
92.81517083383449
 72
     2
 10
104.4974141406762
 20
92.81517083383446
 40
2.5
 50
325.350558074555
 51
360.0000000000007
 73
     0
 72
     1
 10
106.5540292804508
 20
91.39378623885325
 11
104.0294759729467
 21
87.74098560226716
 72
     2
 10
106.4974141406762
 20
86.03532408828971
 40
3.0
 50
145.3505580745551
 51
221.8103148957785
 73
     1
 72
     1
 10
104.2613461631764
 20
84.0353240882897
 11
105.860804121926
 21
82.24707572683109
 72
     2
 10
103.9974141406762
 20
80.58040906016444
 40
2.5
 50
359.9999999999997
 51
401.8103148957784
 73
     0
 72
     1
 10
106.4974141406762
 20
80.58040906016443
 11
106.4974141406762
 21
78.83532408828975
 72
     1
 10
106.4974141406762
 20
78.83532408828975
 11
106.4974141406762
 21
78.73532408828973
 72
     2
 10
104.2974141406762
 20
78.73532408828973
 40
2.2
 50
270.0
 51
360.0
 73
     0
 72
     1
 10
104.2974141406762
 20
76.53532408828974
 11
91.19741414067617
 21
76.53532408828974
 72
     2
 10
91.19741414067617
 20
75.53532408828974
 40
1.0
 50
90.0
 51
180.0
 73
     1
 72
     1
 10
90.19741414067617
 20
75.53532408828974
 11
90.19741414067617
 21
74.53532408828974
 72
     1
 10
90.19741414067617
 20
74.53532408828974
 11
90.79224747958486
 21
76.03713945876413
 72
     1
 10
90.79224747958486
 20
76.03713945876413
 11
91.72197679723965
 21
75.66889579501253
 72
     1
 10
91.72197679723965
 20
75.66889579501253
 11
91.27299601274437
 21
74.53532408828924
 72
     2
 10
89.51338590616061
 20
75.20598405650043
 40
1.883085903551073
 50
263.4142352468115
 51
339.1360933566645
 73
     0
 72
     2
 10
89.29741414067618
 20
74.8353240882897
 40
1.5
 50
180.0
 51
269.9999999999886
 73
     0
 72
     1
 10
87.7974141406762
 20
74.8353240882897
 11
87.7974141406762
 21
75.53532408828974
 72
     2
 10
86.7974141406762
 20
75.53532408828974
 40
1.0
 50
0.0
 51
90.0
 73
     1
 72
     1
 10
86.7974141406762
 20
76.53532408828974
 11
73.6974141406762
 21
76.53532408828974
 72
     2
 10
73.6974141406762
 20
78.73532408828973
 40
2.2
 50
180.0000000000007
 51
270.0
 73
     0
 72
     1
 10
71.49741414067621
 20
78.7353240882897
 11
71.4974141406762
 21
79.9019907549563
 72
     1
 10
71.4974141406762
 20
79.9019907549563
 11
71.4974141406762
 21
80.58040906016444
 72
     2
 10
73.99741414067619
 20
80.58040906016444
 40
2.5
 50
138.1896851042216
 51
180.0
 73
     0
 72
     1
 10
72.13402415942637
 20
82.24707572683109
 11
73.733482118176
 21
84.0353240882897
 72
     2
 10
71.49741414067619
 20
86.03532408828971
 40
3.0
 50
318.1896851042215
 51
394.649441925445
 73
     1
 72
     1
 10
73.9653523084057
 20
87.74098560226716
 11
71.44079900090156
 21
91.39378623885325
 72
     2
 10
73.49741414067616
 20
92.81517083383446
 40
2.5
 50
179.9999999999994
 51
214.649441925445
 73
     0
 72
     1
 10
70.99741414067614
 20
92.81517083383449
 11
70.99741414067617
 21
94.83532408828981
 72
     2
 10
73.19741414067619
 20
94.83532408828978
 40
2.2
 50
89.99999999999926
 51
179.9999999999993
 73
     0
 72
     1
 10
73.19741414067622
 20
97.03532408828976
 11
80.49741414067619
 21
97.03532408828968
 72
     2
 10
80.49741414067619
 20
97.53532408828968
 40
0.5
 50
270.0
 51
360.0
 73
     1
 72
     1
 10
80.99741414067619
 20
97.53532408828968
 11
80.99741414067619
 21
99.43532408828972
 72
     1
 10
80.99741414067619
 20
99.43532408828972
 11
82.19741414067619
 21
99.43532408828972
 72
     1
 10
82.19741414067619
 20
99.43532408828972
 11
82.19741414067619
 21
97.8353240882897
 72
     2
 10
80.1974141406762
 20
97.8353240882897
 40
2.0
 50
269.9999999999996
 51
360.0
 73
     0
 72
     1
 10
80.19741414067619
 20
95.8353240882897
 11
73.1974141406762
 21
95.83532408828977
 72
     2
 10
73.19741414067619
 20
94.83532408828978
 40
1.0
 50
89.99999999999919
 51
180.0
 73
     1
 72
     1
 10
72.19741414067619
 20
94.83532408828978
 11
72.19741414067617
 21
92.72158922436907
 72
     2
 10
73.19741414067617
 20
92.72158922436907
 40
1.0
 50
180.0
 51
214.6494419254449
 73
     1
 72
     1
 10
72.37476808476633
 20
92.15303538637659
 11
74.9525275754975
 21
88.42325020785815
 72
     2
 10
71.49741414067619
 20
86.03532408828971
 40
4.2
 50
318.189685104222
 51
394.6494419254451
 73
     0
 72
     1
 10
74.62790930917592
 20
83.23532408828974
 11
72.95205814817628
 21
81.36166553020614
 72
     2
 10
73.69741414067622
 20
80.69499886353947
 40
1.0
 50
138.1896851042215
 51
180.0000000000008
 73
     1
 72
     1
 10
72.69741414067619
 20
80.69499886353945
 11
72.6974141406762
 21
78.73532408828963
 72
     2
 10
73.6974141406762
 20
78.73532408828964
 40
1.0
 50
180.0000000000008
 51
270.0
 73
     1
 72
     1
 10
73.6974141406762
 20
77.73532408828973
 11
86.79741414067618
 21
77.73532408828973
 72
     2
 10
86.79741414067618
 20
75.53532408828974
 40
2.2
 50
0.0
 51
90.0
 73
     0
 72
     2
 10
91.19741414067619
 20
75.53532408828974
 40
2.2
 50
90.0
 51
180.0
 73
     0
 97
        0
 75
     0
 76
     0
 52
45.0
 41
1.0
 77
     0
 78
     1
 53
45.0
 43
0.0
 44
0.0
 45
-0.7071067811865475
 46
0.7071067811865476
 79
     0
 98
        0
  0
TEXT
  5
280
330
1F
100
AcDbEntity
  8
GR1-1
  6
CONTINUOUS
 62
     7
100
AcDbText
 10
131.917755
 20
12.0
 30
0.0
 40
6.0
  1
1W30FALA-C02
 41
0.702929
  7
FX_VECTOR
 72
     5
 11
179.917755
 21
12.0
 31
0.0
100
AcDbText
  0
INSERT
  5
284
330
1F
100
AcDbEntity
  8
0
100
AcDbBlockReference
  2
BLKF028
 10
0.0
 20
0.0
 30
0.0
  0
ENDSEC
  0
SECTION
  2
OBJECTS
  0
DICTIONARY
  5
C
330
0
100
AcDbDictionary
  3
ACAD_GROUP
350
D
  3
ACAD_LAYOUT
350
1A
  3
ACAD_MLINESTYLE
350
17
  3
ACAD_PLOTSETTINGS
350
19
  3
ACDBHEADERROUNDTRIPXREC
350
2AE
  0
DICTIONARY
  5
D
102
{ACAD_REACTORS
330
C
102
}
330
C
100
AcDbDictionary
  0
DICTIONARY
  5
1A
102
{ACAD_REACTORS
330
C
102
}
330
C
100
AcDbDictionary
  0
DICTIONARY
  5
17
102
{ACAD_REACTORS
330
C
102
}
330
C
100
AcDbDictionary
  3
STANDARD
350
18
  0
DICTIONARY
  5
19
102
{ACAD_REACTORS
330
C
102
}
330
C
100
AcDbDictionary
  0
DICTIONARY
  5
2AE
102
{ACAD_REACTORS
330
C
102
}
330
C
100
AcDbDictionary
  3
CEPSNTYPE
350
2B7
  3
DIMSTYLEDATA
350
2CD
  3
FINGERPRINTGUID
350
2B8
  3
HYPERLINKBASE
350
2B1
  3
INSUNITS
350
2B6
  3
LAYOUTDICT
350
2B3
  3
LWETCUNION
350
2B5
  3
PLOTSETDICT
350
2B4
  3
PSVPSCALE
350
2BA
  3
PUCSBASE
350
2BD
  3
PUCSORGBACK
350
2C3
  3
PUCSORGBOTTOM
350
2BF
  3
PUCSORGFRONT
350
2C2
  3
PUCSORGLEFT
350
2C0
  3
PUCSORGRIGHT
350
2C1
  3
PUCSORGTOP
350
2BE
  3
PUCSORTHOREF
350
2BB
  3
PUCSORTHOVIEW
350
2BC
  3
STYLESHEET
350
2B2
  3
TSTACKALIGN
350
2AF
  3
TSTACKSIZE
350
2B0
  3
UCSBASE
350
2C6
  3
UCSORGBACK
350
2CC
  3
UCSORGBOTTOM
350
2C8
  3
UCSORGFRONT
350
2CB
  3
UCSORGLEFT
350
2C9
  3
UCSORGRIGHT
350
2CA
  3
UCSORGTOP
350
2C7
  3
UCSORTHOREF
350
2C4
  3
UCSORTHOVIEW
350
2C5
  3
VERSIONGUID
350
2B9
  0
MLINESTYLE
  5
18
102
{ACAD_REACTORS
330
17
102
}
330
17
100
AcDbMlineStyle
  2
Standard
 70
     0
  3

 62
   256
 51
90.0
 52
90.0
 71
     2
 49
0.5
 62
   256
  6
BYLAYER
 49
-0.5
 62
   256
  6
BYLAYER
  0
XRECORD
  5
2B7
102
{ACAD_REACTORS
330
2AE
102
}
330
2AE
100
AcDbXrecord
 90
        0
  0
XRECORD
  5
2CD
102
{ACAD_REACTORS
330
2AE
102
}
330
2AE
100
AcDbXrecord
1000
DSTYLE
1002
{
1070
   179
 70
     2
1070
   171
 70
     3
1070
   143
 40
0.03937
1070
   274
 70
     3
1070
    41
 40
3.0
1070
   343
340
41
1070
   344
340
47
1070
   141
 40
2.5
1070
   176
 70
     7
1070
   177
 70
     7
1070
   178
 70
     7
1070
   271
 70
     2
1070
    46
 40
6.0
1070
    43
 40
8.0
1070
    44
 40
1.0
1070
    42
 40
1.0
1070
   147
 40
1.0
1070
   341
340
41
1070
   173
 70
     1
1070
    77
 70
     1
1070
   272
 70
     2
1070
    73
 70
     0
1070
   172
 70
     1
1070
    74
 70
     0
1070
   283
 70
     0
1070
   340
340
3F
1070
   140
 40
4.0
1070
   284
 70
     8
1070
    78
 70
     8
1002
}
  0
XRECORD
  5
2B8
102
{ACAD_REACTORS
330
2AE
102
}
330
2AE
100
AcDbXrecord
  1
{2B6D6A8F-90CA-4E56-BAA1-04563BCA25CA}
  0
XRECORD
  5
2B1
102
{ACAD_REACTORS
330
2AE
102
}
330
2AE
100
AcDbXrecord
  1

  0
XRECORD
  5
2B6
102
{ACAD_REACTORS
330
2AE
102
}
330
2AE
100
AcDbXrecord
 90
        1
  0
XRECORD
  5
2B3
102
{ACAD_REACTORS
330
2AE
102
}
330
2AE
100
AcDbXrecord
340
1A
  0
XRECORD
  5
2B5
102
{ACAD_REACTORS
330
2AE
102
}
330
2AE
100
AcDbXrecord
 90
    10781
  0
XRECORD
  5
2B4
102
{ACAD_REACTORS
330
2AE
102
}
330
2AE
100
AcDbXrecord
340
19
  0
XRECORD
  5
2BA
102
{ACAD_REACTORS
330
2AE
102
}
330
2AE
100
AcDbXrecord
 40
0.0
  0
XRECORD
  5
2BD
102
{ACAD_REACTORS
330
2AE
102
}
330
2AE
100
AcDbXrecord
340
0
  0
XRECORD
  5
2C3
102
{ACAD_REACTORS
330
2AE
102
}
330
2AE
100
AcDbXrecord
 10
0.0
 20
0.0
 30
0.0
  0
XRECORD
  5
2BF
102
{ACAD_REACTORS
330
2AE
102
}
330
2AE
100
AcDbXrecord
 10
0.0
 20
0.0
 30
0.0
  0
XRECORD
  5
2C2
102
{ACAD_REACTORS
330
2AE
102
}
330
2AE
100
AcDbXrecord
 10
0.0
 20
0.0
 30
0.0
  0
XRECORD
  5
2C0
102
{ACAD_REACTORS
330
2AE
102
}
330
2AE
100
AcDbXrecord
 10
0.0
 20
0.0
 30
0.0
  0
XRECORD
  5
2C1
102
{ACAD_REACTORS
330
2AE
102
}
330
2AE
100
AcDbXrecord
 10
0.0
 20
0.0
 30
0.0
  0
XRECORD
  5
2BE
102
{ACAD_REACTORS
330
2AE
102
}
330
2AE
100
AcDbXrecord
 10
0.0
 20
0.0
 30
0.0
  0
XRECORD
  5
2BB
102
{ACAD_REACTORS
330
2AE
102
}
330
2AE
100
AcDbXrecord
340
0
  0
XRECORD
  5
2BC
102
{ACAD_REACTORS
330
2AE
102
}
330
2AE
100
AcDbXrecord
 70
     0
  0
XRECORD
  5
2B2
102
{ACAD_REACTORS
330
2AE
102
}
330
2AE
100
AcDbXrecord
  1

  0
XRECORD
  5
2AF
102
{ACAD_REACTORS
330
2AE
102
}
330
2AE
100
AcDbXrecord
 90
        1
  0
XRECORD
  5
2B0
102
{ACAD_REACTORS
330
2AE
102
}
330
2AE
100
AcDbXrecord
 90
       70
  0
XRECORD
  5
2C6
102
{ACAD_REACTORS
330
2AE
102
}
330
2AE
100
AcDbXrecord
340
0
  0
XRECORD
  5
2CC
102
{ACAD_REACTORS
330
2AE
102
}
330
2AE
100
AcDbXrecord
 10
0.0
 20
0.0
 30
0.0
  0
XRECORD
  5
2C8
102
{ACAD_REACTORS
330
2AE
102
}
330
2AE
100
AcDbXrecord
 10
0.0
 20
0.0
 30
0.0
  0
XRECORD
  5
2CB
102
{ACAD_REACTORS
330
2AE
102
}
330
2AE
100
AcDbXrecord
 10
0.0
 20
0.0
 30
0.0
  0
XRECORD
  5
2C9
102
{ACAD_REACTORS
330
2AE
102
}
330
2AE
100
AcDbXrecord
 10
0.0
 20
0.0
 30
0.0
  0
XRECORD
  5
2CA
102
{ACAD_REACTORS
330
2AE
102
}
330
2AE
100
AcDbXrecord
 10
0.0
 20
0.0
 30
0.0
  0
XRECORD
  5
2C7
102
{ACAD_REACTORS
330
2AE
102
}
330
2AE
100
AcDbXrecord
 10
0.0
 20
0.0
 30
0.0
  0
XRECORD
  5
2C4
102
{ACAD_REACTORS
330
2AE
102
}
330
2AE
100
AcDbXrecord
340
0
  0
XRECORD
  5
2C5
102
{ACAD_REACTORS
330
2AE
102
}
330
2AE
100
AcDbXrecord
 70
     0
  0
XRECORD
  5
2B9
102
{ACAD_REACTORS
330
2AE
102
}
330
2AE
100
AcDbXrecord
  1
{FAEB1C32-E019-11D5-929B-00C0DF256EC4}
  0
ENDSEC
  0
EOF
