  0
SECTION
  2
HEADER
  9
$ACADVER
  1
AC1014
  9
$ACADMAINTVER
 70
     9
  9
$DWGCODEPAGE
  3
ANSI_932
  9
$INSBASE
 10
0.0
 20
0.0
 30
0.0
  9
$EXTMIN
 10
0.0
 20
0.0
 30
0.0
  9
$EXTMAX
 10
420.0
 20
297.0
 30
0.0
  9
$LIMMIN
 10
0.0
 20
0.0
  9
$LIMMAX
 10
420.0
 20
297.0
  9
$ORTHOMODE
 70
     0
  9
$REGENMODE
 70
     1
  9
$FILLMODE
 70
     1
  9
$QTEXTMODE
 70
     0
  9
$MIRRTEXT
 70
     1
  9
$DRAGMODE
 70
     2
  9
$LTSCALE
 40
1.0
  9
$OSMODE
 70
    37
  9
$ATTMODE
 70
     1
  9
$TEXTSIZE
 40
0.2
  9
$TRACEWID
 40
0.05
  9
$TEXTSTYLE
  7
STYLE1
  9
$CLAYER
  8
0
  9
$CELTYPE
  6
BYLAYER
  9
$CECOLOR
 62
   256
  9
$CELTSCALE
 40
1.0
  9
$DELOBJ
 70
     1
  9
$DISPSILH
 70
     0
  9
$DIMSCALE
 40
1.0
  9
$DIMASZ
 40
4.0
  9
$DIMEXO
 40
1.0
  9
$DIMDLI
 40
10.0
  9
$DIMRND
 40
0.0
  9
$DIMDLE
 40
6.0
  9
$DIMEXE
 40
1.0
  9
$DIMTP
 40
0.0
  9
$DIMTM
 40
0.0
  9
$DIMTXT
 40
4.0
  9
$DIMCEN
 40
2.5
  9
$DIMTSZ
 40
0.0
  9
$DIMTOL
 70
     0
  9
$DIMLIM
 70
     0
  9
$DIMTIH
 70
     0
  9
$DIMTOH
 70
     0
  9
$DIMSE1
 70
     0
  9
$DIMSE2
 70
     0
  9
$DIMTAD
 70
     1
  9
$DIMZIN
 70
     8
  9
$DIMBLK
  1

  9
$DIMASO
 70
     1
  9
$DIMSHO
 70
     1
  9
$DIMPOST
  1

  9
$DIMAPOST
  1

  9
$DIMALT
 70
     0
  9
$DIMALTD
 70
     3
  9
$DIMALTF
 40
0.03937
  9
$DIMLFAC
 40
1.0
  9
$DIMTOFL
 70
     1
  9
$DIMTVP
 40
0.0
  9
$DIMTIX
 70
     0
  9
$DIMSOXD
 70
     0
  9
$DIMSAH
 70
     1
  9
$DIMBLK1
  1
FXTIP_ARROW_S
  9
$DIMBLK2
  1
FXTIP_ARROW_E
  9
$DIMSTYLE
  2
FXDIMINFO
  9
$DIMCLRD
 70
     7
  9
$DIMCLRE
 70
     7
  9
$DIMCLRT
 70
     7
  9
$DIMTFAC
 40
1.0
  9
$DIMGAP
 40
1.0
  9
$DIMJUST
 70
     0
  9
$DIMSD1
 70
     0
  9
$DIMSD2
 70
     0
  9
$DIMTOLJ
 70
     0
  9
$DIMTZIN
 70
     8
  9
$DIMALTZ
 70
     0
  9
$DIMALTTZ
 70
     0
  9
$DIMFIT
 70
     3
  9
$DIMUPT
 70
     0
  9
$DIMUNIT
 70
     2
  9
$DIMDEC
 70
     2
  9
$DIMTDEC
 70
     2
  9
$DIMALTU
 70
     2
  9
$DIMALTTD
 70
     3
  9
$DIMTXSTY
  7
STYLE1
  9
$DIMAUNIT
 70
     0
  9
$LUNITS
 70
     2
  9
$LUPREC
 70
     4
  9
$SKETCHINC
 40
0.1
  9
$FILLETRAD
 40
0.5
  9
$AUNITS
 70
     0
  9
$AUPREC
 70
     0
  9
$MENU
  1
.
  9
$ELEVATION
 40
0.0
  9
$PELEVATION
 40
0.0
  9
$THICKNESS
 40
0.0
  9
$LIMCHECK
 70
     0
  9
$CHAMFERA
 40
0.5
  9
$CHAMFERB
 40
0.5
  9
$CHAMFERC
 40
1.0
  9
$CHAMFERD
 40
0.0
  9
$SKPOLY
 70
     0
  9
$TDCREATE
 40
2455301.624769769
  9
$TDUPDATE
 40
2455301.62476978
  9
$TDINDWG
 40
0.0000000116
  9
$TDUSRTIMER
 40
0.0000000116
  9
$USRTIMER
 70
     1
  9
$ANGBASE
 50
0.0
  9
$ANGDIR
 70
     0
  9
$PDMODE
 70
     0
  9
$PDSIZE
 40
0.0
  9
$PLINEWID
 40
0.0
  9
$COORDS
 70
     1
  9
$SPLFRAME
 70
     0
  9
$SPLINETYPE
 70
     6
  9
$SPLINESEGS
 70
     8
  9
$ATTDIA
 70
     0
  9
$ATTREQ
 70
     1
  9
$HANDLING
 70
     1
  9
$HANDSEED
  5
296
  9
$SURFTAB1
 70
     6
  9
$SURFTAB2
 70
     6
  9
$SURFTYPE
 70
     6
  9
$SURFU
 70
     6
  9
$SURFV
 70
     6
  9
$UCSNAME
  2

  9
$UCSORG
 10
0.0
 20
0.0
 30
0.0
  9
$UCSXDIR
 10
1.0
 20
0.0
 30
0.0
  9
$UCSYDIR
 10
0.0
 20
1.0
 30
0.0
  9
$PUCSNAME
  2

  9
$PUCSORG
 10
0.0
 20
0.0
 30
0.0
  9
$PUCSXDIR
 10
1.0
 20
0.0
 30
0.0
  9
$PUCSYDIR
 10
0.0
 20
1.0
 30
0.0
  9
$USERI1
 70
     0
  9
$USERI2
 70
     0
  9
$USERI3
 70
     0
  9
$USERI4
 70
     0
  9
$USERI5
 70
     0
  9
$USERR1
 40
0.0
  9
$USERR2
 40
0.0
  9
$USERR3
 40
0.0
  9
$USERR4
 40
0.0
  9
$USERR5
 40
0.0
  9
$WORLDVIEW
 70
     1
  9
$SHADEDGE
 70
     3
  9
$SHADEDIF
 70
    70
  9
$TILEMODE
 70
     1
  9
$MAXACTVP
 70
    64
  9
$PINSBASE
 10
0.0
 20
0.0
 30
0.0
  9
$PLIMCHECK
 70
     0
  9
$PEXTMIN
 10
1.000000E+20
 20
1.000000E+20
 30
1.000000E+20
  9
$PEXTMAX
 10
-1.000000E+20
 20
-1.000000E+20
 30
-1.000000E+20
  9
$PLIMMIN
 10
0.0
 20
0.0
  9
$PLIMMAX
 10
12.0
 20
9.0
  9
$UNITMODE
 70
     0
  9
$VISRETAIN
 70
     1
  9
$PLINEGEN
 70
     0
  9
$PSLTSCALE
 70
     1
  9
$TREEDEPTH
 70
  3020
  9
$PICKSTYLE
 70
     1
  9
$CMLSTYLE
  2
STANDARD
  9
$CMLJUST
 70
     0
  9
$CMLSCALE
 40
1.0
  9
$PROXYGRAPHICS
 70
     1
  9
$MEASUREMENT
 70
     0
  0
ENDSEC
  0
SECTION
  2
CLASSES
  0
CLASS
  1
ACDBDICTIONARYWDFLT
  2
AcDbDictionaryWithDefault
  3
ObjectDBX Classes
 90
        0
280
     0
281
     0
  0
CLASS
  1
XRECORD
  2
AcDbXrecord
  3
AutoCAD 2000
 90
        0
280
     0
281
     0
  0
CLASS
  1
LWPOLYLINE
  2
AcDbPolyline
  3
AutoCAD 2000
 90
        0
280
     0
281
     1
  0
CLASS
  1
HATCH
  2
AcDbHatch
  3
AutoCAD 2000
 90
        0
280
     0
281
     1
  0
CLASS
  1
ACDBPLACEHOLDER
  2
AcDbPlaceHolder
  3
ObjectDBX Classes
 90
        0
280
     0
281
     0
  0
CLASS
  1
LAYOUT
  2
AcDbLayout
  3
ObjectDBX Classes
 90
        0
280
     0
281
     0
  0
ENDSEC
  0
SECTION
  2
TABLES
  0
TABLE
  2
VPORT
  5
8
330
0
100
AcDbSymbolTable
 70
     1
  0
VPORT
  5
29
330
8
100
AcDbSymbolTableRecord
100
AcDbViewportTableRecord
  2
*ACTIVE
 70
     0
 10
0.0
 20
0.0
 11
1.0
 21
1.0
 12
210.0
 22
148.5
 13
0.0
 23
0.0
 14
0.5
 24
0.5
 15
0.5
 25
0.5
 16
0.0
 26
0.0
 36
1.0
 17
0.0
 27
0.0
 37
0.0
 40
297.0
 41
1.414141
 42
50.0
 43
0.0
 44
0.0
 50
0.0
 51
0.0
 71
     0
 72
   100
 73
     1
 74
     3
 75
     0
 76
     0
 77
     0
 78
     0
  0
ENDTAB
  0
TABLE
  2
LTYPE
  5
5
330
0
100
AcDbSymbolTable
 70
     4
  0
LTYPE
  5
14
330
5
100
AcDbSymbolTableRecord
100
AcDbLinetypeTableRecord
  2
BYBLOCK
 70
     0
  3

 72
    65
 73
     0
 40
0.0
  0
LTYPE
  5
15
330
5
100
AcDbSymbolTableRecord
100
AcDbLinetypeTableRecord
  2
BYLAYER
 70
     0
  3

 72
    65
 73
     0
 40
0.0
  0
LTYPE
  5
16
330
5
100
AcDbSymbolTableRecord
100
AcDbLinetypeTableRecord
  2
CONTINUOUS
 70
     0
  3
--------------------
 72
    65
 73
     0
 40
0.0
  0
LTYPE
  5
2A
330
5
100
AcDbSymbolTableRecord
100
AcDbLinetypeTableRecord
  2
CENTER
 70
     0
  3
Center ____ _ ____ _ ____ _ ____ _ ____ _ ____
 72
    65
 73
     4
 40
13.0
 49
10.0
 74
     0
 49
-1.0
 74
     0
 49
1.0
 74
     0
 49
-1.0
 74
     0
  0
ENDTAB
  0
TABLE
  2
LAYER
  5
2
330
0
100
AcDbSymbolTable
 70
    20
  0
LAYER
  5
10
330
2
100
AcDbSymbolTableRecord
100
AcDbLayerTableRecord
  2
0
 70
     0
 62
     7
  6
CONTINUOUS
  0
LAYER
  5
2D
330
2
100
AcDbSymbolTableRecord
100
AcDbLayerTableRecord
  2
LAYERGROUP-1
 70
     0
 62
     3
  6
CONTINUOUS
  0
LAYER
  5
3D
330
2
100
AcDbSymbolTableRecord
100
AcDbLayerTableRecord
  2
}}ﾊﾊGG血CCТ
 70
     0
 62
     3
  6
CONTINUOUS
  0
LAYER
  5
B8
330
2
100
AcDbSymbolTableRecord
100
AcDbLayerTableRecord
  2
0-1
 70
     0
 62
     7
  6
CONTINUOUS
  0
LAYER
  5
D0
330
2
100
AcDbSymbolTableRecord
100
AcDbLayerTableRecord
  2
GR1-1
 70
     0
 62
     7
  6
CONTINUOUS
  0
ENDTAB
  0
TABLE
  2
STYLE
  5
3
330
0
100
AcDbSymbolTable
 70
     4
  0
STYLE
  5
11
330
3
100
AcDbSymbolTableRecord
100
AcDbTextStyleTableRecord
  2
STANDARD
 70
     0
 40
0.0
 41
1.0
 50
0.0
 71
     0
 42
0.2
  3
txt
  4

  0
STYLE
  5
3F
330
3
100
AcDbSymbolTableRecord
100
AcDbTextStyleTableRecord
  2
STYLE1
 70
     0
 40
0.0
 41
1.0
 50
0.0
 71
     0
 42
0.2
  3
MONOTXT.SHX
  4
extfont.shx
  0
STYLE
  5
40
330
3
100
AcDbSymbolTableRecord
100
AcDbTextStyleTableRecord
  2
FX_VECTOR
 70
     0
 40
0.0
 41
1.0
 50
0.0
 71
     0
 42
0.2
  3
MONOTXT.SHX
  4
BIGFONT.SHX
  0
ENDTAB
  0
TABLE
  2
VIEW
  5
6
330
0
100
AcDbSymbolTable
 70
     0
  0
ENDTAB
  0
TABLE
  2
UCS
  5
7
330
0
100
AcDbSymbolTable
 70
     0
  0
ENDTAB
  0
TABLE
  2
APPID
  5
9
330
0
100
AcDbSymbolTable
 70
     1
  0
APPID
  5
12
330
9
100
AcDbSymbolTableRecord
100
AcDbRegAppTableRecord
  2
ACAD
 70
     0
  0
ENDTAB
  0
TABLE
  2
DIMSTYLE
  5
A
330
0
100
AcDbSymbolTable
 70
     2
  0
DIMSTYLE
105
27
330
A
100
AcDbSymbolTableRecord
100
AcDbDimStyleTableRecord
  2
STANDARD
 70
     0
  3

  4

  5

  6

  7

 40
1.0
 41
0.18
 42
0.0625
 43
0.38
 44
0.18
 45
0.0
 46
0.0
 47
0.0
 48
0.0
140
0.18
141
0.09
142
0.0
143
25.4
144
1.0
145
0.0
146
1.0
147
0.09
 71
     0
 72
     0
 73
     1
 74
     1
 75
     0
 76
     0
 77
     0
 78
     0
170
     0
171
     2
172
     0
173
     0
174
     0
175
     0
176
     0
177
     0
178
     0
270
     2
271
     4
272
     4
273
     2
274
     2
340
11
275
     0
280
     0
281
     0
282
     0
283
     1
284
     0
285
     0
286
     0
287
     3
288
     0
  0
DIMSTYLE
105
A7
102
{ACAD_REACTORS
330
EC
330
101
330
10B
330
115
330
11E
330
155
330
1E8
330
1F6
330
200
330
22D
102
}
330
A
100
AcDbSymbolTableRecord
100
AcDbDimStyleTableRecord
  2
FXDIMINFO
 70
     0
  3

  4

  5

  6
FXTIP_ARROW_S
  7
FXTIP_ARROW_E
 40
1.0
 41
4.0
 42
1.0
 43
10.0
 44
1.0
 45
0.0
 46
6.0
 47
0.0
 48
0.0
140
4.0
141
2.5
142
0.0
143
0.03937
144
1.0
145
0.0
146
1.0
147
1.0
 71
     0
 72
     0
 73
     0
 74
     0
 75
     0
 76
     0
 77
     1
 78
     8
170
     0
171
     3
172
     1
173
     1
174
     0
175
     0
176
     7
177
     7
178
     7
179
     2
270
     2
271
     2
272
     2
273
     2
274
     3
340
3F
275
     0
280
     0
281
     0
282
     0
283
     0
284
     8
285
     0
286
     0
287
     3
288
     0
  0
ENDTAB
  0
TABLE
  2
BLOCK_RECORD
  5
1
330
0
100
AcDbSymbolTable
 70
    33
  0
BLOCK_RECORD
  5
1F
330
1
100
AcDbSymbolTableRecord
100
AcDbBlockTableRecord
  2
*MODEL_SPACE
  0
BLOCK_RECORD
  5
1B
330
1
100
AcDbSymbolTableRecord
100
AcDbBlockTableRecord
  2
*PAPER_SPACE
  0
BLOCK_RECORD
  5
41
330
1
100
AcDbSymbolTableRecord
100
AcDbBlockTableRecord
  2
FXTIP_ARROW_S
  0
BLOCK_RECORD
  5
47
330
1
100
AcDbSymbolTableRecord
100
AcDbBlockTableRecord
  2
FXTIP_ARROW_E
  0
BLOCK_RECORD
  5
4D
330
1
100
AcDbSymbolTableRecord
100
AcDbBlockTableRecord
  2
FXTIP_BLACKDOT_S
  0
BLOCK_RECORD
  5
53
330
1
100
AcDbSymbolTableRecord
100
AcDbBlockTableRecord
  2
FXTIP_BLACKDOT_E
  0
BLOCK_RECORD
  5
59
330
1
100
AcDbSymbolTableRecord
100
AcDbBlockTableRecord
  2
FXTIP_TRIANGLE_S
  0
BLOCK_RECORD
  5
60
330
1
100
AcDbSymbolTableRecord
100
AcDbBlockTableRecord
  2
FXTIP_TRIANGLE_E
  0
BLOCK_RECORD
  5
67
330
1
100
AcDbSymbolTableRecord
100
AcDbBlockTableRecord
  2
FXTIP_ARCHITECT_S
  0
BLOCK_RECORD
  5
6D
330
1
100
AcDbSymbolTableRecord
100
AcDbBlockTableRecord
  2
FXTIP_ARCHITECT_E
  0
BLOCK_RECORD
  5
73
330
1
100
AcDbSymbolTableRecord
100
AcDbBlockTableRecord
  2
FXTIP_CIVIL_S
  0
BLOCK_RECORD
  5
79
330
1
100
AcDbSymbolTableRecord
100
AcDbBlockTableRecord
  2
FXTIP_CIVIL_E
  0
BLOCK_RECORD
  5
7F
330
1
100
AcDbSymbolTableRecord
100
AcDbBlockTableRecord
  2
FXTIP_WHITEDOT_S
  0
BLOCK_RECORD
  5
84
330
1
100
AcDbSymbolTableRecord
100
AcDbBlockTableRecord
  2
FXTIP_WHITEDOT_E
  0
BLOCK_RECORD
  5
89
330
1
100
AcDbSymbolTableRecord
100
AcDbBlockTableRecord
  2
FXTIP_UPARROW_S
  0
BLOCK_RECORD
  5
8E
330
1
100
AcDbSymbolTableRecord
100
AcDbBlockTableRecord
  2
FXTIP_UPARROW_E
  0
BLOCK_RECORD
  5
93
330
1
100
AcDbSymbolTableRecord
100
AcDbBlockTableRecord
  2
FXTIP_DOWNARROW_S
  0
BLOCK_RECORD
  5
98
330
1
100
AcDbSymbolTableRecord
100
AcDbBlockTableRecord
  2
FXTIP_DOWNARROW_E
  0
BLOCK_RECORD
  5
9D
330
1
100
AcDbSymbolTableRecord
100
AcDbBlockTableRecord
  2
FXTIP_BLACKTRIANGLE_S
  0
BLOCK_RECORD
  5
A2
330
1
100
AcDbSymbolTableRecord
100
AcDbBlockTableRecord
  2
FXTIP_BLACKTRIANGLE_E
  0
BLOCK_RECORD
  5
A8
330
1
100
AcDbSymbolTableRecord
100
AcDbBlockTableRecord
  2
BLKF021
  0
BLOCK_RECORD
  5
B4
330
1
100
AcDbSymbolTableRecord
100
AcDbBlockTableRecord
  2
BLKF022
  0
BLOCK_RECORD
  5
BD
330
1
100
AcDbSymbolTableRecord
100
AcDbBlockTableRecord
  2
BLKF023
  0
BLOCK_RECORD
  5
ED
330
1
100
AcDbSymbolTableRecord
100
AcDbBlockTableRecord
  2
*D22
  0
BLOCK_RECORD
  5
102
330
1
100
AcDbSymbolTableRecord
100
AcDbBlockTableRecord
  2
*D23
  0
BLOCK_RECORD
  5
10C
330
1
100
AcDbSymbolTableRecord
100
AcDbBlockTableRecord
  2
*D24
  0
BLOCK_RECORD
  5
116
330
1
100
AcDbSymbolTableRecord
100
AcDbBlockTableRecord
  2
*D25
  0
BLOCK_RECORD
  5
11F
330
1
100
AcDbSymbolTableRecord
100
AcDbBlockTableRecord
  2
*D26
  0
BLOCK_RECORD
  5
156
330
1
100
AcDbSymbolTableRecord
100
AcDbBlockTableRecord
  2
*D27
  0
BLOCK_RECORD
  5
1E9
330
1
100
AcDbSymbolTableRecord
100
AcDbBlockTableRecord
  2
*D28
  0
BLOCK_RECORD
  5
1F7
330
1
100
AcDbSymbolTableRecord
100
AcDbBlockTableRecord
  2
*D29
  0
BLOCK_RECORD
  5
201
330
1
100
AcDbSymbolTableRecord
100
AcDbBlockTableRecord
  2
*D30
  0
BLOCK_RECORD
  5
22E
330
1
100
AcDbSymbolTableRecord
100
AcDbBlockTableRecord
  2
*D31
  0
BLOCK_RECORD
  5
267
330
1
100
AcDbSymbolTableRecord
100
AcDbBlockTableRecord
  2
BLKF034
  0
ENDTAB
  0
ENDSEC
  0
SECTION
  2
BLOCKS
  0
BLOCK
  5
20
330
1F
100
AcDbEntity
  8
0
100
AcDbBlockBegin
  2
*MODEL_SPACE
 70
     0
 71
     0
 10
0.0
 20
0.0
 30
0.0
  3
*MODEL_SPACE
  1

  0
ENDBLK
  5
21
330
1F
100
AcDbEntity
  8
0
100
AcDbBlockEnd
  0
BLOCK
  5
1C
330
1B
100
AcDbEntity
 67
     1
  8
0
100
AcDbBlockBegin
  2
*PAPER_SPACE
 70
     0
 71
     0
 10
0.0
 20
0.0
 30
0.0
  3
*PAPER_SPACE
  1

  0
ENDBLK
  5
1D
330
1B
100
AcDbEntity
 67
     1
  8
0
100
AcDbBlockEnd
  0
BLOCK
  5
42
330
41
100
AcDbEntity
  8
0
100
AcDbBlockBegin
  2
FXTIP_ARROW_S
 70
     0
 71
     0
 10
0.0
 20
0.0
 30
0.0
  3
FXTIP_ARROW_S
  1

  0
LINE
  5
44
330
41
100
AcDbEntity
  8
0
  6
CONTINUOUS
 62
     0
100
AcDbLine
 10
0.0
 20
0.0
 30
0.0
 11
-1.0
 21
0.0
 31
0.0
  0
LINE
  5
45
330
41
100
AcDbEntity
  8
0
  6
CONTINUOUS
 62
     0
100
AcDbLine
 10
0.0
 20
0.0
 30
0.0
 11
-0.965926
 21
-0.258819
 31
0.0
  0
LINE
  5
46
330
41
100
AcDbEntity
  8
0
  6
CONTINUOUS
 62
     0
100
AcDbLine
 10
0.0
 20
0.0
 30
0.0
 11
-0.965926
 21
0.258819
 31
0.0
  0
ENDBLK
  5
43
330
41
100
AcDbEntity
  8
0
100
AcDbBlockEnd
  0
BLOCK
  5
48
330
47
100
AcDbEntity
  8
0
100
AcDbBlockBegin
  2
FXTIP_ARROW_E
 70
     0
 71
     0
 10
0.0
 20
0.0
 30
0.0
  3
FXTIP_ARROW_E
  1

  0
LINE
  5
4A
330
47
100
AcDbEntity
  8
0
  6
CONTINUOUS
 62
     0
100
AcDbLine
 10
0.0
 20
0.0
 30
0.0
 11
-1.0
 21
0.0
 31
0.0
  0
LINE
  5
4B
330
47
100
AcDbEntity
  8
0
  6
CONTINUOUS
 62
     0
100
AcDbLine
 10
0.0
 20
0.0
 30
0.0
 11
-0.965926
 21
0.258819
 31
0.0
  0
LINE
  5
4C
330
47
100
AcDbEntity
  8
0
  6
CONTINUOUS
 62
     0
100
AcDbLine
 10
0.0
 20
0.0
 30
0.0
 11
-0.965926
 21
-0.258819
 31
0.0
  0
ENDBLK
  5
49
330
47
100
AcDbEntity
  8
0
100
AcDbBlockEnd
  0
BLOCK
  5
4E
330
4D
100
AcDbEntity
  8
0
100
AcDbBlockBegin
  2
FXTIP_BLACKDOT_S
 70
     0
 71
     0
 10
0.0
 20
0.0
 30
0.0
  3
FXTIP_BLACKDOT_S
  1

  0
LINE
  5
50
330
4D
100
AcDbEntity
  8
0
  6
CONTINUOUS
 62
     0
100
AcDbLine
 10
0.0
 20
0.0
 30
0.0
 11
-1.0
 21
0.0
 31
0.0
  0
LWPOLYLINE
  5
51
330
4D
100
AcDbEntity
  8
0
  6
CONTINUOUS
 62
     0
100
AcDbPolyline
 90
        2
 70
     1
 10
-0.25
 20
0.0
 40
0.5
 41
0.5
 42
1.0
 10
0.25
 20
0.0
 40
0.5
 41
0.5
 42
1.0
  0
CIRCLE
  5
52
330
4D
100
AcDbEntity
  8
0
  6
CONTINUOUS
 62
     0
100
AcDbCircle
 10
0.0
 20
0.0
 30
0.0
 40
0.5
  0
ENDBLK
  5
4F
330
4D
100
AcDbEntity
  8
0
100
AcDbBlockEnd
  0
BLOCK
  5
54
330
53
100
AcDbEntity
  8
0
100
AcDbBlockBegin
  2
FXTIP_BLACKDOT_E
 70
     0
 71
     0
 10
0.0
 20
0.0
 30
0.0
  3
FXTIP_BLACKDOT_E
  1

  0
LINE
  5
56
330
53
100
AcDbEntity
  8
0
  6
CONTINUOUS
 62
     0
100
AcDbLine
 10
0.0
 20
0.0
 30
0.0
 11
-1.0
 21
0.0
 31
0.0
  0
LWPOLYLINE
  5
57
330
53
100
AcDbEntity
  8
0
  6
CONTINUOUS
 62
     0
100
AcDbPolyline
 90
        2
 70
     1
 10
-0.25
 20
0.0
 40
0.5
 41
0.5
 42
1.0
 10
0.25
 20
0.0
 40
0.5
 41
0.5
 42
1.0
  0
CIRCLE
  5
58
330
53
100
AcDbEntity
  8
0
  6
CONTINUOUS
 62
     0
100
AcDbCircle
 10
0.0
 20
0.0
 30
0.0
 40
0.5
  0
ENDBLK
  5
55
330
53
100
AcDbEntity
  8
0
100
AcDbBlockEnd
  0
BLOCK
  5
5A
330
59
100
AcDbEntity
  8
0
100
AcDbBlockBegin
  2
FXTIP_TRIANGLE_S
 70
     0
 71
     0
 10
0.0
 20
0.0
 30
0.0
  3
FXTIP_TRIANGLE_S
  1

  0
LINE
  5
5C
330
59
100
AcDbEntity
  8
0
  6
CONTINUOUS
 62
     0
100
AcDbLine
 10
0.0
 20
0.0
 30
0.0
 11
-1.0
 21
0.0
 31
0.0
  0
LINE
  5
5D
330
59
100
AcDbEntity
  8
0
  6
CONTINUOUS
 62
     0
100
AcDbLine
 10
0.0
 20
0.0
 30
0.0
 11
-0.965926
 21
-0.258819
 31
0.0
  0
LINE
  5
5E
330
59
100
AcDbEntity
  8
0
  6
CONTINUOUS
 62
     0
100
AcDbLine
 10
0.0
 20
0.0
 30
0.0
 11
-0.965926
 21
0.258819
 31
0.0
  0
LINE
  5
5F
330
59
100
AcDbEntity
  8
0
  6
CONTINUOUS
 62
     0
100
AcDbLine
 10
-0.965926
 20
-0.258819
 30
0.0
 11
-0.965926
 21
0.258819
 31
0.0
  0
ENDBLK
  5
5B
330
59
100
AcDbEntity
  8
0
100
AcDbBlockEnd
  0
BLOCK
  5
61
330
60
100
AcDbEntity
  8
0
100
AcDbBlockBegin
  2
FXTIP_TRIANGLE_E
 70
     0
 71
     0
 10
0.0
 20
0.0
 30
0.0
  3
FXTIP_TRIANGLE_E
  1

  0
LINE
  5
63
330
60
100
AcDbEntity
  8
0
  6
CONTINUOUS
 62
     0
100
AcDbLine
 10
0.0
 20
0.0
 30
0.0
 11
-1.0
 21
0.0
 31
0.0
  0
LINE
  5
64
330
60
100
AcDbEntity
  8
0
  6
CONTINUOUS
 62
     0
100
AcDbLine
 10
0.0
 20
0.0
 30
0.0
 11
-0.965926
 21
0.258819
 31
0.0
  0
LINE
  5
65
330
60
100
AcDbEntity
  8
0
  6
CONTINUOUS
 62
     0
100
AcDbLine
 10
0.0
 20
0.0
 30
0.0
 11
-0.965926
 21
-0.258819
 31
0.0
  0
LINE
  5
66
330
60
100
AcDbEntity
  8
0
  6
CONTINUOUS
 62
     0
100
AcDbLine
 10
-0.965926
 20
0.258819
 30
0.0
 11
-0.965926
 21
-0.258819
 31
0.0
  0
ENDBLK
  5
62
330
60
100
AcDbEntity
  8
0
100
AcDbBlockEnd
  0
BLOCK
  5
68
330
67
100
AcDbEntity
  8
0
100
AcDbBlockBegin
  2
FXTIP_ARCHITECT_S
 70
     0
 71
     0
 10
0.0
 20
0.0
 30
0.0
  3
FXTIP_ARCHITECT_S
  1

  0
LINE
  5
6A
330
67
100
AcDbEntity
  8
0
  6
CONTINUOUS
 62
     0
100
AcDbLine
 10
0.0
 20
0.0
 30
0.0
 11
-1.0
 21
0.0
 31
0.0
  0
LINE
  5
6B
330
67
100
AcDbEntity
  8
0
  6
CONTINUOUS
 62
     0
100
AcDbLine
 10
0.0
 20
0.0
 30
0.0
 11
-0.707107
 21
-0.707107
 31
0.0
  0
LINE
  5
6C
330
67
100
AcDbEntity
  8
0
  6
CONTINUOUS
 62
     0
100
AcDbLine
 10
0.0
 20
0.0
 30
0.0
 11
0.707107
 21
0.707107
 31
0.0
  0
ENDBLK
  5
69
330
67
100
AcDbEntity
  8
0
100
AcDbBlockEnd
  0
BLOCK
  5
6E
330
6D
100
AcDbEntity
  8
0
100
AcDbBlockBegin
  2
FXTIP_ARCHITECT_E
 70
     0
 71
     0
 10
0.0
 20
0.0
 30
0.0
  3
FXTIP_ARCHITECT_E
  1

  0
LINE
  5
70
330
6D
100
AcDbEntity
  8
0
  6
CONTINUOUS
 62
     0
100
AcDbLine
 10
0.0
 20
0.0
 30
0.0
 11
-1.0
 21
0.0
 31
0.0
  0
LINE
  5
71
330
6D
100
AcDbEntity
  8
0
  6
CONTINUOUS
 62
     0
100
AcDbLine
 10
0.0
 20
0.0
 30
0.0
 11
0.707107
 21
0.707107
 31
0.0
  0
LINE
  5
72
330
6D
100
AcDbEntity
  8
0
  6
CONTINUOUS
 62
     0
100
AcDbLine
 10
0.0
 20
0.0
 30
0.0
 11
-0.707107
 21
-0.707107
 31
0.0
  0
ENDBLK
  5
6F
330
6D
100
AcDbEntity
  8
0
100
AcDbBlockEnd
  0
BLOCK
  5
74
330
73
100
AcDbEntity
  8
0
100
AcDbBlockBegin
  2
FXTIP_CIVIL_S
 70
     0
 71
     0
 10
0.0
 20
0.0
 30
0.0
  3
FXTIP_CIVIL_S
  1

  0
LINE
  5
76
330
73
100
AcDbEntity
  8
0
  6
CONTINUOUS
 62
     0
100
AcDbLine
 10
0.0
 20
0.0
 30
0.0
 11
-1.0
 21
0.0
 31
0.0
  0
LINE
  5
77
330
73
100
AcDbEntity
  8
0
  6
CONTINUOUS
 62
     0
100
AcDbLine
 10
0.0
 20
-0.0625
 30
0.0
 11
-1.0
 21
-0.0625
 31
0.0
  0
LINE
  5
78
330
73
100
AcDbEntity
  8
0
  6
CONTINUOUS
 62
     0
100
AcDbLine
 10
0.0
 20
-0.125
 30
0.0
 11
-1.0
 21
-0.125
 31
0.0
  0
ENDBLK
  5
75
330
73
100
AcDbEntity
  8
0
100
AcDbBlockEnd
  0
BLOCK
  5
7A
330
79
100
AcDbEntity
  8
0
100
AcDbBlockBegin
  2
FXTIP_CIVIL_E
 70
     0
 71
     0
 10
0.0
 20
0.0
 30
0.0
  3
FXTIP_CIVIL_E
  1

  0
LINE
  5
7C
330
79
100
AcDbEntity
  8
0
  6
CONTINUOUS
 62
     0
100
AcDbLine
 10
0.0
 20
0.0
 30
0.0
 11
-1.0
 21
0.0
 31
0.0
  0
LINE
  5
7D
330
79
100
AcDbEntity
  8
0
  6
CONTINUOUS
 62
     0
100
AcDbLine
 10
0.0
 20
0.0625
 30
0.0
 11
-1.0
 21
0.0625
 31
0.0
  0
LINE
  5
7E
330
79
100
AcDbEntity
  8
0
  6
CONTINUOUS
 62
     0
100
AcDbLine
 10
0.0
 20
0.125
 30
0.0
 11
-1.0
 21
0.125
 31
0.0
  0
ENDBLK
  5
7B
330
79
100
AcDbEntity
  8
0
100
AcDbBlockEnd
  0
BLOCK
  5
80
330
7F
100
AcDbEntity
  8
0
100
AcDbBlockBegin
  2
FXTIP_WHITEDOT_S
 70
     0
 71
     0
 10
0.0
 20
0.0
 30
0.0
  3
FXTIP_WHITEDOT_S
  1

  0
LINE
  5
82
330
7F
100
AcDbEntity
  8
0
  6
CONTINUOUS
 62
     0
100
AcDbLine
 10
0.0
 20
0.0
 30
0.0
 11
-1.0
 21
0.0
 31
0.0
  0
CIRCLE
  5
83
330
7F
100
AcDbEntity
  8
0
  6
CONTINUOUS
 62
     0
100
AcDbCircle
 10
0.0
 20
0.0
 30
0.0
 40
0.5
  0
ENDBLK
  5
81
330
7F
100
AcDbEntity
  8
0
100
AcDbBlockEnd
  0
BLOCK
  5
85
330
84
100
AcDbEntity
  8
0
100
AcDbBlockBegin
  2
FXTIP_WHITEDOT_E
 70
     0
 71
     0
 10
0.0
 20
0.0
 30
0.0
  3
FXTIP_WHITEDOT_E
  1

  0
LINE
  5
87
330
84
100
AcDbEntity
  8
0
  6
CONTINUOUS
 62
     0
100
AcDbLine
 10
0.0
 20
0.0
 30
0.0
 11
-1.0
 21
0.0
 31
0.0
  0
CIRCLE
  5
88
330
84
100
AcDbEntity
  8
0
  6
CONTINUOUS
 62
     0
100
AcDbCircle
 10
0.0
 20
0.0
 30
0.0
 40
0.5
  0
ENDBLK
  5
86
330
84
100
AcDbEntity
  8
0
100
AcDbBlockEnd
  0
BLOCK
  5
8A
330
89
100
AcDbEntity
  8
0
100
AcDbBlockBegin
  2
FXTIP_UPARROW_S
 70
     0
 71
     0
 10
0.0
 20
0.0
 30
0.0
  3
FXTIP_UPARROW_S
  1

  0
LINE
  5
8C
330
89
100
AcDbEntity
  8
0
  6
CONTINUOUS
 62
     0
100
AcDbLine
 10
0.0
 20
0.0
 30
0.0
 11
-1.0
 21
0.0
 31
0.0
  0
LINE
  5
8D
330
89
100
AcDbEntity
  8
0
  6
CONTINUOUS
 62
     0
100
AcDbLine
 10
0.0
 20
0.0
 30
0.0
 11
-0.965926
 21
-0.258819
 31
0.0
  0
ENDBLK
  5
8B
330
89
100
AcDbEntity
  8
0
100
AcDbBlockEnd
  0
BLOCK
  5
8F
330
8E
100
AcDbEntity
  8
0
100
AcDbBlockBegin
  2
FXTIP_UPARROW_E
 70
     0
 71
     0
 10
0.0
 20
0.0
 30
0.0
  3
FXTIP_UPARROW_E
  1

  0
LINE
  5
91
330
8E
100
AcDbEntity
  8
0
  6
CONTINUOUS
 62
     0
100
AcDbLine
 10
0.0
 20
0.0
 30
0.0
 11
-1.0
 21
0.0
 31
0.0
  0
LINE
  5
92
330
8E
100
AcDbEntity
  8
0
  6
CONTINUOUS
 62
     0
100
AcDbLine
 10
0.0
 20
0.0
 30
0.0
 11
-0.965926
 21
0.258819
 31
0.0
  0
ENDBLK
  5
90
330
8E
100
AcDbEntity
  8
0
100
AcDbBlockEnd
  0
BLOCK
  5
94
330
93
100
AcDbEntity
  8
0
100
AcDbBlockBegin
  2
FXTIP_DOWNARROW_S
 70
     0
 71
     0
 10
0.0
 20
0.0
 30
0.0
  3
FXTIP_DOWNARROW_S
  1

  0
LINE
  5
96
330
93
100
AcDbEntity
  8
0
  6
CONTINUOUS
 62
     0
100
AcDbLine
 10
0.0
 20
0.0
 30
0.0
 11
-1.0
 21
0.0
 31
0.0
  0
LINE
  5
97
330
93
100
AcDbEntity
  8
0
  6
CONTINUOUS
 62
     0
100
AcDbLine
 10
0.0
 20
0.0
 30
0.0
 11
-0.965926
 21
0.258819
 31
0.0
  0
ENDBLK
  5
95
330
93
100
AcDbEntity
  8
0
100
AcDbBlockEnd
  0
BLOCK
  5
99
330
98
100
AcDbEntity
  8
0
100
AcDbBlockBegin
  2
FXTIP_DOWNARROW_E
 70
     0
 71
     0
 10
0.0
 20
0.0
 30
0.0
  3
FXTIP_DOWNARROW_E
  1

  0
LINE
  5
9B
330
98
100
AcDbEntity
  8
0
  6
CONTINUOUS
 62
     0
100
AcDbLine
 10
0.0
 20
0.0
 30
0.0
 11
-1.0
 21
0.0
 31
0.0
  0
LINE
  5
9C
330
98
100
AcDbEntity
  8
0
  6
CONTINUOUS
 62
     0
100
AcDbLine
 10
0.0
 20
0.0
 30
0.0
 11
-0.965926
 21
-0.258819
 31
0.0
  0
ENDBLK
  5
9A
330
98
100
AcDbEntity
  8
0
100
AcDbBlockEnd
  0
BLOCK
  5
9E
330
9D
100
AcDbEntity
  8
0
100
AcDbBlockBegin
  2
FXTIP_BLACKTRIANGLE_S
 70
     0
 71
     0
 10
0.0
 20
0.0
 30
0.0
  3
FXTIP_BLACKTRIANGLE_S
  1

  0
LINE
  5
A0
330
9D
100
AcDbEntity
  8
0
  6
CONTINUOUS
 62
     0
100
AcDbLine
 10
0.0
 20
0.0
 30
0.0
 11
-1.0
 21
0.0
 31
0.0
  0
SOLID
  5
A1
330
9D
100
AcDbEntity
  8
0
  6
CONTINUOUS
 62
     0
100
AcDbTrace
 10
0.0
 20
0.0
 30
0.0
 11
-0.965926
 21
-0.258819
 31
0.0
 12
-0.965926
 22
0.258819
 32
0.0
 13
-0.965926
 23
0.258819
 33
0.0
  0
ENDBLK
  5
9F
330
9D
100
AcDbEntity
  8
0
100
AcDbBlockEnd
  0
BLOCK
  5
A3
330
A2
100
AcDbEntity
  8
0
100
AcDbBlockBegin
  2
FXTIP_BLACKTRIANGLE_E
 70
     0
 71
     0
 10
0.0
 20
0.0
 30
0.0
  3
FXTIP_BLACKTRIANGLE_E
  1

  0
LINE
  5
A5
330
A2
100
AcDbEntity
  8
0
  6
CONTINUOUS
 62
     0
100
AcDbLine
 10
0.0
 20
0.0
 30
0.0
 11
-1.0
 21
0.0
 31
0.0
  0
SOLID
  5
A6
330
A2
100
AcDbEntity
  8
0
  6
CONTINUOUS
 62
     0
100
AcDbTrace
 10
0.0
 20
0.0
 30
0.0
 11
-0.965926
 21
0.258819
 31
0.0
 12
-0.965926
 22
-0.258819
 32
0.0
 13
-0.965926
 23
-0.258819
 33
0.0
  0
ENDBLK
  5
A4
330
A2
100
AcDbEntity
  8
0
100
AcDbBlockEnd
  0
BLOCK
  5
A9
330
A8
100
AcDbEntity
  8
0
100
AcDbBlockBegin
  2
BLKF021
 70
     0
 71
     0
 10
0.0
 20
0.0
 30
0.0
  3
BLKF021
  1

  0
LINE
  5
AC
330
A8
100
AcDbEntity
  8
}}ﾊﾊGG血CCТ
  6
CONTINUOUS
 62
     7
100
AcDbLine
 10
10.0
 20
10.0
 30
0.0
 11
410.0
 21
10.0
 31
0.0
  0
LINE
  5
AD
330
A8
100
AcDbEntity
  8
}}ﾊﾊGG血CCТ
  6
CONTINUOUS
 62
     7
100
AcDbLine
 10
10.0
 20
10.0
 30
0.0
 11
10.0
 21
287.0
 31
0.0
  0
LINE
  5
AE
330
A8
100
AcDbEntity
  8
}}ﾊﾊGG血CCТ
  6
CONTINUOUS
 62
     7
100
AcDbLine
 10
10.0
 20
287.0
 30
0.0
 11
410.0
 21
287.0
 31
0.0
  0
LINE
  5
AF
330
A8
100
AcDbEntity
  8
}}ﾊﾊGG血CCТ
  6
CONTINUOUS
 62
     7
100
AcDbLine
 10
410.0
 20
287.0
 30
0.0
 11
410.0
 21
10.0
 31
0.0
  0
LINE
  5
B0
330
A8
100
AcDbEntity
  8
}}ﾊﾊGG血CCТ
  6
CONTINUOUS
 62
     7
100
AcDbLine
 10
153.0
 20
10.0
 30
0.0
 11
153.0
 21
20.0
 31
0.0
  0
TEXT
  5
B1
330
A8
100
AcDbEntity
  8
}}ﾊﾊGG血CCТ
  6
CONTINUOUS
 62
     7
100
AcDbText
 10
137.738815
 20
11.596879
 30
0.0
 40
6.648749
  1
品名
 41
1.083413
  7
FX_VECTOR
 72
     5
 11
149.058355
 21
11.596879
 31
0.0
100
AcDbText
  0
LINE
  5
B2
330
A8
100
AcDbEntity
  8
}}ﾊﾊGG血CCТ
  6
CONTINUOUS
 62
     7
100
AcDbLine
 10
233.0
 20
20.0
 30
0.0
 11
233.0
 21
10.0
 31
0.0
  0
LINE
  5
B3
330
A8
100
AcDbEntity
  8
}}ﾊﾊGG血CCТ
  6
CONTINUOUS
 62
     7
100
AcDbLine
 10
133.0
 20
20.0
 30
0.0
 11
410.0
 21
20.0
 31
0.0
  0
INSERT
  5
B7
330
A8
100
AcDbEntity
  8
0
100
AcDbBlockReference
  2
BLKF022
 10
0.0
 20
0.0
 30
0.0
  0
INSERT
  5
C0
330
A8
100
AcDbEntity
  8
0
100
AcDbBlockReference
  2
BLKF023
 10
0.0
 20
0.0
 30
0.0
  0
HATCH
  5
D1
330
A8
100
AcDbEntity
  8
GR1-1
  6
CONTINUOUS
 62
     7
100
AcDbHatch
 10
0.0
 20
0.0
 30
0.0
210
0.0
220
0.0
230
1.0
  2

 70
     0
 71
     1
 91
        2
 92
        0
 93
        4
 72
     1
 10
338.8018997861325
 20
17.91346152
 11
344.8018997861325
 21
17.91346152
 72
     1
 10
344.8018997861325
 20
17.91346152
 11
344.8018997861325
 21
11.91346152
 72
     1
 10
344.8018997861325
 20
11.91346152
 11
338.8018997861325
 21
11.91346152
 72
     1
 10
338.8018997861325
 20
11.91346152
 11
338.8018997861325
 21
17.91346152
 97
        0
 92
        0
 93
       15
 72
     1
 10
341.8018997861325
 20
17.76923076000002
 11
338.9461305461325
 21
14.91346152
 72
     1
 10
338.9461305461325
 20
14.91346152
 11
341.8018997861325
 21
12.05769228000001
 72
     1
 10
341.8018997861325
 20
12.05769228000001
 11
343.3595920661325
 21
13.61538462
 72
     1
 10
343.3595920661325
 20
13.61538462
 11
343.3595920661325
 21
12.98076924
 72
     1
 10
343.3595920661325
 20
12.98076924
 11
344.2249766861325
 21
12.98076924
 72
     1
 10
344.2249766861325
 20
12.98076924
 11
344.2249766861325
 21
15.00000000000001
 72
     1
 10
344.2249766861325
 20
15.00000000000001
 11
341.8018997861325
 21
15.00000000000001
 72
     1
 10
341.8018997861325
 20
15.00000000000001
 11
341.8018997861325
 21
14.13461538000001
 72
     1
 10
341.8018997861325
 20
14.13461538000001
 11
342.2461305461325
 21
14.13461538000001
 72
     1
 10
342.2461305461325
 20
14.13461538000001
 11
341.8018997861325
 21
13.69038462
 72
     1
 10
341.8018997861325
 20
13.69038462
 11
340.5788228861325
 21
14.91346152
 72
     1
 10
340.5788228861325
 20
14.91346152
 11
341.8018997861325
 21
16.13653842000003
 72
     1
 10
341.8018997861325
 20
16.13653842000003
 11
342.5922844061325
 21
15.3461538
 72
     1
 10
342.5922844061325
 20
15.3461538
 11
344.2249766861325
 21
15.3461538
 72
     1
 10
344.2249766861325
 20
15.3461538
 11
341.8018997861325
 21
17.76923076000002
 97
        0
 75
     0
 76
     0
 52
45.0
 41
0.05
 77
     0
 78
     1
 53
45.0
 43
0.0
 44
0.0
 45
-0.0353553390593274
 46
0.0353553390593274
 79
     0
 98
        0
  0
TEXT
  5
D2
330
A8
100
AcDbEntity
  8
}}ﾊﾊGG血CCТ
  6
CONTINUOUS
 62
     7
100
AcDbText
 10
349.225769
 20
11.461285
 30
0.0
 40
6.0
  1
GOLD CASTER
 41
0.719626
  7
FX_VECTOR
 72
     5
 11
393.225769
 21
11.461285
 31
0.0
100
AcDbText
  0
LINE
  5
D3
330
A8
100
AcDbEntity
  8
}}ﾊﾊGG血CCТ
  6
CONTINUOUS
 62
     7
100
AcDbLine
 10
253.0
 20
10.0
 30
0.0
 11
253.0
 21
20.0
 31
0.0
  0
TEXT
  5
D4
330
A8
100
AcDbEntity
  8
}}ﾊﾊGG血CCТ
  6
CONTINUOUS
 62
     7
100
AcDbText
 10
237.738815
 20
11.596879
 30
0.0
 40
6.648749
  1
図番
 41
1.083413
  7
FX_VECTOR
 72
     5
 11
249.058355
 21
11.596879
 31
0.0
100
AcDbText
  0
LINE
  5
D5
330
A8
100
AcDbEntity
  8
}}ﾊﾊGG血CCТ
  6
CONTINUOUS
 62
     7
100
AcDbLine
 10
333.0
 20
20.0
 30
0.0
 11
333.0
 21
10.0
 31
0.0
  0
LINE
  5
D6
330
A8
100
AcDbEntity
  8
}}ﾊﾊGG血CCТ
  6
CONTINUOUS
 62
     7
100
AcDbLine
 10
133.0
 20
20.0
 30
0.0
 11
133.0
 21
10.0
 31
0.0
  0
ENDBLK
  5
AA
330
A8
100
AcDbEntity
  8
0
100
AcDbBlockEnd
  0
BLOCK
  5
B5
330
B4
100
AcDbEntity
  8
0
100
AcDbBlockBegin
  2
BLKF022
 70
     0
 71
     0
 10
0.0
 20
0.0
 30
0.0
  3
BLKF022
  1

  0
LINE
  5
B9
330
B4
100
AcDbEntity
  8
0-1
  6
CONTINUOUS
 62
     7
100
AcDbLine
 10
344.8019
 20
17.913462
 30
0.0
 11
338.8019
 21
17.913462
 31
0.0
  0
LINE
  5
BA
330
B4
100
AcDbEntity
  8
0-1
  6
CONTINUOUS
 62
     7
100
AcDbLine
 10
338.8019
 20
17.913462
 30
0.0
 11
338.8019
 21
11.913462
 31
0.0
  0
LINE
  5
BB
330
B4
100
AcDbEntity
  8
0-1
  6
CONTINUOUS
 62
     7
100
AcDbLine
 10
338.8019
 20
11.913462
 30
0.0
 11
344.8019
 21
11.913462
 31
0.0
  0
LINE
  5
BC
330
B4
100
AcDbEntity
  8
0-1
  6
CONTINUOUS
 62
     7
100
AcDbLine
 10
344.8019
 20
11.913462
 30
0.0
 11
344.8019
 21
17.913462
 31
0.0
  0
ENDBLK
  5
B6
330
B4
100
AcDbEntity
  8
0
100
AcDbBlockEnd
  0
BLOCK
  5
BE
330
BD
100
AcDbEntity
  8
0
100
AcDbBlockBegin
  2
BLKF023
 70
     0
 71
     0
 10
0.0
 20
0.0
 30
0.0
  3
BLKF023
  1

  0
LINE
  5
C1
330
BD
100
AcDbEntity
  8
0-1
  6
CONTINUOUS
 62
     7
100
AcDbLine
 10
344.224977
 20
15.346154
 30
0.0
 11
341.8019
 21
17.769231
 31
0.0
  0
LINE
  5
C2
330
BD
100
AcDbEntity
  8
0-1
  6
CONTINUOUS
 62
     7
100
AcDbLine
 10
341.8019
 20
17.769231
 30
0.0
 11
338.946131
 21
14.913462
 31
0.0
  0
LINE
  5
C3
330
BD
100
AcDbEntity
  8
0-1
  6
CONTINUOUS
 62
     7
100
AcDbLine
 10
338.946131
 20
14.913462
 30
0.0
 11
341.8019
 21
12.057692
 31
0.0
  0
LINE
  5
C4
330
BD
100
AcDbEntity
  8
0-1
  6
CONTINUOUS
 62
     7
100
AcDbLine
 10
341.8019
 20
12.057692
 30
0.0
 11
343.359592
 21
13.615385
 31
0.0
  0
LINE
  5
C5
330
BD
100
AcDbEntity
  8
0-1
  6
CONTINUOUS
 62
     7
100
AcDbLine
 10
343.359592
 20
13.615385
 30
0.0
 11
343.359592
 21
12.980769
 31
0.0
  0
LINE
  5
C6
330
BD
100
AcDbEntity
  8
0-1
  6
CONTINUOUS
 62
     7
100
AcDbLine
 10
343.359592
 20
12.980769
 30
0.0
 11
344.224977
 21
12.980769
 31
0.0
  0
LINE
  5
C7
330
BD
100
AcDbEntity
  8
0-1
  6
CONTINUOUS
 62
     7
100
AcDbLine
 10
344.224977
 20
12.980769
 30
0.0
 11
344.224977
 21
15.0
 31
0.0
  0
LINE
  5
C8
330
BD
100
AcDbEntity
  8
0-1
  6
CONTINUOUS
 62
     7
100
AcDbLine
 10
344.224977
 20
15.0
 30
0.0
 11
341.8019
 21
15.0
 31
0.0
  0
LINE
  5
C9
330
BD
100
AcDbEntity
  8
0-1
  6
CONTINUOUS
 62
     7
100
AcDbLine
 10
341.8019
 20
15.0
 30
0.0
 11
341.8019
 21
14.134615
 31
0.0
  0
LINE
  5
CA
330
BD
100
AcDbEntity
  8
0-1
  6
CONTINUOUS
 62
     7
100
AcDbLine
 10
341.8019
 20
14.134615
 30
0.0
 11
342.246131
 21
14.134615
 31
0.0
  0
LINE
  5
CB
330
BD
100
AcDbEntity
  8
0-1
  6
CONTINUOUS
 62
     7
100
AcDbLine
 10
342.246131
 20
14.134615
 30
0.0
 11
341.8019
 21
13.690385
 31
0.0
  0
LINE
  5
CC
330
BD
100
AcDbEntity
  8
0-1
  6
CONTINUOUS
 62
     7
100
AcDbLine
 10
341.8019
 20
13.690385
 30
0.0
 11
340.578823
 21
14.913462
 31
0.0
  0
LINE
  5
CD
330
BD
100
AcDbEntity
  8
0-1
  6
CONTINUOUS
 62
     7
100
AcDbLine
 10
340.578823
 20
14.913462
 30
0.0
 11
341.8019
 21
16.136538
 31
0.0
  0
LINE
  5
CE
330
BD
100
AcDbEntity
  8
0-1
  6
CONTINUOUS
 62
     7
100
AcDbLine
 10
341.8019
 20
16.136538
 30
0.0
 11
342.592284
 21
15.346154
 31
0.0
  0
LINE
  5
CF
330
BD
100
AcDbEntity
  8
0-1
  6
CONTINUOUS
 62
     7
100
AcDbLine
 10
342.592284
 20
15.346154
 30
0.0
 11
344.224977
 21
15.346154
 31
0.0
  0
ENDBLK
  5
BF
330
BD
100
AcDbEntity
  8
0
100
AcDbBlockEnd
  0
BLOCK
  5
EE
330
ED
100
AcDbEntity
  8
0
100
AcDbBlockBegin
  2
*D22
 70
     1
 71
     0
 10
0.0
 20
0.0
 30
0.0
  3
*D22
  1

  0
TEXT
  5
F0
330
ED
100
AcDbEntity
  8
LAYERGROUP-1
  6
CONTINUOUS
 62
     7
100
AcDbText
 10
240.10173
 20
58.893051
 30
0.0
 40
4.0
  1
21
 41
1.016129
  7
FX_VECTOR
 72
     5
 11
246.10173
 21
58.893051
 31
0.0
100
AcDbText
  0
LINE
  5
F1
330
ED
100
AcDbEntity
  8
LAYERGROUP-1
  6
CONTINUOUS
 62
     7
100
AcDbLine
 10
232.601731
 20
57.893052
 30
0.0
 11
253.601731
 21
57.893052
 31
0.0
  0
INSERT
  5
F2
330
ED
100
AcDbEntity
  8
LAYERGROUP-1
  6
CONTINUOUS
 62
     7
100
AcDbBlockReference
  2
FXTIP_ARROW_S
 10
232.601731
 20
57.893052
 30
0.0
 41
4.0
 42
4.0
 50
180.0
  0
INSERT
  5
F3
330
ED
100
AcDbEntity
  8
LAYERGROUP-1
  6
CONTINUOUS
 62
     7
100
AcDbBlockReference
  2
FXTIP_ARROW_E
 10
253.601731
 20
57.893052
 30
0.0
 41
4.0
 42
4.0
 50
360.0
  0
LINE
  5
F4
330
ED
100
AcDbEntity
  8
LAYERGROUP-1
  6
CONTINUOUS
 62
     7
100
AcDbLine
 10
232.601731
 20
65.089236
 30
0.0
 11
232.601731
 21
56.893052
 31
0.0
  0
LINE
  5
F5
330
ED
100
AcDbEntity
  8
LAYERGROUP-1
  6
CONTINUOUS
 62
     7
100
AcDbLine
 10
253.601731
 20
102.244252
 30
0.0
 11
253.601731
 21
56.893052
 31
0.0
  0
ENDBLK
  5
EF
330
ED
100
AcDbEntity
  8
0
100
AcDbBlockEnd
  0
BLOCK
  5
103
330
102
100
AcDbEntity
  8
0
100
AcDbBlockBegin
  2
*D23
 70
     1
 71
     0
 10
0.0
 20
0.0
 30
0.0
  3
*D23
  1

  0
TEXT
  5
105
330
102
100
AcDbEntity
  8
GR1-1
  6
CONTINUOUS
 62
     7
100
AcDbText
 10
246.123715
 20
181.78952
 30
0.0
 40
5.753684
  1
M12X1.75
 41
0.425303
  7
FX_VECTOR
 72
     5
 11
263.719241
 21
181.78952
 31
0.0
100
AcDbText
  0
LINE
  5
106
330
102
100
AcDbEntity
  8
GR1-1
  6
CONTINUOUS
 62
     7
100
AcDbLine
 10
247.601731
 20
180.893052
 30
0.0
 11
259.601731
 21
180.893052
 31
0.0
  0
INSERT
  5
107
330
102
100
AcDbEntity
  8
GR1-1
  6
CONTINUOUS
 62
     7
100
AcDbBlockReference
  2
FXTIP_ARROW_S
 10
247.601731
 20
180.893052
 30
0.0
 41
4.0
 42
4.0
 50
180.0
  0
INSERT
  5
108
330
102
100
AcDbEntity
  8
GR1-1
  6
CONTINUOUS
 62
     7
100
AcDbBlockReference
  2
FXTIP_ARROW_E
 10
259.601731
 20
180.893052
 30
0.0
 41
4.0
 42
4.0
 50
360.0
  0
LINE
  5
109
330
102
100
AcDbEntity
  8
GR1-1
  6
CONTINUOUS
 62
     7
100
AcDbLine
 10
247.601731
 20
171.393052
 30
0.0
 11
247.601731
 21
181.893052
 31
0.0
  0
LINE
  5
10A
330
102
100
AcDbEntity
  8
GR1-1
  6
CONTINUOUS
 62
     7
100
AcDbLine
 10
259.601731
 20
171.393052
 30
0.0
 11
259.601731
 21
181.893052
 31
0.0
  0
ENDBLK
  5
104
330
102
100
AcDbEntity
  8
0
100
AcDbBlockEnd
  0
BLOCK
  5
10D
330
10C
100
AcDbEntity
  8
0
100
AcDbBlockBegin
  2
*D24
 70
     1
 71
     0
 10
0.0
 20
0.0
 30
0.0
  3
*D24
  1

  0
TEXT
  5
10F
330
10C
100
AcDbEntity
  8
LAYERGROUP-1
  6
CONTINUOUS
 62
     7
100
AcDbText
 10
291.401733
 20
98.893051
 30
0.0
 40
4.0
  1
68
 50
90.0
 41
0.851351
  7
FX_VECTOR
 72
     5
 11
291.401733
 21
104.893051
 31
0.0
100
AcDbText
  0
LINE
  5
110
330
10C
100
AcDbEntity
  8
LAYERGROUP-1
  6
CONTINUOUS
 62
     7
100
AcDbLine
 10
292.401731
 20
67.893052
 30
0.0
 11
292.401731
 21
135.893052
 31
0.0
  0
INSERT
  5
111
330
10C
100
AcDbEntity
  8
LAYERGROUP-1
  6
CONTINUOUS
 62
     7
100
AcDbBlockReference
  2
FXTIP_ARROW_S
 10
292.401731
 20
67.893052
 30
0.0
 41
4.0
 42
4.0
 50
270.0
  0
INSERT
  5
112
330
10C
100
AcDbEntity
  8
LAYERGROUP-1
  6
CONTINUOUS
 62
     7
100
AcDbBlockReference
  2
FXTIP_ARROW_E
 10
292.401731
 20
135.893052
 30
0.0
 41
4.0
 42
4.0
 50
90.0
  0
LINE
  5
113
330
10C
100
AcDbEntity
  8
LAYERGROUP-1
  6
CONTINUOUS
 62
     7
100
AcDbLine
 10
233.601731
 20
67.893052
 30
0.0
 11
293.401731
 21
67.893052
 31
0.0
  0
LINE
  5
114
330
10C
100
AcDbEntity
  8
LAYERGROUP-1
  6
CONTINUOUS
 62
     7
100
AcDbLine
 10
265.571386
 20
135.893052
 30
0.0
 11
293.401731
 21
135.893052
 31
0.0
  0
ENDBLK
  5
10E
330
10C
100
AcDbEntity
  8
0
100
AcDbBlockEnd
  0
BLOCK
  5
117
330
116
100
AcDbEntity
  8
0
100
AcDbBlockBegin
  2
*D25
 70
     1
 71
     0
 10
0.0
 20
0.0
 30
0.0
  3
*D25
  1

  0
TEXT
  5
119
330
116
100
AcDbEntity
  8
LAYERGROUP-1
  6
CONTINUOUS
 62
     7
100
AcDbText
 10
281.401733
 20
111.393051
 30
0.0
 40
4.0
  1
43
 50
90.0
 41
0.851351
  7
FX_VECTOR
 72
     5
 11
281.401733
 21
117.393051
 31
0.0
100
AcDbText
  0
LINE
  5
11A
330
116
100
AcDbEntity
  8
LAYERGROUP-1
  6
CONTINUOUS
 62
     7
100
AcDbLine
 10
282.401731
 20
92.893052
 30
0.0
 11
282.401731
 21
135.893052
 31
0.0
  0
INSERT
  5
11B
330
116
100
AcDbEntity
  8
LAYERGROUP-1
  6
CONTINUOUS
 62
     7
100
AcDbBlockReference
  2
FXTIP_ARROW_S
 10
282.401731
 20
92.893052
 30
0.0
 41
4.0
 42
4.0
 50
270.0
  0
INSERT
  5
11C
330
116
100
AcDbEntity
  8
LAYERGROUP-1
  6
CONTINUOUS
 62
     7
100
AcDbBlockReference
  2
FXTIP_ARROW_E
 10
282.401731
 20
135.893052
 30
0.0
 41
4.0
 42
4.0
 50
90.0
  0
LINE
  5
11D
330
116
100
AcDbEntity
  8
LAYERGROUP-1
  6
CONTINUOUS
 62
     7
100
AcDbLine
 10
260.252551
 20
92.893052
 30
0.0
 11
283.401731
 21
92.893052
 31
0.0
  0
ENDBLK
  5
118
330
116
100
AcDbEntity
  8
0
100
AcDbBlockEnd
  0
BLOCK
  5
120
330
11F
100
AcDbEntity
  8
0
100
AcDbBlockBegin
  2
*D26
 70
     1
 71
     0
 10
0.0
 20
0.0
 30
0.0
  3
*D26
  1

  0
TEXT
  5
122
330
11F
100
AcDbEntity
  8
LAYERGROUP-1
  6
CONTINUOUS
 62
     7
100
AcDbText
 10
281.401733
 20
150.393066
 30
0.0
 40
4.0
  1
35
 50
90.0
 41
0.851351
  7
FX_VECTOR
 72
     5
 11
281.401733
 21
156.393066
 31
0.0
100
AcDbText
  0
LINE
  5
123
330
11F
100
AcDbEntity
  8
LAYERGROUP-1
  6
CONTINUOUS
 62
     7
100
AcDbLine
 10
282.401731
 20
135.893052
 30
0.0
 11
282.401731
 21
170.893052
 31
0.0
  0
INSERT
  5
124
330
11F
100
AcDbEntity
  8
LAYERGROUP-1
  6
CONTINUOUS
 62
     7
100
AcDbBlockReference
  2
FXTIP_ARROW_S
 10
282.401731
 20
135.893052
 30
0.0
 41
4.0
 42
4.0
 50
270.0
  0
INSERT
  5
125
330
11F
100
AcDbEntity
  8
LAYERGROUP-1
  6
CONTINUOUS
 62
     7
100
AcDbBlockReference
  2
FXTIP_ARROW_E
 10
282.401731
 20
170.893052
 30
0.0
 41
4.0
 42
4.0
 50
90.0
  0
LINE
  5
126
330
11F
100
AcDbEntity
  8
LAYERGROUP-1
  6
CONTINUOUS
 62
     7
100
AcDbLine
 10
260.101731
 20
170.893052
 30
0.0
 11
283.401731
 21
170.893052
 31
0.0
  0
ENDBLK
  5
121
330
11F
100
AcDbEntity
  8
0
100
AcDbBlockEnd
  0
BLOCK
  5
157
330
156
100
AcDbEntity
  8
0
100
AcDbBlockBegin
  2
*D27
 70
     1
 71
     0
 10
0.0
 20
0.0
 30
0.0
  3
*D27
  1

  0
TEXT
  5
159
330
156
100
AcDbEntity
  8
GR1-1
  6
CONTINUOUS
 62
     7
100
AcDbText
 10
281.401733
 20
233.854263
 30
0.0
 40
4.0
  1
19
 50
90.0
 41
0.875
  7
FX_VECTOR
 72
     5
 11
281.401733
 21
239.854263
 31
0.0
100
AcDbText
  0
LINE
  5
15A
330
156
100
AcDbEntity
  8
GR1-1
  6
CONTINUOUS
 62
     7
100
AcDbLine
 10
282.401731
 20
227.354252
 30
0.0
 11
282.401731
 21
246.354252
 31
0.0
  0
INSERT
  5
15B
330
156
100
AcDbEntity
  8
GR1-1
  6
CONTINUOUS
 62
     7
100
AcDbBlockReference
  2
FXTIP_ARROW_S
 10
282.401731
 20
227.354252
 30
0.0
 41
4.0
 42
4.0
 50
270.0
  0
INSERT
  5
15C
330
156
100
AcDbEntity
  8
GR1-1
  6
CONTINUOUS
 62
     7
100
AcDbBlockReference
  2
FXTIP_ARROW_E
 10
282.401731
 20
246.354252
 30
0.0
 41
4.0
 42
4.0
 50
90.0
  0
LINE
  5
15D
330
156
100
AcDbEntity
  8
GR1-1
  6
CONTINUOUS
 62
     7
100
AcDbLine
 10
260.086558
 20
227.354252
 30
0.0
 11
283.401731
 21
227.354252
 31
0.0
  0
LINE
  5
15E
330
156
100
AcDbEntity
  8
GR1-1
  6
CONTINUOUS
 62
     7
100
AcDbLine
 10
260.086558
 20
246.354252
 30
0.0
 11
283.401731
 21
246.354252
 31
0.0
  0
ENDBLK
  5
158
330
156
100
AcDbEntity
  8
0
100
AcDbBlockEnd
  0
BLOCK
  5
1EA
330
1E9
100
AcDbEntity
  8
0
100
AcDbBlockBegin
  2
*D28
 70
     1
 71
     0
 10
0.0
 20
0.0
 30
0.0
  3
*D28
  1

  0
TEXT
  5
1EC
330
1E9
100
AcDbEntity
  8
LAYERGROUP-1
  6
CONTINUOUS
 62
     7
100
AcDbText
 10
99.451752
 20
88.393051
 30
0.0
 40
4.0
  1
%%c50
 50
90.0
 41
0.84375
  7
FX_VECTOR
 72
     5
 11
99.451752
 21
97.393051
 31
0.0
100
AcDbText
  0
LINE
  5
1ED
330
1E9
100
AcDbEntity
  8
LAYERGROUP-1
  6
CONTINUOUS
 62
     7
100
AcDbLine
 10
100.451751
 20
67.893052
 30
0.0
 11
100.451751
 21
117.893052
 31
0.0
  0
INSERT
  5
1EE
330
1E9
100
AcDbEntity
  8
LAYERGROUP-1
  6
CONTINUOUS
 62
     7
100
AcDbBlockReference
  2
FXTIP_ARROW_S
 10
100.451751
 20
67.893052
 30
0.0
 41
4.0
 42
4.0
 50
270.0
  0
INSERT
  5
1EF
330
1E9
100
AcDbEntity
  8
LAYERGROUP-1
  6
CONTINUOUS
 62
     7
100
AcDbBlockReference
  2
FXTIP_ARROW_E
 10
100.451751
 20
117.893052
 30
0.0
 41
4.0
 42
4.0
 50
90.0
  0
LINE
  5
1F0
330
1E9
100
AcDbEntity
  8
LAYERGROUP-1
  6
CONTINUOUS
 62
     7
100
AcDbLine
 10
131.082407
 20
67.893052
 30
0.0
 11
99.451751
 21
67.893052
 31
0.0
  0
LINE
  5
1F1
330
1E9
100
AcDbEntity
  8
LAYERGROUP-1
  6
CONTINUOUS
 62
     7
100
AcDbLine
 10
131.082407
 20
117.893052
 30
0.0
 11
99.451751
 21
117.893052
 31
0.0
  0
ENDBLK
  5
1EB
330
1E9
100
AcDbEntity
  8
0
100
AcDbBlockEnd
  0
BLOCK
  5
1F8
330
1F7
100
AcDbEntity
  8
0
100
AcDbBlockBegin
  2
*D29
 70
     1
 71
     0
 10
0.0
 20
0.0
 30
0.0
  3
*D29
  1

  0
TEXT
  5
1FA
330
1F7
100
AcDbEntity
  8
LAYERGROUP-1
  6
CONTINUOUS
 62
     7
100
AcDbText
 10
129.082397
 20
48.893051
 30
0.0
 40
4.0
  1
23
 41
0.851351
  7
FX_VECTOR
 72
     5
 11
135.082397
 21
48.893051
 31
0.0
100
AcDbText
  0
LINE
  5
1FB
330
1F7
100
AcDbEntity
  8
LAYERGROUP-1
  6
CONTINUOUS
 62
     7
100
AcDbLine
 10
120.582407
 20
47.893052
 30
0.0
 11
143.582407
 21
47.893052
 31
0.0
  0
INSERT
  5
1FC
330
1F7
100
AcDbEntity
  8
LAYERGROUP-1
  6
CONTINUOUS
 62
     7
100
AcDbBlockReference
  2
FXTIP_ARROW_S
 10
120.582407
 20
47.893052
 30
0.0
 41
4.0
 42
4.0
 50
180.0
  0
INSERT
  5
1FD
330
1F7
100
AcDbEntity
  8
LAYERGROUP-1
  6
CONTINUOUS
 62
     7
100
AcDbBlockReference
  2
FXTIP_ARROW_E
 10
143.582407
 20
47.893052
 30
0.0
 41
4.0
 42
4.0
 50
360.0
  0
LINE
  5
1FE
330
1F7
100
AcDbEntity
  8
LAYERGROUP-1
  6
CONTINUOUS
 62
     7
100
AcDbLine
 10
120.582407
 20
84.393052
 30
0.0
 11
120.582407
 21
46.893052
 31
0.0
  0
LINE
  5
1FF
330
1F7
100
AcDbEntity
  8
LAYERGROUP-1
  6
CONTINUOUS
 62
     7
100
AcDbLine
 10
143.582407
 20
84.393052
 30
0.0
 11
143.582407
 21
46.893052
 31
0.0
  0
ENDBLK
  5
1F9
330
1F7
100
AcDbEntity
  8
0
100
AcDbBlockEnd
  0
BLOCK
  5
202
330
201
100
AcDbEntity
  8
0
100
AcDbBlockBegin
  2
*D30
 70
     1
 71
     0
 10
0.0
 20
0.0
 30
0.0
  3
*D30
  1

  0
TEXT
  5
204
330
201
100
AcDbEntity
  8
LAYERGROUP-1
  6
CONTINUOUS
 62
     7
100
AcDbText
 10
129.082397
 20
58.893055
 30
0.0
 40
4.0
  1
20
 41
0.851351
  7
FX_VECTOR
 72
     5
 11
135.082397
 21
58.893055
 31
0.0
100
AcDbText
  0
LINE
  5
205
330
201
100
AcDbEntity
  8
LAYERGROUP-1
  6
CONTINUOUS
 62
     7
100
AcDbLine
 10
122.082407
 20
57.893052
 30
0.0
 11
142.082407
 21
57.893052
 31
0.0
  0
INSERT
  5
206
330
201
100
AcDbEntity
  8
LAYERGROUP-1
  6
CONTINUOUS
 62
     7
100
AcDbBlockReference
  2
FXTIP_ARROW_S
 10
122.082407
 20
57.893052
 30
0.0
 41
4.0
 42
4.0
 50
180.0
  0
INSERT
  5
207
330
201
100
AcDbEntity
  8
LAYERGROUP-1
  6
CONTINUOUS
 62
     7
100
AcDbBlockReference
  2
FXTIP_ARROW_E
 10
142.082407
 20
57.893052
 30
0.0
 41
4.0
 42
4.0
 50
360.0
  0
LINE
  5
208
330
201
100
AcDbEntity
  8
LAYERGROUP-1
  6
CONTINUOUS
 62
     7
100
AcDbLine
 10
122.082407
 20
70.060236
 30
0.0
 11
122.082407
 21
56.893052
 31
0.0
  0
LINE
  5
209
330
201
100
AcDbEntity
  8
LAYERGROUP-1
  6
CONTINUOUS
 62
     7
100
AcDbLine
 10
142.082407
 20
70.060236
 30
0.0
 11
142.082407
 21
56.893052
 31
0.0
  0
ENDBLK
  5
203
330
201
100
AcDbEntity
  8
0
100
AcDbBlockEnd
  0
BLOCK
  5
22F
330
22E
100
AcDbEntity
  8
0
100
AcDbBlockBegin
  2
*D31
 70
     1
 71
     0
 10
0.0
 20
0.0
 30
0.0
  3
*D31
  1

  0
TEXT
  5
231
330
22E
100
AcDbEntity
  8
LAYERGROUP-1
  6
CONTINUOUS
 62
     7
100
AcDbText
 10
186.202894
 20
224.351135
 30
0.0
 40
4.0
  1
57
 50
11.345313
 41
0.851351
  7
FX_VECTOR
 72
     5
 11
192.08565
 21
225.531464
 31
0.0
100
AcDbText
  0
LINE
  5
232
330
22E
100
AcDbEntity
  8
LAYERGROUP-1
  6
CONTINUOUS
 62
     7
100
AcDbLine
 10
197.679582
 20
225.633904
 30
0.0
 11
253.601731
 21
236.854252
 31
0.0
  0
LINE
  5
233
330
22E
100
AcDbEntity
  8
LAYERGROUP-1
  6
CONTINUOUS
 62
     7
100
AcDbLine
 10
197.679582
 20
225.633904
 30
0.0
 11
181.002406
 21
222.287757
 31
0.0
  0
INSERT
  5
234
330
22E
100
AcDbEntity
  8
LAYERGROUP-1
  6
CONTINUOUS
 62
     7
100
AcDbBlockReference
  2
FXTIP_ARROW_S
 10
197.679582
 20
225.633904
 30
0.0
 41
4.0
 42
4.0
 50
11.345313
  0
ENDBLK
  5
230
330
22E
100
AcDbEntity
  8
0
100
AcDbBlockEnd
  0
BLOCK
  5
268
330
267
100
AcDbEntity
  8
0
100
AcDbBlockBegin
  2
BLKF034
 70
     0
 71
     0
 10
0.0
 20
0.0
 30
0.0
  3
BLKF034
  1

  0
TEXT
  5
26B
330
267
100
AcDbEntity
  8
GR1-1
  6
CONTINUOUS
 62
     7
100
AcDbText
 10
227.01445
 20
82.73025
 30
0.0
 40
3.9
  1
×
 50
143.767639
 41
1.4
  7
FX_VECTOR
 72
     5
 11
223.868606
 21
85.03539
 31
0.0
100
AcDbText
  0
TEXT
  5
26C
330
267
100
AcDbEntity
  8
GR1-1
  6
CONTINUOUS
 62
     7
100
AcDbText
 10
229.824666
 20
81.633028
 30
0.0
 40
3.9
  1
0
 50
158.714371
 41
1.235294
  7
FX_VECTOR
 72
     5
 11
226.190715
 21
83.048796
 31
0.0
100
AcDbText
  0
TEXT
  5
26D
330
267
100
AcDbEntity
  8
GR1-1
  6
CONTINUOUS
 62
     7
100
AcDbText
 10
232.822829
 20
81.297725
 30
0.0
 40
3.9
  1
5
 50
173.661087
 41
1.235294
  7
FX_VECTOR
 72
     5
 11
228.946672
 21
81.728322
 31
0.0
100
AcDbText
  0
TEXT
  5
26E
330
267
100
AcDbEntity
  8
GR1-1
  6
CONTINUOUS
 62
     7
100
AcDbText
 10
224.582249
 20
84.515176
 30
0.0
 40
3.9
  1
2
 50
128.820908
 41
1.235294
  7
FX_VECTOR
 72
     5
 11
222.137386
 21
87.553702
 31
0.0
100
AcDbText
  0
TEXT
  5
26F
330
267
100
AcDbEntity
  8
GR1-1
  6
CONTINUOUS
 62
     7
100
AcDbText
 10
222.692757
 20
86.867018
 30
0.0
 40
3.9
  1
0
 50
113.874191
 41
1.235294
  7
FX_VECTOR
 72
     5
 11
221.114311
 21
90.43332
 31
0.0
100
AcDbText
  0
ENDBLK
  5
269
330
267
100
AcDbEntity
  8
0
100
AcDbBlockEnd
  0
ENDSEC
  0
SECTION
  2
ENTITIES
  0
INSERT
  5
AB
330
1F
100
AcDbEntity
  8
0
100
AcDbBlockReference
  2
BLKF021
 10
0.0
 20
0.0
 30
0.0
  0
TEXT
  5
D7
330
1F
100
AcDbEntity
  8
LAYERGROUP-1
  6
CONTINUOUS
 62
     7
100
AcDbText
 10
255.0
 20
12.0
 30
0.0
 40
6.0
  1
E20CA1LAA-C01
 41
0.730924
  7
FX_VECTOR
 72
     5
 11
307.0
 21
12.0
 31
0.0
100
AcDbText
  0
TEXT
  5
D8
330
1F
100
AcDbEntity
  8
}}ﾊﾊGG血CCТ
  6
CONTINUOUS
 62
     7
100
AcDbText
 10
155.0
 20
12.0
 30
0.0
 40
6.0
  1
ＥＡ－　５０　１２×３５　Ｕ　Ｓ
 41
0.785965
  7
FX_VECTOR
 72
     5
 11
219.0
 21
12.0
 31
0.0
100
AcDbText
  0
LINE
  5
D9
330
1F
100
AcDbEntity
  8
GR1-1
  6
CONTINUOUS
 62
     3
100
AcDbLine
 10
272.401731
 20
118.854252
 30
0.0
 11
272.401731
 21
124.354252
 31
0.0
  0
ARC
  5
DA
330
1F
100
AcDbEntity
  8
GR1-1
  6
CONTINUOUS
 62
     3
100
AcDbCircle
 10
269.404408
 20
123.807486
 30
0.0
 40
3.046784742691989
100
AcDbArc
 50
10.338115
 51
90.201538
  0
LINE
  5
DB
330
1F
100
AcDbEntity
  8
GR1-1
  6
CONTINUOUS
 62
     3
100
AcDbLine
 10
266.207227
 20
118.854252
 30
0.0
 11
272.401731
 21
118.854252
 31
0.0
  0
LINE
  5
DC
330
1F
100
AcDbEntity
  8
GR1-1
  6
CENTER
 62
     6
100
AcDbLine
 10
114.120752
 20
92.893052
 30
0.0
 11
150.870846
 21
92.893052
 31
0.0
  0
LINE
  5
DD
330
1F
100
AcDbEntity
  8
GR1-1
  6
CENTER
 62
     6
100
AcDbLine
 10
132.082407
 20
65.144778
 30
0.0
 11
132.082407
 21
131.593052
 31
0.0
  0
LINE
  5
DE
330
1F
100
AcDbEntity
  8
GR1-1
  6
CENTER
 62
     6
100
AcDbLine
 10
204.920892
 20
236.854252
 30
0.0
 11
276.102349
 21
236.854252
 31
0.0
  0
LINE
  5
DF
330
1F
100
AcDbEntity
  8
GR1-1
  6
CENTER
 62
     6
100
AcDbLine
 10
253.601731
 20
172.822985
 30
0.0
 11
253.601731
 21
103.244252
 31
0.0
  0
LINE
  5
E0
330
1F
100
AcDbEntity
  8
GR1-1
  6
CENTER
 62
     6
100
AcDbLine
 10
197.788642
 20
92.893052
 30
0.0
 11
266.990877
 21
92.893052
 31
0.0
  0
LINE
  5
E1
330
1F
100
AcDbEntity
  8
GR1-1
  6
CENTER
 62
     6
100
AcDbLine
 10
232.601731
 20
66.089236
 30
0.0
 11
232.601731
 21
101.07558
 31
0.0
  0
LINE
  5
E2
330
1F
100
AcDbEntity
  8
LAYERGROUP-1
  6
CONTINUOUS
 62
     3
100
AcDbLine
 10
227.510469
 20
105.389102
 30
0.0
 11
229.444758
 21
122.909673
 31
0.0
  0
ARC
  5
E3
330
1F
100
AcDbEntity
  8
LAYERGROUP-1
  6
CONTINUOUS
 62
     3
100
AcDbCircle
 10
353.084127
 20
24.945381
 30
0.0
 40
129.7490830020363
100
AcDbArc
 50
137.349086
 51
146.340098
  0
ARC
  5
E4
330
1F
100
AcDbEntity
  8
LAYERGROUP-1
  6
CONTINUOUS
 62
     3
100
AcDbCircle
 10
266.207227
 20
110.854252
 30
0.0
 40
8.0
100
AcDbArc
 50
90.0
 51
142.4521
  0
LINE
  5
E5
330
1F
100
AcDbEntity
  8
LAYERGROUP-1
  6
CONTINUOUS
 62
     3
100
AcDbLine
 10
259.864474
 20
115.729648
 30
0.0
 11
257.654284
 21
112.854252
 31
0.0
  0
LINE
  5
E6
330
1F
100
AcDbEntity
  8
GR1-1
  6
CONTINUOUS
 62
     3
100
AcDbLine
 10
267.351731
 20
131.593052
 30
0.0
 11
239.851731
 21
131.593052
 31
0.0
  0
LINE
  5
E7
330
1F
100
AcDbEntity
  8
GR1-1
  6
CONTINUOUS
 62
     3
100
AcDbLine
 10
269.901731
 20
127.793052
 30
0.0
 11
237.301731
 21
127.793052
 31
0.0
  0
LINE
  5
E8
330
1F
100
AcDbEntity
  8
GR1-1
  6
CONTINUOUS
 62
     3
100
AcDbLine
 10
269.901731
 20
127.793052
 30
0.0
 11
269.901731
 21
129.793052
 31
0.0
  0
ARC
  5
E9
330
1F
100
AcDbEntity
  8
GR1-1
  6
CONTINUOUS
 62
     3
100
AcDbCircle
 10
265.28573
 20
125.959967
 30
0.0
 40
6.0
100
AcDbArc
 50
39.705928
 51
69.858887
  0
LINE
  5
EA
330
1F
100
AcDbEntity
  8
GR1-1
  6
CONTINUOUS
 62
     6
100
AcDbLine
 10
269.901731
 20
129.793052
 30
0.0
 11
237.301731
 21
129.793052
 31
0.0
  0
LINE
  5
EB
330
1F
100
AcDbEntity
  8
LAYERGROUP-1
  6
CONTINUOUS
 62
     3
100
AcDbLine
 10
269.393691
 20
126.854252
 30
0.0
 11
237.788336
 21
126.854252
 31
0.0
  0
DIMENSION
  5
EC
330
1F
100
AcDbEntity
  8
LAYERGROUP-1
100
AcDbDimension
  2
*D22
 10
253.601731
 20
57.893052
 30
0.0
 11
243.10173
 21
58.893051
 31
0.0
 70
    32
  3
FXDIMINFO
100
AcDbAlignedDimension
 13
232.601731
 23
66.089236
 33
0.0
 14
253.601731
 24
103.244252
 34
0.0
 50
180.0
100
AcDbRotatedDimension
1001
ACAD
1000
DSTYLE
1002
{
1070
     7
1000
FXTIP_ARROW_E
1070
     6
1000
FXTIP_ARROW_S
1070
   173
1070
     1
1002
}
  0
LINE
  5
F6
330
1F
100
AcDbEntity
  8
GR1-1
  6
CONTINUOUS
 62
     3
100
AcDbLine
 10
259.101731
 20
170.893052
 30
0.0
 11
248.101731
 21
170.893052
 31
0.0
  0
LINE
  5
F7
330
1F
100
AcDbEntity
  8
GR1-1
  6
CONTINUOUS
 62
     3
100
AcDbLine
 10
248.101731
 20
170.893052
 30
0.0
 11
247.601731
 21
170.393052
 31
0.0
  0
LINE
  5
F8
330
1F
100
AcDbEntity
  8
GR1-1
  6
CONTINUOUS
 62
     3
100
AcDbLine
 10
247.601731
 20
170.393052
 30
0.0
 11
247.601731
 21
135.893052
 31
0.0
  0
LINE
  5
F9
330
1F
100
AcDbEntity
  8
GR1-1
  6
CONTINUOUS
 62
     3
100
AcDbLine
 10
259.086558
 20
131.593052
 30
0.0
 11
259.086558
 21
135.893052
 31
0.0
  0
LINE
  5
FA
330
1F
100
AcDbEntity
  8
GR1-1
  6
CONTINUOUS
 62
     3
100
AcDbLine
 10
259.601731
 20
135.893052
 30
0.0
 11
259.601731
 21
170.393052
 31
0.0
  0
LINE
  5
FB
330
1F
100
AcDbEntity
  8
GR1-1
  6
CONTINUOUS
 62
     3
100
AcDbLine
 10
259.601731
 20
170.393052
 30
0.0
 11
259.101731
 21
170.893052
 31
0.0
  0
LINE
  5
FC
330
1F
100
AcDbEntity
  8
GR1-1
  6
CONTINUOUS
 62
     3
100
AcDbLine
 10
264.571386
 20
135.893052
 30
0.0
 11
242.632075
 21
135.893052
 31
0.0
  0
LINE
  5
FD
330
1F
100
AcDbEntity
  8
GR1-1
  6
CONTINUOUS
 62
     3
100
AcDbLine
 10
264.571386
 20
131.593052
 30
0.0
 11
264.571386
 21
135.893052
 31
0.0
  0
LINE
  5
FE
330
1F
100
AcDbEntity
  8
GR1-1
  6
CONTINUOUS
 62
     6
100
AcDbLine
 10
258.654731
 20
135.893052
 30
0.0
 11
258.654731
 21
170.893052
 31
0.0
  0
LINE
  5
FF
330
1F
100
AcDbEntity
  8
GR1-1
  6
CONTINUOUS
 62
     6
100
AcDbLine
 10
259.601731
 20
170.393052
 30
0.0
 11
247.601731
 21
170.393052
 31
0.0
  0
LINE
  5
100
330
1F
100
AcDbEntity
  8
GR1-1
  6
CONTINUOUS
 62
     6
100
AcDbLine
 10
248.548731
 20
170.893052
 30
0.0
 11
248.548731
 21
135.893052
 31
0.0
  0
DIMENSION
  5
101
330
1F
100
AcDbEntity
  8
GR1-1
100
AcDbDimension
  2
*D23
 10
259.601731
 20
180.893052
 30
0.0
 11
254.921478
 21
181.78952
 31
0.0
 70
    33
  3
FXDIMINFO
100
AcDbAlignedDimension
 13
247.601731
 23
170.393052
 33
0.0
 14
259.601731
 24
170.393052
 34
0.0
1001
ACAD
1000
DSTYLE
1002
{
1070
     7
1000
FXTIP_ARROW_E
1070
     6
1000
FXTIP_ARROW_S
1070
   173
1070
     1
1002
}
  0
DIMENSION
  5
10B
330
1F
100
AcDbEntity
  8
LAYERGROUP-1
100
AcDbDimension
  2
*D24
 10
292.401731
 20
135.893052
 30
0.0
 11
291.401733
 21
101.893051
 31
0.0
 70
    32
  3
FXDIMINFO
100
AcDbAlignedDimension
 13
232.601731
 23
67.893052
 33
0.0
 14
264.571386
 24
135.893052
 34
0.0
 50
270.0
100
AcDbRotatedDimension
1001
ACAD
1000
DSTYLE
1002
{
1070
     7
1000
FXTIP_ARROW_E
1070
     6
1000
FXTIP_ARROW_S
1070
   173
1070
     1
1002
}
  0
DIMENSION
  5
115
330
1F
100
AcDbEntity
  8
LAYERGROUP-1
100
AcDbDimension
  2
*D25
 10
282.401731
 20
135.893052
 30
0.0
 11
281.401733
 21
114.393051
 31
0.0
 70
    32
  3
FXDIMINFO
100
AcDbAlignedDimension
 13
259.252551
 23
92.893052
 33
0.0
 14
264.571386
 24
135.893052
 34
0.0
 50
270.0
100
AcDbRotatedDimension
1001
ACAD
1000
DSTYLE
1002
{
1070
     7
1000
FXTIP_ARROW_E
1070
     6
1000
FXTIP_ARROW_S
1070
   173
1070
     1
1002
}
  0
DIMENSION
  5
11E
330
1F
100
AcDbEntity
  8
LAYERGROUP-1
100
AcDbDimension
  2
*D26
 10
282.401731
 20
170.893052
 30
0.0
 11
281.401733
 21
153.393066
 31
0.0
 70
    32
  3
FXDIMINFO
100
AcDbAlignedDimension
 13
264.571386
 23
135.893052
 33
0.0
 14
259.101731
 24
170.893052
 34
0.0
 50
270.0
100
AcDbRotatedDimension
1001
ACAD
1000
DSTYLE
1002
{
1070
     7
1000
FXTIP_ARROW_E
1070
     6
1000
FXTIP_ARROW_S
1070
   173
1070
     1
1002
}
  0
LINE
  5
127
330
1F
100
AcDbEntity
  8
GR1-1
  6
CONTINUOUS
 62
     3
100
AcDbLine
 10
227.299027
 20
120.500469
 30
0.0
 11
229.216098
 21
120.838501
 31
0.0
  0
ARC
  5
128
330
1F
100
AcDbEntity
  8
GR1-1
  6
CONTINUOUS
 62
     3
100
AcDbCircle
 10
237.799053
 20
123.807486
 30
0.0
 40
3.046784742691989
100
AcDbArc
 50
90.201538
 51
169.661885
  0
LINE
  5
129
330
1F
100
AcDbEntity
  8
GR1-1
  6
CONTINUOUS
 62
     3
100
AcDbLine
 10
234.801731
 20
124.354252
 30
0.0
 11
234.801731
 21
123.854252
 31
0.0
  0
LINE
  5
12A
330
1F
100
AcDbEntity
  8
GR1-1
  6
CONTINUOUS
 62
     3
100
AcDbLine
 10
240.190579
 20
124.804451
 30
0.0
 11
226.951731
 21
122.470085
 31
0.0
  0
LINE
  5
12B
330
1F
100
AcDbEntity
  8
GR1-1
  6
CONTINUOUS
 62
     3
100
AcDbLine
 10
226.951731
 20
122.470085
 30
0.0
 11
227.299027
 21
120.500469
 31
0.0
  0
LINE
  5
12C
330
1F
100
AcDbEntity
  8
GR1-1
  6
CONTINUOUS
 62
     6
100
AcDbLine
 10
241.397223
 20
101.42176
 30
0.0
 11
241.397223
 21
122.194286
 31
0.0
  0
LINE
  5
12D
330
1F
100
AcDbEntity
  8
GR1-1
  6
CONTINUOUS
 62
     3
100
AcDbLine
 10
237.301731
 20
127.793052
 30
0.0
 11
237.301731
 21
129.793052
 31
0.0
  0
ARC
  5
12E
330
1F
100
AcDbEntity
  8
GR1-1
  6
CONTINUOUS
 62
     3
100
AcDbCircle
 10
241.917731
 20
125.959967
 30
0.0
 40
6.0
100
AcDbArc
 50
110.141113
 51
140.294072
  0
LINE
  5
12F
330
1F
100
AcDbEntity
  8
GR1-1
  6
CONTINUOUS
 62
     3
100
AcDbLine
 10
248.116903
 20
131.593052
 30
0.0
 11
248.116903
 21
135.893052
 31
0.0
  0
LINE
  5
130
330
1F
100
AcDbEntity
  8
GR1-1
  6
CONTINUOUS
 62
     3
100
AcDbLine
 10
242.632075
 20
131.593052
 30
0.0
 11
242.632075
 21
135.893052
 31
0.0
  0
ARC
  5
131
330
1F
100
AcDbEntity
  8
GR1-1
  6
CONTINUOUS
 62
     3
100
AcDbCircle
 10
240.851731
 20
127.408852
 30
0.0
 40
1.9844
100
AcDbArc
 50
168.836456
 51
196.229169
  0
ARC
  5
132
330
1F
100
AcDbEntity
  8
GR1-1
  6
CONTINUOUS
 62
     3
100
AcDbCircle
 10
253.601731
 20
127.408852
 30
0.0
 40
1.9844
100
AcDbArc
 50
168.836456
 51
196.229169
  0
ARC
  5
133
330
1F
100
AcDbEntity
  8
GR1-1
  6
CONTINUOUS
 62
     3
100
AcDbCircle
 10
253.601731
 20
127.408852
 30
0.0
 40
1.9844
100
AcDbArc
 50
-16.229169
 51
11.163544
  0
ARC
  5
134
330
1F
100
AcDbEntity
  8
GR1-1
  6
CONTINUOUS
 62
     3
100
AcDbCircle
 10
266.351731
 20
127.408852
 30
0.0
 40
1.9844
100
AcDbArc
 50
-16.229169
 51
11.163544
  0
ARC
  5
135
330
1F
100
AcDbEntity
  8
GR1-1
  6
CONTINUOUS
 62
     3
100
AcDbCircle
 10
251.176945
 20
127.408852
 30
0.0
 40
1.9844
100
AcDbArc
 50
168.836456
 51
196.229169
  0
ARC
  5
136
330
1F
100
AcDbEntity
  8
GR1-1
  6
CONTINUOUS
 62
     3
100
AcDbCircle
 10
249.204122
 20
127.408852
 30
0.0
 40
1.9844
100
AcDbArc
 50
168.836456
 51
196.229169
  0
ARC
  5
137
330
1F
100
AcDbEntity
  8
GR1-1
  6
CONTINUOUS
 62
     3
100
AcDbCircle
 10
247.293434
 20
127.408852
 30
0.0
 40
1.9844
100
AcDbArc
 50
168.836456
 51
196.229169
  0
ARC
  5
138
330
1F
100
AcDbEntity
  8
GR1-1
  6
CONTINUOUS
 62
     3
100
AcDbCircle
 10
245.584689
 20
127.408852
 30
0.0
 40
1.9844
100
AcDbArc
 50
168.836456
 51
196.229169
  0
ARC
  5
139
330
1F
100
AcDbEntity
  8
GR1-1
  6
CONTINUOUS
 62
     3
100
AcDbCircle
 10
243.844876
 20
127.408852
 30
0.0
 40
1.9844
100
AcDbArc
 50
168.836456
 51
196.229169
  0
ARC
  5
13A
330
1F
100
AcDbEntity
  8
GR1-1
  6
CONTINUOUS
 62
     3
100
AcDbCircle
 10
242.338073
 20
127.408852
 30
0.0
 40
1.9844
100
AcDbArc
 50
168.836456
 51
196.229169
  0
ARC
  5
13B
330
1F
100
AcDbEntity
  8
GR1-1
  6
CONTINUOUS
 62
     3
100
AcDbCircle
 10
256.026516
 20
127.408852
 30
0.0
 40
1.9844
100
AcDbArc
 50
-16.229169
 51
11.163544
  0
ARC
  5
13C
330
1F
100
AcDbEntity
  8
GR1-1
  6
CONTINUOUS
 62
     3
100
AcDbCircle
 10
257.99934
 20
127.408852
 30
0.0
 40
1.9844
100
AcDbArc
 50
-16.229169
 51
11.163544
  0
ARC
  5
13D
330
1F
100
AcDbEntity
  8
GR1-1
  6
CONTINUOUS
 62
     3
100
AcDbCircle
 10
259.910027
 20
127.408852
 30
0.0
 40
1.9844
100
AcDbArc
 50
-16.229169
 51
11.163544
  0
ARC
  5
13E
330
1F
100
AcDbEntity
  8
GR1-1
  6
CONTINUOUS
 62
     3
100
AcDbCircle
 10
261.618772
 20
127.408852
 30
0.0
 40
1.9844
100
AcDbArc
 50
-16.229169
 51
11.163544
  0
ARC
  5
13F
330
1F
100
AcDbEntity
  8
GR1-1
  6
CONTINUOUS
 62
     3
100
AcDbCircle
 10
263.358586
 20
127.408852
 30
0.0
 40
1.9844
100
AcDbArc
 50
-16.229169
 51
11.163544
  0
ARC
  5
140
330
1F
100
AcDbEntity
  8
GR1-1
  6
CONTINUOUS
 62
     3
100
AcDbCircle
 10
264.865388
 20
127.408852
 30
0.0
 40
1.9844
100
AcDbArc
 50
-16.229169
 51
11.163544
  0
LINE
  5
141
330
1F
100
AcDbEntity
  8
LAYERGROUP-1
  6
CENTER
 62
     6
100
AcDbLine
 10
232.601731
 20
253.983891
 30
0.0
 11
232.601731
 21
218.665538
 31
0.0
  0
ARC
  5
142
330
1F
100
AcDbEntity
  8
GR1-1
  6
CONTINUOUS
 62
     3
100
AcDbCircle
 10
253.601731
 20
236.854252
 30
0.0
 40
18.80000000000004
100
AcDbArc
 50
-123.686012
 51
123.686012
  0
LINE
  5
143
330
1F
100
AcDbEntity
  8
GR1-1
  6
CONTINUOUS
 62
     3
100
AcDbLine
 10
238.737344
 20
251.154252
 30
0.0
 11
226.121731
 21
251.154252
 31
0.0
  0
LINE
  5
144
330
1F
100
AcDbEntity
  8
GR1-1
  6
CONTINUOUS
 62
     3
100
AcDbLine
 10
226.121731
 20
251.154252
 30
0.0
 11
226.121731
 21
249.154252
 31
0.0
  0
LINE
  5
145
330
1F
100
AcDbEntity
  8
GR1-1
  6
CONTINUOUS
 62
     3
100
AcDbLine
 10
226.121731
 20
249.154252
 30
0.0
 11
229.589165
 21
249.154252
 31
0.0
  0
ARC
  5
146
330
1F
100
AcDbEntity
  8
GR1-1
  6
CONTINUOUS
 62
     3
100
AcDbCircle
 10
256.951731
 20
236.854252
 30
0.0
 40
30.0
100
AcDbArc
 50
151.532078
 51
208.467922
  0
ARC
  5
147
330
1F
100
AcDbEntity
  8
GR1-1
  6
CONTINUOUS
 62
     3
100
AcDbCircle
 10
238.737344
 20
259.154252
 30
0.0
 40
8.0
100
AcDbArc
 50
270.0
 51
303.686012
  0
LINE
  5
148
330
1F
100
AcDbEntity
  8
GR1-1
  6
CENTER
 62
     6
100
AcDbLine
 10
253.601731
 20
215.350974
 30
0.0
 11
253.601731
 21
258.769812
 31
0.0
  0
ARC
  5
149
330
1F
100
AcDbEntity
  8
GR1-1
  6
CONTINUOUS
 62
     6
100
AcDbCircle
 10
253.601731
 20
236.854252
 30
0.0
 40
18.80000000000004
100
AcDbArc
 50
132.99754
 51
229.520501
  0
ARC
  5
14A
330
1F
100
AcDbEntity
  8
GR1-1
  6
CONTINUOUS
 62
     3
100
AcDbCircle
 10
235.601731
 20
251.454252
 30
0.0
 40
1.5
100
AcDbArc
 50
0.0
 51
90.0
  0
LINE
  5
14B
330
1F
100
AcDbEntity
  8
GR1-1
  6
CONTINUOUS
 62
     3
100
AcDbLine
 10
237.101731
 20
251.454252
 30
0.0
 11
237.101731
 21
251.154252
 31
0.0
  0
LINE
  5
14C
330
1F
100
AcDbEntity
  8
GR1-1
  6
CONTINUOUS
 62
     3
100
AcDbLine
 10
235.601731
 20
252.954252
 30
0.0
 11
229.601731
 21
252.954252
 31
0.0
  0
ARC
  5
14D
330
1F
100
AcDbEntity
  8
GR1-1
  6
CONTINUOUS
 62
     3
100
AcDbCircle
 10
229.601731
 20
251.454252
 30
0.0
 40
1.5
100
AcDbArc
 50
90.0
 51
180.0
  0
LINE
  5
14E
330
1F
100
AcDbEntity
  8
GR1-1
  6
CONTINUOUS
 62
     3
100
AcDbLine
 10
228.101731
 20
251.454252
 30
0.0
 11
228.101731
 21
251.154252
 31
0.0
  0
LINE
  5
14F
330
1F
100
AcDbEntity
  8
GR1-1
  6
CONTINUOUS
 62
     3
100
AcDbLine
 10
259.086558
 20
246.354252
 30
0.0
 11
248.116903
 21
246.354252
 31
0.0
  0
LINE
  5
150
330
1F
100
AcDbEntity
  8
GR1-1
  6
CONTINUOUS
 62
     3
100
AcDbLine
 10
248.116903
 20
246.354252
 30
0.0
 11
242.632075
 21
236.854252
 31
0.0
  0
LINE
  5
151
330
1F
100
AcDbEntity
  8
GR1-1
  6
CONTINUOUS
 62
     3
100
AcDbLine
 10
242.632075
 20
236.854252
 30
0.0
 11
248.116903
 21
227.354252
 31
0.0
  0
LINE
  5
152
330
1F
100
AcDbEntity
  8
GR1-1
  6
CONTINUOUS
 62
     3
100
AcDbLine
 10
248.116903
 20
227.354252
 30
0.0
 11
259.086558
 21
227.354252
 31
0.0
  0
LINE
  5
153
330
1F
100
AcDbEntity
  8
GR1-1
  6
CONTINUOUS
 62
     3
100
AcDbLine
 10
259.086558
 20
227.354252
 30
0.0
 11
264.571386
 21
236.854252
 31
0.0
  0
LINE
  5
154
330
1F
100
AcDbEntity
  8
GR1-1
  6
CONTINUOUS
 62
     3
100
AcDbLine
 10
264.571386
 20
236.854252
 30
0.0
 11
259.086558
 21
246.354252
 31
0.0
  0
DIMENSION
  5
155
330
1F
100
AcDbEntity
  8
GR1-1
100
AcDbDimension
  2
*D27
 10
282.401731
 20
246.354252
 30
0.0
 11
281.401733
 21
236.854263
 31
0.0
 70
    33
  3
FXDIMINFO
100
AcDbAlignedDimension
 13
259.086558
 23
227.354252
 33
0.0
 14
259.086558
 24
246.354252
 34
0.0
1001
ACAD
1000
DSTYLE
1002
{
1070
     7
1000
FXTIP_ARROW_E
1070
     6
1000
FXTIP_ARROW_S
1070
   173
1070
     1
1002
}
  0
CIRCLE
  5
15F
330
1F
100
AcDbEntity
  8
GR1-1
  6
CONTINUOUS
 62
     3
100
AcDbCircle
 10
253.601731
 20
236.854252
 30
0.0
 40
16.25
  0
CIRCLE
  5
160
330
1F
100
AcDbEntity
  8
GR1-1
  6
CONTINUOUS
 62
     6
100
AcDbCircle
 10
253.601731
 20
236.854252
 30
0.0
 40
11.5
  0
CIRCLE
  5
161
330
1F
100
AcDbEntity
  8
GR1-1
  6
CONTINUOUS
 62
     6
100
AcDbCircle
 10
253.601731
 20
236.854252
 30
0.0
 40
14.0
  0
CIRCLE
  5
162
330
1F
100
AcDbEntity
  8
GR1-1
  6
CONTINUOUS
 62
     3
100
AcDbCircle
 10
253.601731
 20
236.854252
 30
0.0
 40
6.0
  0
CIRCLE
  5
163
330
1F
100
AcDbEntity
  8
GR1-1
  6
CONTINUOUS
 62
     6
100
AcDbCircle
 10
253.601731
 20
236.854252
 30
0.0
 40
5.052999999999983
  0
LINE
  5
164
330
1F
100
AcDbEntity
  8
GR1-1
  6
CONTINUOUS
 62
     3
100
AcDbLine
 10
229.589165
 20
224.554252
 30
0.0
 11
226.121731
 21
224.554252
 31
0.0
  0
LINE
  5
165
330
1F
100
AcDbEntity
  8
GR1-1
  6
CONTINUOUS
 62
     3
100
AcDbLine
 10
226.121731
 20
224.554252
 30
0.0
 11
226.121731
 21
222.554252
 31
0.0
  0
LINE
  5
166
330
1F
100
AcDbEntity
  8
GR1-1
  6
CONTINUOUS
 62
     3
100
AcDbLine
 10
224.017858
 20
222.554252
 30
0.0
 11
238.737344
 21
222.554252
 31
0.0
  0
ARC
  5
167
330
1F
100
AcDbEntity
  8
GR1-1
  6
CONTINUOUS
 62
     3
100
AcDbCircle
 10
238.737344
 20
214.554252
 30
0.0
 40
8.0
100
AcDbArc
 50
56.313988
 51
90.0
  0
LINE
  5
168
330
1F
100
AcDbEntity
  8
GR1-1
  6
CONTINUOUS
 62
     3
100
AcDbLine
 10
206.598622
 20
222.554252
 30
0.0
 11
219.068719
 21
222.554252
 31
0.0
  0
LINE
  5
169
330
1F
100
AcDbEntity
  8
GR1-1
  6
CONTINUOUS
 62
     3
100
AcDbLine
 10
219.068719
 20
221.650616
 30
0.0
 11
219.068719
 21
224.565303
 31
0.0
  0
LINE
  5
16A
330
1F
100
AcDbEntity
  8
GR1-1
  6
CONTINUOUS
 62
     3
100
AcDbLine
 10
219.068719
 20
224.565303
 30
0.0
 11
219.644759
 21
224.754252
 31
0.0
  0
LINE
  5
16B
330
1F
100
AcDbEntity
  8
GR1-1
  6
CONTINUOUS
 62
     3
100
AcDbLine
 10
219.644759
 20
224.754252
 30
0.0
 11
224.017858
 21
224.754252
 31
0.0
  0
LINE
  5
16C
330
1F
100
AcDbEntity
  8
GR1-1
  6
CONTINUOUS
 62
     3
100
AcDbLine
 10
224.017858
 20
224.754252
 30
0.0
 11
224.017858
 21
218.554252
 31
0.0
  0
ARC
  5
16D
330
1F
100
AcDbEntity
  8
GR1-1
  6
CONTINUOUS
 62
     3
100
AcDbCircle
 10
249.62217
 20
213.605629
 30
0.0
 40
4.0
100
AcDbArc
 50
175.0
 51
235.0
  0
LINE
  5
16E
330
1F
100
AcDbEntity
  8
GR1-1
  6
CONTINUOUS
 62
     3
100
AcDbLine
 10
246.089017
 20
211.196471
 30
0.0
 11
257.302311
 21
203.344838
 31
0.0
  0
ARC
  5
16F
330
1F
100
AcDbEntity
  8
GR1-1
  6
CONTINUOUS
 62
     3
100
AcDbCircle
 10
261.317346
 20
209.078902
 30
0.0
 40
7.0
100
AcDbArc
 50
235.0
 51
302.733412
  0
ARC
  5
170
330
1F
100
AcDbEntity
  8
GR1-1
  6
CONTINUOUS
 62
     3
100
AcDbCircle
 10
259.317346
 20
210.084909
 30
0.0
 40
9.0
100
AcDbArc
 50
-49.999766
 51
62.31096
  0
LINE
  5
171
330
1F
100
AcDbEntity
  8
GR1-1
  6
CONTINUOUS
 62
     3
100
AcDbLine
 10
245.637391
 20
213.954252
 30
0.0
 11
228.144997
 21
213.954252
 31
0.0
  0
LINE
  5
172
330
1F
100
AcDbEntity
  8
GR1-1
  6
CONTINUOUS
 62
     3
100
AcDbLine
 10
228.144997
 20
213.954252
 30
0.0
 11
216.915765
 21
206.091459
 31
0.0
  0
LINE
  5
173
330
1F
100
AcDbEntity
  8
GR1-1
  6
CONTINUOUS
 62
     3
100
AcDbLine
 10
212.409131
 20
204.554252
 30
0.0
 11
211.300792
 21
204.554252
 31
0.0
  0
ARC
  5
174
330
1F
100
AcDbEntity
  8
GR1-1
  6
CONTINUOUS
 62
     3
100
AcDbCircle
 10
212.040366
 20
213.054252
 30
0.0
 40
8.5
100
AcDbArc
 50
270.0
 51
305.0
  0
LINE
  5
175
330
1F
100
AcDbEntity
  8
GR1-1
  6
CONTINUOUS
 62
     3
100
AcDbLine
 10
219.644759
 20
218.554252
 30
0.0
 11
219.644759
 21
224.754252
 31
0.0
  0
ARC
  5
176
330
1F
100
AcDbEntity
  8
GR1-1
  6
CONTINUOUS
 62
     3
100
AcDbCircle
 10
217.144759
 20
220.054252
 30
0.0
 40
2.5
100
AcDbArc
 50
0.0
 51
90.0
  0
LINE
  5
177
330
1F
100
AcDbEntity
  8
GR1-1
  6
CONTINUOUS
 62
     3
100
AcDbLine
 10
207.086429
 20
222.554252
 30
0.0
 11
206.649119
 21
220.532242
 31
0.0
  0
ARC
  5
178
330
1F
100
AcDbEntity
  8
GR1-1
  6
CONTINUOUS
 62
     3
100
AcDbCircle
 10
212.270412
 20
214.156422
 30
0.0
 40
8.5
100
AcDbArc
 50
131.401273
 51
180.0
  0
LINE
  5
179
330
1F
100
AcDbEntity
  8
GR1-1
  6
CONTINUOUS
 62
     3
100
AcDbLine
 10
203.770412
 20
214.156422
 30
0.0
 11
203.770412
 21
213.054252
 31
0.0
  0
ARC
  5
17A
330
1F
100
AcDbEntity
  8
GR1-1
  6
CONTINUOUS
 62
     3
100
AcDbCircle
 10
212.270412
 20
213.054252
 30
0.0
 40
8.5
100
AcDbArc
 50
180.0
 51
270.0
  0
LINE
  5
17B
330
1F
100
AcDbEntity
  8
GR1-1
  6
CONTINUOUS
 62
     3
100
AcDbLine
 10
202.800792
 20
213.054252
 30
0.0
 11
202.800792
 21
214.385825
 31
0.0
  0
ARC
  5
17C
330
1F
100
AcDbEntity
  8
GR1-1
  6
CONTINUOUS
 62
     3
100
AcDbCircle
 10
211.300792
 20
213.054252
 30
0.0
 40
8.5
100
AcDbArc
 50
180.0
 51
270.0
  0
LINE
  5
17D
330
1F
100
AcDbEntity
  8
GR1-1
  6
CONTINUOUS
 62
     3
100
AcDbLine
 10
205.706628
 20
220.554252
 30
0.0
 11
206.598622
 21
222.554252
 31
0.0
  0
ARC
  5
17E
330
1F
100
AcDbEntity
  8
GR1-1
  6
CONTINUOUS
 62
     3
100
AcDbCircle
 10
210.800792
 20
214.385825
 30
0.0
 40
8.0
100
AcDbArc
 50
129.551424
 51
180.0
  0
ARC
  5
17F
330
1F
100
AcDbEntity
  8
GR1-1
  6
CONTINUOUS
 62
     3
100
AcDbCircle
 10
248.383322
 20
214.473079
 30
0.0
 40
4.0
100
AcDbArc
 50
187.45265
 51
235.0
  0
TEXT
  5
180
330
1F
100
AcDbEntity
  8
GR1-1
  6
CONTINUOUS
 62
     7
100
AcDbText
 10
209.6026
 20
217.1026
 30
0.0
 40
6.436475
  1
ON
 50
275.0
 41
0.864435
  7
FX_VECTOR
 72
     5
 11
210.526271
 21
206.544995
 31
0.0
100
AcDbText
  0
TEXT
  5
181
330
1F
100
AcDbEntity
  8
GR1-1
  6
CONTINUOUS
 62
     7
100
AcDbText
 10
258.524994
 20
217.763809
 30
0.0
 40
5.065456
  1
OFF
 50
260.0
 41
0.998585
  7
STYLE1
 72
     5
 11
256.140868
 21
204.242758
 31
0.0
100
AcDbText
  0
LINE
  5
182
330
1F
100
AcDbEntity
  8
GR1-1
  6
CONTINUOUS
 62
     6
100
AcDbLine
 10
225.548442
 20
220.554252
 30
0.0
 11
225.548442
 21
212.136125
 31
0.0
  0
LINE
  5
183
330
1F
100
AcDbEntity
  8
GR1-1
  6
CONTINUOUS
 62
     6
100
AcDbLine
 10
246.539315
 20
211.056902
 30
0.0
 11
246.539315
 21
219.431213
 31
0.0
  0
LINE
  5
184
330
1F
100
AcDbEntity
  8
GR1-1
  6
CONTINUOUS
 62
     3
100
AcDbLine
 10
262.03974
 20
220.054252
 30
0.0
 11
263.06209
 21
220.054252
 31
0.0
  0
LINE
  5
185
330
1F
100
AcDbEntity
  8
GR1-1
  6
CONTINUOUS
 62
     3
100
AcDbLine
 10
263.06209
 20
220.054252
 30
0.0
 11
263.4994
 21
218.054252
 31
0.0
  0
LINE
  5
186
330
1F
100
AcDbEntity
  8
GR1-1
  6
CONTINUOUS
 62
     3
100
AcDbLine
 10
117.782407
 20
85.424252
 30
0.0
 11
119.782407
 21
85.424252
 31
0.0
  0
LINE
  5
187
330
1F
100
AcDbEntity
  8
GR1-1
  6
CONTINUOUS
 62
     3
100
AcDbLine
 10
119.782407
 20
85.424252
 30
0.0
 11
119.782407
 21
120.000469
 31
0.0
  0
LINE
  5
188
330
1F
100
AcDbEntity
  8
GR1-1
  6
CONTINUOUS
 62
     3
100
AcDbLine
 10
120.282407
 20
120.500469
 30
0.0
 11
143.882407
 21
120.500469
 31
0.0
  0
LINE
  5
189
330
1F
100
AcDbEntity
  8
GR1-1
  6
CONTINUOUS
 62
     3
100
AcDbLine
 10
144.382407
 20
85.424252
 30
0.0
 11
146.382407
 21
85.424252
 31
0.0
  0
LINE
  5
18A
330
1F
100
AcDbEntity
  8
GR1-1
  6
CONTINUOUS
 62
     3
100
AcDbLine
 10
146.382407
 20
81.289477
 30
0.0
 11
146.382407
 21
119.970085
 31
0.0
  0
ARC
  5
18B
330
1F
100
AcDbEntity
  8
GR1-1
  6
CONTINUOUS
 62
     3
100
AcDbCircle
 10
143.882407
 20
119.970085
 30
0.0
 40
2.5
100
AcDbArc
 50
0.0
 51
90.0
  0
LINE
  5
18C
330
1F
100
AcDbEntity
  8
GR1-1
  6
CONTINUOUS
 62
     3
100
AcDbLine
 10
143.882407
 20
122.470085
 30
0.0
 11
120.282407
 21
122.470085
 31
0.0
  0
ARC
  5
18D
330
1F
100
AcDbEntity
  8
GR1-1
  6
CONTINUOUS
 62
     3
100
AcDbCircle
 10
120.282407
 20
119.970085
 30
0.0
 40
2.5
100
AcDbArc
 50
90.0
 51
180.0
  0
LINE
  5
18E
330
1F
100
AcDbEntity
  8
GR1-1
  6
CONTINUOUS
 62
     3
100
AcDbLine
 10
117.782407
 20
119.970085
 30
0.0
 11
117.782407
 21
85.424252
 31
0.0
  0
LINE
  5
18F
330
1F
100
AcDbEntity
  8
GR1-1
  6
CONTINUOUS
 62
     3
100
AcDbLine
 10
116.282407
 20
126.854252
 30
0.0
 11
147.882407
 21
126.854252
 31
0.0
  0
ARC
  5
190
330
1F
100
AcDbEntity
  8
GR1-1
  6
CONTINUOUS
 62
     3
100
AcDbCircle
 10
143.882407
 20
120.000469
 30
0.0
 40
0.5
100
AcDbArc
 50
0.0
 51
90.0
  0
ARC
  5
191
330
1F
100
AcDbEntity
  8
GR1-1
  6
CONTINUOUS
 62
     3
100
AcDbCircle
 10
147.882407
 20
123.854252
 30
0.0
 40
3.0
100
AcDbArc
 50
0.0
 51
90.0
  0
ARC
  5
192
330
1F
100
AcDbEntity
  8
GR1-1
  6
CONTINUOUS
 62
     3
100
AcDbCircle
 10
120.282407
 20
120.000469
 30
0.0
 40
0.5
100
AcDbArc
 50
90.0
 51
180.0
  0
ARC
  5
193
330
1F
100
AcDbEntity
  8
GR1-1
  6
CONTINUOUS
 62
     3
100
AcDbCircle
 10
116.282407
 20
123.854252
 30
0.0
 40
3.0
100
AcDbArc
 50
90.0
 51
180.0
  0
ARC
  5
194
330
1F
100
AcDbEntity
  8
GR1-1
  6
CONTINUOUS
 62
     6
100
AcDbCircle
 10
132.082407
 20
218.885502
 30
0.0
 40
95.03125000000009
100
AcDbArc
 50
261.680715
 51
278.319285
  0
LINE
  5
195
330
1F
100
AcDbEntity
  8
GR1-1
  6
CONTINUOUS
 62
     3
100
AcDbLine
 10
113.282407
 20
123.854252
 30
0.0
 11
113.282407
 21
112.854252
 31
0.0
  0
ARC
  5
196
330
1F
100
AcDbEntity
  8
LAYERGROUP-1
  6
CONTINUOUS
 62
     3
100
AcDbCircle
 10
148.907609
 20
113.173012
 30
0.0
 40
35.62662770167334
100
AcDbArc
 50
180.512646
 51
206.430765
  0
LINE
  5
197
330
1F
100
AcDbEntity
  8
GR1-1
  6
CONTINUOUS
 62
     3
100
AcDbLine
 10
145.832407
 20
131.593052
 30
0.0
 11
118.332407
 21
131.593052
 31
0.0
  0
LINE
  5
198
330
1F
100
AcDbEntity
  8
GR1-1
  6
CONTINUOUS
 62
     3
100
AcDbLine
 10
148.382407
 20
127.793052
 30
0.0
 11
115.782407
 21
127.793052
 31
0.0
  0
LINE
  5
199
330
1F
100
AcDbEntity
  8
GR1-1
  6
CONTINUOUS
 62
     3
100
AcDbLine
 10
148.382407
 20
127.793052
 30
0.0
 11
148.382407
 21
129.793052
 31
0.0
  0
ARC
  5
19A
330
1F
100
AcDbEntity
  8
GR1-1
  6
CONTINUOUS
 62
     3
100
AcDbCircle
 10
143.766407
 20
125.959967
 30
0.0
 40
6.0
100
AcDbArc
 50
39.705928
 51
69.858887
  0
LINE
  5
19B
330
1F
100
AcDbEntity
  8
GR1-1
  6
CONTINUOUS
 62
     6
100
AcDbLine
 10
148.382407
 20
129.793052
 30
0.0
 11
115.782407
 21
129.793052
 31
0.0
  0
LINE
  5
19C
330
1F
100
AcDbEntity
  8
GR1-1
  6
CONTINUOUS
 62
     3
100
AcDbLine
 10
115.782407
 20
127.793052
 30
0.0
 11
115.782407
 21
129.793052
 31
0.0
  0
ARC
  5
19D
330
1F
100
AcDbEntity
  8
GR1-1
  6
CONTINUOUS
 62
     3
100
AcDbCircle
 10
120.398408
 20
125.959967
 30
0.0
 40
6.0
100
AcDbArc
 50
110.141113
 51
140.294072
  0
LINE
  5
19E
330
1F
100
AcDbEntity
  8
GR1-1
  6
CONTINUOUS
 62
     3
100
AcDbLine
 10
141.582407
 20
135.893052
 30
0.0
 11
122.582407
 21
135.893052
 31
0.0
  0
LINE
  5
19F
330
1F
100
AcDbEntity
  8
GR1-1
  6
CONTINUOUS
 62
     3
100
AcDbLine
 10
141.582407
 20
135.893052
 30
0.0
 11
141.582407
 21
131.593052
 31
0.0
  0
LINE
  5
1A0
330
1F
100
AcDbEntity
  8
GR1-1
  6
CONTINUOUS
 62
     3
100
AcDbLine
 10
132.082407
 20
135.893052
 30
0.0
 11
132.082407
 21
131.593052
 31
0.0
  0
LINE
  5
1A1
330
1F
100
AcDbEntity
  8
GR1-1
  6
CONTINUOUS
 62
     3
100
AcDbLine
 10
122.582407
 20
135.893052
 30
0.0
 11
122.582407
 21
131.593052
 31
0.0
  0
ARC
  5
1A2
330
1F
100
AcDbEntity
  8
GR1-1
  6
CONTINUOUS
 62
     3
100
AcDbCircle
 10
117.482407
 20
95.893052
 30
0.0
 40
1.5
100
AcDbArc
 50
90.0
 51
180.0
  0
LINE
  5
1A3
330
1F
100
AcDbEntity
  8
GR1-1
  6
CONTINUOUS
 62
     3
100
AcDbLine
 10
117.482407
 20
97.393052
 30
0.0
 11
117.782407
 21
97.393052
 31
0.0
  0
LINE
  5
1A4
330
1F
100
AcDbEntity
  8
GR1-1
  6
CONTINUOUS
 62
     3
100
AcDbLine
 10
115.982407
 20
95.893052
 30
0.0
 11
115.982407
 21
89.893052
 31
0.0
  0
ARC
  5
1A5
330
1F
100
AcDbEntity
  8
GR1-1
  6
CONTINUOUS
 62
     3
100
AcDbCircle
 10
117.482407
 20
89.893052
 30
0.0
 40
1.5
100
AcDbArc
 50
180.0
 51
270.0
  0
LINE
  5
1A6
330
1F
100
AcDbEntity
  8
GR1-1
  6
CONTINUOUS
 62
     3
100
AcDbLine
 10
117.482407
 20
88.393052
 30
0.0
 11
117.782407
 21
88.393052
 31
0.0
  0
LINE
  5
1A7
330
1F
100
AcDbEntity
  8
GR1-1
  6
CONTINUOUS
 62
     3
100
AcDbLine
 10
137.582407
 20
170.893052
 30
0.0
 11
126.582407
 21
170.893052
 31
0.0
  0
LINE
  5
1A8
330
1F
100
AcDbEntity
  8
GR1-1
  6
CONTINUOUS
 62
     3
100
AcDbLine
 10
126.582407
 20
170.893052
 30
0.0
 11
126.082407
 21
170.393052
 31
0.0
  0
LINE
  5
1A9
330
1F
100
AcDbEntity
  8
GR1-1
  6
CONTINUOUS
 62
     3
100
AcDbLine
 10
126.082407
 20
170.393052
 30
0.0
 11
126.082407
 21
135.893052
 31
0.0
  0
LINE
  5
1AA
330
1F
100
AcDbEntity
  8
GR1-1
  6
CONTINUOUS
 62
     3
100
AcDbLine
 10
138.082407
 20
135.893052
 30
0.0
 11
138.082407
 21
170.393052
 31
0.0
  0
LINE
  5
1AB
330
1F
100
AcDbEntity
  8
GR1-1
  6
CONTINUOUS
 62
     3
100
AcDbLine
 10
138.082407
 20
170.393052
 30
0.0
 11
137.582407
 21
170.893052
 31
0.0
  0
LINE
  5
1AC
330
1F
100
AcDbEntity
  8
GR1-1
  6
CONTINUOUS
 62
     6
100
AcDbLine
 10
137.135407
 20
135.893052
 30
0.0
 11
137.135407
 21
170.893052
 31
0.0
  0
LINE
  5
1AD
330
1F
100
AcDbEntity
  8
GR1-1
  6
CONTINUOUS
 62
     6
100
AcDbLine
 10
138.082407
 20
170.393052
 30
0.0
 11
126.082407
 21
170.393052
 31
0.0
  0
LINE
  5
1AE
330
1F
100
AcDbEntity
  8
GR1-1
  6
CONTINUOUS
 62
     6
100
AcDbLine
 10
127.029407
 20
170.893052
 30
0.0
 11
127.029407
 21
135.893052
 31
0.0
  0
LINE
  5
1AF
330
1F
100
AcDbEntity
  8
GR1-1
  6
CONTINUOUS
 62
     3
100
AcDbLine
 10
144.382407
 20
120.000469
 30
0.0
 11
144.382407
 21
107.527388
 31
0.0
  0
LINE
  5
1B0
330
1F
100
AcDbEntity
  8
GR1-1
  6
CONTINUOUS
 62
     3
100
AcDbLine
 10
150.882407
 20
123.854252
 30
0.0
 11
150.882407
 21
115.999904
 31
0.0
  0
ARC
  5
1B1
330
1F
100
AcDbEntity
  8
GR1-1
  6
CONTINUOUS
 62
     3
100
AcDbCircle
 10
106.552524
 20
118.027243
 30
0.0
 40
44.3611441618762
100
AcDbArc
 50
357.380625
 51
357.848897
  0
LINE
  5
1B2
330
1F
100
AcDbEntity
  8
GR1-1
  6
CONTINUOUS
 62
     3
100
AcDbLine
 10
150.182407
 20
95.893052
 30
0.0
 11
149.77604
 21
95.893052
 31
0.0
  0
ARC
  5
1B3
330
1F
100
AcDbEntity
  8
GR1-1
  6
CONTINUOUS
 62
     3
100
AcDbCircle
 10
163.382407
 20
82.87952
 30
0.0
 40
4.0
100
AcDbArc
 50
0.0
 51
44.407364
  0
LINE
  5
1B4
330
1F
100
AcDbEntity
  8
GR1-1
  6
CONTINUOUS
 62
     3
100
AcDbLine
 10
166.347176
 20
85.594752
 30
0.0
 11
157.291682
 21
92.670143
 31
0.0
  0
ARC
  5
1B5
330
1F
100
AcDbEntity
  8
GR1-1
  6
CONTINUOUS
 62
     3
100
AcDbCircle
 10
152.082866
 20
85.563576
 30
0.0
 40
8.811075747909682
100
AcDbArc
 50
53.760145
 51
71.474313
  0
LINE
  5
1B6
330
1F
100
AcDbEntity
  8
GR1-1
  6
CONTINUOUS
 62
     3
100
AcDbLine
 10
154.882407
 20
93.918074
 30
0.0
 11
154.882407
 21
103.246176
 31
0.0
  0
LINE
  5
1B7
330
1F
100
AcDbEntity
  8
GR1-1
  6
CONTINUOUS
 62
     3
100
AcDbLine
 10
154.882407
 20
103.246176
 30
0.0
 11
163.464224
 21
108.765234
 31
0.0
  0
ARC
  5
1B8
330
1F
100
AcDbEntity
  8
GR1-1
  6
CONTINUOUS
 62
     3
100
AcDbCircle
 10
162.382407
 20
110.447397
 30
0.0
 40
2.0
100
AcDbArc
 50
302.745504
 51
360.0
  0
ARC
  5
1B9
330
1F
100
AcDbEntity
  8
GR1-1
  6
CONTINUOUS
 62
     3
100
AcDbCircle
 10
160.382407
 20
110.879801
 30
0.0
 40
4.0
100
AcDbArc
 50
-6.169771
 51
71.728365
  0
ARC
  5
1BA
330
1F
100
AcDbEntity
  8
GR1-1
  6
CONTINUOUS
 62
     3
100
AcDbCircle
 10
156.939514
 20
97.581544
 30
0.0
 40
17.73005032533209
100
AcDbArc
 50
74.638009
 51
117.879881
  0
ARC
  5
1BB
330
1F
100
AcDbEntity
  8
GR1-1
  6
CONTINUOUS
 62
     3
100
AcDbCircle
 10
148.882407
 20
112.811701
 30
0.0
 40
0.5
100
AcDbArc
 50
117.879881
 51
180.0
  0
LINE
  5
1BC
330
1F
100
AcDbEntity
  8
GR1-1
  6
CONTINUOUS
 62
     3
100
AcDbLine
 10
148.382407
 20
112.811701
 30
0.0
 11
148.382407
 21
81.289477
 31
0.0
  0
LINE
  5
1BD
330
1F
100
AcDbEntity
  8
GR1-1
  6
CONTINUOUS
 62
     3
100
AcDbLine
 10
148.382407
 20
81.289477
 30
0.0
 11
146.382407
 21
81.289477
 31
0.0
  0
ARC
  5
1BE
330
1F
100
AcDbEntity
  8
GR1-1
  6
CONTINUOUS
 62
     3
100
AcDbCircle
 10
148.882407
 20
111.978941
 30
0.0
 40
2.5
100
AcDbArc
 50
128.649895
 51
180.0
  0
ARC
  5
1BF
330
1F
100
AcDbEntity
  8
GR1-1
  6
CONTINUOUS
 62
     3
100
AcDbCircle
 10
147.175733
 20
102.217273
 30
0.0
 40
6.0
100
AcDbArc
 50
97.597953
 51
119.926435
  0
LINE
  5
1C0
330
1F
100
AcDbEntity
  8
GR1-1
  6
CONTINUOUS
 62
     3
100
AcDbLine
 10
144.182407
 20
107.417273
 30
0.0
 11
144.182407
 21
103.999868
 31
0.0
  0
LINE
  5
1C1
330
1F
100
AcDbEntity
  8
GR1-1
  6
CONTINUOUS
 62
     3
100
AcDbLine
 10
144.182407
 20
103.999868
 30
0.0
 11
146.382407
 21
103.999868
 31
0.0
  0
ARC
  5
1C2
330
1F
100
AcDbEntity
  8
GR1-1
  6
CONTINUOUS
 62
     3
100
AcDbCircle
 10
146.583421
 20
102.468033
 30
0.0
 40
4.0
100
AcDbArc
 50
92.87689
 51
126.888051
  0
ARC
  5
1C3
330
1F
100
AcDbEntity
  8
GR1-1
  6
CONTINUOUS
 62
     3
100
AcDbCircle
 10
147.182407
 20
98.643506
 30
0.0
 40
3.0
100
AcDbArc
 50
0.0
 51
66.421822
  0
ARC
  5
1C4
330
1F
100
AcDbEntity
  8
GR1-1
  6
CONTINUOUS
 62
     3
100
AcDbCircle
 10
151.300188
 20
93.309068
 30
0.0
 40
3.0
100
AcDbArc
 50
111.875652
 51
166.554973
  0
ARC
  5
1C5
330
1F
100
AcDbEntity
  8
GR1-1
  6
CONTINUOUS
 62
     3
100
AcDbCircle
 10
151.300188
 20
92.477036
 30
0.0
 40
3.0
100
AcDbArc
 50
193.445027
 51
248.124348
  0
LINE
  5
1C6
330
1F
100
AcDbEntity
  8
GR1-1
  6
CONTINUOUS
 62
     3
100
AcDbLine
 10
150.182407
 20
98.893052
 30
0.0
 11
150.182407
 21
86.893052
 31
0.0
  0
ARC
  5
1C7
330
1F
100
AcDbEntity
  8
GR1-1
  6
CONTINUOUS
 62
     3
100
AcDbCircle
 10
147.182407
 20
87.142597
 30
0.0
 40
3.0
100
AcDbArc
 50
293.578178
 51
360.0
  0
LINE
  5
1C8
330
1F
100
AcDbEntity
  8
GR1-1
  6
CONTINUOUS
 62
     3
100
AcDbLine
 10
146.382407
 20
83.143052
 30
0.0
 11
145.117344
 21
83.143052
 31
0.0
  0
ARC
  5
1C9
330
1F
100
AcDbEntity
  8
GR1-1
  6
CONTINUOUS
 62
     3
100
AcDbCircle
 10
147.282407
 20
81.893052
 30
0.0
 40
2.5
100
AcDbArc
 50
150.0
 51
210.0
  0
LINE
  5
1CA
330
1F
100
AcDbEntity
  8
GR1-1
  6
CONTINUOUS
 62
     3
100
AcDbLine
 10
145.117344
 20
80.643052
 30
0.0
 11
146.841385
 21
80.643052
 31
0.0
  0
ARC
  5
1CB
330
1F
100
AcDbEntity
  8
GR1-1
  6
CONTINUOUS
 62
     3
100
AcDbCircle
 10
149.382407
 20
82.237794
 30
0.0
 40
3.0
100
AcDbArc
 50
198.427581
 51
260.405932
  0
LINE
  5
1CC
330
1F
100
AcDbEntity
  8
GR1-1
  6
CONTINUOUS
 62
     3
100
AcDbLine
 10
148.882407
 20
79.279754
 30
0.0
 11
148.882407
 21
77.72064
 31
0.0
  0
LINE
  5
1CD
330
1F
100
AcDbEntity
  8
GR1-1
  6
CONTINUOUS
 62
     3
100
AcDbLine
 10
148.882407
 20
77.72064
 30
0.0
 11
150.882407
 21
77.72064
 31
0.0
  0
LINE
  5
1CE
330
1F
100
AcDbEntity
  8
GR1-1
  6
CONTINUOUS
 62
     3
100
AcDbLine
 10
150.882407
 20
77.72064
 30
0.0
 11
150.882407
 21
87.087951
 31
0.0
  0
ARC
  5
1CF
330
1F
100
AcDbEntity
  8
GR1-1
  6
CONTINUOUS
 62
     3
100
AcDbCircle
 10
147.882407
 20
78.51973
 30
0.0
 40
3.0
100
AcDbArc
 50
0.0
 51
80.405932
  0
ARC
  5
1D0
330
1F
100
AcDbEntity
  8
GR1-1
  6
CONTINUOUS
 62
     3
100
AcDbCircle
 10
159.728408
 20
89.70583
 30
0.0
 40
12.0
100
AcDbArc
 50
222.509378
 51
297.177582
  0
ARC
  5
1D1
330
1F
100
AcDbEntity
  8
GR1-1
  6
CONTINUOUS
 62
     3
100
AcDbCircle
 10
163.382407
 20
82.589069
 30
0.0
 40
4.0
100
AcDbArc
 50
297.177582
 51
360.0
  0
LINE
  5
1D2
330
1F
100
AcDbEntity
  8
GR1-1
  6
CONTINUOUS
 62
     3
100
AcDbLine
 10
167.382407
 20
82.589069
 30
0.0
 11
167.382407
 21
82.87952
 31
0.0
  0
ARC
  5
1D3
330
1F
100
AcDbEntity
  8
GR1-1
  6
CONTINUOUS
 62
     3
100
AcDbCircle
 10
163.382407
 20
82.210648
 30
0.0
 40
4.0
100
AcDbArc
 50
0.0
 51
48.376626
  0
LINE
  5
1D4
330
1F
100
AcDbEntity
  8
GR1-1
  6
CONTINUOUS
 62
     3
100
AcDbLine
 10
166.039332
 20
85.200756
 30
0.0
 11
154.882407
 21
93.918074
 31
0.0
  0
ARC
  5
1D5
330
1F
100
AcDbEntity
  8
GR1-1
  6
CONTINUOUS
 62
     3
100
AcDbCircle
 10
158.527091
 20
111.082367
 30
0.0
 40
5.858819232214463
100
AcDbArc
 50
-1.981372
 51
39.348412
  0
ARC
  5
1D6
330
1F
100
AcDbEntity
  8
GR1-1
  6
CONTINUOUS
 62
     3
100
AcDbCircle
 10
157.802469
 20
109.472062
 30
0.0
 40
7.481545788972354
100
AcDbArc
 50
45.377573
 51
92.663296
  0
ARC
  5
1D7
330
1F
100
AcDbEntity
  8
GR1-1
  6
CONTINUOUS
 62
     3
100
AcDbCircle
 10
156.102061
 20
102.951172
 30
0.0
 40
14.05958507283745
100
AcDbArc
 50
84.47865
 51
128.649895
  0
LINE
  5
1D8
330
1F
100
AcDbEntity
  8
GR1-1
  6
CONTINUOUS
 62
     6
100
AcDbLine
 10
153.182407
 20
91.708526
 30
0.0
 11
157.710314
 21
91.708526
 31
0.0
  0
LINE
  5
1D9
330
1F
100
AcDbEntity
  8
GR1-1
  6
CONTINUOUS
 62
     6
100
AcDbLine
 10
148.382407
 20
93.113201
 30
0.0
 11
146.382407
 21
93.113201
 31
0.0
  0
LINE
  5
1DA
330
1F
100
AcDbEntity
  8
GR1-1
  6
CONTINUOUS
 62
     6
100
AcDbLine
 10
154.882407
 20
103.246176
 30
0.0
 11
148.382407
 21
103.246176
 31
0.0
  0
LINE
  5
1DB
330
1F
100
AcDbEntity
  8
GR1-1
  6
CONTINUOUS
 62
     3
100
AcDbLine
 10
149.77604
 20
89.893052
 30
0.0
 11
150.182407
 21
89.893052
 31
0.0
  0
LINE
  5
1DC
330
1F
100
AcDbEntity
  8
GR1-1
  6
CONTINUOUS
 62
     3
100
AcDbLine
 10
153.182407
 20
94.393052
 30
0.0
 11
153.182407
 21
91.393052
 31
0.0
  0
ARC
  5
1DD
330
1F
100
AcDbEntity
  8
GR1-1
  6
CONTINUOUS
 62
     3
100
AcDbCircle
 10
144.850924
 20
92.708894
 30
0.0
 40
8.5
100
AcDbArc
 50
11.427988
 51
46.68122
  0
LINE
  5
1DE
330
1F
100
AcDbEntity
  8
GR1-1
  6
CONTINUOUS
 62
     3
100
AcDbLine
 10
150.682407
 20
98.893052
 30
0.0
 11
150.182407
 21
98.893052
 31
0.0
  0
LINE
  5
1DF
330
1F
100
AcDbEntity
  8
GR1-1
  6
CONTINUOUS
 62
     3
100
AcDbLine
 10
150.182407
 20
86.893052
 30
0.0
 11
150.682407
 21
86.893052
 31
0.0
  0
ARC
  5
1E0
330
1F
100
AcDbEntity
  8
GR1-1
  6
CONTINUOUS
 62
     3
100
AcDbCircle
 10
144.850924
 20
93.077209
 30
0.0
 40
8.5
100
AcDbArc
 50
313.31878
 51
348.572012
  0
LINE
  5
1E1
330
1F
100
AcDbEntity
  8
GR1-1
  6
CONTINUOUS
 62
     3
100
AcDbLine
 10
144.382407
 20
103.999868
 30
0.0
 11
144.382407
 21
85.424252
 31
0.0
  0
LINE
  5
1E2
330
1F
100
AcDbEntity
  8
LAYERGROUP-1
  6
CONTINUOUS
 62
     3
100
AcDbLine
 10
144.382407
 20
118.854252
 30
0.0
 11
119.782407
 21
118.854252
 31
0.0
  0
ARC
  5
1E3
330
1F
100
AcDbEntity
  8
GR1-1
  6
CONTINUOUS
 62
     3
100
AcDbCircle
 10
122.29023
 20
122.899065
 30
0.0
 40
4.0
100
AcDbArc
 50
231.174137
 51
263.427778
  0
ARC
  5
1E4
330
1F
100
AcDbEntity
  8
GR1-1
  6
CONTINUOUS
 62
     3
100
AcDbCircle
 10
141.874585
 20
122.899065
 30
0.0
 40
4.0
100
AcDbArc
 50
276.572222
 51
308.825863
  0
LINE
  5
1E5
330
1F
100
AcDbEntity
  8
GR1-1
  6
CONTINUOUS
 62
     3
100
AcDbLine
 10
121.832407
 20
118.925352
 30
0.0
 11
142.332407
 21
118.925352
 31
0.0
  0
LINE
  5
1E6
330
1F
100
AcDbEntity
  8
GR1-1
  6
CONTINUOUS
 62
     3
100
AcDbLine
 10
144.382407
 20
95.893052
 30
0.0
 11
143.582407
 21
95.893052
 31
0.0
  0
LINE
  5
1E7
330
1F
100
AcDbEntity
  8
GR1-1
  6
CONTINUOUS
 62
     3
100
AcDbLine
 10
143.582407
 20
89.893052
 30
0.0
 11
144.382407
 21
89.893052
 31
0.0
  0
DIMENSION
  5
1E8
330
1F
100
AcDbEntity
  8
LAYERGROUP-1
100
AcDbDimension
  2
*D28
 10
100.451751
 20
117.893052
 30
0.0
 11
99.451752
 21
92.893051
 31
0.0
 70
    33
  3
FXDIMINFO
100
AcDbAlignedDimension
 13
132.082407
 23
67.893052
 33
0.0
 14
132.082407
 24
117.893052
 34
0.0
1001
ACAD
1000
DSTYLE
1002
{
1070
     7
1000
FXTIP_ARROW_E
1070
     6
1000
FXTIP_ARROW_S
1070
   173
1070
     1
1002
}
  0
LINE
  5
1F2
330
1F
100
AcDbEntity
  8
GR1-1
  6
CONTINUOUS
 62
     3
100
AcDbLine
 10
122.082407
 20
101.893052
 30
0.0
 11
121.282407
 21
101.893052
 31
0.0
  0
ARC
  5
1F3
330
1F
100
AcDbEntity
  8
GR1-1
  6
CONTINUOUS
 62
     3
100
AcDbCircle
 10
121.282407
 20
100.393052
 30
0.0
 40
1.5
100
AcDbArc
 50
90.0
 51
180.0
  0
ARC
  5
1F4
330
1F
100
AcDbEntity
  8
GR1-1
  6
CONTINUOUS
 62
     3
100
AcDbCircle
 10
121.282407
 20
85.393052
 30
0.0
 40
1.5
100
AcDbArc
 50
180.0
 51
270.0
  0
LINE
  5
1F5
330
1F
100
AcDbEntity
  8
GR1-1
  6
CONTINUOUS
 62
     3
100
AcDbLine
 10
121.282407
 20
83.893052
 30
0.0
 11
122.082407
 21
83.893052
 31
0.0
  0
DIMENSION
  5
1F6
330
1F
100
AcDbEntity
  8
LAYERGROUP-1
100
AcDbDimension
  2
*D29
 10
143.582407
 20
47.893052
 30
0.0
 11
132.082397
 21
48.893051
 31
0.0
 70
    33
  3
FXDIMINFO
100
AcDbAlignedDimension
 13
120.582407
 23
85.393052
 33
0.0
 14
143.582407
 24
85.393052
 34
0.0
1001
ACAD
1000
DSTYLE
1002
{
1070
     7
1000
FXTIP_ARROW_E
1070
     6
1000
FXTIP_ARROW_S
1070
   173
1070
     1
1002
}
  0
DIMENSION
  5
200
330
1F
100
AcDbEntity
  8
LAYERGROUP-1
100
AcDbDimension
  2
*D30
 10
142.082407
 20
57.893052
 30
0.0
 11
132.082397
 21
58.893055
 31
0.0
 70
    33
  3
FXDIMINFO
100
AcDbAlignedDimension
 13
122.082407
 23
71.060236
 33
0.0
 14
142.082407
 24
71.060236
 34
0.0
1001
ACAD
1000
DSTYLE
1002
{
1070
     7
1000
FXTIP_ARROW_E
1070
     6
1000
FXTIP_ARROW_S
1070
   173
1070
     1
1002
}
  0
LINE
  5
20A
330
1F
100
AcDbEntity
  8
GR1-1
  6
CONTINUOUS
 62
     3
100
AcDbLine
 10
223.830479
 20
105.87285
 30
0.0
 11
203.770412
 21
116.992327
 31
0.0
  0
LINE
  5
20B
330
1F
100
AcDbEntity
  8
GR1-1
  6
CONTINUOUS
 62
     3
100
AcDbLine
 10
203.770412
 20
116.992327
 30
0.0
 11
202.800792
 21
115.243087
 31
0.0
  0
LINE
  5
20C
330
1F
100
AcDbEntity
  8
GR1-1
  6
CONTINUOUS
 62
     3
100
AcDbLine
 10
202.800792
 20
115.243087
 30
0.0
 11
222.86086
 21
104.12361
 31
0.0
  0
ARC
  5
20D
330
1F
100
AcDbEntity
  8
GR1-1
  6
CONTINUOUS
 62
     3
100
AcDbCircle
 10
226.254527
 20
110.245948
 30
0.0
 40
7.0
100
AcDbArc
 50
241.0
 51
280.400569
  0
ARC
  5
20E
330
1F
100
AcDbEntity
  8
GR1-1
  6
CONTINUOUS
 62
     3
100
AcDbCircle
 10
226.254527
 20
110.245948
 30
0.0
 40
5.0
100
AcDbArc
 50
241.0
 51
280.400569
  0
LINE
  5
20F
330
1F
100
AcDbEntity
  8
GR1-1
  6
CONTINUOUS
 62
     3
100
AcDbLine
 10
222.65466
 20
104.237909
 30
0.0
 11
221.442636
 21
102.05136
 31
0.0
  0
LINE
  5
210
330
1F
100
AcDbEntity
  8
GR1-1
  6
CONTINUOUS
 62
     3
100
AcDbLine
 10
221.442636
 20
102.05136
 30
0.0
 11
217.856695
 21
104.039079
 31
0.0
  0
LINE
  5
211
330
1F
100
AcDbEntity
  8
GR1-1
  6
CONTINUOUS
 62
     3
100
AcDbLine
 10
217.856695
 20
104.039079
 30
0.0
 11
219.068719
 21
106.225628
 31
0.0
  0
ARC
  5
212
330
1F
100
AcDbEntity
  8
GR1-1
  6
CONTINUOUS
 62
     3
100
AcDbCircle
 10
237.255903
 20
101.289401
 30
0.0
 40
20.0
100
AcDbArc
 50
204.130102
 51
277.869898
  0
ARC
  5
213
330
1F
100
AcDbEntity
  8
GR1-1
  6
CONTINUOUS
 62
     3
100
AcDbCircle
 10
251.664601
 20
97.719878
 30
0.0
 40
20.0
100
AcDbArc
 50
234.302147
 51
306.280578
  0
LINE
  5
214
330
1F
100
AcDbEntity
  8
GR1-1
  6
CONTINUOUS
 62
     3
100
AcDbLine
 10
267.347727
 20
79.464137
 30
0.0
 11
247.287659
 21
90.583614
 31
0.0
  0
LINE
  5
215
330
1F
100
AcDbEntity
  8
GR1-1
  6
CONTINUOUS
 62
     3
100
AcDbLine
 10
248.257278
 20
92.332854
 30
0.0
 11
268.317346
 21
81.213377
 31
0.0
  0
LINE
  5
216
330
1F
100
AcDbEntity
  8
GR1-1
  6
CONTINUOUS
 62
     3
100
AcDbLine
 10
268.317346
 20
81.213377
 30
0.0
 11
267.347727
 21
79.464137
 31
0.0
  0
LINE
  5
217
330
1F
100
AcDbEntity
  8
GR1-1
  6
CONTINUOUS
 62
     3
100
AcDbLine
 10
257.101731
 20
80.893052
 30
0.0
 11
248.101731
 21
80.893052
 31
0.0
  0
ARC
  5
218
330
1F
100
AcDbEntity
  8
GR1-1
  6
CONTINUOUS
 62
     3
100
AcDbCircle
 10
252.601731
 20
102.893052
 30
0.0
 40
20.50000000000045
100
AcDbArc
 50
257.319617
 51
282.680383
  0
ARC
  5
219
330
1F
100
AcDbEntity
  8
GR1-1
  6
CONTINUOUS
 62
     3
100
AcDbCircle
 10
250.681327
 20
96.705952
 30
0.0
 40
5.0
100
AcDbArc
 50
201.599431
 51
241.0
  0
ARC
  5
21A
330
1F
100
AcDbEntity
  8
GR1-1
  6
CONTINUOUS
 62
     3
100
AcDbCircle
 10
230.226163
 20
88.607415
 30
0.0
 40
17.0
100
AcDbArc
 50
21.599431
 51
100.400569
  0
ARC
  5
21B
330
1F
100
AcDbEntity
  8
GR1-1
  6
CONTINUOUS
 62
     3
100
AcDbCircle
 10
250.681327
 20
96.705952
 30
0.0
 40
7.0
100
AcDbArc
 50
201.599431
 51
241.0
  0
ARC
  5
21C
330
1F
100
AcDbEntity
  8
GR1-1
  6
CONTINUOUS
 62
     3
100
AcDbCircle
 10
230.226163
 20
88.607415
 30
0.0
 40
15.0
100
AcDbArc
 50
21.599431
 51
100.400569
  0
ARC
  5
21D
330
1F
100
AcDbEntity
  8
GR1-1
  6
CONTINUOUS
 62
     3
100
AcDbCircle
 10
226.593329
 20
111.617111
 30
0.0
 40
20.0
100
AcDbArc
 50
175.719422
 51
247.697853
  0
LINE
  5
21E
330
1F
100
AcDbEntity
  8
GR1-1
  6
CONTINUOUS
 62
     6
100
AcDbLine
 10
249.505485
 20
89.354254
 30
0.0
 11
243.921099
 21
79.279754
 31
0.0
  0
LINE
  5
21F
330
1F
100
AcDbEntity
  8
GR1-1
  6
CONTINUOUS
 62
     6
100
AcDbLine
 10
242.115098
 20
80.146973
 30
0.0
 11
247.756245
 21
90.323873
 31
0.0
  0
LINE
  5
220
330
1F
100
AcDbEntity
  8
GR1-1
  6
CONTINUOUS
 62
     6
100
AcDbLine
 10
248.101731
 20
82.893052
 30
0.0
 11
248.101731
 21
80.893052
 31
0.0
  0
LINE
  5
221
330
1F
100
AcDbEntity
  8
GR1-1
  6
CONTINUOUS
 62
     6
100
AcDbLine
 10
252.601731
 20
80.893052
 30
0.0
 11
252.601731
 21
82.393052
 31
0.0
  0
LINE
  5
222
330
1F
100
AcDbEntity
  8
GR1-1
  6
CONTINUOUS
 62
     6
100
AcDbLine
 10
257.101731
 20
82.893052
 30
0.0
 11
257.101731
 21
80.893052
 31
0.0
  0
LINE
  5
223
330
1F
100
AcDbEntity
  8
GR1-1
  6
CONTINUOUS
 62
     6
100
AcDbLine
 10
235.601731
 20
87.393052
 30
0.0
 11
235.601731
 21
87.696899
 31
0.0
  0
LINE
  5
224
330
1F
100
AcDbEntity
  8
GR1-1
  6
CONTINUOUS
 62
     6
100
AcDbLine
 10
235.601731
 20
98.089204
 30
0.0
 11
235.601731
 21
98.393052
 31
0.0
  0
ARC
  5
225
330
1F
100
AcDbEntity
  8
GR1-1
  6
CONTINUOUS
 62
     6
100
AcDbCircle
 10
232.601731
 20
98.393052
 30
0.0
 40
3.0
100
AcDbArc
 50
0.0
 51
180.0
  0
LINE
  5
226
330
1F
100
AcDbEntity
  8
GR1-1
  6
CONTINUOUS
 62
     6
100
AcDbLine
 10
229.601731
 20
98.393052
 30
0.0
 11
229.601731
 21
98.089204
 31
0.0
  0
LINE
  5
227
330
1F
100
AcDbEntity
  8
GR1-1
  6
CONTINUOUS
 62
     6
100
AcDbLine
 10
229.601731
 20
87.696899
 30
0.0
 11
229.601731
 21
87.393052
 31
0.0
  0
ARC
  5
228
330
1F
100
AcDbEntity
  8
GR1-1
  6
CONTINUOUS
 62
     6
100
AcDbCircle
 10
232.601731
 20
87.393052
 30
0.0
 40
3.0
100
AcDbArc
 50
-180.0
 51
0.0
  0
CIRCLE
  5
229
330
1F
100
AcDbEntity
  8
GR1-1
  6
CONTINUOUS
 62
     3
100
AcDbCircle
 10
232.601731
 20
92.893052
 30
0.0
 40
6.0
  0
CIRCLE
  5
22A
330
1F
100
AcDbEntity
  8
GR1-1
  6
CONTINUOUS
 62
     6
100
AcDbCircle
 10
232.601731
 20
92.893052
 30
0.0
 40
1.5
  0
LINE
  5
22B
330
1F
100
AcDbEntity
  8
GR1-1
  6
CENTER
 62
     6
100
AcDbLine
 10
132.082407
 20
135.893052
 30
0.0
 11
132.082407
 21
170.893052
 31
0.0
  0
ARC
  5
22C
330
1F
100
AcDbEntity
  8
LAYERGROUP-1
  6
CONTINUOUS
 62
     7
100
AcDbCircle
 10
253.601731
 20
236.854252
 30
0.0
 40
57.03668063118803
100
AcDbArc
 50
189.65468
 51
212.698601
  0
DIMENSION
  5
22D
330
1F
100
AcDbEntity
  8
LAYERGROUP-1
100
AcDbDimension
  2
*D31
 10
253.601731
 20
236.854252
 30
0.0
 11
189.144272
 21
224.941299
 31
0.0
 70
   164
  3
FXDIMINFO
100
AcDbRadialDimension
 15
197.679582
 25
225.633904
 35
0.0
 40
0.0
  0
ARC
  5
235
330
1F
100
AcDbEntity
  8
GR1-1
  6
CONTINUOUS
 62
     3
100
AcDbCircle
 10
119.332407
 20
127.408852
 30
0.0
 40
1.9844
100
AcDbArc
 50
168.836456
 51
196.229169
  0
ARC
  5
236
330
1F
100
AcDbEntity
  8
GR1-1
  6
CONTINUOUS
 62
     3
100
AcDbCircle
 10
132.082407
 20
127.408852
 30
0.0
 40
1.9844
100
AcDbArc
 50
168.836456
 51
196.229169
  0
ARC
  5
237
330
1F
100
AcDbEntity
  8
GR1-1
  6
CONTINUOUS
 62
     3
100
AcDbCircle
 10
132.082407
 20
127.408852
 30
0.0
 40
1.9844
100
AcDbArc
 50
-16.229169
 51
11.163544
  0
ARC
  5
238
330
1F
100
AcDbEntity
  8
GR1-1
  6
CONTINUOUS
 62
     3
100
AcDbCircle
 10
144.832407
 20
127.408852
 30
0.0
 40
1.9844
100
AcDbArc
 50
-16.229169
 51
11.163544
  0
ARC
  5
239
330
1F
100
AcDbEntity
  8
GR1-1
  6
CONTINUOUS
 62
     3
100
AcDbCircle
 10
129.657622
 20
127.408852
 30
0.0
 40
1.9844
100
AcDbArc
 50
168.836456
 51
196.229169
  0
ARC
  5
23A
330
1F
100
AcDbEntity
  8
GR1-1
  6
CONTINUOUS
 62
     3
100
AcDbCircle
 10
127.684798
 20
127.408852
 30
0.0
 40
1.9844
100
AcDbArc
 50
168.836456
 51
196.229169
  0
ARC
  5
23B
330
1F
100
AcDbEntity
  8
GR1-1
  6
CONTINUOUS
 62
     3
100
AcDbCircle
 10
125.774111
 20
127.408852
 30
0.0
 40
1.9844
100
AcDbArc
 50
168.836456
 51
196.229169
  0
ARC
  5
23C
330
1F
100
AcDbEntity
  8
GR1-1
  6
CONTINUOUS
 62
     3
100
AcDbCircle
 10
124.065366
 20
127.408852
 30
0.0
 40
1.9844
100
AcDbArc
 50
168.836456
 51
196.229169
  0
ARC
  5
23D
330
1F
100
AcDbEntity
  8
GR1-1
  6
CONTINUOUS
 62
     3
100
AcDbCircle
 10
122.325552
 20
127.408852
 30
0.0
 40
1.9844
100
AcDbArc
 50
168.836456
 51
196.229169
  0
ARC
  5
23E
330
1F
100
AcDbEntity
  8
GR1-1
  6
CONTINUOUS
 62
     3
100
AcDbCircle
 10
120.81875
 20
127.408852
 30
0.0
 40
1.9844
100
AcDbArc
 50
168.836456
 51
196.229169
  0
ARC
  5
23F
330
1F
100
AcDbEntity
  8
GR1-1
  6
CONTINUOUS
 62
     3
100
AcDbCircle
 10
134.507193
 20
127.408852
 30
0.0
 40
1.9844
100
AcDbArc
 50
-16.229169
 51
11.163544
  0
ARC
  5
240
330
1F
100
AcDbEntity
  8
GR1-1
  6
CONTINUOUS
 62
     3
100
AcDbCircle
 10
136.480017
 20
127.408852
 30
0.0
 40
1.9844
100
AcDbArc
 50
-16.229169
 51
11.163544
  0
ARC
  5
241
330
1F
100
AcDbEntity
  8
GR1-1
  6
CONTINUOUS
 62
     3
100
AcDbCircle
 10
138.390704
 20
127.408852
 30
0.0
 40
1.9844
100
AcDbArc
 50
-16.229169
 51
11.163544
  0
ARC
  5
242
330
1F
100
AcDbEntity
  8
GR1-1
  6
CONTINUOUS
 62
     3
100
AcDbCircle
 10
140.099449
 20
127.408852
 30
0.0
 40
1.9844
100
AcDbArc
 50
-16.229169
 51
11.163544
  0
ARC
  5
243
330
1F
100
AcDbEntity
  8
GR1-1
  6
CONTINUOUS
 62
     3
100
AcDbCircle
 10
141.839262
 20
127.408852
 30
0.0
 40
1.9844
100
AcDbArc
 50
-16.229169
 51
11.163544
  0
ARC
  5
244
330
1F
100
AcDbEntity
  8
GR1-1
  6
CONTINUOUS
 62
     3
100
AcDbCircle
 10
143.346065
 20
127.408852
 30
0.0
 40
1.9844
100
AcDbArc
 50
-16.229169
 51
11.163544
  0
LINE
  5
245
330
1F
100
AcDbEntity
  8
GR1-1
  6
CONTINUOUS
 62
     3
100
AcDbLine
 10
142.082407
 20
116.202774
 30
0.0
 11
142.082407
 21
111.232396
 31
0.0
  0
LINE
  5
246
330
1F
100
AcDbEntity
  8
GR1-1
  6
CONTINUOUS
 62
     3
100
AcDbLine
 10
142.756056
 20
100.03876
 30
0.0
 11
142.082407
 21
100.157542
 31
0.0
  0
ARC
  5
247
330
1F
100
AcDbEntity
  8
GR1-1
  6
CONTINUOUS
 62
     3
100
AcDbCircle
 10
142.582407
 20
99.053952
 30
0.0
 40
1.0
100
AcDbArc
 50
0.0
 51
80.0
  0
LINE
  5
248
330
1F
100
AcDbEntity
  8
GR1-1
  6
CONTINUOUS
 62
     3
100
AcDbLine
 10
122.082407
 20
116.202571
 30
0.0
 11
122.082407
 21
69.583533
 31
0.0
  0
LINE
  5
249
330
1F
100
AcDbEntity
  8
GR1-1
  6
CONTINUOUS
 62
     3
100
AcDbLine
 10
143.582407
 20
86.732151
 30
0.0
 11
143.582407
 21
99.053952
 31
0.0
  0
ARC
  5
24A
330
1F
100
AcDbEntity
  8
GR1-1
  6
CONTINUOUS
 62
     3
100
AcDbCircle
 10
142.582407
 20
86.732151
 30
0.0
 40
1.0
100
AcDbArc
 50
280.0
 51
360.0
  0
LINE
  5
24B
330
1F
100
AcDbEntity
  8
GR1-1
  6
CONTINUOUS
 62
     3
100
AcDbLine
 10
142.081535
 20
111.232395
 30
0.0
 11
142.08298
 21
92.893052
 31
0.0
  0
ARC
  5
24C
330
1F
100
AcDbEntity
  8
GR1-1
  6
CONTINUOUS
 62
     3
100
AcDbCircle
 10
132.082407
 20
57.893052
 30
0.0
 40
60.0
100
AcDbArc
 50
81.227006
 51
98.77429
  0
ARC
  5
24D
330
1F
100
AcDbEntity
  8
GR1-1
  6
CONTINUOUS
 62
     3
100
AcDbCircle
 10
123.082407
 20
116.202571
 30
0.0
 40
1.0
100
AcDbArc
 50
98.77429
 51
180.0
  0
ARC
  5
24E
330
1F
100
AcDbEntity
  8
GR1-1
  6
CONTINUOUS
 62
     3
100
AcDbCircle
 10
141.081089
 20
116.202774
 30
0.0
 40
1.0
100
AcDbArc
 50
0.0
 51
81.227006
  0
LINE
  5
24F
330
1F
100
AcDbEntity
  8
GR1-1
  6
CONTINUOUS
 62
     3
100
AcDbLine
 10
142.756056
 20
85.747344
 30
0.0
 11
142.081089
 21
85.628329
 31
0.0
  0
LINE
  5
250
330
1F
100
AcDbEntity
  8
GR1-1
  6
CONTINUOUS
 62
     3
100
AcDbLine
 10
142.08102
 20
74.553708
 30
0.0
 11
142.081134
 21
92.893052
 31
0.0
  0
LINE
  5
251
330
1F
100
AcDbEntity
  8
GR1-1
  6
CONTINUOUS
 62
     3
100
AcDbLine
 10
142.082407
 20
69.583329
 30
0.0
 11
142.082407
 21
74.553708
 31
0.0
  0
ARC
  5
252
330
1F
100
AcDbEntity
  8
GR1-1
  6
CONTINUOUS
 62
     3
100
AcDbCircle
 10
132.082407
 20
127.893052
 30
0.0
 40
60.0
100
AcDbArc
 50
261.22571
 51
278.772994
  0
ARC
  5
253
330
1F
100
AcDbEntity
  8
GR1-1
  6
CONTINUOUS
 62
     3
100
AcDbCircle
 10
123.082407
 20
69.583533
 30
0.0
 40
1.0
100
AcDbArc
 50
180.0
 51
261.22571
  0
ARC
  5
254
330
1F
100
AcDbEntity
  8
GR1-1
  6
CONTINUOUS
 62
     3
100
AcDbCircle
 10
141.081089
 20
69.583329
 30
0.0
 40
1.0
100
AcDbArc
 50
278.772994
 51
360.0
  0
LINE
  5
255
330
1F
100
AcDbEntity
  8
GR1-1
  6
CONTINUOUS
 62
     3
100
AcDbLine
 10
209.292008
 20
246.854252
 30
0.0
 11
214.262387
 21
246.854252
 31
0.0
  0
LINE
  5
256
330
1F
100
AcDbEntity
  8
GR1-1
  6
CONTINUOUS
 62
     3
100
AcDbLine
 10
226.44083
 20
248.354252
 30
0.0
 11
229.243429
 21
248.354252
 31
0.0
  0
LINE
  5
257
330
1F
100
AcDbEntity
  8
GR1-1
  6
CONTINUOUS
 62
     3
100
AcDbLine
 10
225.456022
 20
247.5279
 30
0.0
 11
225.33724
 21
246.854252
 31
0.0
  0
ARC
  5
258
330
1F
100
AcDbEntity
  8
GR1-1
  6
CONTINUOUS
 62
     3
100
AcDbCircle
 10
226.44083
 20
247.354252
 30
0.0
 40
1.0
100
AcDbArc
 50
90.0
 51
170.0
  0
LINE
  5
259
330
1F
100
AcDbEntity
  8
GR1-1
  6
CONTINUOUS
 62
     3
100
AcDbLine
 10
226.44083
 20
225.354252
 30
0.0
 11
229.243429
 21
225.354252
 31
0.0
  0
ARC
  5
25A
330
1F
100
AcDbEntity
  8
GR1-1
  6
CONTINUOUS
 62
     3
100
AcDbCircle
 10
226.44083
 20
226.354252
 30
0.0
 40
1.0
100
AcDbArc
 50
190.0
 51
270.0
  0
LINE
  5
25B
330
1F
100
AcDbEntity
  8
GR1-1
  6
CONTINUOUS
 62
     3
100
AcDbLine
 10
225.456022
 20
226.180604
 30
0.0
 11
225.33724
 21
226.854252
 31
0.0
  0
LINE
  5
25C
330
1F
100
AcDbEntity
  8
GR1-1
  6
CONTINUOUS
 62
     3
100
AcDbLine
 10
209.292212
 20
226.854252
 30
0.0
 11
228.667459
 21
226.854252
 31
0.0
  0
LINE
  5
25D
330
1F
100
AcDbEntity
  8
GR1-1
  6
CONTINUOUS
 62
     3
100
AcDbLine
 10
214.262387
 20
246.853379
 30
0.0
 11
228.667552
 21
246.854514
 31
0.0
  0
ARC
  5
25E
330
1F
100
AcDbEntity
  8
GR1-1
  6
CONTINUOUS
 62
     3
100
AcDbCircle
 10
267.601731
 20
236.854252
 30
0.0
 40
60.0
100
AcDbArc
 50
171.227006
 51
188.77429
  0
ARC
  5
25F
330
1F
100
AcDbEntity
  8
GR1-1
  6
CONTINUOUS
 62
     3
100
AcDbCircle
 10
209.292212
 20
227.854252
 30
0.0
 40
1.0
100
AcDbArc
 50
188.77429
 51
270.0
  0
ARC
  5
260
330
1F
100
AcDbEntity
  8
GR1-1
  6
CONTINUOUS
 62
     3
100
AcDbCircle
 10
209.292008
 20
245.852933
 30
0.0
 40
1.0
100
AcDbArc
 50
90.0
 51
171.227006
  0
ARC
  5
261
330
1F
100
AcDbEntity
  8
GR1-1
  6
CONTINUOUS
 62
     3
100
AcDbCircle
 10
232.601731
 20
92.893052
 30
0.0
 40
11.5
100
AcDbArc
 50
203.678362
 51
218.213211
  0
LINE
  5
262
330
1F
100
AcDbEntity
  8
GR1-1
  6
CONTINUOUS
 62
     3
100
AcDbLine
 10
224.902139
 20
85.560939
 30
0.0
 11
224.851731
 21
85.531836
 31
0.0
  0
ARC
  5
263
330
1F
100
AcDbEntity
  8
GR1-1
  6
CONTINUOUS
 62
     3
100
AcDbCircle
 10
232.601731
 20
92.893052
 30
0.0
 40
24.99999999999997
100
AcDbArc
 50
159.319286
 51
322.680714
  0
ARC
  5
264
330
1F
100
AcDbEntity
  8
GR1-1
  6
CONTINUOUS
 62
     6
100
AcDbCircle
 10
232.601731
 20
92.893052
 30
0.0
 40
17.49999999999994
100
AcDbArc
 50
172.600592
 51
309.399408
  0
ARC
  5
265
330
1F
100
AcDbEntity
  8
GR1-1
  6
CONTINUOUS
 62
     3
100
AcDbCircle
 10
232.601731
 20
92.893052
 30
0.0
 40
21.49999999999996
100
AcDbArc
 50
165.722574
 51
316.277426
  0
ARC
  5
266
330
1F
100
AcDbEntity
  8
GR1-1
  6
CONTINUOUS
 62
     3
100
AcDbCircle
 10
224.351731
 20
86.397861
 30
0.0
 40
1.0
100
AcDbArc
 50
218.213211
 51
300.0
  0
INSERT
  5
26A
330
1F
100
AcDbEntity
  8
0
100
AcDbBlockReference
  2
BLKF034
 10
0.0
 20
0.0
 30
0.0
  0
ARC
  5
270
330
1F
100
AcDbEntity
  8
GR1-1
  6
CONTINUOUS
 62
     3
100
AcDbCircle
 10
232.601731
 20
92.893052
 30
0.0
 40
21.49999999999996
100
AcDbArc
 50
101.106657
 51
131.717109
  0
ARC
  5
271
330
1F
100
AcDbEntity
  8
GR1-1
  6
CONTINUOUS
 62
     3
100
AcDbCircle
 10
232.601731
 20
92.893052
 30
0.0
 40
24.99999999999997
100
AcDbArc
 50
98.608161
 51
134.500917
  0
ARC
  5
272
330
1F
100
AcDbEntity
  8
GR1-1
  6
CONTINUOUS
 62
     3
100
AcDbCircle
 10
232.601731
 20
92.893052
 30
0.0
 40
24.99999999999997
100
AcDbArc
 50
-12.500917
 51
35.576712
  0
ARC
  5
273
330
1F
100
AcDbEntity
  8
GR1-1
  6
CONTINUOUS
 62
     3
100
AcDbCircle
 10
232.601731
 20
92.893052
 30
0.0
 40
21.49999999999996
100
AcDbArc
 50
-9.717109
 51
32.927361
  0
ARC
  5
274
330
1F
100
AcDbEntity
  8
GR1-1
  6
CONTINUOUS
 62
     6
100
AcDbCircle
 10
232.601731
 20
92.893052
 30
0.0
 40
17.49999999999994
100
AcDbArc
 50
105.263316
 51
127.064104
  0
ARC
  5
275
330
1F
100
AcDbEntity
  8
GR1-1
  6
CONTINUOUS
 62
     6
100
AcDbCircle
 10
232.601731
 20
92.893052
 30
0.0
 40
17.49999999999994
100
AcDbArc
 50
-5.064104
 51
28.034904
  0
ENDSEC
  0
SECTION
  2
OBJECTS
  0
DICTIONARY
  5
C
330
0
100
AcDbDictionary
  3
ACAD_GROUP
350
D
  3
ACAD_LAYOUT
350
1A
  3
ACAD_MLINESTYLE
350
17
  3
ACAD_PLOTSETTINGS
350
19
  3
ACDBHEADERROUNDTRIPXREC
350
276
  0
DICTIONARY
  5
D
102
{ACAD_REACTORS
330
C
102
}
330
C
100
AcDbDictionary
  0
DICTIONARY
  5
1A
102
{ACAD_REACTORS
330
C
102
}
330
C
100
AcDbDictionary
  0
DICTIONARY
  5
17
102
{ACAD_REACTORS
330
C
102
}
330
C
100
AcDbDictionary
  3
STANDARD
350
18
  0
DICTIONARY
  5
19
102
{ACAD_REACTORS
330
C
102
}
330
C
100
AcDbDictionary
  0
DICTIONARY
  5
276
102
{ACAD_REACTORS
330
C
102
}
330
C
100
AcDbDictionary
  3
CEPSNTYPE
350
27F
  3
DIMSTYLEDATA
350
295
  3
FINGERPRINTGUID
350
280
  3
HYPERLINKBASE
350
279
  3
INSUNITS
350
27E
  3
LAYOUTDICT
350
27B
  3
LWETCUNION
350
27D
  3
PLOTSETDICT
350
27C
  3
PSVPSCALE
350
282
  3
PUCSBASE
350
285
  3
PUCSORGBACK
350
28B
  3
PUCSORGBOTTOM
350
287
  3
PUCSORGFRONT
350
28A
  3
PUCSORGLEFT
350
288
  3
PUCSORGRIGHT
350
289
  3
PUCSORGTOP
350
286
  3
PUCSORTHOREF
350
283
  3
PUCSORTHOVIEW
350
284
  3
STYLESHEET
350
27A
  3
TSTACKALIGN
350
277
  3
TSTACKSIZE
350
278
  3
UCSBASE
350
28E
  3
UCSORGBACK
350
294
  3
UCSORGBOTTOM
350
290
  3
UCSORGFRONT
350
293
  3
UCSORGLEFT
350
291
  3
UCSORGRIGHT
350
292
  3
UCSORGTOP
350
28F
  3
UCSORTHOREF
350
28C
  3
UCSORTHOVIEW
350
28D
  3
VERSIONGUID
350
281
  0
MLINESTYLE
  5
18
102
{ACAD_REACTORS
330
17
102
}
330
17
100
AcDbMlineStyle
  2
Standard
 70
     0
  3

 62
   256
 51
90.0
 52
90.0
 71
     2
 49
0.5
 62
   256
  6
BYLAYER
 49
-0.5
 62
   256
  6
BYLAYER
  0
XRECORD
  5
27F
102
{ACAD_REACTORS
330
276
102
}
330
276
100
AcDbXrecord
 90
        0
  0
XRECORD
  5
295
102
{ACAD_REACTORS
330
276
102
}
330
276
100
AcDbXrecord
1000
DSTYLE
1002
{
1070
   179
 70
     2
1070
   171
 70
     3
1070
   143
 40
0.03937
1070
   274
 70
     3
1070
    41
 40
4.0
1070
   343
340
41
1070
   344
340
47
1070
   141
 40
2.5
1070
   176
 70
     7
1070
   177
 70
     7
1070
   178
 70
     7
1070
   271
 70
     2
1070
    46
 40
6.0
1070
    43
 40
10.0
1070
    44
 40
1.0
1070
    42
 40
1.0
1070
   147
 40
1.0
1070
   341
340
41
1070
   173
 70
     1
1070
    77
 70
     1
1070
   272
 70
     2
1070
    73
 70
     0
1070
   172
 70
     1
1070
    74
 70
     0
1070
   283
 70
     0
1070
   340
340
3F
1070
   140
 40
4.0
1070
   284
 70
     8
1070
    78
 70
     8
1002
}
  0
XRECORD
  5
280
102
{ACAD_REACTORS
330
276
102
}
330
276
100
AcDbXrecord
  1
{219000C2-A203-4F37-AEE8-FB06E25E2C49}
  0
XRECORD
  5
279
102
{ACAD_REACTORS
330
276
102
}
330
276
100
AcDbXrecord
  1

  0
XRECORD
  5
27E
102
{ACAD_REACTORS
330
276
102
}
330
276
100
AcDbXrecord
 90
        1
  0
XRECORD
  5
27B
102
{ACAD_REACTORS
330
276
102
}
330
276
100
AcDbXrecord
340
1A
  0
XRECORD
  5
27D
102
{ACAD_REACTORS
330
276
102
}
330
276
100
AcDbXrecord
 90
    10781
  0
XRECORD
  5
27C
102
{ACAD_REACTORS
330
276
102
}
330
276
100
AcDbXrecord
340
19
  0
XRECORD
  5
282
102
{ACAD_REACTORS
330
276
102
}
330
276
100
AcDbXrecord
 40
0.0
  0
XRECORD
  5
285
102
{ACAD_REACTORS
330
276
102
}
330
276
100
AcDbXrecord
340
0
  0
XRECORD
  5
28B
102
{ACAD_REACTORS
330
276
102
}
330
276
100
AcDbXrecord
 10
0.0
 20
0.0
 30
0.0
  0
XRECORD
  5
287
102
{ACAD_REACTORS
330
276
102
}
330
276
100
AcDbXrecord
 10
0.0
 20
0.0
 30
0.0
  0
XRECORD
  5
28A
102
{ACAD_REACTORS
330
276
102
}
330
276
100
AcDbXrecord
 10
0.0
 20
0.0
 30
0.0
  0
XRECORD
  5
288
102
{ACAD_REACTORS
330
276
102
}
330
276
100
AcDbXrecord
 10
0.0
 20
0.0
 30
0.0
  0
XRECORD
  5
289
102
{ACAD_REACTORS
330
276
102
}
330
276
100
AcDbXrecord
 10
0.0
 20
0.0
 30
0.0
  0
XRECORD
  5
286
102
{ACAD_REACTORS
330
276
102
}
330
276
100
AcDbXrecord
 10
0.0
 20
0.0
 30
0.0
  0
XRECORD
  5
283
102
{ACAD_REACTORS
330
276
102
}
330
276
100
AcDbXrecord
340
0
  0
XRECORD
  5
284
102
{ACAD_REACTORS
330
276
102
}
330
276
100
AcDbXrecord
 70
     0
  0
XRECORD
  5
27A
102
{ACAD_REACTORS
330
276
102
}
330
276
100
AcDbXrecord
  1

  0
XRECORD
  5
277
102
{ACAD_REACTORS
330
276
102
}
330
276
100
AcDbXrecord
 90
        1
  0
XRECORD
  5
278
102
{ACAD_REACTORS
330
276
102
}
330
276
100
AcDbXrecord
 90
       70
  0
XRECORD
  5
28E
102
{ACAD_REACTORS
330
276
102
}
330
276
100
AcDbXrecord
340
0
  0
XRECORD
  5
294
102
{ACAD_REACTORS
330
276
102
}
330
276
100
AcDbXrecord
 10
0.0
 20
0.0
 30
0.0
  0
XRECORD
  5
290
102
{ACAD_REACTORS
330
276
102
}
330
276
100
AcDbXrecord
 10
0.0
 20
0.0
 30
0.0
  0
XRECORD
  5
293
102
{ACAD_REACTORS
330
276
102
}
330
276
100
AcDbXrecord
 10
0.0
 20
0.0
 30
0.0
  0
XRECORD
  5
291
102
{ACAD_REACTORS
330
276
102
}
330
276
100
AcDbXrecord
 10
0.0
 20
0.0
 30
0.0
  0
XRECORD
  5
292
102
{ACAD_REACTORS
330
276
102
}
330
276
100
AcDbXrecord
 10
0.0
 20
0.0
 30
0.0
  0
XRECORD
  5
28F
102
{ACAD_REACTORS
330
276
102
}
330
276
100
AcDbXrecord
 10
0.0
 20
0.0
 30
0.0
  0
XRECORD
  5
28C
102
{ACAD_REACTORS
330
276
102
}
330
276
100
AcDbXrecord
340
0
  0
XRECORD
  5
28D
102
{ACAD_REACTORS
330
276
102
}
330
276
100
AcDbXrecord
 70
     0
  0
XRECORD
  5
281
102
{ACAD_REACTORS
330
276
102
}
330
276
100
AcDbXrecord
  1
{FAEB1C32-E019-11D5-929B-00C0DF256EC4}
  0
ENDSEC
  0
EOF
