  0
SECTION
  2
HEADER
  9
$ACADVER
  1
AC1014
  9
$ACADMAINTVER
 70
     9
  9
$DWGCODEPAGE
  3
ANSI_932
  9
$INSBASE
 10
0.0
 20
0.0
 30
0.0
  9
$EXTMIN
 10
0.0
 20
0.0
 30
0.0
  9
$EXTMAX
 10
420.0
 20
297.0
 30
0.0
  9
$LIMMIN
 10
0.0
 20
0.0
  9
$LIMMAX
 10
420.0
 20
297.0
  9
$ORTHOMODE
 70
     0
  9
$REGENMODE
 70
     1
  9
$FILLMODE
 70
     1
  9
$QTEXTMODE
 70
     0
  9
$MIRRTEXT
 70
     1
  9
$DRAGMODE
 70
     2
  9
$LTSCALE
 40
1.0
  9
$OSMODE
 70
    37
  9
$ATTMODE
 70
     1
  9
$TEXTSIZE
 40
0.2
  9
$TRACEWID
 40
0.05
  9
$TEXTSTYLE
  7
STYLE1
  9
$CLAYER
  8
0
  9
$CELTYPE
  6
BYLAYER
  9
$CECOLOR
 62
   256
  9
$CELTSCALE
 40
1.0
  9
$DELOBJ
 70
     1
  9
$DISPSILH
 70
     0
  9
$DIMSCALE
 40
1.0
  9
$DIMASZ
 40
4.0
  9
$DIMEXO
 40
1.0
  9
$DIMDLI
 40
10.0
  9
$DIMRND
 40
0.0
  9
$DIMDLE
 40
6.0
  9
$DIMEXE
 40
1.0
  9
$DIMTP
 40
0.0
  9
$DIMTM
 40
0.0
  9
$DIMTXT
 40
4.0
  9
$DIMCEN
 40
2.5
  9
$DIMTSZ
 40
0.0
  9
$DIMTOL
 70
     0
  9
$DIMLIM
 70
     0
  9
$DIMTIH
 70
     0
  9
$DIMTOH
 70
     0
  9
$DIMSE1
 70
     0
  9
$DIMSE2
 70
     0
  9
$DIMTAD
 70
     1
  9
$DIMZIN
 70
     8
  9
$DIMBLK
  1

  9
$DIMASO
 70
     1
  9
$DIMSHO
 70
     1
  9
$DIMPOST
  1

  9
$DIMAPOST
  1

  9
$DIMALT
 70
     0
  9
$DIMALTD
 70
     3
  9
$DIMALTF
 40
0.03937
  9
$DIMLFAC
 40
1.0
  9
$DIMTOFL
 70
     1
  9
$DIMTVP
 40
0.0
  9
$DIMTIX
 70
     0
  9
$DIMSOXD
 70
     0
  9
$DIMSAH
 70
     1
  9
$DIMBLK1
  1
FXTIP_ARROW_S
  9
$DIMBLK2
  1
FXTIP_ARROW_E
  9
$DIMSTYLE
  2
FXDIMINFO
  9
$DIMCLRD
 70
     7
  9
$DIMCLRE
 70
     7
  9
$DIMCLRT
 70
     7
  9
$DIMTFAC
 40
1.0
  9
$DIMGAP
 40
1.0
  9
$DIMJUST
 70
     0
  9
$DIMSD1
 70
     0
  9
$DIMSD2
 70
     0
  9
$DIMTOLJ
 70
     0
  9
$DIMTZIN
 70
     8
  9
$DIMALTZ
 70
     0
  9
$DIMALTTZ
 70
     0
  9
$DIMFIT
 70
     3
  9
$DIMUPT
 70
     0
  9
$DIMUNIT
 70
     2
  9
$DIMDEC
 70
     2
  9
$DIMTDEC
 70
     2
  9
$DIMALTU
 70
     2
  9
$DIMALTTD
 70
     3
  9
$DIMTXSTY
  7
STYLE1
  9
$DIMAUNIT
 70
     0
  9
$LUNITS
 70
     2
  9
$LUPREC
 70
     4
  9
$SKETCHINC
 40
0.1
  9
$FILLETRAD
 40
0.5
  9
$AUNITS
 70
     0
  9
$AUPREC
 70
     0
  9
$MENU
  1
.
  9
$ELEVATION
 40
0.0
  9
$PELEVATION
 40
0.0
  9
$THICKNESS
 40
0.0
  9
$LIMCHECK
 70
     0
  9
$CHAMFERA
 40
0.5
  9
$CHAMFERB
 40
0.5
  9
$CHAMFERC
 40
1.0
  9
$CHAMFERD
 40
0.0
  9
$SKPOLY
 70
     0
  9
$TDCREATE
 40
2455303.468450949
  9
$TDUPDATE
 40
2455303.468450961
  9
$TDINDWG
 40
0.0000000116
  9
$TDUSRTIMER
 40
0.0000000116
  9
$USRTIMER
 70
     1
  9
$ANGBASE
 50
0.0
  9
$ANGDIR
 70
     0
  9
$PDMODE
 70
     0
  9
$PDSIZE
 40
0.0
  9
$PLINEWID
 40
0.0
  9
$COORDS
 70
     1
  9
$SPLFRAME
 70
     0
  9
$SPLINETYPE
 70
     6
  9
$SPLINESEGS
 70
     8
  9
$ATTDIA
 70
     0
  9
$ATTREQ
 70
     1
  9
$HANDLING
 70
     1
  9
$HANDSEED
  5
323
  9
$SURFTAB1
 70
     6
  9
$SURFTAB2
 70
     6
  9
$SURFTYPE
 70
     6
  9
$SURFU
 70
     6
  9
$SURFV
 70
     6
  9
$UCSNAME
  2

  9
$UCSORG
 10
0.0
 20
0.0
 30
0.0
  9
$UCSXDIR
 10
1.0
 20
0.0
 30
0.0
  9
$UCSYDIR
 10
0.0
 20
1.0
 30
0.0
  9
$PUCSNAME
  2

  9
$PUCSORG
 10
0.0
 20
0.0
 30
0.0
  9
$PUCSXDIR
 10
1.0
 20
0.0
 30
0.0
  9
$PUCSYDIR
 10
0.0
 20
1.0
 30
0.0
  9
$USERI1
 70
     0
  9
$USERI2
 70
     0
  9
$USERI3
 70
     0
  9
$USERI4
 70
     0
  9
$USERI5
 70
     0
  9
$USERR1
 40
0.0
  9
$USERR2
 40
0.0
  9
$USERR3
 40
0.0
  9
$USERR4
 40
0.0
  9
$USERR5
 40
0.0
  9
$WORLDVIEW
 70
     1
  9
$SHADEDGE
 70
     3
  9
$SHADEDIF
 70
    70
  9
$TILEMODE
 70
     1
  9
$MAXACTVP
 70
    64
  9
$PINSBASE
 10
0.0
 20
0.0
 30
0.0
  9
$PLIMCHECK
 70
     0
  9
$PEXTMIN
 10
1.000000E+20
 20
1.000000E+20
 30
1.000000E+20
  9
$PEXTMAX
 10
-1.000000E+20
 20
-1.000000E+20
 30
-1.000000E+20
  9
$PLIMMIN
 10
0.0
 20
0.0
  9
$PLIMMAX
 10
12.0
 20
9.0
  9
$UNITMODE
 70
     0
  9
$VISRETAIN
 70
     1
  9
$PLINEGEN
 70
     0
  9
$PSLTSCALE
 70
     1
  9
$TREEDEPTH
 70
  3020
  9
$PICKSTYLE
 70
     1
  9
$CMLSTYLE
  2
STANDARD
  9
$CMLJUST
 70
     0
  9
$CMLSCALE
 40
1.0
  9
$PROXYGRAPHICS
 70
     1
  9
$MEASUREMENT
 70
     0
  0
ENDSEC
  0
SECTION
  2
CLASSES
  0
CLASS
  1
ACDBDICTIONARYWDFLT
  2
AcDbDictionaryWithDefault
  3
ObjectDBX Classes
 90
        0
280
     0
281
     0
  0
CLASS
  1
XRECORD
  2
AcDbXrecord
  3
AutoCAD 2000
 90
        0
280
     0
281
     0
  0
CLASS
  1
LWPOLYLINE
  2
AcDbPolyline
  3
AutoCAD 2000
 90
        0
280
     0
281
     1
  0
CLASS
  1
HATCH
  2
AcDbHatch
  3
AutoCAD 2000
 90
        0
280
     0
281
     1
  0
CLASS
  1
ACDBPLACEHOLDER
  2
AcDbPlaceHolder
  3
ObjectDBX Classes
 90
        0
280
     0
281
     0
  0
CLASS
  1
LAYOUT
  2
AcDbLayout
  3
ObjectDBX Classes
 90
        0
280
     0
281
     0
  0
ENDSEC
  0
SECTION
  2
TABLES
  0
TABLE
  2
VPORT
  5
8
330
0
100
AcDbSymbolTable
 70
     1
  0
VPORT
  5
29
330
8
100
AcDbSymbolTableRecord
100
AcDbViewportTableRecord
  2
*ACTIVE
 70
     0
 10
0.0
 20
0.0
 11
1.0
 21
1.0
 12
210.0
 22
148.5
 13
0.0
 23
0.0
 14
0.5
 24
0.5
 15
0.5
 25
0.5
 16
0.0
 26
0.0
 36
1.0
 17
0.0
 27
0.0
 37
0.0
 40
297.0
 41
1.414141
 42
50.0
 43
0.0
 44
0.0
 50
0.0
 51
0.0
 71
     0
 72
   100
 73
     1
 74
     3
 75
     0
 76
     0
 77
     0
 78
     0
  0
ENDTAB
  0
TABLE
  2
LTYPE
  5
5
330
0
100
AcDbSymbolTable
 70
     4
  0
LTYPE
  5
14
330
5
100
AcDbSymbolTableRecord
100
AcDbLinetypeTableRecord
  2
BYBLOCK
 70
     0
  3

 72
    65
 73
     0
 40
0.0
  0
LTYPE
  5
15
330
5
100
AcDbSymbolTableRecord
100
AcDbLinetypeTableRecord
  2
BYLAYER
 70
     0
  3

 72
    65
 73
     0
 40
0.0
  0
LTYPE
  5
16
330
5
100
AcDbSymbolTableRecord
100
AcDbLinetypeTableRecord
  2
CONTINUOUS
 70
     0
  3
--------------------
 72
    65
 73
     0
 40
0.0
  0
LTYPE
  5
2A
330
5
100
AcDbSymbolTableRecord
100
AcDbLinetypeTableRecord
  2
CENTER
 70
     0
  3
Center ____ _ ____ _ ____ _ ____ _ ____ _ ____
 72
    65
 73
     4
 40
13.0
 49
10.0
 74
     0
 49
-1.0
 74
     0
 49
1.0
 74
     0
 49
-1.0
 74
     0
  0
ENDTAB
  0
TABLE
  2
LAYER
  5
2
330
0
100
AcDbSymbolTable
 70
    20
  0
LAYER
  5
10
330
2
100
AcDbSymbolTableRecord
100
AcDbLayerTableRecord
  2
0
 70
     0
 62
     7
  6
CONTINUOUS
  0
LAYER
  5
2D
330
2
100
AcDbSymbolTableRecord
100
AcDbLayerTableRecord
  2
LAYERGROUP-1
 70
     0
 62
     3
  6
CONTINUOUS
  0
LAYER
  5
3D
330
2
100
AcDbSymbolTableRecord
100
AcDbLayerTableRecord
  2
}}ﾊﾊGG血CCТ
 70
     0
 62
     3
  6
CONTINUOUS
  0
LAYER
  5
B8
330
2
100
AcDbSymbolTableRecord
100
AcDbLayerTableRecord
  2
0-1
 70
     0
 62
     7
  6
CONTINUOUS
  0
LAYER
  5
D0
330
2
100
AcDbSymbolTableRecord
100
AcDbLayerTableRecord
  2
GR1-1
 70
     0
 62
     7
  6
CONTINUOUS
  0
ENDTAB
  0
TABLE
  2
STYLE
  5
3
330
0
100
AcDbSymbolTable
 70
     4
  0
STYLE
  5
11
330
3
100
AcDbSymbolTableRecord
100
AcDbTextStyleTableRecord
  2
STANDARD
 70
     0
 40
0.0
 41
1.0
 50
0.0
 71
     0
 42
0.2
  3
txt
  4

  0
STYLE
  5
3F
330
3
100
AcDbSymbolTableRecord
100
AcDbTextStyleTableRecord
  2
STYLE1
 70
     0
 40
0.0
 41
1.0
 50
0.0
 71
     0
 42
0.2
  3
MONOTXT.SHX
  4
extfont.shx
  0
STYLE
  5
40
330
3
100
AcDbSymbolTableRecord
100
AcDbTextStyleTableRecord
  2
FX_VECTOR
 70
     0
 40
0.0
 41
1.0
 50
0.0
 71
     0
 42
0.2
  3
MONOTXT.SHX
  4
BIGFONT.SHX
  0
ENDTAB
  0
TABLE
  2
VIEW
  5
6
330
0
100
AcDbSymbolTable
 70
     0
  0
ENDTAB
  0
TABLE
  2
UCS
  5
7
330
0
100
AcDbSymbolTable
 70
     0
  0
ENDTAB
  0
TABLE
  2
APPID
  5
9
330
0
100
AcDbSymbolTable
 70
     1
  0
APPID
  5
12
330
9
100
AcDbSymbolTableRecord
100
AcDbRegAppTableRecord
  2
ACAD
 70
     0
  0
ENDTAB
  0
TABLE
  2
DIMSTYLE
  5
A
330
0
100
AcDbSymbolTable
 70
     2
  0
DIMSTYLE
105
27
330
A
100
AcDbSymbolTableRecord
100
AcDbDimStyleTableRecord
  2
STANDARD
 70
     0
  3

  4

  5

  6

  7

 40
1.0
 41
0.18
 42
0.0625
 43
0.38
 44
0.18
 45
0.0
 46
0.0
 47
0.0
 48
0.0
140
0.18
141
0.09
142
0.0
143
25.4
144
1.0
145
0.0
146
1.0
147
0.09
 71
     0
 72
     0
 73
     1
 74
     1
 75
     0
 76
     0
 77
     0
 78
     0
170
     0
171
     2
172
     0
173
     0
174
     0
175
     0
176
     0
177
     0
178
     0
270
     2
271
     4
272
     4
273
     2
274
     2
340
11
275
     0
280
     0
281
     0
282
     0
283
     1
284
     0
285
     0
286
     0
287
     3
288
     0
  0
DIMSTYLE
105
A7
102
{ACAD_REACTORS
330
123
330
12D
330
137
330
140
330
1C5
330
1FE
330
212
330
21C
330
226
330
230
330
2AC
330
2B6
102
}
330
A
100
AcDbSymbolTableRecord
100
AcDbDimStyleTableRecord
  2
FXDIMINFO
 70
     0
  3

  4

  5

  6
FXTIP_ARROW_S
  7
FXTIP_ARROW_E
 40
1.0
 41
4.0
 42
1.0
 43
10.0
 44
1.0
 45
0.0
 46
6.0
 47
0.0
 48
0.0
140
4.0
141
2.5
142
0.0
143
0.03937
144
1.0
145
0.0
146
1.0
147
1.0
 71
     0
 72
     0
 73
     0
 74
     0
 75
     0
 76
     0
 77
     1
 78
     8
170
     0
171
     3
172
     1
173
     1
174
     0
175
     0
176
     7
177
     7
178
     7
179
     2
270
     2
271
     2
272
     2
273
     2
274
     3
340
3F
275
     0
280
     0
281
     0
282
     0
283
     0
284
     8
285
     0
286
     0
287
     3
288
     0
  0
ENDTAB
  0
TABLE
  2
BLOCK_RECORD
  5
1
330
0
100
AcDbSymbolTable
 70
    42
  0
BLOCK_RECORD
  5
1F
330
1
100
AcDbSymbolTableRecord
100
AcDbBlockTableRecord
  2
*MODEL_SPACE
  0
BLOCK_RECORD
  5
1B
330
1
100
AcDbSymbolTableRecord
100
AcDbBlockTableRecord
  2
*PAPER_SPACE
  0
BLOCK_RECORD
  5
41
330
1
100
AcDbSymbolTableRecord
100
AcDbBlockTableRecord
  2
FXTIP_ARROW_S
  0
BLOCK_RECORD
  5
47
330
1
100
AcDbSymbolTableRecord
100
AcDbBlockTableRecord
  2
FXTIP_ARROW_E
  0
BLOCK_RECORD
  5
4D
330
1
100
AcDbSymbolTableRecord
100
AcDbBlockTableRecord
  2
FXTIP_BLACKDOT_S
  0
BLOCK_RECORD
  5
53
330
1
100
AcDbSymbolTableRecord
100
AcDbBlockTableRecord
  2
FXTIP_BLACKDOT_E
  0
BLOCK_RECORD
  5
59
330
1
100
AcDbSymbolTableRecord
100
AcDbBlockTableRecord
  2
FXTIP_TRIANGLE_S
  0
BLOCK_RECORD
  5
60
330
1
100
AcDbSymbolTableRecord
100
AcDbBlockTableRecord
  2
FXTIP_TRIANGLE_E
  0
BLOCK_RECORD
  5
67
330
1
100
AcDbSymbolTableRecord
100
AcDbBlockTableRecord
  2
FXTIP_ARCHITECT_S
  0
BLOCK_RECORD
  5
6D
330
1
100
AcDbSymbolTableRecord
100
AcDbBlockTableRecord
  2
FXTIP_ARCHITECT_E
  0
BLOCK_RECORD
  5
73
330
1
100
AcDbSymbolTableRecord
100
AcDbBlockTableRecord
  2
FXTIP_CIVIL_S
  0
BLOCK_RECORD
  5
79
330
1
100
AcDbSymbolTableRecord
100
AcDbBlockTableRecord
  2
FXTIP_CIVIL_E
  0
BLOCK_RECORD
  5
7F
330
1
100
AcDbSymbolTableRecord
100
AcDbBlockTableRecord
  2
FXTIP_WHITEDOT_S
  0
BLOCK_RECORD
  5
84
330
1
100
AcDbSymbolTableRecord
100
AcDbBlockTableRecord
  2
FXTIP_WHITEDOT_E
  0
BLOCK_RECORD
  5
89
330
1
100
AcDbSymbolTableRecord
100
AcDbBlockTableRecord
  2
FXTIP_UPARROW_S
  0
BLOCK_RECORD
  5
8E
330
1
100
AcDbSymbolTableRecord
100
AcDbBlockTableRecord
  2
FXTIP_UPARROW_E
  0
BLOCK_RECORD
  5
93
330
1
100
AcDbSymbolTableRecord
100
AcDbBlockTableRecord
  2
FXTIP_DOWNARROW_S
  0
BLOCK_RECORD
  5
98
330
1
100
AcDbSymbolTableRecord
100
AcDbBlockTableRecord
  2
FXTIP_DOWNARROW_E
  0
BLOCK_RECORD
  5
9D
330
1
100
AcDbSymbolTableRecord
100
AcDbBlockTableRecord
  2
FXTIP_BLACKTRIANGLE_S
  0
BLOCK_RECORD
  5
A2
330
1
100
AcDbSymbolTableRecord
100
AcDbBlockTableRecord
  2
FXTIP_BLACKTRIANGLE_E
  0
BLOCK_RECORD
  5
A8
330
1
100
AcDbSymbolTableRecord
100
AcDbBlockTableRecord
  2
BLKF021
  0
BLOCK_RECORD
  5
B4
330
1
100
AcDbSymbolTableRecord
100
AcDbBlockTableRecord
  2
BLKF022
  0
BLOCK_RECORD
  5
BD
330
1
100
AcDbSymbolTableRecord
100
AcDbBlockTableRecord
  2
BLKF023
  0
BLOCK_RECORD
  5
124
330
1
100
AcDbSymbolTableRecord
100
AcDbBlockTableRecord
  2
*D22
  0
BLOCK_RECORD
  5
12E
330
1
100
AcDbSymbolTableRecord
100
AcDbBlockTableRecord
  2
*D23
  0
BLOCK_RECORD
  5
138
330
1
100
AcDbSymbolTableRecord
100
AcDbBlockTableRecord
  2
*D24
  0
BLOCK_RECORD
  5
141
330
1
100
AcDbSymbolTableRecord
100
AcDbBlockTableRecord
  2
*D25
  0
BLOCK_RECORD
  5
14A
330
1
100
AcDbSymbolTableRecord
100
AcDbBlockTableRecord
  2
BLKF028
  0
BLOCK_RECORD
  5
1C6
330
1
100
AcDbSymbolTableRecord
100
AcDbBlockTableRecord
  2
*D27
  0
BLOCK_RECORD
  5
1FF
330
1
100
AcDbSymbolTableRecord
100
AcDbBlockTableRecord
  2
*D28
  0
BLOCK_RECORD
  5
213
330
1
100
AcDbSymbolTableRecord
100
AcDbBlockTableRecord
  2
*D29
  0
BLOCK_RECORD
  5
21D
330
1
100
AcDbSymbolTableRecord
100
AcDbBlockTableRecord
  2
*D30
  0
BLOCK_RECORD
  5
227
330
1
100
AcDbSymbolTableRecord
100
AcDbBlockTableRecord
  2
*D31
  0
BLOCK_RECORD
  5
231
330
1
100
AcDbSymbolTableRecord
100
AcDbBlockTableRecord
  2
*D32
  0
BLOCK_RECORD
  5
27D
330
1
100
AcDbSymbolTableRecord
100
AcDbBlockTableRecord
  2
BLKF035
  0
BLOCK_RECORD
  5
288
330
1
100
AcDbSymbolTableRecord
100
AcDbBlockTableRecord
  2
BLKF036
  0
BLOCK_RECORD
  5
2AD
330
1
100
AcDbSymbolTableRecord
100
AcDbBlockTableRecord
  2
*D35
  0
BLOCK_RECORD
  5
2B7
330
1
100
AcDbSymbolTableRecord
100
AcDbBlockTableRecord
  2
*D36
  0
BLOCK_RECORD
  5
2C0
330
1
100
AcDbSymbolTableRecord
100
AcDbBlockTableRecord
  2
BLKF039
  0
BLOCK_RECORD
  5
2C5
330
1
100
AcDbSymbolTableRecord
100
AcDbBlockTableRecord
  2
BLKF040
  0
BLOCK_RECORD
  5
2CD
330
1
100
AcDbSymbolTableRecord
100
AcDbBlockTableRecord
  2
BLKF041
  0
BLOCK_RECORD
  5
2E3
330
1
100
AcDbSymbolTableRecord
100
AcDbBlockTableRecord
  2
BLKF042
  0
BLOCK_RECORD
  5
2F4
330
1
100
AcDbSymbolTableRecord
100
AcDbBlockTableRecord
  2
BLKF043
  0
ENDTAB
  0
ENDSEC
  0
SECTION
  2
BLOCKS
  0
BLOCK
  5
20
330
1F
100
AcDbEntity
  8
0
100
AcDbBlockBegin
  2
*MODEL_SPACE
 70
     0
 71
     0
 10
0.0
 20
0.0
 30
0.0
  3
*MODEL_SPACE
  1

  0
ENDBLK
  5
21
330
1F
100
AcDbEntity
  8
0
100
AcDbBlockEnd
  0
BLOCK
  5
1C
330
1B
100
AcDbEntity
 67
     1
  8
0
100
AcDbBlockBegin
  2
*PAPER_SPACE
 70
     0
 71
     0
 10
0.0
 20
0.0
 30
0.0
  3
*PAPER_SPACE
  1

  0
ENDBLK
  5
1D
330
1B
100
AcDbEntity
 67
     1
  8
0
100
AcDbBlockEnd
  0
BLOCK
  5
42
330
41
100
AcDbEntity
  8
0
100
AcDbBlockBegin
  2
FXTIP_ARROW_S
 70
     0
 71
     0
 10
0.0
 20
0.0
 30
0.0
  3
FXTIP_ARROW_S
  1

  0
LINE
  5
44
330
41
100
AcDbEntity
  8
0
  6
CONTINUOUS
 62
     0
100
AcDbLine
 10
0.0
 20
0.0
 30
0.0
 11
-1.0
 21
0.0
 31
0.0
  0
LINE
  5
45
330
41
100
AcDbEntity
  8
0
  6
CONTINUOUS
 62
     0
100
AcDbLine
 10
0.0
 20
0.0
 30
0.0
 11
-0.965926
 21
-0.258819
 31
0.0
  0
LINE
  5
46
330
41
100
AcDbEntity
  8
0
  6
CONTINUOUS
 62
     0
100
AcDbLine
 10
0.0
 20
0.0
 30
0.0
 11
-0.965926
 21
0.258819
 31
0.0
  0
ENDBLK
  5
43
330
41
100
AcDbEntity
  8
0
100
AcDbBlockEnd
  0
BLOCK
  5
48
330
47
100
AcDbEntity
  8
0
100
AcDbBlockBegin
  2
FXTIP_ARROW_E
 70
     0
 71
     0
 10
0.0
 20
0.0
 30
0.0
  3
FXTIP_ARROW_E
  1

  0
LINE
  5
4A
330
47
100
AcDbEntity
  8
0
  6
CONTINUOUS
 62
     0
100
AcDbLine
 10
0.0
 20
0.0
 30
0.0
 11
-1.0
 21
0.0
 31
0.0
  0
LINE
  5
4B
330
47
100
AcDbEntity
  8
0
  6
CONTINUOUS
 62
     0
100
AcDbLine
 10
0.0
 20
0.0
 30
0.0
 11
-0.965926
 21
0.258819
 31
0.0
  0
LINE
  5
4C
330
47
100
AcDbEntity
  8
0
  6
CONTINUOUS
 62
     0
100
AcDbLine
 10
0.0
 20
0.0
 30
0.0
 11
-0.965926
 21
-0.258819
 31
0.0
  0
ENDBLK
  5
49
330
47
100
AcDbEntity
  8
0
100
AcDbBlockEnd
  0
BLOCK
  5
4E
330
4D
100
AcDbEntity
  8
0
100
AcDbBlockBegin
  2
FXTIP_BLACKDOT_S
 70
     0
 71
     0
 10
0.0
 20
0.0
 30
0.0
  3
FXTIP_BLACKDOT_S
  1

  0
LINE
  5
50
330
4D
100
AcDbEntity
  8
0
  6
CONTINUOUS
 62
     0
100
AcDbLine
 10
0.0
 20
0.0
 30
0.0
 11
-1.0
 21
0.0
 31
0.0
  0
LWPOLYLINE
  5
51
330
4D
100
AcDbEntity
  8
0
  6
CONTINUOUS
 62
     0
100
AcDbPolyline
 90
        2
 70
     1
 10
-0.25
 20
0.0
 40
0.5
 41
0.5
 42
1.0
 10
0.25
 20
0.0
 40
0.5
 41
0.5
 42
1.0
  0
CIRCLE
  5
52
330
4D
100
AcDbEntity
  8
0
  6
CONTINUOUS
 62
     0
100
AcDbCircle
 10
0.0
 20
0.0
 30
0.0
 40
0.5
  0
ENDBLK
  5
4F
330
4D
100
AcDbEntity
  8
0
100
AcDbBlockEnd
  0
BLOCK
  5
54
330
53
100
AcDbEntity
  8
0
100
AcDbBlockBegin
  2
FXTIP_BLACKDOT_E
 70
     0
 71
     0
 10
0.0
 20
0.0
 30
0.0
  3
FXTIP_BLACKDOT_E
  1

  0
LINE
  5
56
330
53
100
AcDbEntity
  8
0
  6
CONTINUOUS
 62
     0
100
AcDbLine
 10
0.0
 20
0.0
 30
0.0
 11
-1.0
 21
0.0
 31
0.0
  0
LWPOLYLINE
  5
57
330
53
100
AcDbEntity
  8
0
  6
CONTINUOUS
 62
     0
100
AcDbPolyline
 90
        2
 70
     1
 10
-0.25
 20
0.0
 40
0.5
 41
0.5
 42
1.0
 10
0.25
 20
0.0
 40
0.5
 41
0.5
 42
1.0
  0
CIRCLE
  5
58
330
53
100
AcDbEntity
  8
0
  6
CONTINUOUS
 62
     0
100
AcDbCircle
 10
0.0
 20
0.0
 30
0.0
 40
0.5
  0
ENDBLK
  5
55
330
53
100
AcDbEntity
  8
0
100
AcDbBlockEnd
  0
BLOCK
  5
5A
330
59
100
AcDbEntity
  8
0
100
AcDbBlockBegin
  2
FXTIP_TRIANGLE_S
 70
     0
 71
     0
 10
0.0
 20
0.0
 30
0.0
  3
FXTIP_TRIANGLE_S
  1

  0
LINE
  5
5C
330
59
100
AcDbEntity
  8
0
  6
CONTINUOUS
 62
     0
100
AcDbLine
 10
0.0
 20
0.0
 30
0.0
 11
-1.0
 21
0.0
 31
0.0
  0
LINE
  5
5D
330
59
100
AcDbEntity
  8
0
  6
CONTINUOUS
 62
     0
100
AcDbLine
 10
0.0
 20
0.0
 30
0.0
 11
-0.965926
 21
-0.258819
 31
0.0
  0
LINE
  5
5E
330
59
100
AcDbEntity
  8
0
  6
CONTINUOUS
 62
     0
100
AcDbLine
 10
0.0
 20
0.0
 30
0.0
 11
-0.965926
 21
0.258819
 31
0.0
  0
LINE
  5
5F
330
59
100
AcDbEntity
  8
0
  6
CONTINUOUS
 62
     0
100
AcDbLine
 10
-0.965926
 20
-0.258819
 30
0.0
 11
-0.965926
 21
0.258819
 31
0.0
  0
ENDBLK
  5
5B
330
59
100
AcDbEntity
  8
0
100
AcDbBlockEnd
  0
BLOCK
  5
61
330
60
100
AcDbEntity
  8
0
100
AcDbBlockBegin
  2
FXTIP_TRIANGLE_E
 70
     0
 71
     0
 10
0.0
 20
0.0
 30
0.0
  3
FXTIP_TRIANGLE_E
  1

  0
LINE
  5
63
330
60
100
AcDbEntity
  8
0
  6
CONTINUOUS
 62
     0
100
AcDbLine
 10
0.0
 20
0.0
 30
0.0
 11
-1.0
 21
0.0
 31
0.0
  0
LINE
  5
64
330
60
100
AcDbEntity
  8
0
  6
CONTINUOUS
 62
     0
100
AcDbLine
 10
0.0
 20
0.0
 30
0.0
 11
-0.965926
 21
0.258819
 31
0.0
  0
LINE
  5
65
330
60
100
AcDbEntity
  8
0
  6
CONTINUOUS
 62
     0
100
AcDbLine
 10
0.0
 20
0.0
 30
0.0
 11
-0.965926
 21
-0.258819
 31
0.0
  0
LINE
  5
66
330
60
100
AcDbEntity
  8
0
  6
CONTINUOUS
 62
     0
100
AcDbLine
 10
-0.965926
 20
0.258819
 30
0.0
 11
-0.965926
 21
-0.258819
 31
0.0
  0
ENDBLK
  5
62
330
60
100
AcDbEntity
  8
0
100
AcDbBlockEnd
  0
BLOCK
  5
68
330
67
100
AcDbEntity
  8
0
100
AcDbBlockBegin
  2
FXTIP_ARCHITECT_S
 70
     0
 71
     0
 10
0.0
 20
0.0
 30
0.0
  3
FXTIP_ARCHITECT_S
  1

  0
LINE
  5
6A
330
67
100
AcDbEntity
  8
0
  6
CONTINUOUS
 62
     0
100
AcDbLine
 10
0.0
 20
0.0
 30
0.0
 11
-1.0
 21
0.0
 31
0.0
  0
LINE
  5
6B
330
67
100
AcDbEntity
  8
0
  6
CONTINUOUS
 62
     0
100
AcDbLine
 10
0.0
 20
0.0
 30
0.0
 11
-0.707107
 21
-0.707107
 31
0.0
  0
LINE
  5
6C
330
67
100
AcDbEntity
  8
0
  6
CONTINUOUS
 62
     0
100
AcDbLine
 10
0.0
 20
0.0
 30
0.0
 11
0.707107
 21
0.707107
 31
0.0
  0
ENDBLK
  5
69
330
67
100
AcDbEntity
  8
0
100
AcDbBlockEnd
  0
BLOCK
  5
6E
330
6D
100
AcDbEntity
  8
0
100
AcDbBlockBegin
  2
FXTIP_ARCHITECT_E
 70
     0
 71
     0
 10
0.0
 20
0.0
 30
0.0
  3
FXTIP_ARCHITECT_E
  1

  0
LINE
  5
70
330
6D
100
AcDbEntity
  8
0
  6
CONTINUOUS
 62
     0
100
AcDbLine
 10
0.0
 20
0.0
 30
0.0
 11
-1.0
 21
0.0
 31
0.0
  0
LINE
  5
71
330
6D
100
AcDbEntity
  8
0
  6
CONTINUOUS
 62
     0
100
AcDbLine
 10
0.0
 20
0.0
 30
0.0
 11
0.707107
 21
0.707107
 31
0.0
  0
LINE
  5
72
330
6D
100
AcDbEntity
  8
0
  6
CONTINUOUS
 62
     0
100
AcDbLine
 10
0.0
 20
0.0
 30
0.0
 11
-0.707107
 21
-0.707107
 31
0.0
  0
ENDBLK
  5
6F
330
6D
100
AcDbEntity
  8
0
100
AcDbBlockEnd
  0
BLOCK
  5
74
330
73
100
AcDbEntity
  8
0
100
AcDbBlockBegin
  2
FXTIP_CIVIL_S
 70
     0
 71
     0
 10
0.0
 20
0.0
 30
0.0
  3
FXTIP_CIVIL_S
  1

  0
LINE
  5
76
330
73
100
AcDbEntity
  8
0
  6
CONTINUOUS
 62
     0
100
AcDbLine
 10
0.0
 20
0.0
 30
0.0
 11
-1.0
 21
0.0
 31
0.0
  0
LINE
  5
77
330
73
100
AcDbEntity
  8
0
  6
CONTINUOUS
 62
     0
100
AcDbLine
 10
0.0
 20
-0.0625
 30
0.0
 11
-1.0
 21
-0.0625
 31
0.0
  0
LINE
  5
78
330
73
100
AcDbEntity
  8
0
  6
CONTINUOUS
 62
     0
100
AcDbLine
 10
0.0
 20
-0.125
 30
0.0
 11
-1.0
 21
-0.125
 31
0.0
  0
ENDBLK
  5
75
330
73
100
AcDbEntity
  8
0
100
AcDbBlockEnd
  0
BLOCK
  5
7A
330
79
100
AcDbEntity
  8
0
100
AcDbBlockBegin
  2
FXTIP_CIVIL_E
 70
     0
 71
     0
 10
0.0
 20
0.0
 30
0.0
  3
FXTIP_CIVIL_E
  1

  0
LINE
  5
7C
330
79
100
AcDbEntity
  8
0
  6
CONTINUOUS
 62
     0
100
AcDbLine
 10
0.0
 20
0.0
 30
0.0
 11
-1.0
 21
0.0
 31
0.0
  0
LINE
  5
7D
330
79
100
AcDbEntity
  8
0
  6
CONTINUOUS
 62
     0
100
AcDbLine
 10
0.0
 20
0.0625
 30
0.0
 11
-1.0
 21
0.0625
 31
0.0
  0
LINE
  5
7E
330
79
100
AcDbEntity
  8
0
  6
CONTINUOUS
 62
     0
100
AcDbLine
 10
0.0
 20
0.125
 30
0.0
 11
-1.0
 21
0.125
 31
0.0
  0
ENDBLK
  5
7B
330
79
100
AcDbEntity
  8
0
100
AcDbBlockEnd
  0
BLOCK
  5
80
330
7F
100
AcDbEntity
  8
0
100
AcDbBlockBegin
  2
FXTIP_WHITEDOT_S
 70
     0
 71
     0
 10
0.0
 20
0.0
 30
0.0
  3
FXTIP_WHITEDOT_S
  1

  0
LINE
  5
82
330
7F
100
AcDbEntity
  8
0
  6
CONTINUOUS
 62
     0
100
AcDbLine
 10
0.0
 20
0.0
 30
0.0
 11
-1.0
 21
0.0
 31
0.0
  0
CIRCLE
  5
83
330
7F
100
AcDbEntity
  8
0
  6
CONTINUOUS
 62
     0
100
AcDbCircle
 10
0.0
 20
0.0
 30
0.0
 40
0.5
  0
ENDBLK
  5
81
330
7F
100
AcDbEntity
  8
0
100
AcDbBlockEnd
  0
BLOCK
  5
85
330
84
100
AcDbEntity
  8
0
100
AcDbBlockBegin
  2
FXTIP_WHITEDOT_E
 70
     0
 71
     0
 10
0.0
 20
0.0
 30
0.0
  3
FXTIP_WHITEDOT_E
  1

  0
LINE
  5
87
330
84
100
AcDbEntity
  8
0
  6
CONTINUOUS
 62
     0
100
AcDbLine
 10
0.0
 20
0.0
 30
0.0
 11
-1.0
 21
0.0
 31
0.0
  0
CIRCLE
  5
88
330
84
100
AcDbEntity
  8
0
  6
CONTINUOUS
 62
     0
100
AcDbCircle
 10
0.0
 20
0.0
 30
0.0
 40
0.5
  0
ENDBLK
  5
86
330
84
100
AcDbEntity
  8
0
100
AcDbBlockEnd
  0
BLOCK
  5
8A
330
89
100
AcDbEntity
  8
0
100
AcDbBlockBegin
  2
FXTIP_UPARROW_S
 70
     0
 71
     0
 10
0.0
 20
0.0
 30
0.0
  3
FXTIP_UPARROW_S
  1

  0
LINE
  5
8C
330
89
100
AcDbEntity
  8
0
  6
CONTINUOUS
 62
     0
100
AcDbLine
 10
0.0
 20
0.0
 30
0.0
 11
-1.0
 21
0.0
 31
0.0
  0
LINE
  5
8D
330
89
100
AcDbEntity
  8
0
  6
CONTINUOUS
 62
     0
100
AcDbLine
 10
0.0
 20
0.0
 30
0.0
 11
-0.965926
 21
-0.258819
 31
0.0
  0
ENDBLK
  5
8B
330
89
100
AcDbEntity
  8
0
100
AcDbBlockEnd
  0
BLOCK
  5
8F
330
8E
100
AcDbEntity
  8
0
100
AcDbBlockBegin
  2
FXTIP_UPARROW_E
 70
     0
 71
     0
 10
0.0
 20
0.0
 30
0.0
  3
FXTIP_UPARROW_E
  1

  0
LINE
  5
91
330
8E
100
AcDbEntity
  8
0
  6
CONTINUOUS
 62
     0
100
AcDbLine
 10
0.0
 20
0.0
 30
0.0
 11
-1.0
 21
0.0
 31
0.0
  0
LINE
  5
92
330
8E
100
AcDbEntity
  8
0
  6
CONTINUOUS
 62
     0
100
AcDbLine
 10
0.0
 20
0.0
 30
0.0
 11
-0.965926
 21
0.258819
 31
0.0
  0
ENDBLK
  5
90
330
8E
100
AcDbEntity
  8
0
100
AcDbBlockEnd
  0
BLOCK
  5
94
330
93
100
AcDbEntity
  8
0
100
AcDbBlockBegin
  2
FXTIP_DOWNARROW_S
 70
     0
 71
     0
 10
0.0
 20
0.0
 30
0.0
  3
FXTIP_DOWNARROW_S
  1

  0
LINE
  5
96
330
93
100
AcDbEntity
  8
0
  6
CONTINUOUS
 62
     0
100
AcDbLine
 10
0.0
 20
0.0
 30
0.0
 11
-1.0
 21
0.0
 31
0.0
  0
LINE
  5
97
330
93
100
AcDbEntity
  8
0
  6
CONTINUOUS
 62
     0
100
AcDbLine
 10
0.0
 20
0.0
 30
0.0
 11
-0.965926
 21
0.258819
 31
0.0
  0
ENDBLK
  5
95
330
93
100
AcDbEntity
  8
0
100
AcDbBlockEnd
  0
BLOCK
  5
99
330
98
100
AcDbEntity
  8
0
100
AcDbBlockBegin
  2
FXTIP_DOWNARROW_E
 70
     0
 71
     0
 10
0.0
 20
0.0
 30
0.0
  3
FXTIP_DOWNARROW_E
  1

  0
LINE
  5
9B
330
98
100
AcDbEntity
  8
0
  6
CONTINUOUS
 62
     0
100
AcDbLine
 10
0.0
 20
0.0
 30
0.0
 11
-1.0
 21
0.0
 31
0.0
  0
LINE
  5
9C
330
98
100
AcDbEntity
  8
0
  6
CONTINUOUS
 62
     0
100
AcDbLine
 10
0.0
 20
0.0
 30
0.0
 11
-0.965926
 21
-0.258819
 31
0.0
  0
ENDBLK
  5
9A
330
98
100
AcDbEntity
  8
0
100
AcDbBlockEnd
  0
BLOCK
  5
9E
330
9D
100
AcDbEntity
  8
0
100
AcDbBlockBegin
  2
FXTIP_BLACKTRIANGLE_S
 70
     0
 71
     0
 10
0.0
 20
0.0
 30
0.0
  3
FXTIP_BLACKTRIANGLE_S
  1

  0
LINE
  5
A0
330
9D
100
AcDbEntity
  8
0
  6
CONTINUOUS
 62
     0
100
AcDbLine
 10
0.0
 20
0.0
 30
0.0
 11
-1.0
 21
0.0
 31
0.0
  0
SOLID
  5
A1
330
9D
100
AcDbEntity
  8
0
  6
CONTINUOUS
 62
     0
100
AcDbTrace
 10
0.0
 20
0.0
 30
0.0
 11
-0.965926
 21
-0.258819
 31
0.0
 12
-0.965926
 22
0.258819
 32
0.0
 13
-0.965926
 23
0.258819
 33
0.0
  0
ENDBLK
  5
9F
330
9D
100
AcDbEntity
  8
0
100
AcDbBlockEnd
  0
BLOCK
  5
A3
330
A2
100
AcDbEntity
  8
0
100
AcDbBlockBegin
  2
FXTIP_BLACKTRIANGLE_E
 70
     0
 71
     0
 10
0.0
 20
0.0
 30
0.0
  3
FXTIP_BLACKTRIANGLE_E
  1

  0
LINE
  5
A5
330
A2
100
AcDbEntity
  8
0
  6
CONTINUOUS
 62
     0
100
AcDbLine
 10
0.0
 20
0.0
 30
0.0
 11
-1.0
 21
0.0
 31
0.0
  0
SOLID
  5
A6
330
A2
100
AcDbEntity
  8
0
  6
CONTINUOUS
 62
     0
100
AcDbTrace
 10
0.0
 20
0.0
 30
0.0
 11
-0.965926
 21
0.258819
 31
0.0
 12
-0.965926
 22
-0.258819
 32
0.0
 13
-0.965926
 23
-0.258819
 33
0.0
  0
ENDBLK
  5
A4
330
A2
100
AcDbEntity
  8
0
100
AcDbBlockEnd
  0
BLOCK
  5
A9
330
A8
100
AcDbEntity
  8
0
100
AcDbBlockBegin
  2
BLKF021
 70
     0
 71
     0
 10
0.0
 20
0.0
 30
0.0
  3
BLKF021
  1

  0
LINE
  5
AC
330
A8
100
AcDbEntity
  8
}}ﾊﾊGG血CCТ
  6
CONTINUOUS
 62
     7
100
AcDbLine
 10
10.0
 20
10.0
 30
0.0
 11
410.0
 21
10.0
 31
0.0
  0
LINE
  5
AD
330
A8
100
AcDbEntity
  8
}}ﾊﾊGG血CCТ
  6
CONTINUOUS
 62
     7
100
AcDbLine
 10
10.0
 20
10.0
 30
0.0
 11
10.0
 21
287.0
 31
0.0
  0
LINE
  5
AE
330
A8
100
AcDbEntity
  8
}}ﾊﾊGG血CCТ
  6
CONTINUOUS
 62
     7
100
AcDbLine
 10
10.0
 20
287.0
 30
0.0
 11
410.0
 21
287.0
 31
0.0
  0
LINE
  5
AF
330
A8
100
AcDbEntity
  8
}}ﾊﾊGG血CCТ
  6
CONTINUOUS
 62
     7
100
AcDbLine
 10
410.0
 20
287.0
 30
0.0
 11
410.0
 21
10.0
 31
0.0
  0
LINE
  5
B0
330
A8
100
AcDbEntity
  8
}}ﾊﾊGG血CCТ
  6
CONTINUOUS
 62
     7
100
AcDbLine
 10
153.0
 20
10.0
 30
0.0
 11
153.0
 21
20.0
 31
0.0
  0
TEXT
  5
B1
330
A8
100
AcDbEntity
  8
}}ﾊﾊGG血CCТ
  6
CONTINUOUS
 62
     7
100
AcDbText
 10
137.738815
 20
11.596879
 30
0.0
 40
6.648749
  1
品名
 41
1.083413
  7
FX_VECTOR
 72
     5
 11
149.058355
 21
11.596879
 31
0.0
100
AcDbText
  0
LINE
  5
B2
330
A8
100
AcDbEntity
  8
}}ﾊﾊGG血CCТ
  6
CONTINUOUS
 62
     7
100
AcDbLine
 10
233.0
 20
20.0
 30
0.0
 11
233.0
 21
10.0
 31
0.0
  0
LINE
  5
B3
330
A8
100
AcDbEntity
  8
}}ﾊﾊGG血CCТ
  6
CONTINUOUS
 62
     7
100
AcDbLine
 10
133.0
 20
20.0
 30
0.0
 11
410.0
 21
20.0
 31
0.0
  0
INSERT
  5
B7
330
A8
100
AcDbEntity
  8
0
100
AcDbBlockReference
  2
BLKF022
 10
0.0
 20
0.0
 30
0.0
  0
INSERT
  5
C0
330
A8
100
AcDbEntity
  8
0
100
AcDbBlockReference
  2
BLKF023
 10
0.0
 20
0.0
 30
0.0
  0
HATCH
  5
D1
330
A8
100
AcDbEntity
  8
GR1-1
  6
CONTINUOUS
 62
     7
100
AcDbHatch
 10
0.0
 20
0.0
 30
0.0
210
0.0
220
0.0
230
1.0
  2

 70
     0
 71
     1
 91
        2
 92
        0
 93
        4
 72
     1
 10
338.8018997861325
 20
17.91346152
 11
344.8018997861325
 21
17.91346152
 72
     1
 10
344.8018997861325
 20
17.91346152
 11
344.8018997861325
 21
11.91346152
 72
     1
 10
344.8018997861325
 20
11.91346152
 11
338.8018997861325
 21
11.91346152
 72
     1
 10
338.8018997861325
 20
11.91346152
 11
338.8018997861325
 21
17.91346152
 97
        0
 92
        0
 93
       15
 72
     1
 10
341.8018997861325
 20
17.76923076000002
 11
338.9461305461325
 21
14.91346152
 72
     1
 10
338.9461305461325
 20
14.91346152
 11
341.8018997861325
 21
12.05769228000001
 72
     1
 10
341.8018997861325
 20
12.05769228000001
 11
343.3595920661325
 21
13.61538462
 72
     1
 10
343.3595920661325
 20
13.61538462
 11
343.3595920661325
 21
12.98076924
 72
     1
 10
343.3595920661325
 20
12.98076924
 11
344.2249766861325
 21
12.98076924
 72
     1
 10
344.2249766861325
 20
12.98076924
 11
344.2249766861325
 21
15.00000000000001
 72
     1
 10
344.2249766861325
 20
15.00000000000001
 11
341.8018997861325
 21
15.00000000000001
 72
     1
 10
341.8018997861325
 20
15.00000000000001
 11
341.8018997861325
 21
14.13461538000001
 72
     1
 10
341.8018997861325
 20
14.13461538000001
 11
342.2461305461325
 21
14.13461538000001
 72
     1
 10
342.2461305461325
 20
14.13461538000001
 11
341.8018997861325
 21
13.69038462
 72
     1
 10
341.8018997861325
 20
13.69038462
 11
340.5788228861325
 21
14.91346152
 72
     1
 10
340.5788228861325
 20
14.91346152
 11
341.8018997861325
 21
16.13653842000003
 72
     1
 10
341.8018997861325
 20
16.13653842000003
 11
342.5922844061325
 21
15.3461538
 72
     1
 10
342.5922844061325
 20
15.3461538
 11
344.2249766861325
 21
15.3461538
 72
     1
 10
344.2249766861325
 20
15.3461538
 11
341.8018997861325
 21
17.76923076000002
 97
        0
 75
     0
 76
     0
 52
45.0
 41
0.05
 77
     0
 78
     1
 53
45.0
 43
0.0
 44
0.0
 45
-0.0353553390593274
 46
0.0353553390593274
 79
     0
 98
        0
  0
TEXT
  5
D2
330
A8
100
AcDbEntity
  8
}}ﾊﾊGG血CCТ
  6
CONTINUOUS
 62
     7
100
AcDbText
 10
349.225769
 20
11.461285
 30
0.0
 40
7.170908
  1
GOLD CASTER
 41
0.63978
  7
FX_VECTOR
 72
     5
 11
395.977636
 21
11.461285
 31
0.0
100
AcDbText
  0
LINE
  5
D3
330
A8
100
AcDbEntity
  8
}}ﾊﾊGG血CCТ
  6
CONTINUOUS
 62
     7
100
AcDbLine
 10
253.0
 20
10.0
 30
0.0
 11
253.0
 21
20.0
 31
0.0
  0
TEXT
  5
D4
330
A8
100
AcDbEntity
  8
}}ﾊﾊGG血CCТ
  6
CONTINUOUS
 62
     7
100
AcDbText
 10
237.738815
 20
11.596879
 30
0.0
 40
6.648749
  1
図番
 41
1.083413
  7
FX_VECTOR
 72
     5
 11
249.058355
 21
11.596879
 31
0.0
100
AcDbText
  0
LINE
  5
D5
330
A8
100
AcDbEntity
  8
}}ﾊﾊGG血CCТ
  6
CONTINUOUS
 62
     7
100
AcDbLine
 10
333.0
 20
20.0
 30
0.0
 11
333.0
 21
10.0
 31
0.0
  0
LINE
  5
D6
330
A8
100
AcDbEntity
  8
}}ﾊﾊGG血CCТ
  6
CONTINUOUS
 62
     7
100
AcDbLine
 10
133.0
 20
20.0
 30
0.0
 11
133.0
 21
10.0
 31
0.0
  0
ENDBLK
  5
AA
330
A8
100
AcDbEntity
  8
0
100
AcDbBlockEnd
  0
BLOCK
  5
B5
330
B4
100
AcDbEntity
  8
0
100
AcDbBlockBegin
  2
BLKF022
 70
     0
 71
     0
 10
0.0
 20
0.0
 30
0.0
  3
BLKF022
  1

  0
LINE
  5
B9
330
B4
100
AcDbEntity
  8
0-1
  6
CONTINUOUS
 62
     7
100
AcDbLine
 10
344.8019
 20
17.913462
 30
0.0
 11
338.8019
 21
17.913462
 31
0.0
  0
LINE
  5
BA
330
B4
100
AcDbEntity
  8
0-1
  6
CONTINUOUS
 62
     7
100
AcDbLine
 10
338.8019
 20
17.913462
 30
0.0
 11
338.8019
 21
11.913462
 31
0.0
  0
LINE
  5
BB
330
B4
100
AcDbEntity
  8
0-1
  6
CONTINUOUS
 62
     7
100
AcDbLine
 10
338.8019
 20
11.913462
 30
0.0
 11
344.8019
 21
11.913462
 31
0.0
  0
LINE
  5
BC
330
B4
100
AcDbEntity
  8
0-1
  6
CONTINUOUS
 62
     7
100
AcDbLine
 10
344.8019
 20
11.913462
 30
0.0
 11
344.8019
 21
17.913462
 31
0.0
  0
ENDBLK
  5
B6
330
B4
100
AcDbEntity
  8
0
100
AcDbBlockEnd
  0
BLOCK
  5
BE
330
BD
100
AcDbEntity
  8
0
100
AcDbBlockBegin
  2
BLKF023
 70
     0
 71
     0
 10
0.0
 20
0.0
 30
0.0
  3
BLKF023
  1

  0
LINE
  5
C1
330
BD
100
AcDbEntity
  8
0-1
  6
CONTINUOUS
 62
     7
100
AcDbLine
 10
344.224977
 20
15.346154
 30
0.0
 11
341.8019
 21
17.769231
 31
0.0
  0
LINE
  5
C2
330
BD
100
AcDbEntity
  8
0-1
  6
CONTINUOUS
 62
     7
100
AcDbLine
 10
341.8019
 20
17.769231
 30
0.0
 11
338.946131
 21
14.913462
 31
0.0
  0
LINE
  5
C3
330
BD
100
AcDbEntity
  8
0-1
  6
CONTINUOUS
 62
     7
100
AcDbLine
 10
338.946131
 20
14.913462
 30
0.0
 11
341.8019
 21
12.057692
 31
0.0
  0
LINE
  5
C4
330
BD
100
AcDbEntity
  8
0-1
  6
CONTINUOUS
 62
     7
100
AcDbLine
 10
341.8019
 20
12.057692
 30
0.0
 11
343.359592
 21
13.615385
 31
0.0
  0
LINE
  5
C5
330
BD
100
AcDbEntity
  8
0-1
  6
CONTINUOUS
 62
     7
100
AcDbLine
 10
343.359592
 20
13.615385
 30
0.0
 11
343.359592
 21
12.980769
 31
0.0
  0
LINE
  5
C6
330
BD
100
AcDbEntity
  8
0-1
  6
CONTINUOUS
 62
     7
100
AcDbLine
 10
343.359592
 20
12.980769
 30
0.0
 11
344.224977
 21
12.980769
 31
0.0
  0
LINE
  5
C7
330
BD
100
AcDbEntity
  8
0-1
  6
CONTINUOUS
 62
     7
100
AcDbLine
 10
344.224977
 20
12.980769
 30
0.0
 11
344.224977
 21
15.0
 31
0.0
  0
LINE
  5
C8
330
BD
100
AcDbEntity
  8
0-1
  6
CONTINUOUS
 62
     7
100
AcDbLine
 10
344.224977
 20
15.0
 30
0.0
 11
341.8019
 21
15.0
 31
0.0
  0
LINE
  5
C9
330
BD
100
AcDbEntity
  8
0-1
  6
CONTINUOUS
 62
     7
100
AcDbLine
 10
341.8019
 20
15.0
 30
0.0
 11
341.8019
 21
14.134615
 31
0.0
  0
LINE
  5
CA
330
BD
100
AcDbEntity
  8
0-1
  6
CONTINUOUS
 62
     7
100
AcDbLine
 10
341.8019
 20
14.134615
 30
0.0
 11
342.246131
 21
14.134615
 31
0.0
  0
LINE
  5
CB
330
BD
100
AcDbEntity
  8
0-1
  6
CONTINUOUS
 62
     7
100
AcDbLine
 10
342.246131
 20
14.134615
 30
0.0
 11
341.8019
 21
13.690385
 31
0.0
  0
LINE
  5
CC
330
BD
100
AcDbEntity
  8
0-1
  6
CONTINUOUS
 62
     7
100
AcDbLine
 10
341.8019
 20
13.690385
 30
0.0
 11
340.578823
 21
14.913462
 31
0.0
  0
LINE
  5
CD
330
BD
100
AcDbEntity
  8
0-1
  6
CONTINUOUS
 62
     7
100
AcDbLine
 10
340.578823
 20
14.913462
 30
0.0
 11
341.8019
 21
16.136538
 31
0.0
  0
LINE
  5
CE
330
BD
100
AcDbEntity
  8
0-1
  6
CONTINUOUS
 62
     7
100
AcDbLine
 10
341.8019
 20
16.136538
 30
0.0
 11
342.592284
 21
15.346154
 31
0.0
  0
LINE
  5
CF
330
BD
100
AcDbEntity
  8
0-1
  6
CONTINUOUS
 62
     7
100
AcDbLine
 10
342.592284
 20
15.346154
 30
0.0
 11
344.224977
 21
15.346154
 31
0.0
  0
ENDBLK
  5
BF
330
BD
100
AcDbEntity
  8
0
100
AcDbBlockEnd
  0
BLOCK
  5
125
330
124
100
AcDbEntity
  8
0
100
AcDbBlockBegin
  2
*D22
 70
     1
 71
     0
 10
0.0
 20
0.0
 30
0.0
  3
*D22
  1

  0
TEXT
  5
127
330
124
100
AcDbEntity
  8
LAYERGROUP-1
  6
CONTINUOUS
 62
     7
100
AcDbText
 10
235.362061
 20
31.675903
 30
0.0
 40
4.0
  1
30
 41
0.851351
  7
FX_VECTOR
 72
     5
 11
241.362061
 21
31.675903
 31
0.0
100
AcDbText
  0
LINE
  5
128
330
124
100
AcDbEntity
  8
LAYERGROUP-1
  6
CONTINUOUS
 62
     7
100
AcDbLine
 10
223.362069
 20
30.675894
 30
0.0
 11
253.362069
 21
30.675894
 31
0.0
  0
INSERT
  5
129
330
124
100
AcDbEntity
  8
LAYERGROUP-1
  6
CONTINUOUS
 62
     7
100
AcDbBlockReference
  2
FXTIP_ARROW_S
 10
223.362069
 20
30.675894
 30
0.0
 41
4.0
 42
4.0
 50
180.0
  0
INSERT
  5
12A
330
124
100
AcDbEntity
  8
LAYERGROUP-1
  6
CONTINUOUS
 62
     7
100
AcDbBlockReference
  2
FXTIP_ARROW_E
 10
253.362069
 20
30.675894
 30
0.0
 41
4.0
 42
4.0
 50
360.0
  0
LINE
  5
12B
330
124
100
AcDbEntity
  8
LAYERGROUP-1
  6
CONTINUOUS
 62
     7
100
AcDbLine
 10
223.362069
 20
36.634863
 30
0.0
 11
223.362069
 21
29.675894
 31
0.0
  0
LINE
  5
12C
330
124
100
AcDbEntity
  8
LAYERGROUP-1
  6
CONTINUOUS
 62
     7
100
AcDbLine
 10
253.362069
 20
113.261417
 30
0.0
 11
253.362069
 21
29.675894
 31
0.0
  0
ENDBLK
  5
126
330
124
100
AcDbEntity
  8
0
100
AcDbBlockEnd
  0
BLOCK
  5
12F
330
12E
100
AcDbEntity
  8
0
100
AcDbBlockBegin
  2
*D23
 70
     1
 71
     0
 10
0.0
 20
0.0
 30
0.0
  3
*D23
  1

  0
TEXT
  5
131
330
12E
100
AcDbEntity
  8
LAYERGROUP-1
  6
CONTINUOUS
 62
     7
100
AcDbText
 10
322.362061
 20
97.437607
 30
0.0
 40
4.0
  1
122
 50
90.0
 41
0.828947
  7
FX_VECTOR
 72
     5
 11
322.362061
 21
106.437607
 31
0.0
100
AcDbText
  0
LINE
  5
132
330
12E
100
AcDbEntity
  8
LAYERGROUP-1
  6
CONTINUOUS
 62
     7
100
AcDbLine
 10
323.362069
 20
40.937609
 30
0.0
 11
323.362069
 21
162.937609
 31
0.0
  0
INSERT
  5
133
330
12E
100
AcDbEntity
  8
LAYERGROUP-1
  6
CONTINUOUS
 62
     7
100
AcDbBlockReference
  2
FXTIP_ARROW_S
 10
323.362069
 20
40.937609
 30
0.0
 41
4.0
 42
4.0
 50
270.0
  0
INSERT
  5
134
330
12E
100
AcDbEntity
  8
LAYERGROUP-1
  6
CONTINUOUS
 62
     7
100
AcDbBlockReference
  2
FXTIP_ARROW_E
 10
323.362069
 20
162.937609
 30
0.0
 41
4.0
 42
4.0
 50
90.0
  0
LINE
  5
135
330
12E
100
AcDbEntity
  8
LAYERGROUP-1
  6
CONTINUOUS
 62
     7
100
AcDbLine
 10
224.362069
 20
40.937609
 30
0.0
 11
324.362069
 21
40.937609
 31
0.0
  0
LINE
  5
136
330
12E
100
AcDbEntity
  8
LAYERGROUP-1
  6
CONTINUOUS
 62
     7
100
AcDbLine
 10
304.362069
 20
162.937609
 30
0.0
 11
324.362069
 21
162.937609
 31
0.0
  0
ENDBLK
  5
130
330
12E
100
AcDbEntity
  8
0
100
AcDbBlockEnd
  0
BLOCK
  5
139
330
138
100
AcDbEntity
  8
0
100
AcDbBlockBegin
  2
*D24
 70
     1
 71
     0
 10
0.0
 20
0.0
 30
0.0
  3
*D24
  1

  0
TEXT
  5
13B
330
138
100
AcDbEntity
  8
LAYERGROUP-1
  6
CONTINUOUS
 62
     7
100
AcDbText
 10
312.362061
 20
123.937607
 30
0.0
 40
4.0
  1
72
 50
90.0
 41
0.851351
  7
FX_VECTOR
 72
     5
 11
312.362061
 21
129.937607
 31
0.0
100
AcDbText
  0
LINE
  5
13C
330
138
100
AcDbEntity
  8
LAYERGROUP-1
  6
CONTINUOUS
 62
     7
100
AcDbLine
 10
313.362069
 20
90.937609
 30
0.0
 11
313.362069
 21
162.937609
 31
0.0
  0
INSERT
  5
13D
330
138
100
AcDbEntity
  8
LAYERGROUP-1
  6
CONTINUOUS
 62
     7
100
AcDbBlockReference
  2
FXTIP_ARROW_S
 10
313.362069
 20
90.937609
 30
0.0
 41
4.0
 42
4.0
 50
270.0
  0
INSERT
  5
13E
330
138
100
AcDbEntity
  8
LAYERGROUP-1
  6
CONTINUOUS
 62
     7
100
AcDbBlockReference
  2
FXTIP_ARROW_E
 10
313.362069
 20
162.937609
 30
0.0
 41
4.0
 42
4.0
 50
90.0
  0
LINE
  5
13F
330
138
100
AcDbEntity
  8
LAYERGROUP-1
  6
CONTINUOUS
 62
     7
100
AcDbLine
 10
277.45977
 20
90.937609
 30
0.0
 11
314.362069
 21
90.937609
 31
0.0
  0
ENDBLK
  5
13A
330
138
100
AcDbEntity
  8
0
100
AcDbBlockEnd
  0
BLOCK
  5
142
330
141
100
AcDbEntity
  8
0
100
AcDbBlockBegin
  2
*D25
 70
     1
 71
     0
 10
0.0
 20
0.0
 30
0.0
  3
*D25
  1

  0
TEXT
  5
144
330
141
100
AcDbEntity
  8
LAYERGROUP-1
  6
CONTINUOUS
 62
     7
100
AcDbText
 10
88.350868
 20
84.937607
 30
0.0
 40
4.0
  1
%%c100
 50
90.0
 41
0.828947
  7
FX_VECTOR
 72
     5
 11
88.350868
 21
96.937607
 31
0.0
100
AcDbText
  0
LINE
  5
145
330
141
100
AcDbEntity
  8
LAYERGROUP-1
  6
CONTINUOUS
 62
     7
100
AcDbLine
 10
89.350875
 20
40.937609
 30
0.0
 11
89.350875
 21
140.937609
 31
0.0
  0
INSERT
  5
146
330
141
100
AcDbEntity
  8
LAYERGROUP-1
  6
CONTINUOUS
 62
     7
100
AcDbBlockReference
  2
FXTIP_ARROW_S
 10
89.350875
 20
40.937609
 30
0.0
 41
4.0
 42
4.0
 50
270.0
  0
INSERT
  5
147
330
141
100
AcDbEntity
  8
LAYERGROUP-1
  6
CONTINUOUS
 62
     7
100
AcDbBlockReference
  2
FXTIP_ARROW_E
 10
89.350875
 20
140.937609
 30
0.0
 41
4.0
 42
4.0
 50
90.0
  0
LINE
  5
148
330
141
100
AcDbEntity
  8
LAYERGROUP-1
  6
CONTINUOUS
 62
     7
100
AcDbLine
 10
120.153091
 20
40.937609
 30
0.0
 11
88.350875
 21
40.937609
 31
0.0
  0
LINE
  5
149
330
141
100
AcDbEntity
  8
LAYERGROUP-1
  6
CONTINUOUS
 62
     7
100
AcDbLine
 10
120.153091
 20
140.937609
 30
0.0
 11
88.350875
 21
140.937609
 31
0.0
  0
ENDBLK
  5
143
330
141
100
AcDbEntity
  8
0
100
AcDbBlockEnd
  0
BLOCK
  5
14B
330
14A
100
AcDbEntity
  8
0
100
AcDbBlockBegin
  2
BLKF028
 70
     0
 71
     0
 10
0.0
 20
0.0
 30
0.0
  3
BLKF028
  1

  0
LINE
  5
14E
330
14A
100
AcDbEntity
  8
GR1-1
  6
CONTINUOUS
 62
     3
100
AcDbLine
 10
184.087134
 20
122.786821
 30
0.0
 11
208.576486
 21
109.212151
 31
0.0
  0
ARC
  5
14F
330
14A
100
AcDbEntity
  8
GR1-1
  6
CONTINUOUS
 62
     3
100
AcDbCircle
 10
208.723257
 20
109.685944
 30
0.0
 40
0.4960057236987396
100
AcDbArc
 50
252.788152
 51
303.196314
  0
LINE
  5
150
330
14A
100
AcDbEntity
  8
GR1-1
  6
CONTINUOUS
 62
     3
100
AcDbLine
 10
208.576486
 20
109.212151
 30
0.0
 11
209.691548
 21
111.223776
 31
0.0
  0
LINE
  5
151
330
14A
100
AcDbEntity
  8
GR1-1
  6
CONTINUOUS
 62
     3
100
AcDbLine
 10
209.691548
 20
111.223776
 30
0.0
 11
185.202197
 21
124.798446
 31
0.0
  0
LINE
  5
152
330
14A
100
AcDbEntity
  8
GR1-1
  6
CONTINUOUS
 62
     3
100
AcDbLine
 10
185.202197
 20
124.798446
 30
0.0
 11
184.087134
 21
122.786821
 31
0.0
  0
ARC
  5
153
330
14A
100
AcDbEntity
  8
GR1-1
  6
CONTINUOUS
 62
     3
100
AcDbCircle
 10
197.117197
 20
116.569331
 30
0.0
 40
12.0
100
AcDbArc
 50
155.201451
 51
230.0
  0
LINE
  5
154
330
14A
100
AcDbEntity
  8
GR1-1
  6
CONTINUOUS
 62
     3
100
AcDbLine
 10
189.403746
 20
107.376798
 30
0.0
 11
192.613691
 21
104.683334
 31
0.0
  0
ARC
  5
155
330
14A
100
AcDbEntity
  8
GR1-1
  6
CONTINUOUS
 62
     3
100
AcDbCircle
 10
204.591236
 20
105.417106
 30
0.0
 40
12.0
100
AcDbArc
 50
183.50569
 51
260.0
  0
LINE
  5
156
330
14A
100
AcDbEntity
  8
GR1-1
  6
CONTINUOUS
 62
     3
100
AcDbLine
 10
202.507458
 20
93.599413
 30
0.0
 11
204.11114
 21
93.316641
 31
0.0
  0
ARC
  5
157
330
14A
100
AcDbEntity
  8
GR1-1
  6
CONTINUOUS
 62
     3
100
AcDbCircle
 10
203.937492
 20
92.331833
 30
0.0
 40
1.0
100
AcDbArc
 50
20.0
 51
80.0
  0
LINE
  5
158
330
14A
100
AcDbEntity
  8
GR1-1
  6
CONTINUOUS
 62
     3
100
AcDbLine
 10
204.877184
 20
92.673853
 30
0.0
 11
208.332829
 21
83.179547
 31
0.0
  0
ARC
  5
159
330
14A
100
AcDbEntity
  8
GR1-1
  6
CONTINUOUS
 62
     3
100
AcDbCircle
 10
210.682061
 20
84.034597
 30
0.0
 40
2.5
100
AcDbArc
 50
200.0
 51
260.0
  0
LINE
  5
15A
330
14A
100
AcDbEntity
  8
GR1-1
  6
CONTINUOUS
 62
     3
100
AcDbLine
 10
210.24794
 20
81.572578
 30
0.0
 11
225.188383
 21
78.938175
 31
0.0
  0
ARC
  5
15B
330
14A
100
AcDbEntity
  8
GR1-1
  6
CONTINUOUS
 62
     3
100
AcDbCircle
 10
224.754263
 20
76.476155
 30
0.0
 40
2.5
100
AcDbArc
 50
36.0
 51
80.0
  0
LINE
  5
15C
330
14A
100
AcDbEntity
  8
GR1-1
  6
CONTINUOUS
 62
     3
100
AcDbLine
 10
226.776805
 20
77.945618
 30
0.0
 11
229.510232
 21
74.18338
 31
0.0
  0
ARC
  5
15D
330
14A
100
AcDbEntity
  8
GR1-1
  6
CONTINUOUS
 62
     3
100
AcDbCircle
 10
239.218435
 20
81.236803
 30
0.0
 40
12.0
100
AcDbArc
 50
216.0
 51
298.441812
  0
LINE
  5
15E
330
14A
100
AcDbEntity
  8
GR1-1
  6
CONTINUOUS
 62
     3
100
AcDbLine
 10
244.933628
 20
70.685188
 30
0.0
 11
249.618596
 21
69.16295
 31
0.0
  0
ARC
  5
15F
330
14A
100
AcDbEntity
  8
GR1-1
  6
CONTINUOUS
 62
     3
100
AcDbCircle
 10
253.318311
 20
80.578382
 30
0.0
 40
12.0
100
AcDbArc
 50
252.042612
 51
311.926055
  0
LINE
  5
160
330
14A
100
AcDbEntity
  8
GR1-1
  6
CONTINUOUS
 62
     3
100
AcDbLine
 10
263.820314
 20
69.638824
 30
0.0
 11
265.267751
 21
71.42626
 31
0.0
  0
LINE
  5
161
330
14A
100
AcDbEntity
  8
GR1-1
  6
CONTINUOUS
 62
     3
100
AcDbLine
 10
265.267751
 20
71.42626
 30
0.0
 11
243.507664
 21
89.047231
 31
0.0
  0
LINE
  5
162
330
14A
100
AcDbEntity
  8
GR1-1
  6
CONTINUOUS
 62
     3
100
AcDbLine
 10
243.507664
 20
89.047231
 30
0.0
 11
242.060227
 21
87.259795
 31
0.0
  0
LINE
  5
163
330
14A
100
AcDbEntity
  8
GR1-1
  6
CONTINUOUS
 62
     3
100
AcDbLine
 10
242.060227
 20
87.259795
 30
0.0
 11
263.820314
 21
69.638824
 31
0.0
  0
ARC
  5
164
330
14A
100
AcDbEntity
  8
GR1-1
  6
CONTINUOUS
 62
     3
100
AcDbCircle
 10
244.069549
 20
88.310847
 30
0.0
 40
2.267615741879381
100
AcDbArc
 50
176.997038
 51
207.613524
  0
ARC
  5
165
330
14A
100
AcDbEntity
  8
GR1-1
  6
CONTINUOUS
 62
     3
100
AcDbCircle
 10
241.681106
 20
91.427081
 30
0.0
 40
3.0
100
AcDbArc
 50
231.0
 51
307.506601
  0
ARC
  5
166
330
14A
100
AcDbEntity
  8
GR1-1
  6
CONTINUOUS
 62
     3
100
AcDbCircle
 10
227.591515
 20
86.130137
 30
0.0
 40
12.0
100
AcDbArc
 50
20.852643
 51
89.756055
  0
LINE
  5
167
330
14A
100
AcDbEntity
  8
GR1-1
  6
CONTINUOUS
 62
     3
100
AcDbLine
 10
227.642607
 20
98.130029
 30
0.0
 11
221.612127
 21
103.753542
 31
0.0
  0
ARC
  5
168
330
14A
100
AcDbEntity
  8
GR1-1
  6
CONTINUOUS
 62
     3
100
AcDbCircle
 10
218.884134
 20
100.828127
 30
0.0
 40
4.0
100
AcDbArc
 50
47.0
 51
79.740664
  0
LINE
  5
169
330
14A
100
AcDbEntity
  8
GR1-1
  6
CONTINUOUS
 62
     3
100
AcDbLine
 10
219.596549
 20
104.764174
 30
0.0
 11
211.472762
 21
106.234561
 31
0.0
  0
ARC
  5
16A
330
14A
100
AcDbEntity
  8
GR1-1
  6
CONTINUOUS
 62
     3
100
AcDbCircle
 10
211.993707
 20
109.188984
 30
0.0
 40
3.0
100
AcDbArc
 50
151.0
 51
260.0
  0
ARC
  5
16B
330
14A
100
AcDbEntity
  8
GR1-1
  6
CONTINUOUS
 62
     3
100
AcDbCircle
 10
241.60024
 20
91.492564
 30
0.0
 40
3.0
100
AcDbArc
 50
200.946444
 51
231.0
  0
LINE
  5
16C
330
14A
100
AcDbEntity
  8
GR1-1
  6
CONTINUOUS
 62
     6
100
AcDbLine
 10
240.339063
 20
88.744
 30
0.0
 11
236.937977
 21
69.455483
 31
0.0
  0
LINE
  5
16D
330
14A
100
AcDbEntity
  8
GR1-1
  6
CONTINUOUS
 62
     6
100
AcDbLine
 10
228.804154
 20
75.155212
 30
0.0
 11
232.657458
 21
97.008383
 31
0.0
  0
ARC
  5
16E
330
14A
100
AcDbEntity
  8
GR1-1
  6
CONTINUOUS
 62
     6
100
AcDbCircle
 10
214.081913
 20
97.180622
 30
0.0
 40
2.4
100
AcDbArc
 50
-102.299906
 51
77.700094
  0
ARC
  5
16F
330
14A
100
AcDbEntity
  8
GR1-1
  6
CONTINUOUS
 62
     6
100
AcDbCircle
 10
219.961507
 20
124.14709
 30
0.0
 40
30.0
100
AcDbArc
 50
211.40305
 51
257.700094
  0
ARC
  5
170
330
14A
100
AcDbEntity
  8
GR1-1
  6
CONTINUOUS
 62
     6
100
AcDbCircle
 10
196.404271
 20
109.76597
 30
0.0
 40
2.4
100
AcDbArc
 50
31.40305
 51
211.40305
  0
ARC
  5
171
330
14A
100
AcDbEntity
  8
GR1-1
  6
CONTINUOUS
 62
     6
100
AcDbCircle
 10
219.961507
 20
124.14709
 30
0.0
 40
25.2
100
AcDbArc
 50
211.40305
 51
257.700094
  0
ENDBLK
  5
14C
330
14A
100
AcDbEntity
  8
0
100
AcDbBlockEnd
  0
BLOCK
  5
1C7
330
1C6
100
AcDbEntity
  8
0
100
AcDbBlockBegin
  2
*D27
 70
     1
 71
     0
 10
0.0
 20
0.0
 30
0.0
  3
*D27
  1

  0
TEXT
  5
1C9
330
1C6
100
AcDbEntity
  8
LAYERGROUP-1
  6
CONTINUOUS
 62
     7
100
AcDbText
 10
310.113466
 20
211.565157
 30
0.0
 40
4.0
  1
4-%%c9
 50
313.842834
 41
0.777778
  7
FX_VECTOR
 72
     5
 11
318.425657
 21
202.910246
 31
0.0
100
AcDbText
  0
LINE
  5
1CA
330
1C6
100
AcDbEntity
  8
LAYERGROUP-1
  6
CONTINUOUS
 62
     7
100
AcDbLine
 10
297.47914
 20
222.435398
 30
0.0
 11
291.244998
 21
228.926582
 31
0.0
  0
LINE
  5
1CB
330
1C6
100
AcDbEntity
  8
LAYERGROUP-1
  6
CONTINUOUS
 62
     7
100
AcDbLine
 10
297.47914
 20
222.435398
 30
0.0
 11
319.979716
 21
199.007099
 31
0.0
  0
INSERT
  5
1CC
330
1C6
100
AcDbEntity
  8
LAYERGROUP-1
  6
CONTINUOUS
 62
     7
100
AcDbBlockReference
  2
FXTIP_ARROW_S
 10
297.47914
 20
222.435398
 30
0.0
 41
4.0
 42
4.0
 50
133.842832
  0
LINE
  5
1CD
330
1C6
100
AcDbEntity
  8
LAYERGROUP-1
  6
CONTINUOUS
 62
     7
100
AcDbLine
 10
291.244998
 20
228.926582
 30
0.0
 11
287.088902
 21
233.254037
 31
0.0
  0
INSERT
  5
1CE
330
1C6
100
AcDbEntity
  8
LAYERGROUP-1
  6
CONTINUOUS
 62
     7
100
AcDbBlockReference
  2
FXTIP_ARROW_S
 10
291.244998
 20
228.926582
 30
0.0
 41
4.0
 42
4.0
 50
313.842832
  0
ENDBLK
  5
1C8
330
1C6
100
AcDbEntity
  8
0
100
AcDbBlockEnd
  0
BLOCK
  5
200
330
1FF
100
AcDbEntity
  8
0
100
AcDbBlockBegin
  2
*D28
 70
     1
 71
     0
 10
0.0
 20
0.0
 30
0.0
  3
*D28
  1

  0
TEXT
  5
202
330
1FF
100
AcDbEntity
  8
LAYERGROUP-1
  6
CONTINUOUS
 62
     7
100
AcDbText
 10
164.539947
 20
224.216148
 30
0.0
 40
4.0
  1
R76
 50
14.212708
 41
0.814655
  7
FX_VECTOR
 72
     5
 11
173.264466
 21
226.42585
 31
0.0
100
AcDbText
  0
LINE
  5
203
330
1FF
100
AcDbEntity
  8
LAYERGROUP-1
  6
CONTINUOUS
 62
     7
100
AcDbLine
 10
179.528659
 20
226.98084
 30
0.0
 11
253.362069
 21
245.68099
 31
0.0
  0
LINE
  5
204
330
1FF
100
AcDbEntity
  8
LAYERGROUP-1
  6
CONTINUOUS
 62
     7
100
AcDbLine
 10
179.528659
 20
226.98084
 30
0.0
 11
158.766765
 21
221.722373
 31
0.0
  0
INSERT
  5
205
330
1FF
100
AcDbEntity
  8
LAYERGROUP-1
  6
CONTINUOUS
 62
     7
100
AcDbBlockReference
  2
FXTIP_ARROW_S
 10
179.528659
 20
226.98084
 30
0.0
 41
4.0
 42
4.0
 50
14.212708
  0
ENDBLK
  5
201
330
1FF
100
AcDbEntity
  8
0
100
AcDbBlockEnd
  0
BLOCK
  5
214
330
213
100
AcDbEntity
  8
0
100
AcDbBlockBegin
  2
*D29
 70
     1
 71
     0
 10
0.0
 20
0.0
 30
0.0
  3
*D29
  1

  0
TEXT
  5
216
330
213
100
AcDbEntity
  8
GR1-1
  6
CONTINUOUS
 62
     7
100
AcDbText
 10
322.011536
 20
242.680984
 30
0.0
 40
4.0
  1
58
 50
90.0
 41
0.851351
  7
FX_VECTOR
 72
     5
 11
322.011536
 21
248.680984
 31
0.0
100
AcDbText
  0
LINE
  5
217
330
213
100
AcDbEntity
  8
GR1-1
  6
CONTINUOUS
 62
     7
100
AcDbLine
 10
323.011529
 20
216.68099
 30
0.0
 11
323.011529
 21
274.68099
 31
0.0
  0
INSERT
  5
218
330
213
100
AcDbEntity
  8
GR1-1
  6
CONTINUOUS
 62
     7
100
AcDbBlockReference
  2
FXTIP_ARROW_S
 10
323.011529
 20
216.68099
 30
0.0
 41
4.0
 42
4.0
 50
270.0
  0
INSERT
  5
219
330
213
100
AcDbEntity
  8
GR1-1
  6
CONTINUOUS
 62
     7
100
AcDbBlockReference
  2
FXTIP_ARROW_E
 10
323.011529
 20
274.68099
 30
0.0
 41
4.0
 42
4.0
 50
90.0
  0
LINE
  5
21A
330
213
100
AcDbEntity
  8
GR1-1
  6
CONTINUOUS
 62
     7
100
AcDbLine
 10
297.362069
 20
216.68099
 30
0.0
 11
324.011529
 21
216.68099
 31
0.0
  0
LINE
  5
21B
330
213
100
AcDbEntity
  8
GR1-1
  6
CONTINUOUS
 62
     7
100
AcDbLine
 10
297.362069
 20
274.68099
 30
0.0
 11
324.011529
 21
274.68099
 31
0.0
  0
ENDBLK
  5
215
330
213
100
AcDbEntity
  8
0
100
AcDbBlockEnd
  0
BLOCK
  5
21E
330
21D
100
AcDbEntity
  8
0
100
AcDbBlockBegin
  2
*D30
 70
     1
 71
     0
 10
0.0
 20
0.0
 30
0.0
  3
*D30
  1

  0
TEXT
  5
220
330
21D
100
AcDbEntity
  8
GR1-1
  6
CONTINUOUS
 62
     7
100
AcDbText
 10
312.011536
 20
242.680984
 30
0.0
 40
4.0
  1
40
 50
90.0
 41
0.851351
  7
FX_VECTOR
 72
     5
 11
312.011536
 21
248.680984
 31
0.0
100
AcDbText
  0
LINE
  5
221
330
21D
100
AcDbEntity
  8
GR1-1
  6
CONTINUOUS
 62
     7
100
AcDbLine
 10
313.011529
 20
225.68099
 30
0.0
 11
313.011529
 21
265.68099
 31
0.0
  0
INSERT
  5
222
330
21D
100
AcDbEntity
  8
GR1-1
  6
CONTINUOUS
 62
     7
100
AcDbBlockReference
  2
FXTIP_ARROW_S
 10
313.011529
 20
225.68099
 30
0.0
 41
4.0
 42
4.0
 50
270.0
  0
INSERT
  5
223
330
21D
100
AcDbEntity
  8
GR1-1
  6
CONTINUOUS
 62
     7
100
AcDbBlockReference
  2
FXTIP_ARROW_E
 10
313.011529
 20
265.68099
 30
0.0
 41
4.0
 42
4.0
 50
90.0
  0
LINE
  5
224
330
21D
100
AcDbEntity
  8
GR1-1
  6
CONTINUOUS
 62
     7
100
AcDbLine
 10
303.362069
 20
225.68099
 30
0.0
 11
314.011529
 21
225.68099
 31
0.0
  0
LINE
  5
225
330
21D
100
AcDbEntity
  8
GR1-1
  6
CONTINUOUS
 62
     7
100
AcDbLine
 10
303.362069
 20
265.68099
 30
0.0
 11
314.011529
 21
265.68099
 31
0.0
  0
ENDBLK
  5
21F
330
21D
100
AcDbEntity
  8
0
100
AcDbBlockEnd
  0
BLOCK
  5
228
330
227
100
AcDbEntity
  8
0
100
AcDbBlockBegin
  2
*D31
 70
     1
 71
     0
 10
0.0
 20
0.0
 30
0.0
  3
*D31
  1

  0
TEXT
  5
22A
330
227
100
AcDbEntity
  8
GR1-1
  6
CONTINUOUS
 62
     7
100
AcDbText
 10
248.862061
 20
181.330994
 30
0.0
 40
4.0
  1
100
 41
0.828947
  7
FX_VECTOR
 72
     5
 11
257.862061
 21
181.330994
 31
0.0
100
AcDbText
  0
LINE
  5
22B
330
227
100
AcDbEntity
  8
GR1-1
  6
CONTINUOUS
 62
     7
100
AcDbLine
 10
203.362069
 20
180.330992
 30
0.0
 11
303.362069
 21
180.330992
 31
0.0
  0
INSERT
  5
22C
330
227
100
AcDbEntity
  8
GR1-1
  6
CONTINUOUS
 62
     7
100
AcDbBlockReference
  2
FXTIP_ARROW_S
 10
203.362069
 20
180.330992
 30
0.0
 41
4.0
 42
4.0
 50
180.0
  0
INSERT
  5
22D
330
227
100
AcDbEntity
  8
GR1-1
  6
CONTINUOUS
 62
     7
100
AcDbBlockReference
  2
FXTIP_ARROW_E
 10
303.362069
 20
180.330992
 30
0.0
 41
4.0
 42
4.0
 50
360.0
  0
LINE
  5
22E
330
227
100
AcDbEntity
  8
GR1-1
  6
CONTINUOUS
 62
     7
100
AcDbLine
 10
203.362069
 20
222.68099
 30
0.0
 11
203.362069
 21
179.330992
 31
0.0
  0
LINE
  5
22F
330
227
100
AcDbEntity
  8
GR1-1
  6
CONTINUOUS
 62
     7
100
AcDbLine
 10
303.362069
 20
222.68099
 30
0.0
 11
303.362069
 21
179.330992
 31
0.0
  0
ENDBLK
  5
229
330
227
100
AcDbEntity
  8
0
100
AcDbBlockEnd
  0
BLOCK
  5
232
330
231
100
AcDbEntity
  8
0
100
AcDbBlockBegin
  2
*D32
 70
     1
 71
     0
 10
0.0
 20
0.0
 30
0.0
  3
*D32
  1

  0
TEXT
  5
234
330
231
100
AcDbEntity
  8
GR1-1
  6
CONTINUOUS
 62
     7
100
AcDbText
 10
250.362061
 20
191.330994
 30
0.0
 40
4.0
  1
82
 41
0.851351
  7
FX_VECTOR
 72
     5
 11
256.362061
 21
191.330994
 31
0.0
100
AcDbText
  0
LINE
  5
235
330
231
100
AcDbEntity
  8
GR1-1
  6
CONTINUOUS
 62
     7
100
AcDbLine
 10
212.362069
 20
190.330992
 30
0.0
 11
294.362069
 21
190.330992
 31
0.0
  0
INSERT
  5
236
330
231
100
AcDbEntity
  8
GR1-1
  6
CONTINUOUS
 62
     7
100
AcDbBlockReference
  2
FXTIP_ARROW_S
 10
212.362069
 20
190.330992
 30
0.0
 41
4.0
 42
4.0
 50
180.0
  0
INSERT
  5
237
330
231
100
AcDbEntity
  8
GR1-1
  6
CONTINUOUS
 62
     7
100
AcDbBlockReference
  2
FXTIP_ARROW_E
 10
294.362069
 20
190.330992
 30
0.0
 41
4.0
 42
4.0
 50
360.0
  0
LINE
  5
238
330
231
100
AcDbEntity
  8
GR1-1
  6
CONTINUOUS
 62
     7
100
AcDbLine
 10
212.362069
 20
216.68099
 30
0.0
 11
212.362069
 21
189.330992
 31
0.0
  0
LINE
  5
239
330
231
100
AcDbEntity
  8
GR1-1
  6
CONTINUOUS
 62
     7
100
AcDbLine
 10
294.362069
 20
216.68099
 30
0.0
 11
294.362069
 21
189.330992
 31
0.0
  0
ENDBLK
  5
233
330
231
100
AcDbEntity
  8
0
100
AcDbBlockEnd
  0
BLOCK
  5
27E
330
27D
100
AcDbEntity
  8
0
100
AcDbBlockBegin
  2
BLKF035
 70
     0
 71
     0
 10
0.0
 20
0.0
 30
0.0
  3
BLKF035
  1

  0
LINE
  5
281
330
27D
100
AcDbEntity
  8
GR1-1
  6
CONTINUOUS
 62
     3
100
AcDbLine
 10
184.862069
 20
259.18099
 30
0.0
 11
176.072031
 21
259.18099
 31
0.0
  0
ARC
  5
282
330
27D
100
AcDbEntity
  8
GR1-1
  6
CONTINUOUS
 62
     3
100
AcDbCircle
 10
176.072031
 20
257.18099
 30
0.0
 40
2.0
100
AcDbArc
 50
90.0
 51
172.26362
  0
LINE
  5
283
330
27D
100
AcDbEntity
  8
GR1-1
  6
CONTINUOUS
 62
     3
100
AcDbLine
 10
184.862069
 20
232.18099
 30
0.0
 11
176.072031
 21
232.18099
 31
0.0
  0
ARC
  5
284
330
27D
100
AcDbEntity
  8
GR1-1
  6
CONTINUOUS
 62
     3
100
AcDbCircle
 10
176.072031
 20
234.18099
 30
0.0
 40
2.0
100
AcDbArc
 50
187.73638
 51
270.0
  0
LINE
  5
285
330
27D
100
AcDbEntity
  8
GR1-1
  6
CONTINUOUS
 62
     3
100
AcDbLine
 10
184.862069
 20
232.18099
 30
0.0
 11
204.732733
 21
232.18099
 31
0.0
  0
LINE
  5
286
330
27D
100
AcDbEntity
  8
GR1-1
  6
CONTINUOUS
 62
     3
100
AcDbLine
 10
204.732733
 20
259.18099
 30
0.0
 11
184.862069
 21
259.18099
 31
0.0
  0
ARC
  5
287
330
27D
100
AcDbEntity
  8
GR1-1
  6
CONTINUOUS
 62
     3
100
AcDbCircle
 10
268.838253
 20
245.68099
 30
0.0
 40
95.47618407592026
100
AcDbArc
 50
172.91921
 51
187.08079
  0
ENDBLK
  5
27F
330
27D
100
AcDbEntity
  8
0
100
AcDbBlockEnd
  0
BLOCK
  5
289
330
288
100
AcDbEntity
  8
0
100
AcDbBlockBegin
  2
BLKF036
 70
     0
 71
     0
 10
0.0
 20
0.0
 30
0.0
  3
BLKF036
  1

  0
LINE
  5
28C
330
288
100
AcDbEntity
  8
GR1-1
  6
CONTINUOUS
 62
     3
100
AcDbLine
 10
106.153091
 20
85.937609
 30
0.0
 11
106.153091
 21
81.736239
 31
0.0
  0
ARC
  5
28D
330
288
100
AcDbEntity
  8
GR1-1
  6
CONTINUOUS
 62
     3
100
AcDbCircle
 10
107.153091
 20
81.736239
 30
0.0
 40
1.0
100
AcDbArc
 50
180.0
 51
267.0
  0
LINE
  5
28E
330
288
100
AcDbEntity
  8
GR1-1
  6
CONTINUOUS
 62
     3
100
AcDbLine
 10
107.100755
 20
80.737609
 30
0.0
 11
107.653091
 21
80.708662
 31
0.0
  0
LINE
  5
28F
330
288
100
AcDbEntity
  8
GR1-1
  6
CONTINUOUS
 62
     3
100
AcDbLine
 10
134.653091
 20
52.437609
 30
0.0
 11
134.653091
 21
43.647571
 31
0.0
  0
ARC
  5
290
330
288
100
AcDbEntity
  8
GR1-1
  6
CONTINUOUS
 62
     3
100
AcDbCircle
 10
132.653091
 20
43.647571
 30
0.0
 40
2.0
100
AcDbArc
 50
277.73638
 51
360.0
  0
LINE
  5
291
330
288
100
AcDbEntity
  8
GR1-1
  6
CONTINUOUS
 62
     3
100
AcDbLine
 10
107.653091
 20
52.437609
 30
0.0
 11
107.653091
 21
43.647571
 31
0.0
  0
ARC
  5
292
330
288
100
AcDbEntity
  8
GR1-1
  6
CONTINUOUS
 62
     3
100
AcDbCircle
 10
109.653091
 20
43.647571
 30
0.0
 40
2.0
100
AcDbArc
 50
180.0
 51
262.26362
  0
LINE
  5
293
330
288
100
AcDbEntity
  8
GR1-1
  6
CONTINUOUS
 62
     3
100
AcDbLine
 10
136.153091
 20
85.937609
 30
0.0
 11
136.153091
 21
81.736239
 31
0.0
  0
LINE
  5
294
330
288
100
AcDbEntity
  8
GR1-1
  6
CONTINUOUS
 62
     3
100
AcDbLine
 10
135.205427
 20
80.737609
 30
0.0
 11
134.653091
 21
80.708662
 31
0.0
  0
ARC
  5
295
330
288
100
AcDbEntity
  8
GR1-1
  6
CONTINUOUS
 62
     3
100
AcDbCircle
 10
135.153091
 20
81.736239
 30
0.0
 40
1.0
100
AcDbArc
 50
273.0
 51
360.0
  0
LINE
  5
296
330
288
100
AcDbEntity
  8
GR1-1
  6
CONTINUOUS
 62
     3
100
AcDbLine
 10
106.153091
 20
85.937609
 30
0.0
 11
106.153091
 21
95.937609
 31
0.0
  0
LINE
  5
297
330
288
100
AcDbEntity
  8
GR1-1
  6
CONTINUOUS
 62
     3
100
AcDbLine
 10
136.153091
 20
95.937609
 30
0.0
 11
136.153091
 21
85.937609
 31
0.0
  0
LINE
  5
298
330
288
100
AcDbEntity
  8
GR1-1
  6
CONTINUOUS
 62
     3
100
AcDbLine
 10
107.653091
 20
52.437609
 30
0.0
 11
107.653091
 21
90.937609
 31
0.0
  0
LINE
  5
299
330
288
100
AcDbEntity
  8
GR1-1
  6
CONTINUOUS
 62
     3
100
AcDbLine
 10
134.653091
 20
90.937609
 30
0.0
 11
134.653091
 21
52.437609
 31
0.0
  0
ARC
  5
29A
330
288
100
AcDbEntity
  8
GR1-1
  6
CONTINUOUS
 62
     3
100
AcDbCircle
 10
121.153091
 20
136.413793
 30
0.0
 40
95.47618407592026
100
AcDbArc
 50
262.91921
 51
277.08079
  0
LINE
  5
29B
330
288
100
AcDbEntity
  8
GR1-1
  6
CONTINUOUS
 62
     3
100
AcDbLine
 10
106.153091
 20
95.937609
 30
0.0
 11
106.153091
 21
100.13898
 31
0.0
  0
ARC
  5
29C
330
288
100
AcDbEntity
  8
GR1-1
  6
CONTINUOUS
 62
     3
100
AcDbCircle
 10
107.153091
 20
100.13898
 30
0.0
 40
1.0
100
AcDbArc
 50
93.0
 51
180.0
  0
LINE
  5
29D
330
288
100
AcDbEntity
  8
GR1-1
  6
CONTINUOUS
 62
     3
100
AcDbLine
 10
107.100755
 20
101.137609
 30
0.0
 11
107.653091
 21
101.166556
 31
0.0
  0
LINE
  5
29E
330
288
100
AcDbEntity
  8
GR1-1
  6
CONTINUOUS
 62
     3
100
AcDbLine
 10
134.653091
 20
129.437609
 30
0.0
 11
134.653091
 21
138.227647
 31
0.0
  0
ARC
  5
29F
330
288
100
AcDbEntity
  8
GR1-1
  6
CONTINUOUS
 62
     3
100
AcDbCircle
 10
132.653091
 20
138.227647
 30
0.0
 40
2.0
100
AcDbArc
 50
0.0
 51
82.26362
  0
LINE
  5
2A0
330
288
100
AcDbEntity
  8
GR1-1
  6
CONTINUOUS
 62
     3
100
AcDbLine
 10
107.653091
 20
129.437609
 30
0.0
 11
107.653091
 21
138.227647
 31
0.0
  0
ARC
  5
2A1
330
288
100
AcDbEntity
  8
GR1-1
  6
CONTINUOUS
 62
     3
100
AcDbCircle
 10
109.653091
 20
138.227647
 30
0.0
 40
2.0
100
AcDbArc
 50
97.73638
 51
180.0
  0
LINE
  5
2A2
330
288
100
AcDbEntity
  8
GR1-1
  6
CONTINUOUS
 62
     3
100
AcDbLine
 10
136.153091
 20
95.937609
 30
0.0
 11
136.153091
 21
100.13898
 31
0.0
  0
LINE
  5
2A3
330
288
100
AcDbEntity
  8
GR1-1
  6
CONTINUOUS
 62
     3
100
AcDbLine
 10
135.205427
 20
101.137609
 30
0.0
 11
134.653091
 21
101.166556
 31
0.0
  0
ARC
  5
2A4
330
288
100
AcDbEntity
  8
GR1-1
  6
CONTINUOUS
 62
     3
100
AcDbCircle
 10
135.153091
 20
100.13898
 30
0.0
 40
1.0
100
AcDbArc
 50
0.0
 51
87.0
  0
LINE
  5
2A5
330
288
100
AcDbEntity
  8
GR1-1
  6
CONTINUOUS
 62
     3
100
AcDbLine
 10
107.653091
 20
129.437609
 30
0.0
 11
107.653091
 21
90.937609
 31
0.0
  0
LINE
  5
2A6
330
288
100
AcDbEntity
  8
GR1-1
  6
CONTINUOUS
 62
     3
100
AcDbLine
 10
134.653091
 20
90.937609
 30
0.0
 11
134.653091
 21
129.437609
 31
0.0
  0
ARC
  5
2A7
330
288
100
AcDbEntity
  8
GR1-1
  6
CONTINUOUS
 62
     3
100
AcDbCircle
 10
121.153091
 20
45.461425
 30
0.0
 40
95.47618407592026
100
AcDbArc
 50
82.91921
 51
97.08079
  0
ENDBLK
  5
28A
330
288
100
AcDbEntity
  8
0
100
AcDbBlockEnd
  0
BLOCK
  5
2AE
330
2AD
100
AcDbEntity
  8
0
100
AcDbBlockBegin
  2
*D35
 70
     1
 71
     0
 10
0.0
 20
0.0
 30
0.0
  3
*D35
  1

  0
TEXT
  5
2B0
330
2AD
100
AcDbEntity
  8
LAYERGROUP-1
  6
CONTINUOUS
 62
     7
100
AcDbText
 10
118.153076
 20
22.222931
 30
0.0
 40
4.0
  1
30
 41
0.851351
  7
FX_VECTOR
 72
     5
 11
124.153076
 21
22.222931
 31
0.0
100
AcDbText
  0
LINE
  5
2B1
330
2AD
100
AcDbEntity
  8
LAYERGROUP-1
  6
CONTINUOUS
 62
     7
100
AcDbLine
 10
106.153091
 20
21.222942
 30
0.0
 11
136.153091
 21
21.222942
 31
0.0
  0
INSERT
  5
2B2
330
2AD
100
AcDbEntity
  8
LAYERGROUP-1
  6
CONTINUOUS
 62
     7
100
AcDbBlockReference
  2
FXTIP_ARROW_S
 10
106.153091
 20
21.222942
 30
0.0
 41
4.0
 42
4.0
 50
180.0
  0
INSERT
  5
2B3
330
2AD
100
AcDbEntity
  8
LAYERGROUP-1
  6
CONTINUOUS
 62
     7
100
AcDbBlockReference
  2
FXTIP_ARROW_E
 10
136.153091
 20
21.222942
 30
0.0
 41
4.0
 42
4.0
 50
360.0
  0
LINE
  5
2B4
330
2AD
100
AcDbEntity
  8
LAYERGROUP-1
  6
CONTINUOUS
 62
     7
100
AcDbLine
 10
106.153091
 20
75.937609
 30
0.0
 11
106.153091
 21
20.222942
 31
0.0
  0
LINE
  5
2B5
330
2AD
100
AcDbEntity
  8
LAYERGROUP-1
  6
CONTINUOUS
 62
     7
100
AcDbLine
 10
136.153091
 20
75.937609
 30
0.0
 11
136.153091
 21
20.222942
 31
0.0
  0
ENDBLK
  5
2AF
330
2AD
100
AcDbEntity
  8
0
100
AcDbBlockEnd
  0
BLOCK
  5
2B8
330
2B7
100
AcDbEntity
  8
0
100
AcDbBlockBegin
  2
*D36
 70
     1
 71
     0
 10
0.0
 20
0.0
 30
0.0
  3
*D36
  1

  0
TEXT
  5
2BA
330
2B7
100
AcDbEntity
  8
LAYERGROUP-1
  6
CONTINUOUS
 62
     7
100
AcDbText
 10
118.153076
 20
32.292023
 30
0.0
 40
4.0
  1
27
 41
0.851351
  7
FX_VECTOR
 72
     5
 11
124.153076
 21
32.292023
 31
0.0
100
AcDbText
  0
LINE
  5
2BB
330
2B7
100
AcDbEntity
  8
LAYERGROUP-1
  6
CONTINUOUS
 62
     7
100
AcDbLine
 10
107.653091
 20
31.292017
 30
0.0
 11
134.653091
 21
31.292017
 31
0.0
  0
INSERT
  5
2BC
330
2B7
100
AcDbEntity
  8
LAYERGROUP-1
  6
CONTINUOUS
 62
     7
100
AcDbBlockReference
  2
FXTIP_ARROW_S
 10
107.653091
 20
31.292017
 30
0.0
 41
4.0
 42
4.0
 50
180.0
  0
INSERT
  5
2BD
330
2B7
100
AcDbEntity
  8
LAYERGROUP-1
  6
CONTINUOUS
 62
     7
100
AcDbBlockReference
  2
FXTIP_ARROW_E
 10
134.653091
 20
31.292017
 30
0.0
 41
4.0
 42
4.0
 50
360.0
  0
LINE
  5
2BE
330
2B7
100
AcDbEntity
  8
LAYERGROUP-1
  6
CONTINUOUS
 62
     7
100
AcDbLine
 10
107.653091
 20
42.647571
 30
0.0
 11
107.653091
 21
30.292017
 31
0.0
  0
LINE
  5
2BF
330
2B7
100
AcDbEntity
  8
LAYERGROUP-1
  6
CONTINUOUS
 62
     7
100
AcDbLine
 10
134.653091
 20
51.437609
 30
0.0
 11
134.653091
 21
30.292017
 31
0.0
  0
ENDBLK
  5
2B9
330
2B7
100
AcDbEntity
  8
0
100
AcDbBlockEnd
  0
BLOCK
  5
2C1
330
2C0
100
AcDbEntity
  8
0
100
AcDbBlockBegin
  2
BLKF039
 70
     0
 71
     0
 10
0.0
 20
0.0
 30
0.0
  3
BLKF039
  1

  0
ARC
  5
2C4
330
2C0
100
AcDbEntity
  8
GR1-1
  6
CONTINUOUS
 62
     3
100
AcDbCircle
 10
223.362069
 20
90.937609
 30
0.0
 40
49.99967624316851
100
AcDbArc
 50
101.107783
 51
138.15566
  0
INSERT
  5
2C8
330
2C0
100
AcDbEntity
  8
0
100
AcDbBlockReference
  2
BLKF040
 10
0.0
 20
0.0
 30
0.0
  0
INSERT
  5
2D0
330
2C0
100
AcDbEntity
  8
0
100
AcDbBlockReference
  2
BLKF041
 10
0.0
 20
0.0
 30
0.0
  0
HATCH
  5
2E0
330
2C0
100
AcDbEntity
  8
LAYERGROUP-1
  6
CONTINUOUS
 62
     2
100
AcDbHatch
 10
0.0
 20
0.0
 30
0.0
210
0.0
220
0.0
230
1.0
  2

 70
     0
 71
     1
 91
        2
 92
        0
 93
        4
 72
     1
 10
194.3775589045955
 20
52.9034926124566
 11
191.4041277594157
 21
55.42075018885026
 72
     1
 10
191.4041277594157
 20
55.42075018885026
 11
193.9213853358093
 21
58.39418133403018
 72
     1
 10
193.9213853358093
 20
58.39418133403018
 11
196.8948164809893
 21
55.87692375763669
 72
     1
 10
196.8948164809893
 20
55.87692375763669
 11
194.3775589045955
 21
52.9034926124566
 97
        0
 92
        0
 93
       15
 72
     1
 10
192.9513543250896
 20
54.23359810337496
 11
195.564710990071
 21
54.45071917813044
 72
     1
 10
195.564710990071
 20
54.45071917813044
 11
195.3475899153154
 21
57.06407584311194
 72
     1
 10
195.3475899153154
 20
57.06407584311194
 11
193.9221226513379
 21
56.94564612130682
 72
     1
 10
193.9221226513379
 20
56.94564612130682
 11
194.1883710456667
 21
57.26014364252831
 72
     1
 10
194.1883710456667
 20
57.26014364252831
 11
193.7595107805931
 21
57.62320964229775
 72
     1
 10
193.7595107805931
 20
57.62320964229775
 11
192.9123567948863
 21
56.62253570670754
 72
     1
 10
192.9123567948863
 20
56.62253570670754
 11
194.1131655078455
 21
55.60595093211271
 72
     1
 10
194.1131655078455
 20
55.60595093211271
 11
194.476231507615
 21
56.03481119718617
 72
     1
 10
194.476231507615
 20
56.03481119718617
 11
194.2560832476346
 21
56.22118506908976
 72
     1
 10
194.2560832476346
 20
56.22118506908976
 11
194.6626053795186
 21
56.25495945716676
 72
     1
 10
194.6626053795186
 20
56.25495945716676
 11
194.7555946041258
 21
55.13570371392734
 72
     1
 10
194.7555946041258
 20
55.13570371392734
 11
193.6363388608864
 21
55.04271448932013
 72
     1
 10
193.6363388608864
 20
55.04271448932013
 11
193.5762467651921
 21
55.76600714514365
 72
     1
 10
193.5762467651921
 20
55.76600714514365
 11
192.7671304279915
 21
56.45099163967393
 72
     1
 10
192.7671304279915
 20
56.45099163967393
 11
192.9513543250896
 21
54.23359810337496
 97
        0
 75
     0
 76
     0
 52
0.0
 41
0.1
 77
     0
 78
     1
 53
0.0
 43
0.0
 44
0.0
 45
0.0
 46
0.1
 79
     0
 98
        0
  0
ARC
  5
2E1
330
2C0
100
AcDbEntity
  8
GR1-1
  6
CONTINUOUS
 62
     6
100
AcDbCircle
 10
223.362069
 20
90.937609
 30
0.0
 40
36.49999999999999
100
AcDbArc
 50
106.099038
 51
133.270544
  0
ARC
  5
2E2
330
2C0
100
AcDbEntity
  8
GR1-1
  6
CONTINUOUS
 62
     3
100
AcDbCircle
 10
223.362069
 20
90.937609
 30
0.0
 40
42.50000000000001
100
AcDbArc
 50
103.474086
 51
135.839054
  0
INSERT
  5
2E6
330
2C0
100
AcDbEntity
  8
0
100
AcDbBlockReference
  2
BLKF042
 10
0.0
 20
0.0
 30
0.0
  0
INSERT
  5
2F7
330
2C0
100
AcDbEntity
  8
0
100
AcDbBlockReference
  2
BLKF043
 10
0.0
 20
0.0
 30
0.0
  0
ARC
  5
2FE
330
2C0
100
AcDbEntity
  8
GR1-1
  6
CONTINUOUS
 62
     3
100
AcDbCircle
 10
223.362069
 20
90.937609
 30
0.0
 40
49.99967624316851
100
AcDbArc
 50
-219.154481
 51
48.476174
  0
ARC
  5
2FF
330
2C0
100
AcDbEntity
  8
GR1-1
  6
CONTINUOUS
 62
     3
100
AcDbCircle
 10
223.362069
 20
90.937609
 30
0.0
 40
42.50000000000001
100
AcDbArc
 50
150.953934
 51
332.761865
  0
ARC
  5
300
330
2C0
100
AcDbEntity
  8
GR1-1
  6
CONTINUOUS
 62
     6
100
AcDbCircle
 10
223.362069
 20
90.937609
 30
0.0
 40
36.49999999999999
100
AcDbArc
 50
154.655659
 51
322.318366
  0
ARC
  5
301
330
2C0
100
AcDbEntity
  8
GR1-1
  6
CONTINUOUS
 62
     6
100
AcDbCircle
 10
223.362069
 20
90.937609
 30
0.0
 40
36.49999999999999
100
AcDbArc
 50
-21.115806
 51
43.719685
  0
ARC
  5
302
330
2C0
100
AcDbEntity
  8
GR1-1
  6
CONTINUOUS
 62
     3
100
AcDbCircle
 10
223.362069
 20
90.937609
 30
0.0
 40
42.50000000000001
100
AcDbArc
 50
-23.707925
 51
46.219849
  0
ENDBLK
  5
2C2
330
2C0
100
AcDbEntity
  8
0
100
AcDbBlockEnd
  0
BLOCK
  5
2C6
330
2C5
100
AcDbEntity
  8
0
100
AcDbBlockBegin
  2
BLKF040
 70
     0
 71
     0
 10
0.0
 20
0.0
 30
0.0
  3
BLKF040
  1

  0
LINE
  5
2C9
330
2C5
100
AcDbEntity
  8
0-1
  6
CONTINUOUS
 62
     7
100
AcDbLine
 10
191.404128
 20
55.42075
 30
0.0
 11
194.377559
 21
52.903493
 31
0.0
  0
LINE
  5
2CA
330
2C5
100
AcDbEntity
  8
0-1
  6
CONTINUOUS
 62
     7
100
AcDbLine
 10
194.377559
 20
52.903493
 30
0.0
 11
196.894816
 21
55.876924
 31
0.0
  0
LINE
  5
2CB
330
2C5
100
AcDbEntity
  8
0-1
  6
CONTINUOUS
 62
     7
100
AcDbLine
 10
196.894816
 20
55.876924
 30
0.0
 11
193.921385
 21
58.394181
 31
0.0
  0
LINE
  5
2CC
330
2C5
100
AcDbEntity
  8
0-1
  6
CONTINUOUS
 62
     7
100
AcDbLine
 10
193.921385
 20
58.394181
 30
0.0
 11
191.404128
 21
55.42075
 31
0.0
  0
ENDBLK
  5
2C7
330
2C5
100
AcDbEntity
  8
0
100
AcDbBlockEnd
  0
BLOCK
  5
2CE
330
2CD
100
AcDbEntity
  8
0
100
AcDbBlockBegin
  2
BLKF041
 70
     0
 71
     0
 10
0.0
 20
0.0
 30
0.0
  3
BLKF041
  1

  0
LINE
  5
2D1
330
2CD
100
AcDbEntity
  8
0-1
  6
CONTINUOUS
 62
     7
100
AcDbLine
 10
192.76713
 20
56.450992
 30
0.0
 11
192.951354
 21
54.233598
 31
0.0
  0
LINE
  5
2D2
330
2CD
100
AcDbEntity
  8
0-1
  6
CONTINUOUS
 62
     7
100
AcDbLine
 10
192.951354
 20
54.233598
 30
0.0
 11
195.564711
 21
54.450719
 31
0.0
  0
LINE
  5
2D3
330
2CD
100
AcDbEntity
  8
0-1
  6
CONTINUOUS
 62
     7
100
AcDbLine
 10
195.564711
 20
54.450719
 30
0.0
 11
195.34759
 21
57.064076
 31
0.0
  0
LINE
  5
2D4
330
2CD
100
AcDbEntity
  8
0-1
  6
CONTINUOUS
 62
     7
100
AcDbLine
 10
195.34759
 20
57.064076
 30
0.0
 11
193.922123
 21
56.945646
 31
0.0
  0
LINE
  5
2D5
330
2CD
100
AcDbEntity
  8
0-1
  6
CONTINUOUS
 62
     7
100
AcDbLine
 10
193.922123
 20
56.945646
 30
0.0
 11
194.188371
 21
57.260144
 31
0.0
  0
LINE
  5
2D6
330
2CD
100
AcDbEntity
  8
0-1
  6
CONTINUOUS
 62
     7
100
AcDbLine
 10
194.188371
 20
57.260144
 30
0.0
 11
193.759511
 21
57.62321
 31
0.0
  0
LINE
  5
2D7
330
2CD
100
AcDbEntity
  8
0-1
  6
CONTINUOUS
 62
     7
100
AcDbLine
 10
193.759511
 20
57.62321
 30
0.0
 11
192.912357
 21
56.622536
 31
0.0
  0
LINE
  5
2D8
330
2CD
100
AcDbEntity
  8
0-1
  6
CONTINUOUS
 62
     7
100
AcDbLine
 10
192.912357
 20
56.622536
 30
0.0
 11
194.113166
 21
55.605951
 31
0.0
  0
LINE
  5
2D9
330
2CD
100
AcDbEntity
  8
0-1
  6
CONTINUOUS
 62
     7
100
AcDbLine
 10
194.113166
 20
55.605951
 30
0.0
 11
194.476232
 21
56.034811
 31
0.0
  0
LINE
  5
2DA
330
2CD
100
AcDbEntity
  8
0-1
  6
CONTINUOUS
 62
     7
100
AcDbLine
 10
194.476232
 20
56.034811
 30
0.0
 11
194.256083
 21
56.221185
 31
0.0
  0
LINE
  5
2DB
330
2CD
100
AcDbEntity
  8
0-1
  6
CONTINUOUS
 62
     7
100
AcDbLine
 10
194.256083
 20
56.221185
 30
0.0
 11
194.662605
 21
56.254959
 31
0.0
  0
LINE
  5
2DC
330
2CD
100
AcDbEntity
  8
0-1
  6
CONTINUOUS
 62
     7
100
AcDbLine
 10
194.662605
 20
56.254959
 30
0.0
 11
194.755595
 21
55.135704
 31
0.0
  0
LINE
  5
2DD
330
2CD
100
AcDbEntity
  8
0-1
  6
CONTINUOUS
 62
     7
100
AcDbLine
 10
194.755595
 20
55.135704
 30
0.0
 11
193.636339
 21
55.042714
 31
0.0
  0
LINE
  5
2DE
330
2CD
100
AcDbEntity
  8
0-1
  6
CONTINUOUS
 62
     7
100
AcDbLine
 10
193.636339
 20
55.042714
 30
0.0
 11
193.576247
 21
55.766007
 31
0.0
  0
LINE
  5
2DF
330
2CD
100
AcDbEntity
  8
0-1
  6
CONTINUOUS
 62
     7
100
AcDbLine
 10
193.576247
 20
55.766007
 30
0.0
 11
192.76713
 21
56.450992
 31
0.0
  0
ENDBLK
  5
2CF
330
2CD
100
AcDbEntity
  8
0
100
AcDbBlockEnd
  0
BLOCK
  5
2E4
330
2E3
100
AcDbEntity
  8
0
100
AcDbBlockBegin
  2
BLKF042
 70
     0
 71
     0
 10
0.0
 20
0.0
 30
0.0
  3
BLKF042
  1

  0
TEXT
  5
2E7
330
2E3
100
AcDbEntity
  8
GR1-1
  6
CONTINUOUS
 62
     7
100
AcDbText
 10
182.307726
 20
76.41896
 30
0.0
 40
4.0
  1
　
 50
106.84346
 41
1.4
 51
10.0
  7
FX_VECTOR
 72
     5
 11
181.148695
 21
80.24736
 31
0.0
100
AcDbText
  0
TEXT
  5
2E8
330
2E3
100
AcDbEntity
  8
GR1-1
  6
CONTINUOUS
 62
     7
100
AcDbText
 10
183.814331
 20
72.710486
 30
0.0
 40
4.0
  1
Ｄ
 50
112.11203
 41
1.4
 51
10.0
  7
FX_VECTOR
 72
     5
 11
182.308655
 21
76.416284
 31
0.0
100
AcDbText
  0
TEXT
  5
2E9
330
2E3
100
AcDbEntity
  8
GR1-1
  6
CONTINUOUS
 62
     7
100
AcDbText
 10
185.655119
 20
69.156034
 30
0.0
 40
4.0
  1
Ｌ
 50
117.3806
 41
1.4
 51
10.0
  7
FX_VECTOR
 72
     5
 11
183.815523
 21
72.707919
 31
0.0
100
AcDbText
  0
TEXT
  5
2EA
330
2E3
100
AcDbEntity
  8
GR1-1
  6
CONTINUOUS
 62
     7
100
AcDbText
 10
187.814492
 20
65.785656
 30
0.0
 40
4.0
  1
Ｏ
 50
122.649185
 41
1.4
 51
10.0
  7
FX_VECTOR
 72
     5
 11
185.656517
 21
69.153614
 31
0.0
100
AcDbText
  0
TEXT
  5
2EB
330
2E3
100
AcDbEntity
  8
GR1-1
  6
CONTINUOUS
 62
     7
100
AcDbText
 10
190.274256
 20
62.627779
 30
0.0
 40
4.0
  1
Ｇ
 50
127.91777
 41
1.4
 51
10.0
  7
FX_VECTOR
 72
     5
 11
187.816137
 21
65.783353
 31
0.0
100
AcDbText
  0
TEXT
  5
2EC
330
2E3
100
AcDbEntity
  8
GR1-1
  6
CONTINUOUS
 62
     7
100
AcDbText
 10
193.013613
 20
59.709094
 30
0.0
 40
4.0
  1
　
 50
133.186325
 41
1.4
 51
10.0
  7
FX_VECTOR
 72
     5
 11
190.276121
 21
62.625622
 31
0.0
100
AcDbText
  0
TEXT
  5
2ED
330
2E3
100
AcDbEntity
  8
GR1-1
  6
CONTINUOUS
 62
     7
100
AcDbText
 10
196.00935
 20
57.054319
 30
0.0
 40
4.0
  1
　
 50
138.45491
 41
1.4
 51
10.0
  7
FX_VECTOR
 72
     5
 11
193.015614
 21
59.707156
 31
0.0
100
AcDbText
  0
TEXT
  5
2EE
330
2E3
100
AcDbEntity
  8
GR1-1
  6
CONTINUOUS
 62
     7
100
AcDbText
 10
181.148001
 20
80.250085
 30
0.0
 40
4.0
  1
Ｃ
 50
101.574875
 41
1.4
 51
10.0
  7
FX_VECTOR
 72
     5
 11
180.345407
 21
84.168738
 31
0.0
100
AcDbText
  0
TEXT
  5
2EF
330
2E3
100
AcDbEntity
  8
GR1-1
  6
CONTINUOUS
 62
     7
100
AcDbText
 10
180.344993
 20
84.171526
 30
0.0
 40
4.0
  1
Ａ
 50
96.30632
 41
1.4
 51
10.0
  7
FX_VECTOR
 72
     5
 11
179.905617
 21
88.147322
 31
0.0
100
AcDbText
  0
TEXT
  5
2F0
330
2E3
100
AcDbEntity
  8
GR1-1
  6
CONTINUOUS
 62
     7
100
AcDbText
 10
179.905423
 20
88.150139
 30
0.0
 40
4.0
  1
Ｓ
 50
91.037735
 41
1.4
 51
10.0
  7
FX_VECTOR
 72
     5
 11
179.83298
 21
92.149483
 31
0.0
100
AcDbText
  0
TEXT
  5
2F1
330
2E3
100
AcDbEntity
  8
GR1-1
  6
CONTINUOUS
 62
     7
100
AcDbText
 10
179.83304
 20
92.152286
 30
0.0
 40
4.0
  1
Ｔ
 50
85.76915
 41
1.4
 51
10.0
  7
FX_VECTOR
 72
     5
 11
180.128141
 21
96.141385
 31
0.0
100
AcDbText
  0
TEXT
  5
2F2
330
2E3
100
AcDbEntity
  8
GR1-1
  6
CONTINUOUS
 62
     7
100
AcDbText
 10
180.128512
 20
96.144201
 30
0.0
 40
4.0
  1
Ｅ
 50
80.500565
 41
1.4
 51
10.0
  7
FX_VECTOR
 72
     5
 11
180.788663
 21
100.08935
 31
0.0
100
AcDbText
  0
TEXT
  5
2F3
330
2E3
100
AcDbEntity
  8
GR1-1
  6
CONTINUOUS
 62
     7
100
AcDbText
 10
180.789261
 20
100.0921
 30
0.0
 40
4.0
  1
Ｒ
 50
75.23201
 41
1.4
 51
10.0
  7
FX_VECTOR
 72
     5
 11
181.808883
 21
103.959963
 31
0.0
100
AcDbText
  0
ENDBLK
  5
2E5
330
2E3
100
AcDbEntity
  8
0
100
AcDbBlockEnd
  0
BLOCK
  5
2F5
330
2F4
100
AcDbEntity
  8
0
100
AcDbBlockBegin
  2
BLKF043
 70
     0
 71
     0
 10
0.0
 20
0.0
 30
0.0
  3
BLKF043
  1

  0
TEXT
  5
2F8
330
2F4
100
AcDbEntity
  8
GR1-1
  6
CONTINUOUS
 62
     7
100
AcDbText
 10
263.705707
 20
107.327818
 30
0.0
 40
4.0
  1
０
 50
289.477753
 41
1.4
  7
FX_VECTOR
 72
     5
 11
265.039471
 21
103.556734
 31
0.0
100
AcDbText
  0
TEXT
  5
2F9
330
2F4
100
AcDbEntity
  8
GR1-1
  6
CONTINUOUS
 62
     7
100
AcDbText
 10
262.03026
 20
110.963084
 30
0.0
 40
4.0
  1
０
 50
294.746307
 41
1.4
  7
FX_VECTOR
 72
     5
 11
263.704665
 21
107.330403
 31
0.0
100
AcDbText
  0
TEXT
  5
2FA
330
2F4
100
AcDbEntity
  8
GR1-1
  6
CONTINUOUS
 62
     7
100
AcDbText
 10
260.028053
 20
114.429209
 30
0.0
 40
4.0
  1
１
 50
300.014893
 41
1.4
  7
FX_VECTOR
 72
     5
 11
262.028954
 21
110.965627
 31
0.0
100
AcDbText
  0
TEXT
  5
2FB
330
2F4
100
AcDbEntity
  8
GR1-1
  6
CONTINUOUS
 62
     7
100
AcDbText
 10
265.040294
 20
103.554031
 30
0.0
 40
4.0
  1
×
 50
284.209167
 41
1.4
  7
FX_VECTOR
 72
     5
 11
266.022144
 21
99.676407
 31
0.0
100
AcDbText
  0
TEXT
  5
2FC
330
2F4
100
AcDbEntity
  8
GR1-1
  6
CONTINUOUS
 62
     7
100
AcDbText
 10
266.022706
 20
99.673652
 30
0.0
 40
4.0
  1
２
 50
278.940582
 41
1.4
  7
FX_VECTOR
 72
     5
 11
266.644347
 21
95.722252
 31
0.0
100
AcDbText
  0
TEXT
  5
2FD
330
2F4
100
AcDbEntity
  8
GR1-1
  6
CONTINUOUS
 62
     7
100
AcDbText
 10
266.644677
 20
95.719451
 30
0.0
 40
4.0
  1
７
 50
273.671997
 41
1.4
  7
FX_VECTOR
 72
     5
 11
266.900855
 21
91.727662
 31
0.0
100
AcDbText
  0
ENDBLK
  5
2F6
330
2F4
100
AcDbEntity
  8
0
100
AcDbBlockEnd
  0
ENDSEC
  0
SECTION
  2
ENTITIES
  0
INSERT
  5
AB
330
1F
100
AcDbEntity
  8
0
100
AcDbBlockReference
  2
BLKF021
 10
0.0
 20
0.0
 30
0.0
  0
TEXT
  5
D7
330
1F
100
AcDbEntity
  8
}}ﾊﾊGG血CCТ
  6
CONTINUOUS
 62
     7
100
AcDbText
 10
155.0
 20
12.0
 30
0.0
 40
6.0
  1
ＥＪ－１００　Ｕ　Ｓ
 41
0.79096
  7
FX_VECTOR
 72
     5
 11
195.0
 21
12.0
 31
0.0
100
AcDbText
  0
TEXT
  5
D8
330
1F
100
AcDbEntity
  8
LAYERGROUP-1
  6
CONTINUOUS
 62
     7
100
AcDbText
 10
255.0
 20
12.0
 30
0.0
 40
6.0
  1
E30A4LAA-C01
 41
0.736842
  7
FX_VECTOR
 72
     5
 11
303.0
 21
12.0
 31
0.0
100
AcDbText
  0
CIRCLE
  5
D9
330
1F
100
AcDbEntity
  8
GR1-1
  6
CONTINUOUS
 62
     3
100
AcDbCircle
 10
212.362069
 20
265.68099
 30
0.0
 40
4.5
  0
LINE
  5
DA
330
1F
100
AcDbEntity
  8
GR1-1
  6
CONTINUOUS
 62
     3
100
AcDbLine
 10
210.362069
 20
274.68099
 30
0.0
 11
296.362069
 21
274.68099
 31
0.0
  0
CIRCLE
  5
DB
330
1F
100
AcDbEntity
  8
GR1-1
  6
CONTINUOUS
 62
     3
100
AcDbCircle
 10
294.362069
 20
265.68099
 30
0.0
 40
4.5
  0
ARC
  5
DC
330
1F
100
AcDbEntity
  8
GR1-1
  6
CONTINUOUS
 62
     3
100
AcDbCircle
 10
401.075965
 20
245.68099
 30
0.0
 40
100.0
100
AcDbArc
 50
168.134938
 51
191.865062
  0
CIRCLE
  5
DD
330
1F
100
AcDbEntity
  8
GR1-1
  6
CONTINUOUS
 62
     3
100
AcDbCircle
 10
294.362069
 20
225.68099
 30
0.0
 40
4.5
  0
LINE
  5
DE
330
1F
100
AcDbEntity
  8
GR1-1
  6
CONTINUOUS
 62
     3
100
AcDbLine
 10
296.362069
 20
216.68099
 30
0.0
 11
210.362069
 21
216.68099
 31
0.0
  0
ARC
  5
DF
330
1F
100
AcDbEntity
  8
GR1-1
  6
CONTINUOUS
 62
     3
100
AcDbCircle
 10
105.648173
 20
245.68099
 30
0.0
 40
100.0
100
AcDbArc
 50
-11.865062
 51
11.865062
  0
ARC
  5
E0
330
1F
100
AcDbEntity
  8
GR1-1
  6
CONTINUOUS
 62
     3
100
AcDbCircle
 10
210.362069
 20
267.68099
 30
0.0
 40
7.0
100
AcDbArc
 50
90.0
 51
191.865062
  0
ARC
  5
E1
330
1F
100
AcDbEntity
  8
GR1-1
  6
CONTINUOUS
 62
     3
100
AcDbCircle
 10
210.362069
 20
223.68099
 30
0.0
 40
7.0
100
AcDbArc
 50
168.134938
 51
270.0
  0
CIRCLE
  5
E2
330
1F
100
AcDbEntity
  8
GR1-1
  6
CONTINUOUS
 62
     3
100
AcDbCircle
 10
212.362069
 20
225.68099
 30
0.0
 40
4.5
  0
CIRCLE
  5
E3
330
1F
100
AcDbEntity
  8
GR1-1
  6
CONTINUOUS
 62
     3
100
AcDbCircle
 10
253.362069
 20
245.68099
 30
0.0
 40
9.5
  0
ARC
  5
E4
330
1F
100
AcDbEntity
  8
GR1-1
  6
CONTINUOUS
 62
     3
100
AcDbCircle
 10
296.362069
 20
223.68099
 30
0.0
 40
7.0
100
AcDbArc
 50
-90.0
 51
11.865062
  0
ARC
  5
E5
330
1F
100
AcDbEntity
  8
GR1-1
  6
CONTINUOUS
 62
     3
100
AcDbCircle
 10
296.362069
 20
267.68099
 30
0.0
 40
7.0
100
AcDbArc
 50
-11.865062
 51
90.0
  0
LINE
  5
E6
330
1F
100
AcDbEntity
  8
GR1-1
  6
CONTINUOUS
 62
     3
100
AcDbLine
 10
275.862069
 20
146.281609
 30
0.0
 11
278.162069
 21
146.281609
 31
0.0
  0
LINE
  5
E7
330
1F
100
AcDbEntity
  8
GR1-1
  6
CONTINUOUS
 62
     3
100
AcDbLine
 10
278.162069
 20
146.281609
 30
0.0
 11
278.162069
 21
151.881609
 31
0.0
  0
ARC
  5
E8
330
1F
100
AcDbEntity
  8
GR1-1
  6
CONTINUOUS
 62
     3
100
AcDbCircle
 10
274.663498
 20
151.781609
 30
0.0
 40
3.5
100
AcDbArc
 50
1.637245
 51
90.0
  0
ARC
  5
E9
330
1F
100
AcDbEntity
  8
GR1-1
  6
CONTINUOUS
 62
     3
100
AcDbCircle
 10
268.916793
 20
140.443332
 30
0.0
 40
5.0
100
AcDbArc
 50
102.126685
 51
151.0
  0
LINE
  5
EA
330
1F
100
AcDbEntity
  8
GR1-1
  6
CONTINUOUS
 62
     3
100
AcDbLine
 10
264.543695
 20
142.86738
 30
0.0
 11
237.129894
 21
93.411574
 31
0.0
  0
LINE
  5
EB
330
1F
100
AcDbEntity
  8
GR1-1
  6
CONTINUOUS
 62
     3
100
AcDbLine
 10
212.543129
 20
106.03118
 30
0.0
 11
214.054934
 21
149.32361
 31
0.0
  0
LINE
  5
EC
330
1F
100
AcDbEntity
  8
GR1-1
  6
CONTINUOUS
 62
     3
100
AcDbLine
 10
211.76146
 20
146.583727
 30
0.0
 11
211.362069
 21
148.848785
 31
0.0
  0
LINE
  5
ED
330
1F
100
AcDbEntity
  8
GR1-1
  6
CONTINUOUS
 62
     3
100
AcDbLine
 10
211.362069
 20
148.848785
 30
0.0
 11
234.233351
 21
152.881609
 31
0.0
  0
LINE
  5
EE
330
1F
100
AcDbEntity
  8
GR1-1
  6
CONTINUOUS
 62
     3
100
AcDbLine
 10
213.972872
 20
146.973659
 30
0.0
 11
211.76146
 21
146.583727
 31
0.0
  0
LINE
  5
EF
330
1F
100
AcDbEntity
  8
GR1-1
  6
CONTINUOUS
 62
     3
100
AcDbLine
 10
203.362069
 20
162.937609
 30
0.0
 11
303.362069
 21
162.937609
 31
0.0
  0
LINE
  5
F0
330
1F
100
AcDbEntity
  8
GR1-1
  6
CONTINUOUS
 62
     3
100
AcDbLine
 10
203.362069
 20
162.937609
 30
0.0
 11
203.362069
 21
160.637609
 31
0.0
  0
ARC
  5
F1
330
1F
100
AcDbEntity
  8
GR1-1
  6
CONTINUOUS
 62
     3
100
AcDbCircle
 10
232.06064
 20
151.781609
 30
0.0
 40
3.5
100
AcDbArc
 50
90.0
 51
178.362755
  0
ARC
  5
F2
330
1F
100
AcDbEntity
  8
GR1-1
  6
CONTINUOUS
 62
     3
100
AcDbCircle
 10
276.933818
 20
103.132046
 30
0.0
 40
43.1628713378084
100
AcDbArc
 50
91.42282
 51
102.126685
  0
LINE
  5
F3
330
1F
100
AcDbEntity
  8
GR1-1
  6
CONTINUOUS
 62
     3
100
AcDbLine
 10
150.153091
 20
162.937609
 30
0.0
 11
92.153091
 21
162.937609
 31
0.0
  0
LINE
  5
F4
330
1F
100
AcDbEntity
  8
GR1-1
  6
CONTINUOUS
 62
     3
100
AcDbLine
 10
92.153091
 20
162.937609
 30
0.0
 11
92.153091
 21
160.637609
 31
0.0
  0
LINE
  5
F5
330
1F
100
AcDbEntity
  8
GR1-1
  6
CONTINUOUS
 62
     3
100
AcDbLine
 10
92.153091
 20
160.637609
 30
0.0
 11
150.153091
 21
160.637609
 31
0.0
  0
LINE
  5
F6
330
1F
100
AcDbEntity
  8
GR1-1
  6
CONTINUOUS
 62
     3
100
AcDbLine
 10
150.153091
 20
160.637609
 30
0.0
 11
150.153091
 21
162.937609
 31
0.0
  0
ARC
  5
F7
330
1F
100
AcDbEntity
  8
GR1-1
  6
CONTINUOUS
 62
     3
100
AcDbCircle
 10
149.332079
 20
159.637609
 30
0.0
 40
1.0
100
AcDbArc
 50
90.0
 51
156.126621
  0
ARC
  5
F8
330
1F
100
AcDbEntity
  8
GR1-1
  6
CONTINUOUS
 62
     3
100
AcDbCircle
 10
141.1021
 20
163.28006
 30
0.0
 40
8.0
100
AcDbArc
 50
304.320141
 51
336.126621
  0
ARC
  5
F9
330
1F
100
AcDbEntity
  8
GR1-1
  6
CONTINUOUS
 62
     3
100
AcDbCircle
 10
144.203091
 20
158.737609
 30
0.0
 40
2.5
100
AcDbArc
 50
270.0
 51
304.320141
  0
LINE
  5
FA
330
1F
100
AcDbEntity
  8
GR1-1
  6
CONTINUOUS
 62
     3
100
AcDbLine
 10
144.203091
 20
156.237609
 30
0.0
 11
98.103091
 21
156.237609
 31
0.0
  0
ARC
  5
FB
330
1F
100
AcDbEntity
  8
GR1-1
  6
CONTINUOUS
 62
     3
100
AcDbCircle
 10
98.103091
 20
158.737609
 30
0.0
 40
2.5
100
AcDbArc
 50
235.679859
 51
270.0
  0
LINE
  5
FC
330
1F
100
AcDbEntity
  8
GR1-1
  6
CONTINUOUS
 62
     3
100
AcDbLine
 10
100.353091
 20
155.281609
 30
0.0
 11
141.953091
 21
155.281609
 31
0.0
  0
LINE
  5
FD
330
1F
100
AcDbEntity
  8
GR1-1
  6
CONTINUOUS
 62
     3
100
AcDbLine
 10
145.953091
 20
151.281609
 30
0.0
 11
145.953091
 21
124.295032
 31
0.0
  0
LINE
  5
FE
330
1F
100
AcDbEntity
  8
GR1-1
  6
CONTINUOUS
 62
     3
100
AcDbLine
 10
139.453091
 20
145.848785
 30
0.0
 11
139.453091
 21
79.631609
 31
0.0
  0
LINE
  5
FF
330
1F
100
AcDbEntity
  8
GR1-1
  6
CONTINUOUS
 62
     3
100
AcDbLine
 10
139.453091
 20
79.631609
 30
0.0
 11
137.153091
 21
79.631609
 31
0.0
  0
LINE
  5
100
330
1F
100
AcDbEntity
  8
GR1-1
  6
CONTINUOUS
 62
     3
100
AcDbLine
 10
137.153091
 20
79.631609
 30
0.0
 11
137.153091
 21
146.083727
 31
0.0
  0
ARC
  5
101
330
1F
100
AcDbEntity
  8
GR1-1
  6
CONTINUOUS
 62
     3
100
AcDbCircle
 10
136.653091
 20
146.083727
 30
0.0
 40
0.5
100
AcDbArc
 50
0.0
 51
90.0
  0
LINE
  5
102
330
1F
100
AcDbEntity
  8
GR1-1
  6
CONTINUOUS
 62
     3
100
AcDbLine
 10
136.653091
 20
146.583727
 30
0.0
 11
105.653091
 21
146.583727
 31
0.0
  0
ARC
  5
103
330
1F
100
AcDbEntity
  8
GR1-1
  6
CONTINUOUS
 62
     3
100
AcDbCircle
 10
105.653091
 20
146.083727
 30
0.0
 40
0.5
100
AcDbArc
 50
90.0
 51
180.0
  0
LINE
  5
104
330
1F
100
AcDbEntity
  8
GR1-1
  6
CONTINUOUS
 62
     3
100
AcDbLine
 10
105.153091
 20
146.083727
 30
0.0
 11
105.153091
 21
79.631609
 31
0.0
  0
LINE
  5
105
330
1F
100
AcDbEntity
  8
GR1-1
  6
CONTINUOUS
 62
     3
100
AcDbLine
 10
105.153091
 20
79.631609
 30
0.0
 11
102.853091
 21
79.631609
 31
0.0
  0
LINE
  5
106
330
1F
100
AcDbEntity
  8
GR1-1
  6
CONTINUOUS
 62
     3
100
AcDbLine
 10
102.853091
 20
79.631609
 30
0.0
 11
102.853091
 21
145.848785
 31
0.0
  0
ARC
  5
107
330
1F
100
AcDbEntity
  8
GR1-1
  6
CONTINUOUS
 62
     3
100
AcDbCircle
 10
105.853091
 20
145.848785
 30
0.0
 40
3.0
100
AcDbArc
 50
90.0
 51
180.0
  0
LINE
  5
108
330
1F
100
AcDbEntity
  8
GR1-1
  6
CONTINUOUS
 62
     3
100
AcDbLine
 10
105.853091
 20
148.848785
 30
0.0
 11
136.453091
 21
148.848785
 31
0.0
  0
ARC
  5
109
330
1F
100
AcDbEntity
  8
GR1-1
  6
CONTINUOUS
 62
     3
100
AcDbCircle
 10
136.453091
 20
145.848785
 30
0.0
 40
3.0
100
AcDbArc
 50
0.0
 51
90.0
  0
ARC
  5
10A
330
1F
100
AcDbEntity
  8
GR1-1
  6
CONTINUOUS
 62
     3
100
AcDbCircle
 10
141.953091
 20
151.281609
 30
0.0
 40
4.0
100
AcDbArc
 50
0.0
 51
90.0
  0
ARC
  5
10B
330
1F
100
AcDbEntity
  8
GR1-1
  6
CONTINUOUS
 62
     3
100
AcDbCircle
 10
100.353091
 20
151.281609
 30
0.0
 40
4.0
100
AcDbArc
 50
90.0
 51
180.0
  0
LINE
  5
10C
330
1F
100
AcDbEntity
  8
GR1-1
  6
CONTINUOUS
 62
     3
100
AcDbLine
 10
96.353091
 20
151.281609
 30
0.0
 11
96.353091
 21
127.592292
 31
0.0
  0
ARC
  5
10D
330
1F
100
AcDbEntity
  8
GR1-1
  6
CONTINUOUS
 62
     3
100
AcDbCircle
 10
169.661559
 20
125.107672
 30
0.0
 40
73.3402116851108
100
AcDbArc
 50
178.058835
 51
202.611278
  0
ARC
  5
10E
330
1F
100
AcDbEntity
  8
GR1-1
  6
CONTINUOUS
 62
     3
100
AcDbCircle
 10
101.204081
 20
163.28006
 30
0.0
 40
8.0
100
AcDbArc
 50
203.873379
 51
235.679859
  0
ARC
  5
10F
330
1F
100
AcDbEntity
  8
GR1-1
  6
CONTINUOUS
 62
     3
100
AcDbCircle
 10
92.974102
 20
159.637609
 30
0.0
 40
1.0
100
AcDbArc
 50
23.873379
 51
90.0
  0
LINE
  5
110
330
1F
100
AcDbEntity
  8
GR1-1
  6
CENTER
 62
     6
100
AcDbLine
 10
98.811415
 20
90.937609
 30
0.0
 11
151.433667
 21
90.937609
 31
0.0
  0
LINE
  5
111
330
1F
100
AcDbEntity
  8
GR1-1
  6
CENTER
 62
     6
100
AcDbLine
 10
121.153091
 20
39.278763
 30
0.0
 11
121.153091
 21
165.281609
 31
0.0
  0
ARC
  5
112
330
1F
100
AcDbEntity
  8
GR1-1
  6
CONTINUOUS
 62
     6
100
AcDbCircle
 10
121.153091
 20
310.012859
 30
0.0
 40
158.0312500000001
100
AcDbArc
 50
263.550955
 51
276.449045
  0
LINE
  5
113
330
1F
100
AcDbEntity
  8
GR1-1
  6
CENTER
 62
     6
100
AcDbLine
 10
253.362069
 20
165.176959
 30
0.0
 11
253.362069
 21
115.643273
 31
0.0
  0
LINE
  5
114
330
1F
100
AcDbEntity
  8
GR1-1
  6
CONTINUOUS
 62
     6
100
AcDbLine
 10
236.355085
 20
95.281609
 30
0.0
 11
236.355085
 21
150.781609
 31
0.0
  0
LINE
  5
115
330
1F
100
AcDbEntity
  8
GR1-1
  6
CENTER
 62
     6
100
AcDbLine
 10
253.362069
 20
213.052219
 30
0.0
 11
253.362069
 21
277.446012
 31
0.0
  0
CIRCLE
  5
116
330
1F
100
AcDbEntity
  8
GR1-1
  6
CONTINUOUS
 62
     6
100
AcDbCircle
 10
253.362069
 20
245.68099
 30
0.0
 40
12.79999999999998
  0
CIRCLE
  5
117
330
1F
100
AcDbEntity
  8
GR1-1
  6
CONTINUOUS
 62
     6
100
AcDbCircle
 10
253.362069
 20
245.68099
 30
0.0
 40
22.0
  0
CIRCLE
  5
118
330
1F
100
AcDbEntity
  8
GR1-1
  6
CONTINUOUS
 62
     6
100
AcDbCircle
 10
253.362069
 20
245.68099
 30
0.0
 40
24.10000000000001
  0
LINE
  5
119
330
1F
100
AcDbEntity
  8
GR1-1
  6
CENTER
 62
     6
100
AcDbLine
 10
305.581476
 20
245.68099
 30
0.0
 11
167.482181
 21
245.68099
 31
0.0
  0
LINE
  5
11A
330
1F
100
AcDbEntity
  8
GR1-1
  6
CENTER
 62
     6
100
AcDbLine
 10
169.757894
 20
90.937609
 30
0.0
 11
276.45977
 21
90.937609
 31
0.0
  0
LINE
  5
11B
330
1F
100
AcDbEntity
  8
GR1-1
  6
CENTER
 62
     6
100
AcDbLine
 10
223.362069
 20
102.966362
 30
0.0
 11
223.362069
 21
37.634863
 31
0.0
  0
ARC
  5
11C
330
1F
100
AcDbEntity
  8
GR1-1
  6
CONTINUOUS
 62
     3
100
AcDbCircle
 10
225.18308
 20
159.637609
 30
0.0
 40
1.0
100
AcDbArc
 50
23.873379
 51
90.0
  0
ARC
  5
11D
330
1F
100
AcDbEntity
  8
GR1-1
  6
CONTINUOUS
 62
     3
100
AcDbCircle
 10
230.312069
 20
158.737609
 30
0.0
 40
2.5
100
AcDbArc
 50
235.679859
 51
270.0
  0
ARC
  5
11E
330
1F
100
AcDbEntity
  8
GR1-1
  6
CONTINUOUS
 62
     3
100
AcDbCircle
 10
233.413059
 20
163.28006
 30
0.0
 40
8.0
100
AcDbArc
 50
203.873379
 51
235.679859
  0
LINE
  5
11F
330
1F
100
AcDbEntity
  8
LAYERGROUP-1
  6
CONTINUOUS
 62
     3
100
AcDbLine
 10
203.362069
 20
161.637609
 30
0.0
 11
203.362069
 21
160.637609
 31
0.0
  0
LINE
  5
120
330
1F
100
AcDbEntity
  8
LAYERGROUP-1
  6
CONTINUOUS
 62
     3
100
AcDbLine
 10
203.362069
 20
160.637609
 30
0.0
 11
303.362069
 21
160.637609
 31
0.0
  0
LINE
  5
121
330
1F
100
AcDbEntity
  8
LAYERGROUP-1
  6
CONTINUOUS
 62
     3
100
AcDbLine
 10
230.312069
 20
156.237609
 30
0.0
 11
276.412069
 21
156.237609
 31
0.0
  0
LINE
  5
122
330
1F
100
AcDbEntity
  8
LAYERGROUP-1
  6
CONTINUOUS
 62
     3
100
AcDbLine
 10
232.06064
 20
155.281609
 30
0.0
 11
274.663498
 21
155.281609
 31
0.0
  0
DIMENSION
  5
123
330
1F
100
AcDbEntity
  8
LAYERGROUP-1
100
AcDbDimension
  2
*D22
 10
253.362069
 20
30.675894
 30
0.0
 11
238.362061
 21
31.675903
 31
0.0
 70
    32
  3
FXDIMINFO
100
AcDbAlignedDimension
 13
223.362069
 23
37.634863
 33
0.0
 14
253.362069
 24
114.261417
 34
0.0
 50
180.0
100
AcDbRotatedDimension
1001
ACAD
1000
DSTYLE
1002
{
1070
     7
1000
FXTIP_ARROW_E
1070
     6
1000
FXTIP_ARROW_S
1070
   173
1070
     1
1002
}
  0
DIMENSION
  5
12D
330
1F
100
AcDbEntity
  8
LAYERGROUP-1
100
AcDbDimension
  2
*D23
 10
323.362069
 20
162.937609
 30
0.0
 11
322.362061
 21
101.937607
 31
0.0
 70
    32
  3
FXDIMINFO
100
AcDbAlignedDimension
 13
223.362069
 23
40.937609
 33
0.0
 14
303.362069
 24
162.937609
 34
0.0
 50
270.0
100
AcDbRotatedDimension
1001
ACAD
1000
DSTYLE
1002
{
1070
     7
1000
FXTIP_ARROW_E
1070
     6
1000
FXTIP_ARROW_S
1070
   173
1070
     1
1002
}
  0
DIMENSION
  5
137
330
1F
100
AcDbEntity
  8
LAYERGROUP-1
100
AcDbDimension
  2
*D24
 10
313.362069
 20
162.937609
 30
0.0
 11
312.362061
 21
126.937607
 31
0.0
 70
    32
  3
FXDIMINFO
100
AcDbAlignedDimension
 13
276.45977
 23
90.937609
 33
0.0
 14
303.362069
 24
162.937609
 34
0.0
 50
270.0
100
AcDbRotatedDimension
1001
ACAD
1000
DSTYLE
1002
{
1070
     7
1000
FXTIP_ARROW_E
1070
     6
1000
FXTIP_ARROW_S
1070
   173
1070
     1
1002
}
  0
DIMENSION
  5
140
330
1F
100
AcDbEntity
  8
LAYERGROUP-1
100
AcDbDimension
  2
*D25
 10
89.350875
 20
140.937609
 30
0.0
 11
88.350868
 21
90.937607
 31
0.0
 70
    33
  3
FXDIMINFO
100
AcDbAlignedDimension
 13
121.153091
 23
40.937609
 33
0.0
 14
121.153091
 24
140.937609
 34
0.0
1001
ACAD
1000
DSTYLE
1002
{
1070
     7
1000
FXTIP_ARROW_E
1070
     6
1000
FXTIP_ARROW_S
1070
   173
1070
     1
1002
}
  0
INSERT
  5
14D
330
1F
100
AcDbEntity
  8
0
100
AcDbBlockReference
  2
BLKF028
 10
0.0
 20
0.0
 30
0.0
  0
LINE
  5
172
330
1F
100
AcDbEntity
  8
GR1-1
  6
CONTINUOUS
 62
     3
100
AcDbLine
 10
222.615382
 20
76.95484
 30
0.0
 11
214.73692
 21
78.344026
 31
0.0
  0
LINE
  5
173
330
1F
100
AcDbEntity
  8
GR1-1
  6
CONTINUOUS
 62
     3
100
AcDbLine
 10
214.73692
 20
78.344026
 30
0.0
 11
215.095322
 21
80.376627
 31
0.0
  0
ARC
  5
174
330
1F
100
AcDbEntity
  8
GR1-1
  6
CONTINUOUS
 62
     3
100
AcDbCircle
 10
214.110515
 20
80.550275
 30
0.0
 40
1.0
100
AcDbArc
 50
-10.0
 51
9.635934
  0
LINE
  5
175
330
1F
100
AcDbEntity
  8
GR1-1
  6
CONTINUOUS
 62
     3
100
AcDbLine
 10
215.108483
 20
80.61399
 30
0.0
 11
223.014773
 21
79.219898
 31
0.0
  0
LINE
  5
176
330
1F
100
AcDbEntity
  8
GR1-1
  6
CONTINUOUS
 62
     3
100
AcDbLine
 10
223.032137
 20
79.318379
 30
0.0
 11
222.615382
 21
76.95484
 31
0.0
  0
LINE
  5
177
330
1F
100
AcDbEntity
  8
GR1-1
  6
CONTINUOUS
 62
     3
100
AcDbLine
 10
233.362069
 20
96.651578
 30
0.0
 11
233.362069
 21
132.037609
 31
0.0
  0
LINE
  5
178
330
1F
100
AcDbEntity
  8
GR1-1
  6
CONTINUOUS
 62
     3
100
AcDbLine
 10
223.362069
 20
132.037609
 30
0.0
 11
223.362069
 21
106.689514
 31
0.0
  0
ARC
  5
179
330
1F
100
AcDbEntity
  8
GR1-1
  6
CONTINUOUS
 62
     3
100
AcDbCircle
 10
220.862069
 20
106.689514
 30
0.0
 40
2.5
100
AcDbArc
 50
274.132369
 51
360.0
  0
LINE
  5
17A
330
1F
100
AcDbEntity
  8
GR1-1
  6
CONTINUOUS
 62
     3
100
AcDbLine
 10
217.568938
 20
107.698207
 30
0.0
 11
217.568938
 21
105.362726
 31
0.0
  0
ARC
  5
17B
330
1F
100
AcDbEntity
  8
GR1-1
  6
CONTINUOUS
 62
     3
100
AcDbCircle
 10
218.553823
 20
105.189514
 30
0.0
 40
1.0
100
AcDbArc
 50
170.0
 51
183.204167
  0
LINE
  5
17C
330
1F
100
AcDbEntity
  8
GR1-1
  6
CONTINUOUS
 62
     3
100
AcDbLine
 10
217.569015
 20
105.363162
 30
0.0
 11
212.644899
 21
106.230967
 31
0.0
  0
LINE
  5
17D
330
1F
100
AcDbEntity
  8
GR1-1
  6
CONTINUOUS
 62
     3
100
AcDbLine
 10
212.644899
 20
106.230967
 30
0.0
 11
213.443681
 21
108.425601
 31
0.0
  0
LINE
  5
17E
330
1F
100
AcDbEntity
  8
GR1-1
  6
CONTINUOUS
 62
     3
100
AcDbLine
 10
213.443681
 20
108.425601
 30
0.0
 11
217.568938
 21
107.698207
 31
0.0
  0
LINE
  5
17F
330
1F
100
AcDbEntity
  8
GR1-1
  6
CONTINUOUS
 62
     3
100
AcDbLine
 10
212.644899
 20
106.230967
 30
0.0
 11
212.611678
 21
106.042562
 31
0.0
  0
ARC
  5
180
330
1F
100
AcDbEntity
  8
GR1-1
  6
CONTINUOUS
 62
     3
100
AcDbCircle
 10
211.626871
 20
106.216211
 30
0.0
 40
1.0
100
AcDbArc
 50
349.202619
 51
350.0
  0
LINE
  5
181
330
1F
100
AcDbEntity
  8
GR1-1
  6
CONTINUOUS
 62
     6
100
AcDbLine
 10
223.362069
 20
129.189514
 30
0.0
 11
233.362069
 21
129.189514
 31
0.0
  0
LINE
  5
182
330
1F
100
AcDbEntity
  8
GR1-1
  6
CONTINUOUS
 62
     3
100
AcDbLine
 10
166.753089
 20
85.047231
 30
0.0
 11
166.753089
 21
75.912536
 31
0.0
  0
ARC
  5
183
330
1F
100
AcDbEntity
  8
GR1-1
  6
CONTINUOUS
 62
     3
100
AcDbCircle
 10
162.753089
 20
83.259795
 30
0.0
 40
4.0
100
AcDbArc
 50
0.0
 51
90.0
  0
LINE
  5
184
330
1F
100
AcDbEntity
  8
GR1-1
  6
CONTINUOUS
 62
     3
100
AcDbLine
 10
149.053091
 20
68.578388
 30
0.0
 11
146.753091
 21
68.578388
 31
0.0
  0
LINE
  5
185
330
1F
100
AcDbEntity
  8
GR1-1
  6
CONTINUOUS
 62
     3
100
AcDbLine
 10
146.753091
 20
68.578388
 30
0.0
 11
146.753091
 21
69.455483
 31
0.0
  0
LINE
  5
186
330
1F
100
AcDbEntity
  8
GR1-1
  6
CONTINUOUS
 62
     3
100
AcDbLine
 10
146.753091
 20
69.455483
 30
0.0
 11
142.971083
 21
73.116311
 31
0.0
  0
LINE
  5
187
330
1F
100
AcDbEntity
  8
GR1-1
  6
CONTINUOUS
 62
     3
100
AcDbLine
 10
144.053091
 20
75.155212
 30
0.0
 11
144.053091
 21
76.95484
 31
0.0
  0
LINE
  5
188
330
1F
100
AcDbEntity
  8
GR1-1
  6
CONTINUOUS
 62
     3
100
AcDbLine
 10
145.653091
 20
76.95484
 30
0.0
 11
142.453091
 21
76.95484
 31
0.0
  0
LINE
  5
189
330
1F
100
AcDbEntity
  8
GR1-1
  6
CONTINUOUS
 62
     3
100
AcDbLine
 10
141.753091
 20
77.03765
 30
0.0
 11
141.753091
 21
75.990408
 31
0.0
  0
ARC
  5
18A
330
1F
100
AcDbEntity
  8
GR1-1
  6
CONTINUOUS
 62
     3
100
AcDbCircle
 10
145.753091
 20
75.990408
 30
0.0
 40
4.0
100
AcDbArc
 50
180.0
 51
225.932769
  0
LINE
  5
18B
330
1F
100
AcDbEntity
  8
GR1-1
  6
CONTINUOUS
 62
     3
100
AcDbLine
 10
144.053091
 20
75.155212
 30
0.0
 11
147.831724
 21
71.506228
 31
0.0
  0
ARC
  5
18C
330
1F
100
AcDbEntity
  8
GR1-1
  6
CONTINUOUS
 62
     3
100
AcDbCircle
 10
156.207491
 20
81.638823
 30
0.0
 40
12.0
100
AcDbArc
 50
233.401775
 51
331.497924
  0
ARC
  5
18D
330
1F
100
AcDbEntity
  8
GR1-1
  6
CONTINUOUS
 62
     3
100
AcDbCircle
 10
162.753089
 20
85.047231
 30
0.0
 40
4.0
100
AcDbArc
 50
0.0
 51
90.0
  0
LINE
  5
18E
330
1F
100
AcDbEntity
  8
GR1-1
  6
CONTINUOUS
 62
     3
100
AcDbLine
 10
144.553091
 20
95.282081
 30
0.0
 11
144.553091
 21
111.665969
 31
0.0
  0
ARC
  5
18F
330
1F
100
AcDbEntity
  8
GR1-1
  6
CONTINUOUS
 62
     3
100
AcDbCircle
 10
144.053091
 20
111.665969
 30
0.0
 40
0.5
100
AcDbArc
 50
0.0
 51
90.0
  0
LINE
  5
190
330
1F
100
AcDbEntity
  8
GR1-1
  6
CONTINUOUS
 62
     3
100
AcDbLine
 10
144.553091
 20
109.212151
 30
0.0
 11
158.753091
 21
109.212151
 31
0.0
  0
ARC
  5
191
330
1F
100
AcDbEntity
  8
GR1-1
  6
CONTINUOUS
 62
     3
100
AcDbCircle
 10
158.753091
 20
112.212151
 30
0.0
 40
3.0
100
AcDbArc
 50
270.0
 51
360.0
  0
LINE
  5
192
330
1F
100
AcDbEntity
  8
GR1-1
  6
CONTINUOUS
 62
     3
100
AcDbLine
 10
161.753091
 20
112.212151
 30
0.0
 11
161.753091
 21
121.404779
 31
0.0
  0
ARC
  5
193
330
1F
100
AcDbEntity
  8
GR1-1
  6
CONTINUOUS
 62
     3
100
AcDbCircle
 10
150.56195
 20
104.858396
 30
0.0
 40
19.97559558830291
100
AcDbArc
 50
55.927558
 51
110.010286
  0
ARC
  5
194
330
1F
100
AcDbEntity
  8
GR1-1
  6
CONTINUOUS
 62
     3
100
AcDbCircle
 10
144.753091
 20
120.809195
 30
0.0
 40
3.0
100
AcDbArc
 50
110.010286
 51
180.0
  0
LINE
  5
195
330
1F
100
AcDbEntity
  8
GR1-1
  6
CONTINUOUS
 62
     3
100
AcDbLine
 10
144.053091
 20
121.251406
 30
0.0
 11
144.053091
 21
80.376627
 31
0.0
  0
LINE
  5
196
330
1F
100
AcDbEntity
  8
GR1-1
  6
CONTINUOUS
 62
     3
100
AcDbLine
 10
145.153091
 20
80.376627
 30
0.0
 11
141.753091
 21
80.376627
 31
0.0
  0
LINE
  5
197
330
1F
100
AcDbEntity
  8
GR1-1
  6
CONTINUOUS
 62
     3
100
AcDbLine
 10
141.753091
 20
80.376627
 30
0.0
 11
141.753091
 21
128.36789
 31
0.0
  0
ARC
  5
198
330
1F
100
AcDbEntity
  8
GR1-1
  6
CONTINUOUS
 62
     3
100
AcDbCircle
 10
137.753091
 20
128.36789
 30
0.0
 40
4.0
100
AcDbArc
 50
0.0
 51
44.900907
  0
ARC
  5
199
330
1F
100
AcDbEntity
  8
GR1-1
  6
CONTINUOUS
 62
     3
100
AcDbCircle
 10
133.153091
 20
139.86302
 30
0.0
 40
4.0
100
AcDbArc
 50
0.0
 51
90.0
  0
LINE
  5
19A
330
1F
100
AcDbEntity
  8
GR1-1
  6
CONTINUOUS
 62
     3
100
AcDbLine
 10
133.153091
 20
143.86302
 30
0.0
 11
113.153091
 21
143.86302
 31
0.0
  0
ARC
  5
19B
330
1F
100
AcDbEntity
  8
GR1-1
  6
CONTINUOUS
 62
     3
100
AcDbCircle
 10
113.153091
 20
142.939514
 30
0.0
 40
1.0
100
AcDbArc
 50
180.0
 51
270.0
  0
LINE
  5
19C
330
1F
100
AcDbEntity
  8
GR1-1
  6
CONTINUOUS
 62
     3
100
AcDbLine
 10
113.153091
 20
141.939514
 30
0.0
 11
133.853091
 21
141.939514
 31
0.0
  0
LINE
  5
19D
330
1F
100
AcDbEntity
  8
GR1-1
  6
CONTINUOUS
 62
     3
100
AcDbLine
 10
134.853091
 20
140.939514
 30
0.0
 11
134.853091
 21
135.011138
 31
0.0
  0
ARC
  5
19E
330
1F
100
AcDbEntity
  8
GR1-1
  6
CONTINUOUS
 62
     3
100
AcDbCircle
 10
138.853091
 20
135.011138
 30
0.0
 40
4.0
100
AcDbArc
 50
180.0
 51
229.0
  0
LINE
  5
19F
330
1F
100
AcDbEntity
  8
GR1-1
  6
CONTINUOUS
 62
     3
100
AcDbLine
 10
136.228855
 20
131.992299
 30
0.0
 11
137.153091
 21
131.188873
 31
0.0
  0
ARC
  5
1A0
330
1F
100
AcDbEntity
  8
GR1-1
  6
CONTINUOUS
 62
     3
100
AcDbCircle
 10
142.453091
 20
79.95484
 30
0.0
 40
3.0
100
AcDbArc
 50
180.0
 51
270.0
  0
LINE
  5
1A1
330
1F
100
AcDbEntity
  8
GR1-1
  6
CONTINUOUS
 62
     3
100
AcDbLine
 10
142.453091
 20
78.344026
 30
0.0
 11
145.653091
 21
78.344026
 31
0.0
  0
LINE
  5
1A2
330
1F
100
AcDbEntity
  8
GR1-1
  6
CONTINUOUS
 62
     3
100
AcDbLine
 10
145.653091
 20
76.95484
 30
0.0
 11
145.653091
 21
79.876627
 31
0.0
  0
ARC
  5
1A3
330
1F
100
AcDbEntity
  8
GR1-1
  6
CONTINUOUS
 62
     3
100
AcDbCircle
 10
145.153091
 20
79.876627
 30
0.0
 40
0.5
100
AcDbArc
 50
0.0
 51
90.0
  0
ARC
  5
1A4
330
1F
100
AcDbEntity
  8
GR1-1
  6
CONTINUOUS
 62
     3
100
AcDbCircle
 10
142.453091
 20
81.344026
 30
0.0
 40
3.0
100
AcDbArc
 50
180.0
 51
270.0
  0
ARC
  5
1A5
330
1F
100
AcDbEntity
  8
GR1-1
  6
CONTINUOUS
 62
     3
100
AcDbCircle
 10
145.053091
 20
68.628869
 30
0.0
 40
4.0
100
AcDbArc
 50
0.0
 51
46.0
  0
LINE
  5
1A6
330
1F
100
AcDbEntity
  8
GR1-1
  6
CONTINUOUS
 62
     3
100
AcDbLine
 10
144.553091
 20
105.362726
 30
0.0
 11
145.153091
 21
105.362726
 31
0.0
  0
LINE
  5
1A7
330
1F
100
AcDbEntity
  8
GR1-1
  6
CONTINUOUS
 62
     3
100
AcDbLine
 10
145.153091
 20
105.362726
 30
0.0
 11
145.153091
 21
108.425601
 31
0.0
  0
LINE
  5
1A8
330
1F
100
AcDbEntity
  8
GR1-1
  6
CONTINUOUS
 62
     3
100
AcDbLine
 10
145.153091
 20
108.425601
 30
0.0
 11
144.553091
 21
108.425601
 31
0.0
  0
LINE
  5
1A9
330
1F
100
AcDbEntity
  8
GR1-1
  6
CONTINUOUS
 62
     3
100
AcDbLine
 10
144.553091
 20
106.230967
 30
0.0
 11
145.153091
 21
106.230967
 31
0.0
  0
ARC
  5
1AA
330
1F
100
AcDbEntity
  8
GR1-1
  6
CONTINUOUS
 62
     3
100
AcDbCircle
 10
142.953091
 20
104.925601
 30
0.0
 40
3.5
100
AcDbArc
 50
110.051043
 51
180.0
  0
ARC
  5
1AB
330
1F
100
AcDbEntity
  8
GR1-1
  6
CONTINUOUS
 62
     3
100
AcDbCircle
 10
144.553091
 20
121.251406
 30
0.0
 40
0.5
100
AcDbArc
 50
109.319944
 51
180.0
  0
ARC
  5
1AC
330
1F
100
AcDbEntity
  8
GR1-1
  6
CONTINUOUS
 62
     3
100
AcDbCircle
 10
150.780116
 20
103.489634
 30
0.0
 40
19.32169991392831
100
AcDbArc
 50
55.395432
 51
109.319944
  0
ARC
  5
1AD
330
1F
100
AcDbEntity
  8
GR1-1
  6
CONTINUOUS
 62
     3
100
AcDbCircle
 10
127.979861
 20
134.244197
 30
0.0
 40
8.32389803990519
100
AcDbArc
 50
34.338195
 51
67.590779
  0
ARC
  5
1AE
330
1F
100
AcDbEntity
  8
GR1-1
  6
CONTINUOUS
 62
     3
100
AcDbCircle
 10
133.853091
 20
140.939514
 30
0.0
 40
1.0
100
AcDbArc
 50
0.0
 51
90.0
  0
ARC
  5
1AF
330
1F
100
AcDbEntity
  8
GR1-1
  6
CONTINUOUS
 62
     3
100
AcDbCircle
 10
126.268872
 20
127.768185
 30
0.0
 40
17.90515533768449
100
AcDbArc
 50
59.244697
 51
80.730228
  0
LINE
  5
1B0
330
1F
100
AcDbEntity
  8
GR1-1
  6
CONTINUOUS
 62
     3
100
AcDbLine
 10
129.153091
 20
145.439514
 30
0.0
 11
112.153091
 21
145.439514
 31
0.0
  0
LINE
  5
1B1
330
1F
100
AcDbEntity
  8
GR1-1
  6
CONTINUOUS
 62
     3
100
AcDbLine
 10
112.153091
 20
145.439514
 30
0.0
 11
112.153091
 21
142.939514
 31
0.0
  0
ARC
  5
1B2
330
1F
100
AcDbEntity
  8
GR1-1
  6
CONTINUOUS
 62
     3
100
AcDbCircle
 10
113.153091
 20
144.86302
 30
0.0
 40
1.0
100
AcDbArc
 50
180.0
 51
270.0
  0
LINE
  5
1B3
330
1F
100
AcDbEntity
  8
GR1-1
  6
CONTINUOUS
 62
     6
100
AcDbLine
 10
144.053091
 20
93.216071
 30
0.0
 11
141.753091
 21
93.216071
 31
0.0
  0
LINE
  5
1B4
330
1F
100
AcDbEntity
  8
GR1-1
  6
CONTINUOUS
 62
     6
100
AcDbLine
 10
141.753091
 20
104.683334
 30
0.0
 11
144.053091
 21
104.683334
 31
0.0
  0
LINE
  5
1B5
330
1F
100
AcDbEntity
  8
GR1-1
  6
CONTINUOUS
 62
     3
100
AcDbLine
 10
192.414913
 20
205.33099
 30
0.0
 11
203.691548
 21
205.33099
 31
0.0
  0
ARC
  5
1B6
330
1F
100
AcDbEntity
  8
GR1-1
  6
CONTINUOUS
 62
     3
100
AcDbCircle
 10
203.691548
 20
211.33099
 30
0.0
 40
6.0
100
AcDbArc
 50
270.0
 51
360.0
  0
LINE
  5
1B7
330
1F
100
AcDbEntity
  8
GR1-1
  6
CONTINUOUS
 62
     3
100
AcDbLine
 10
209.691548
 20
211.33099
 30
0.0
 11
209.691548
 21
216.713178
 31
0.0
  0
LINE
  5
1B8
330
1F
100
AcDbEntity
  8
GR1-1
  6
CONTINUOUS
 62
     3
100
AcDbLine
 10
203.511627
 20
225.33099
 30
0.0
 11
186.22374
 21
225.33099
 31
0.0
  0
LINE
  5
1B9
330
1F
100
AcDbEntity
  8
GR1-1
  6
CONTINUOUS
 62
     3
100
AcDbLine
 10
186.22374
 20
225.33099
 30
0.0
 11
185.858949
 21
223.03099
 31
0.0
  0
ARC
  5
1BA
330
1F
100
AcDbEntity
  8
GR1-1
  6
CONTINUOUS
 62
     3
100
AcDbCircle
 10
196.087131
 20
216.755298
 30
0.0
 40
12.0
100
AcDbArc
 50
148.468025
 51
252.180573
  0
ARC
  5
1BB
330
1F
100
AcDbEntity
  8
GR1-1
  6
CONTINUOUS
 62
     3
100
AcDbCircle
 10
197.202193
 20
216.755298
 30
0.0
 40
12.0
100
AcDbArc
 50
150.212745
 51
252.180573
  0
ARC
  5
1BC
330
1F
100
AcDbEntity
  8
GR1-1
  6
CONTINUOUS
 62
     3
100
AcDbCircle
 10
185.051929
 20
223.710231
 30
0.0
 40
2.0
100
AcDbArc
 50
-29.787255
 51
54.133013
  0
LINE
  5
1BD
330
1F
100
AcDbEntity
  8
GR1-1
  6
CONTINUOUS
 62
     3
100
AcDbLine
 10
242.060227
 20
216.68099
 30
0.0
 11
242.060227
 21
206.330992
 31
0.0
  0
ARC
  5
1BE
330
1F
100
AcDbEntity
  8
GR1-1
  6
CONTINUOUS
 62
     3
100
AcDbCircle
 10
248.060227
 20
206.330992
 30
0.0
 40
6.0
100
AcDbArc
 50
180.0
 51
270.0
  0
LINE
  5
1BF
330
1F
100
AcDbEntity
  8
GR1-1
  6
CONTINUOUS
 62
     3
100
AcDbLine
 10
248.060227
 20
200.330992
 30
0.0
 11
258.994038
 21
200.330992
 31
0.0
  0
ARC
  5
1C0
330
1F
100
AcDbEntity
  8
GR1-1
  6
CONTINUOUS
 62
     3
100
AcDbCircle
 10
253.267751
 20
210.87659
 30
0.0
 40
12.0
100
AcDbArc
 50
-61.497924
 51
28.927335
  0
LINE
  5
1C1
330
1F
100
AcDbEntity
  8
GR1-1
  6
CONTINUOUS
 62
     3
100
AcDbLine
 10
243.507664
 20
216.68099
 30
0.0
 11
243.507664
 21
206.330992
 31
0.0
  0
ARC
  5
1C2
330
1F
100
AcDbEntity
  8
GR1-1
  6
CONTINUOUS
 62
     3
100
AcDbCircle
 10
249.507664
 20
206.330992
 30
0.0
 40
6.0
100
AcDbArc
 50
180.0
 51
270.0
  0
TEXT
  5
1C3
330
1F
100
AcDbEntity
  8
GR1-1
  6
CONTINUOUS
 62
     7
100
AcDbText
 10
250.880615
 20
213.314026
 30
0.0
 40
7.088436
  1
開
 50
270.0
 41
1.701963
  7
FX_VECTOR
 72
     5
 11
250.880615
 21
204.696702
 31
0.0
100
AcDbText
  0
TEXT
  5
1C4
330
1F
100
AcDbEntity
  8
GR1-1
  6
CONTINUOUS
 62
     7
100
AcDbText
 10
193.94838
 20
217.830994
 30
0.0
 40
7.46376
  1
止
 50
270.0
 41
1.614206
  7
FX_VECTOR
 72
     5
 11
193.94838
 21
209.225246
 31
0.0
100
AcDbText
  0
DIMENSION
  5
1C5
330
1F
100
AcDbEntity
  8
LAYERGROUP-1
100
AcDbDimension
  2
*D27
 10
291.244998
 20
228.926582
 30
0.0
 11
314.269562
 21
207.237701
 31
0.0
 70
   163
  3
FXDIMINFO
100
AcDbDiametricDimension
 15
297.47914
 25
222.435398
 35
0.0
 40
0.0
  0
LINE
  5
1CF
330
1F
100
AcDbEntity
  8
GR1-1
  6
CONTINUOUS
 62
     3
100
AcDbLine
 10
223.062069
 20
132.037609
 30
0.0
 11
223.062069
 21
117.037609
 31
0.0
  0
LINE
  5
1D0
330
1F
100
AcDbEntity
  8
GR1-1
  6
CONTINUOUS
 62
     3
100
AcDbLine
 10
223.062069
 20
117.037609
 30
0.0
 11
223.362069
 21
117.037609
 31
0.0
  0
LINE
  5
1D1
330
1F
100
AcDbEntity
  8
GR1-1
  6
CONTINUOUS
 62
     3
100
AcDbLine
 10
233.362069
 20
117.037609
 30
0.0
 11
233.662069
 21
117.037609
 31
0.0
  0
LINE
  5
1D2
330
1F
100
AcDbEntity
  8
GR1-1
  6
CONTINUOUS
 62
     3
100
AcDbLine
 10
233.662069
 20
117.037609
 30
0.0
 11
233.662069
 21
132.037609
 31
0.0
  0
LINE
  5
1D3
330
1F
100
AcDbEntity
  8
GR1-1
  6
CONTINUOUS
 62
     3
100
AcDbLine
 10
233.662069
 20
132.037609
 30
0.0
 11
223.062069
 21
132.037609
 31
0.0
  0
LINE
  5
1D4
330
1F
100
AcDbEntity
  8
GR1-1
  6
CONTINUOUS
 62
     3
100
AcDbLine
 10
162.753089
 20
89.047231
 30
0.0
 11
152.853091
 21
89.047231
 31
0.0
  0
LINE
  5
1D5
330
1F
100
AcDbEntity
  8
GR1-1
  6
CONTINUOUS
 62
     3
100
AcDbLine
 10
149.053091
 20
84.846703
 30
0.0
 11
149.053091
 21
68.578388
 31
0.0
  0
LINE
  5
1D6
330
1F
100
AcDbEntity
  8
GR1-1
  6
CONTINUOUS
 62
     3
100
AcDbLine
 10
162.753089
 20
87.259795
 30
0.0
 11
152.675277
 21
87.259795
 31
0.0
  0
ARC
  5
1D7
330
1F
100
AcDbEntity
  8
GR1-1
  6
CONTINUOUS
 62
     3
100
AcDbCircle
 10
144.053091
 20
95.282081
 30
0.0
 40
0.5
100
AcDbArc
 50
270.0
 51
360.0
  0
LINE
  5
1D8
330
1F
100
AcDbEntity
  8
GR1-1
  6
CONTINUOUS
 62
     3
100
AcDbLine
 10
303.362069
 20
162.937609
 30
0.0
 11
303.362069
 21
160.637609
 31
0.0
  0
ARC
  5
1D9
330
1F
100
AcDbEntity
  8
GR1-1
  6
CONTINUOUS
 62
     3
100
AcDbCircle
 10
281.541058
 20
159.637609
 30
0.0
 40
1.0
100
AcDbArc
 50
90.0
 51
156.126621
  0
ARC
  5
1DA
330
1F
100
AcDbEntity
  8
GR1-1
  6
CONTINUOUS
 62
     3
100
AcDbCircle
 10
276.412069
 20
158.737609
 30
0.0
 40
2.5
100
AcDbArc
 50
270.0
 51
304.320141
  0
ARC
  5
1DB
330
1F
100
AcDbEntity
  8
GR1-1
  6
CONTINUOUS
 62
     3
100
AcDbCircle
 10
273.311079
 20
163.28006
 30
0.0
 40
8.0
100
AcDbArc
 50
304.320141
 51
336.126621
  0
LINE
  5
1DC
330
1F
100
AcDbEntity
  8
LAYERGROUP-1
  6
CONTINUOUS
 62
     3
100
AcDbLine
 10
303.362069
 20
161.637609
 30
0.0
 11
303.362069
 21
160.637609
 31
0.0
  0
ARC
  5
1DD
330
1F
100
AcDbEntity
  8
GR1-1
  6
CONTINUOUS
 62
     3
100
AcDbCircle
 10
121.153091
 20
156.859609
 30
0.0
 40
2.778
100
AcDbArc
 50
325.386717
 51
347.061675
  0
ARC
  5
1DE
330
1F
100
AcDbEntity
  8
GR1-1
  6
CONTINUOUS
 62
     3
100
AcDbCircle
 10
126.640233
 20
156.859609
 30
0.0
 40
2.778
100
AcDbArc
 50
325.386717
 51
347.061675
  0
ARC
  5
1DF
330
1F
100
AcDbEntity
  8
GR1-1
  6
CONTINUOUS
 62
     3
100
AcDbCircle
 10
131.586716
 20
156.859609
 30
0.0
 40
2.778
100
AcDbArc
 50
207.089575
 51
214.613283
  0
ARC
  5
1E0
330
1F
100
AcDbEntity
  8
GR1-1
  6
CONTINUOUS
 62
     3
100
AcDbCircle
 10
126.640233
 20
156.859609
 30
0.0
 40
2.778
100
AcDbArc
 50
192.938325
 51
214.613283
  0
ARC
  5
1E1
330
1F
100
AcDbEntity
  8
GR1-1
  6
CONTINUOUS
 62
     3
100
AcDbCircle
 10
131.586716
 20
156.859609
 30
0.0
 40
2.778
100
AcDbArc
 50
325.386717
 51
347.061675
  0
ARC
  5
1E2
330
1F
100
AcDbEntity
  8
GR1-1
  6
CONTINUOUS
 62
     3
100
AcDbCircle
 10
135.505151
 20
156.859609
 30
0.0
 40
2.778
100
AcDbArc
 50
325.386717
 51
347.061675
  0
ARC
  5
1E3
330
1F
100
AcDbEntity
  8
GR1-1
  6
CONTINUOUS
 62
     3
100
AcDbCircle
 10
138.009447
 20
156.859609
 30
0.0
 40
2.778
100
AcDbArc
 50
325.386717
 51
347.061675
  0
ARC
  5
1E4
330
1F
100
AcDbEntity
  8
GR1-1
  6
CONTINUOUS
 62
     3
100
AcDbCircle
 10
138.85285
 20
156.859609
 30
0.0
 40
2.778
100
AcDbArc
 50
325.386717
 51
347.061675
  0
ARC
  5
1E5
330
1F
100
AcDbEntity
  8
GR1-1
  6
CONTINUOUS
 62
     3
100
AcDbCircle
 10
121.153091
 20
156.859609
 30
0.0
 40
2.778
100
AcDbArc
 50
192.938325
 51
214.613283
  0
ARC
  5
1E6
330
1F
100
AcDbEntity
  8
GR1-1
  6
CONTINUOUS
 62
     3
100
AcDbCircle
 10
115.665948
 20
156.859609
 30
0.0
 40
2.778
100
AcDbArc
 50
192.938325
 51
214.613283
  0
ARC
  5
1E7
330
1F
100
AcDbEntity
  8
GR1-1
  6
CONTINUOUS
 62
     3
100
AcDbCircle
 10
110.719465
 20
156.859609
 30
0.0
 40
2.778
100
AcDbArc
 50
325.386717
 51
332.910425
  0
ARC
  5
1E8
330
1F
100
AcDbEntity
  8
GR1-1
  6
CONTINUOUS
 62
     3
100
AcDbCircle
 10
115.665948
 20
156.859609
 30
0.0
 40
2.778
100
AcDbArc
 50
325.386717
 51
347.061675
  0
ARC
  5
1E9
330
1F
100
AcDbEntity
  8
GR1-1
  6
CONTINUOUS
 62
     3
100
AcDbCircle
 10
110.719465
 20
156.859609
 30
0.0
 40
2.778
100
AcDbArc
 50
192.938325
 51
214.613283
  0
ARC
  5
1EA
330
1F
100
AcDbEntity
  8
GR1-1
  6
CONTINUOUS
 62
     3
100
AcDbCircle
 10
106.80103
 20
156.859609
 30
0.0
 40
2.778
100
AcDbArc
 50
192.938325
 51
214.613283
  0
ARC
  5
1EB
330
1F
100
AcDbEntity
  8
GR1-1
  6
CONTINUOUS
 62
     3
100
AcDbCircle
 10
104.296734
 20
156.859609
 30
0.0
 40
2.778
100
AcDbArc
 50
192.938325
 51
214.613283
  0
ARC
  5
1EC
330
1F
100
AcDbEntity
  8
GR1-1
  6
CONTINUOUS
 62
     3
100
AcDbCircle
 10
103.453331
 20
156.859609
 30
0.0
 40
2.778
100
AcDbArc
 50
192.938325
 51
214.613283
  0
ARC
  5
1ED
330
1F
100
AcDbEntity
  8
GR1-1
  6
CONTINUOUS
 62
     3
100
AcDbCircle
 10
253.362069
 20
156.859609
 30
0.0
 40
2.778
100
AcDbArc
 50
325.386717
 51
347.061675
  0
ARC
  5
1EE
330
1F
100
AcDbEntity
  8
GR1-1
  6
CONTINUOUS
 62
     3
100
AcDbCircle
 10
258.849212
 20
156.859609
 30
0.0
 40
2.778
100
AcDbArc
 50
325.386717
 51
347.061675
  0
ARC
  5
1EF
330
1F
100
AcDbEntity
  8
GR1-1
  6
CONTINUOUS
 62
     3
100
AcDbCircle
 10
263.795694
 20
156.859609
 30
0.0
 40
2.778
100
AcDbArc
 50
207.089575
 51
214.613283
  0
ARC
  5
1F0
330
1F
100
AcDbEntity
  8
GR1-1
  6
CONTINUOUS
 62
     3
100
AcDbCircle
 10
258.849212
 20
156.859609
 30
0.0
 40
2.778
100
AcDbArc
 50
192.938325
 51
214.613283
  0
ARC
  5
1F1
330
1F
100
AcDbEntity
  8
GR1-1
  6
CONTINUOUS
 62
     3
100
AcDbCircle
 10
263.795694
 20
156.859609
 30
0.0
 40
2.778
100
AcDbArc
 50
325.386717
 51
347.061675
  0
ARC
  5
1F2
330
1F
100
AcDbEntity
  8
GR1-1
  6
CONTINUOUS
 62
     3
100
AcDbCircle
 10
267.71413
 20
156.859609
 30
0.0
 40
2.778
100
AcDbArc
 50
325.386717
 51
347.061675
  0
ARC
  5
1F3
330
1F
100
AcDbEntity
  8
GR1-1
  6
CONTINUOUS
 62
     3
100
AcDbCircle
 10
270.218426
 20
156.859609
 30
0.0
 40
2.778
100
AcDbArc
 50
325.386717
 51
347.061675
  0
ARC
  5
1F4
330
1F
100
AcDbEntity
  8
GR1-1
  6
CONTINUOUS
 62
     3
100
AcDbCircle
 10
271.061829
 20
156.859609
 30
0.0
 40
2.778
100
AcDbArc
 50
325.386717
 51
347.061675
  0
ARC
  5
1F5
330
1F
100
AcDbEntity
  8
GR1-1
  6
CONTINUOUS
 62
     3
100
AcDbCircle
 10
253.362069
 20
156.859609
 30
0.0
 40
2.778
100
AcDbArc
 50
192.938325
 51
214.613283
  0
ARC
  5
1F6
330
1F
100
AcDbEntity
  8
GR1-1
  6
CONTINUOUS
 62
     3
100
AcDbCircle
 10
247.874926
 20
156.859609
 30
0.0
 40
2.778
100
AcDbArc
 50
192.938325
 51
214.613283
  0
ARC
  5
1F7
330
1F
100
AcDbEntity
  8
GR1-1
  6
CONTINUOUS
 62
     3
100
AcDbCircle
 10
242.928443
 20
156.859609
 30
0.0
 40
2.778
100
AcDbArc
 50
325.386717
 51
332.910425
  0
ARC
  5
1F8
330
1F
100
AcDbEntity
  8
GR1-1
  6
CONTINUOUS
 62
     3
100
AcDbCircle
 10
247.874926
 20
156.859609
 30
0.0
 40
2.778
100
AcDbArc
 50
325.386717
 51
347.061675
  0
ARC
  5
1F9
330
1F
100
AcDbEntity
  8
GR1-1
  6
CONTINUOUS
 62
     3
100
AcDbCircle
 10
242.928443
 20
156.859609
 30
0.0
 40
2.778
100
AcDbArc
 50
192.938325
 51
214.613283
  0
ARC
  5
1FA
330
1F
100
AcDbEntity
  8
GR1-1
  6
CONTINUOUS
 62
     3
100
AcDbCircle
 10
239.010008
 20
156.859609
 30
0.0
 40
2.778
100
AcDbArc
 50
192.938325
 51
214.613283
  0
ARC
  5
1FB
330
1F
100
AcDbEntity
  8
GR1-1
  6
CONTINUOUS
 62
     3
100
AcDbCircle
 10
236.505712
 20
156.859609
 30
0.0
 40
2.778
100
AcDbArc
 50
192.938325
 51
214.613283
  0
ARC
  5
1FC
330
1F
100
AcDbEntity
  8
GR1-1
  6
CONTINUOUS
 62
     3
100
AcDbCircle
 10
235.662309
 20
156.859609
 30
0.0
 40
2.778
100
AcDbArc
 50
192.938325
 51
214.613283
  0
ARC
  5
1FD
330
1F
100
AcDbEntity
  8
LAYERGROUP-1
  6
CONTINUOUS
 62
     7
100
AcDbCircle
 10
253.362069
 20
245.68099
 30
0.0
 40
76.16474258841943
100
AcDbArc
 50
191.242156
 51
210.16189
  0
DIMENSION
  5
1FE
330
1F
100
AcDbEntity
  8
LAYERGROUP-1
100
AcDbDimension
  2
*D28
 10
253.362069
 20
245.68099
 30
0.0
 11
168.902206
 21
225.320999
 31
0.0
 70
   164
  3
FXDIMINFO
100
AcDbRadialDimension
 15
179.528659
 25
226.98084
 35
0.0
 40
0.0
  0
LINE
  5
206
330
1F
100
AcDbEntity
  8
LAYERGROUP-1
  6
CENTER
 62
     6
100
AcDbLine
 10
294.362069
 20
272.175249
 30
0.0
 11
294.362069
 21
259.162899
 31
0.0
  0
LINE
  5
207
330
1F
100
AcDbEntity
  8
LAYERGROUP-1
  6
CENTER
 62
     6
100
AcDbLine
 10
300.847115
 20
265.68099
 30
0.0
 11
288.299491
 21
265.68099
 31
0.0
  0
LINE
  5
208
330
1F
100
AcDbEntity
  8
LAYERGROUP-1
  6
CENTER
 62
     6
100
AcDbLine
 10
212.362069
 20
272.175249
 30
0.0
 11
212.362069
 21
259.162899
 31
0.0
  0
LINE
  5
209
330
1F
100
AcDbEntity
  8
LAYERGROUP-1
  6
CENTER
 62
     6
100
AcDbLine
 10
218.847115
 20
265.68099
 30
0.0
 11
206.299491
 21
265.68099
 31
0.0
  0
LINE
  5
20A
330
1F
100
AcDbEntity
  8
LAYERGROUP-1
  6
CENTER
 62
     6
100
AcDbLine
 10
212.362069
 20
232.175249
 30
0.0
 11
212.362069
 21
219.162899
 31
0.0
  0
LINE
  5
20B
330
1F
100
AcDbEntity
  8
LAYERGROUP-1
  6
CENTER
 62
     6
100
AcDbLine
 10
218.847115
 20
225.68099
 30
0.0
 11
206.299491
 21
225.68099
 31
0.0
  0
LINE
  5
20C
330
1F
100
AcDbEntity
  8
LAYERGROUP-1
  6
CENTER
 62
     6
100
AcDbLine
 10
294.362069
 20
232.175249
 30
0.0
 11
294.362069
 21
219.162899
 31
0.0
  0
LINE
  5
20D
330
1F
100
AcDbEntity
  8
LAYERGROUP-1
  6
CENTER
 62
     6
100
AcDbLine
 10
300.847115
 20
225.68099
 30
0.0
 11
288.299491
 21
225.68099
 31
0.0
  0
LINE
  5
20E
330
1F
100
AcDbEntity
  8
LAYERGROUP-1
  6
CENTER
 62
     6
100
AcDbLine
 10
294.362069
 20
165.401123
 30
0.0
 11
294.362069
 21
157.915254
 31
0.0
  0
LINE
  5
20F
330
1F
100
AcDbEntity
  8
LAYERGROUP-1
  6
CENTER
 62
     6
100
AcDbLine
 10
212.362069
 20
165.401123
 30
0.0
 11
212.362069
 21
157.915254
 31
0.0
  0
LINE
  5
210
330
1F
100
AcDbEntity
  8
GR1-1
  6
CENTER
 62
     6
100
AcDbLine
 10
101.153091
 20
157.915254
 30
0.0
 11
101.153091
 21
165.281609
 31
0.0
  0
LINE
  5
211
330
1F
100
AcDbEntity
  8
GR1-1
  6
CENTER
 62
     6
100
AcDbLine
 10
141.153091
 20
157.915254
 30
0.0
 11
141.153091
 21
165.281609
 31
0.0
  0
DIMENSION
  5
212
330
1F
100
AcDbEntity
  8
GR1-1
100
AcDbDimension
  2
*D29
 10
323.011529
 20
274.68099
 30
0.0
 11
322.011536
 21
245.680984
 31
0.0
 70
    33
  3
FXDIMINFO
100
AcDbAlignedDimension
 13
296.362069
 23
216.68099
 33
0.0
 14
296.362069
 24
274.68099
 34
0.0
1001
ACAD
1000
DSTYLE
1002
{
1070
     7
1000
FXTIP_ARROW_E
1070
     6
1000
FXTIP_ARROW_S
1070
   173
1070
     1
1002
}
  0
DIMENSION
  5
21C
330
1F
100
AcDbEntity
  8
GR1-1
100
AcDbDimension
  2
*D30
 10
313.011529
 20
265.68099
 30
0.0
 11
312.011536
 21
245.680984
 31
0.0
 70
    33
  3
FXDIMINFO
100
AcDbAlignedDimension
 13
302.362069
 23
225.68099
 33
0.0
 14
302.362069
 24
265.68099
 34
0.0
1001
ACAD
1000
DSTYLE
1002
{
1070
     7
1000
FXTIP_ARROW_E
1070
     6
1000
FXTIP_ARROW_S
1070
   173
1070
     1
1002
}
  0
DIMENSION
  5
226
330
1F
100
AcDbEntity
  8
GR1-1
100
AcDbDimension
  2
*D31
 10
303.362069
 20
180.330992
 30
0.0
 11
253.362061
 21
181.330994
 31
0.0
 70
    33
  3
FXDIMINFO
100
AcDbAlignedDimension
 13
203.362069
 23
223.68099
 33
0.0
 14
303.362069
 24
223.68099
 34
0.0
1001
ACAD
1000
DSTYLE
1002
{
1070
     7
1000
FXTIP_ARROW_E
1070
     6
1000
FXTIP_ARROW_S
1070
   173
1070
     1
1002
}
  0
DIMENSION
  5
230
330
1F
100
AcDbEntity
  8
GR1-1
100
AcDbDimension
  2
*D32
 10
294.362069
 20
190.330992
 30
0.0
 11
253.362061
 21
191.330994
 31
0.0
 70
    33
  3
FXDIMINFO
100
AcDbAlignedDimension
 13
212.362069
 23
217.68099
 33
0.0
 14
294.362069
 24
217.68099
 34
0.0
1001
ACAD
1000
DSTYLE
1002
{
1070
     7
1000
FXTIP_ARROW_E
1070
     6
1000
FXTIP_ARROW_S
1070
   173
1070
     1
1002
}
  0
LINE
  5
23A
330
1F
100
AcDbEntity
  8
GR1-1
  6
CONTINUOUS
 62
     3
100
AcDbLine
 10
137.153091
 20
98.437609
 30
0.0
 11
137.153091
 21
96.037609
 31
0.0
  0
LINE
  5
23B
330
1F
100
AcDbEntity
  8
GR1-1
  6
CONTINUOUS
 62
     3
100
AcDbLine
 10
137.153091
 20
83.437609
 30
0.0
 11
137.153091
 21
85.837609
 31
0.0
  0
LINE
  5
23C
330
1F
100
AcDbEntity
  8
0-1
  6
CONTINUOUS
 62
     6
100
AcDbLine
 10
230.662069
 20
143.436102
 30
0.0
 11
226.062069
 21
143.436102
 31
0.0
  0
LINE
  5
23D
330
1F
100
AcDbEntity
  8
0-1
  6
CONTINUOUS
 62
     6
100
AcDbLine
 10
233.662069
 20
132.037609
 30
0.0
 11
233.662069
 21
140.436102
 31
0.0
  0
LINE
  5
23E
330
1F
100
AcDbEntity
  8
0-1
  6
CONTINUOUS
 62
     6
100
AcDbLine
 10
223.062069
 20
132.037609
 30
0.0
 11
223.062069
 21
140.436102
 31
0.0
  0
LINE
  5
23F
330
1F
100
AcDbEntity
  8
LAYERGROUP-1
  6
CONTINUOUS
 62
     6
100
AcDbLine
 10
233.662069
 20
129.737609
 30
0.0
 11
235.362069
 21
131.514882
 31
0.0
  0
LINE
  5
240
330
1F
100
AcDbEntity
  8
LAYERGROUP-1
  6
CONTINUOUS
 62
     6
100
AcDbLine
 10
221.362069
 20
131.514882
 30
0.0
 11
223.062069
 21
129.737609
 31
0.0
  0
ARC
  5
241
330
1F
100
AcDbEntity
  8
LAYERGROUP-1
  6
CONTINUOUS
 62
     6
100
AcDbCircle
 10
230.662069
 20
140.436102
 30
0.0
 40
3.0
100
AcDbArc
 50
0.0
 51
90.0
  0
ARC
  5
242
330
1F
100
AcDbEntity
  8
LAYERGROUP-1
  6
CONTINUOUS
 62
     6
100
AcDbCircle
 10
226.062069
 20
140.436102
 30
0.0
 40
3.0
100
AcDbArc
 50
90.0
 51
180.0
  0
LINE
  5
243
330
1F
100
AcDbEntity
  8
0-1
  6
CONTINUOUS
 62
     6
100
AcDbLine
 10
235.362069
 20
145.236102
 30
0.0
 11
221.362069
 21
145.236102
 31
0.0
  0
LINE
  5
244
330
1F
100
AcDbEntity
  8
0-1
  6
CONTINUOUS
 62
     6
100
AcDbLine
 10
235.362069
 20
131.514882
 30
0.0
 11
235.362069
 21
145.236102
 31
0.0
  0
LINE
  5
245
330
1F
100
AcDbEntity
  8
0-1
  6
CONTINUOUS
 62
     6
100
AcDbLine
 10
221.362069
 20
131.514882
 30
0.0
 11
221.362069
 21
145.236102
 31
0.0
  0
LINE
  5
246
330
1F
100
AcDbEntity
  8
LAYERGROUP-1
  6
CONTINUOUS
 62
     3
100
AcDbLine
 10
139.453091
 20
145.437609
 30
0.0
 11
141.715665
 21
143.436102
 31
0.0
  0
LINE
  5
247
330
1F
100
AcDbEntity
  8
LAYERGROUP-1
  6
CONTINUOUS
 62
     3
100
AcDbLine
 10
142.053091
 20
142.687105
 30
0.0
 11
142.053091
 21
132.939377
 31
0.0
  0
LINE
  5
248
330
1F
100
AcDbEntity
  8
LAYERGROUP-1
  6
CONTINUOUS
 62
     3
100
AcDbLine
 10
141.715665
 20
132.190381
 30
0.0
 11
139.453091
 21
130.188873
 31
0.0
  0
ARC
  5
249
330
1F
100
AcDbEntity
  8
LAYERGROUP-1
  6
CONTINUOUS
 62
     3
100
AcDbCircle
 10
141.053091
 20
142.687105
 30
0.0
 40
1.0
100
AcDbArc
 50
0.0
 51
48.503532
  0
ARC
  5
24A
330
1F
100
AcDbEntity
  8
LAYERGROUP-1
  6
CONTINUOUS
 62
     3
100
AcDbCircle
 10
141.053091
 20
132.939377
 30
0.0
 40
1.0
100
AcDbArc
 50
311.496468
 51
360.0
  0
LINE
  5
24B
330
1F
100
AcDbEntity
  8
GR1-1
  6
CONTINUOUS
 62
     3
100
AcDbLine
 10
150.553091
 20
95.687609
 30
0.0
 11
148.386018
 21
97.624836
 31
0.0
  0
LINE
  5
24C
330
1F
100
AcDbEntity
  8
GR1-1
  6
CONTINUOUS
 62
     3
100
AcDbLine
 10
148.053091
 20
97.865812
 30
0.0
 11
145.053091
 21
97.865812
 31
0.0
  0
LINE
  5
24D
330
1F
100
AcDbEntity
  8
GR1-1
  6
CONTINUOUS
 62
     3
100
AcDbLine
 10
144.053091
 20
96.133761
 30
0.0
 11
144.053091
 21
85.741457
 31
0.0
  0
ARC
  5
24E
330
1F
100
AcDbEntity
  8
GR1-1
  6
CONTINUOUS
 62
     3
100
AcDbCircle
 10
150.553091
 20
90.937609
 30
0.0
 40
6.499999999999918
100
AcDbArc
 50
147.795772
 51
212.204228
  0
LINE
  5
24F
330
1F
100
AcDbEntity
  8
GR1-1
  6
CONTINUOUS
 62
     3
100
AcDbLine
 10
145.053091
 20
94.401711
 30
0.0
 11
148.053091
 21
94.401711
 31
0.0
  0
ARC
  5
250
330
1F
100
AcDbEntity
  8
GR1-1
  6
CONTINUOUS
 62
     3
100
AcDbCircle
 10
142.553091
 20
90.937609
 30
0.0
 40
6.499999999999918
100
AcDbArc
 50
-32.204228
 51
32.204228
  0
ARC
  5
251
330
1F
100
AcDbEntity
  8
GR1-1
  6
CONTINUOUS
 62
     3
100
AcDbCircle
 10
147.053091
 20
85.741457
 30
0.0
 40
1.999999999999807
100
AcDbArc
 50
-60.0
 51
60.0
  0
LINE
  5
252
330
1F
100
AcDbEntity
  8
GR1-1
  6
CONTINUOUS
 62
     3
100
AcDbLine
 10
148.053091
 20
84.009406
 30
0.0
 11
145.053091
 21
84.009406
 31
0.0
  0
ARC
  5
253
330
1F
100
AcDbEntity
  8
GR1-1
  6
CONTINUOUS
 62
     3
100
AcDbCircle
 10
146.053091
 20
85.741457
 30
0.0
 40
1.999999999999807
100
AcDbArc
 50
120.0
 51
240.0
  0
LINE
  5
254
330
1F
100
AcDbEntity
  8
GR1-1
  6
CONTINUOUS
 62
     3
100
AcDbLine
 10
145.053091
 20
87.473508
 30
0.0
 11
148.053091
 21
87.473508
 31
0.0
  0
LINE
  5
255
330
1F
100
AcDbEntity
  8
GR1-1
  6
CONTINUOUS
 62
     3
100
AcDbLine
 10
150.553091
 20
86.187609
 30
0.0
 11
148.386018
 21
84.250382
 31
0.0
  0
LINE
  5
256
330
1F
100
AcDbEntity
  8
GR1-1
  6
CONTINUOUS
 62
     3
100
AcDbLine
 10
150.553091
 20
86.187609
 30
0.0
 11
150.553091
 21
95.687609
 31
0.0
  0
ARC
  5
257
330
1F
100
AcDbEntity
  8
GR1-1
  6
CONTINUOUS
 62
     3
100
AcDbCircle
 10
147.053091
 20
96.133762
 30
0.0
 40
1.999999999999807
100
AcDbArc
 50
-60.0
 51
60.0
  0
ARC
  5
258
330
1F
100
AcDbEntity
  8
GR1-1
  6
CONTINUOUS
 62
     3
100
AcDbCircle
 10
146.053091
 20
96.133762
 30
0.0
 40
1.999999999999807
100
AcDbArc
 50
120.0
 51
138.590378
  0
LINE
  5
259
330
1F
100
AcDbEntity
  8
GR1-1
  6
CONTINUOUS
 62
     6
100
AcDbLine
 10
149.009676
 20
90.187609
 30
0.0
 11
150.553091
 21
88.937609
 31
0.0
  0
LINE
  5
25A
330
1F
100
AcDbEntity
  8
GR1-1
  6
CONTINUOUS
 62
     7
100
AcDbLine
 10
149.009676
 20
90.187609
 30
0.0
 11
149.053091
 21
90.937609
 31
0.0
  0
LINE
  5
25B
330
1F
100
AcDbEntity
  8
GR1-1
  6
CONTINUOUS
 62
     7
100
AcDbLine
 10
149.053091
 20
90.937609
 30
0.0
 11
149.009676
 21
91.687609
 31
0.0
  0
LINE
  5
25C
330
1F
100
AcDbEntity
  8
GR1-1
  6
CONTINUOUS
 62
     6
100
AcDbLine
 10
149.009676
 20
91.687609
 30
0.0
 11
150.553091
 21
92.937609
 31
0.0
  0
ARC
  5
25D
330
1F
100
AcDbEntity
  8
GR1-1
  6
CONTINUOUS
 62
     3
100
AcDbCircle
 10
146.053091
 20
96.133762
 30
0.0
 40
1.999999999999807
100
AcDbArc
 50
215.976339
 51
240.0
  0
LINE
  5
25E
330
1F
100
AcDbEntity
  8
GR1-1
  6
CONTINUOUS
 62
     3
100
AcDbLine
 10
150.553091
 20
94.937609
 30
0.0
 11
152.353091
 21
94.937609
 31
0.0
  0
LINE
  5
25F
330
1F
100
AcDbEntity
  8
GR1-1
  6
CONTINUOUS
 62
     3
100
AcDbLine
 10
152.353091
 20
94.937609
 30
0.0
 11
152.853091
 21
94.437609
 31
0.0
  0
LINE
  5
260
330
1F
100
AcDbEntity
  8
GR1-1
  6
CONTINUOUS
 62
     3
100
AcDbLine
 10
152.853091
 20
94.437609
 30
0.0
 11
152.853091
 21
87.437609
 31
0.0
  0
LINE
  5
261
330
1F
100
AcDbEntity
  8
GR1-1
  6
CONTINUOUS
 62
     3
100
AcDbLine
 10
152.853091
 20
87.437609
 30
0.0
 11
152.353091
 21
86.937609
 31
0.0
  0
LINE
  5
262
330
1F
100
AcDbEntity
  8
GR1-1
  6
CONTINUOUS
 62
     3
100
AcDbLine
 10
152.353091
 20
86.937609
 30
0.0
 11
150.553091
 21
86.937609
 31
0.0
  0
LINE
  5
263
330
1F
100
AcDbEntity
  8
GR1-1
  6
CONTINUOUS
 62
     6
100
AcDbLine
 10
150.553091
 20
87.614109
 30
0.0
 11
152.853091
 21
87.614109
 31
0.0
  0
LINE
  5
264
330
1F
100
AcDbEntity
  8
LAYERGROUP-1
  6
CONTINUOUS
 62
     6
100
AcDbLine
 10
152.353091
 20
94.937609
 30
0.0
 11
152.353091
 21
86.937609
 31
0.0
  0
LINE
  5
265
330
1F
100
AcDbEntity
  8
GR1-1
  6
CONTINUOUS
 62
     6
100
AcDbLine
 10
150.553091
 20
94.261109
 30
0.0
 11
152.853091
 21
94.261109
 31
0.0
  0
LINE
  5
266
330
1F
100
AcDbEntity
  8
GR1-1
  6
CONTINUOUS
 62
     3
100
AcDbLine
 10
217.362069
 20
94.401711
 30
0.0
 11
223.362069
 21
97.865812
 31
0.0
  0
LINE
  5
267
330
1F
100
AcDbEntity
  8
GR1-1
  6
CONTINUOUS
 62
     3
100
AcDbLine
 10
223.362069
 20
97.865812
 30
0.0
 11
229.362069
 21
94.401711
 31
0.0
  0
LINE
  5
268
330
1F
100
AcDbEntity
  8
GR1-1
  6
CONTINUOUS
 62
     3
100
AcDbLine
 10
229.362069
 20
94.401711
 30
0.0
 11
229.362069
 21
87.473508
 31
0.0
  0
LINE
  5
269
330
1F
100
AcDbEntity
  8
GR1-1
  6
CONTINUOUS
 62
     3
100
AcDbLine
 10
229.362069
 20
87.473508
 30
0.0
 11
223.362069
 21
84.009406
 31
0.0
  0
LINE
  5
26A
330
1F
100
AcDbEntity
  8
GR1-1
  6
CONTINUOUS
 62
     3
100
AcDbLine
 10
223.362069
 20
84.009406
 30
0.0
 11
217.362069
 21
87.473508
 31
0.0
  0
LINE
  5
26B
330
1F
100
AcDbEntity
  8
GR1-1
  6
CONTINUOUS
 62
     3
100
AcDbLine
 10
217.362069
 20
87.473508
 30
0.0
 11
217.362069
 21
94.401711
 31
0.0
  0
CIRCLE
  5
26C
330
1F
100
AcDbEntity
  8
GR1-1
  6
CONTINUOUS
 62
     3
100
AcDbCircle
 10
223.362069
 20
90.937609
 30
0.0
 40
3.3235
  0
LINE
  5
26D
330
1F
100
AcDbEntity
  8
GR1-1
  6
CONTINUOUS
 62
     6
100
AcDbLine
 10
221.161588
 20
96.248954
 30
0.0
 11
219.86255
 21
95.498954
 31
0.0
  0
LINE
  5
26E
330
1F
100
AcDbEntity
  8
GR1-1
  6
CONTINUOUS
 62
     6
100
AcDbLine
 10
219.86255
 20
95.498954
 30
0.0
 11
219.475807
 21
93.668812
 31
0.0
  0
LINE
  5
26F
330
1F
100
AcDbEntity
  8
GR1-1
  6
CONTINUOUS
 62
     6
100
AcDbLine
 10
221.161588
 20
96.248954
 30
0.0
 11
222.939909
 21
95.668812
 31
0.0
  0
LINE
  5
270
330
1F
100
AcDbEntity
  8
GR1-1
  6
CONTINUOUS
 62
     6
100
AcDbLine
 10
227.670491
 20
92.937609
 30
0.0
 11
229.062069
 21
91.687609
 31
0.0
  0
LINE
  5
271
330
1F
100
AcDbEntity
  8
GR1-1
  6
CONTINUOUS
 62
     6
100
AcDbLine
 10
229.062069
 20
91.687609
 30
0.0
 11
229.062069
 21
90.187609
 31
0.0
  0
LINE
  5
272
330
1F
100
AcDbEntity
  8
GR1-1
  6
CONTINUOUS
 62
     6
100
AcDbLine
 10
229.062069
 20
90.187609
 30
0.0
 11
227.670491
 21
88.937609
 31
0.0
  0
CIRCLE
  5
273
330
1F
100
AcDbEntity
  8
GR1-1
  6
CONTINUOUS
 62
     6
100
AcDbCircle
 10
223.362069
 20
90.937609
 30
0.0
 40
4.0
  0
CIRCLE
  5
274
330
1F
100
AcDbEntity
  8
GR1-1
  6
CONTINUOUS
 62
     6
100
AcDbCircle
 10
223.362069
 20
90.937609
 30
0.0
 40
4.75
  0
LINE
  5
275
330
1F
100
AcDbEntity
  8
GR1-1
  6
CONTINUOUS
 62
     6
100
AcDbLine
 10
222.939909
 20
86.206406
 30
0.0
 11
221.161588
 21
85.626264
 31
0.0
  0
LINE
  5
276
330
1F
100
AcDbEntity
  8
GR1-1
  6
CONTINUOUS
 62
     6
100
AcDbLine
 10
221.161588
 20
85.626264
 30
0.0
 11
219.86255
 21
86.376264
 31
0.0
  0
LINE
  5
277
330
1F
100
AcDbEntity
  8
GR1-1
  6
CONTINUOUS
 62
     6
100
AcDbLine
 10
219.86255
 20
86.376264
 30
0.0
 11
219.475807
 21
88.206406
 31
0.0
  0
ARC
  5
278
330
1F
100
AcDbEntity
  8
GR1-1
  6
CONTINUOUS
 62
     3
100
AcDbCircle
 10
102.289582
 20
94.937609
 30
0.0
 40
2.0
100
AcDbArc
 50
90.0
 51
165.522488
  0
LINE
  5
279
330
1F
100
AcDbEntity
  8
GR1-1
  6
CONTINUOUS
 62
     3
100
AcDbLine
 10
100.353091
 20
95.437609
 30
0.0
 11
100.353091
 21
86.437609
 31
0.0
  0
ARC
  5
27A
330
1F
100
AcDbEntity
  8
GR1-1
  6
CONTINUOUS
 62
     3
100
AcDbCircle
 10
102.289582
 20
86.937609
 30
0.0
 40
2.0
100
AcDbArc
 50
194.477512
 51
270.0
  0
LINE
  5
27B
330
1F
100
AcDbEntity
  8
GR1-1
  6
CONTINUOUS
 62
     3
100
AcDbLine
 10
102.289582
 20
84.937609
 30
0.0
 11
102.853091
 21
84.937609
 31
0.0
  0
LINE
  5
27C
330
1F
100
AcDbEntity
  8
GR1-1
  6
CONTINUOUS
 62
     3
100
AcDbLine
 10
102.853091
 20
96.937609
 30
0.0
 11
102.289582
 21
96.937609
 31
0.0
  0
INSERT
  5
280
330
1F
100
AcDbEntity
  8
0
100
AcDbBlockReference
  2
BLKF035
 10
0.0
 20
0.0
 30
0.0
  0
INSERT
  5
28B
330
1F
100
AcDbEntity
  8
0
100
AcDbBlockReference
  2
BLKF036
 10
0.0
 20
0.0
 30
0.0
  0
LINE
  5
2A8
330
1F
100
AcDbEntity
  8
LAYERGROUP-1
  6
CONTINUOUS
 62
     3
100
AcDbLine
 10
105.153091
 20
94.937609
 30
0.0
 11
106.153091
 21
94.937609
 31
0.0
  0
LINE
  5
2A9
330
1F
100
AcDbEntity
  8
LAYERGROUP-1
  6
CONTINUOUS
 62
     3
100
AcDbLine
 10
136.153091
 20
94.937609
 30
0.0
 11
137.153091
 21
94.937609
 31
0.0
  0
LINE
  5
2AA
330
1F
100
AcDbEntity
  8
LAYERGROUP-1
  6
CONTINUOUS
 62
     3
100
AcDbLine
 10
105.153091
 20
86.937609
 30
0.0
 11
106.153091
 21
86.937609
 31
0.0
  0
LINE
  5
2AB
330
1F
100
AcDbEntity
  8
LAYERGROUP-1
  6
CONTINUOUS
 62
     3
100
AcDbLine
 10
136.153091
 20
86.937609
 30
0.0
 11
137.153091
 21
86.937609
 31
0.0
  0
DIMENSION
  5
2AC
330
1F
100
AcDbEntity
  8
LAYERGROUP-1
100
AcDbDimension
  2
*D35
 10
136.153091
 20
21.222942
 30
0.0
 11
121.153076
 21
22.222931
 31
0.0
 70
    33
  3
FXDIMINFO
100
AcDbAlignedDimension
 13
106.153091
 23
76.937609
 33
0.0
 14
136.153091
 24
76.937609
 34
0.0
1001
ACAD
1000
DSTYLE
1002
{
1070
     7
1000
FXTIP_ARROW_E
1070
     6
1000
FXTIP_ARROW_S
1070
   173
1070
     1
1002
}
  0
DIMENSION
  5
2B6
330
1F
100
AcDbEntity
  8
LAYERGROUP-1
100
AcDbDimension
  2
*D36
 10
134.653091
 20
31.292017
 30
0.0
 11
121.153076
 21
32.292023
 31
0.0
 70
    32
  3
FXDIMINFO
100
AcDbAlignedDimension
 13
107.653091
 23
43.647571
 33
0.0
 14
134.653091
 24
52.437609
 34
0.0
 50
180.0
100
AcDbRotatedDimension
1001
ACAD
1000
DSTYLE
1002
{
1070
     7
1000
FXTIP_ARROW_E
1070
     6
1000
FXTIP_ARROW_S
1070
   173
1070
     1
1002
}
  0
INSERT
  5
2C3
330
1F
100
AcDbEntity
  8
0
100
AcDbBlockReference
  2
BLKF039
 10
0.0
 20
0.0
 30
0.0
  0
ENDSEC
  0
SECTION
  2
OBJECTS
  0
DICTIONARY
  5
C
330
0
100
AcDbDictionary
  3
ACAD_GROUP
350
D
  3
ACAD_LAYOUT
350
1A
  3
ACAD_MLINESTYLE
350
17
  3
ACAD_PLOTSETTINGS
350
19
  3
ACDBHEADERROUNDTRIPXREC
350
303
  0
DICTIONARY
  5
D
102
{ACAD_REACTORS
330
C
102
}
330
C
100
AcDbDictionary
  0
DICTIONARY
  5
1A
102
{ACAD_REACTORS
330
C
102
}
330
C
100
AcDbDictionary
  0
DICTIONARY
  5
17
102
{ACAD_REACTORS
330
C
102
}
330
C
100
AcDbDictionary
  3
STANDARD
350
18
  0
DICTIONARY
  5
19
102
{ACAD_REACTORS
330
C
102
}
330
C
100
AcDbDictionary
  0
DICTIONARY
  5
303
102
{ACAD_REACTORS
330
C
102
}
330
C
100
AcDbDictionary
  3
CEPSNTYPE
350
30C
  3
DIMSTYLEDATA
350
322
  3
FINGERPRINTGUID
350
30D
  3
HYPERLINKBASE
350
306
  3
INSUNITS
350
30B
  3
LAYOUTDICT
350
308
  3
LWETCUNION
350
30A
  3
PLOTSETDICT
350
309
  3
PSVPSCALE
350
30F
  3
PUCSBASE
350
312
  3
PUCSORGBACK
350
318
  3
PUCSORGBOTTOM
350
314
  3
PUCSORGFRONT
350
317
  3
PUCSORGLEFT
350
315
  3
PUCSORGRIGHT
350
316
  3
PUCSORGTOP
350
313
  3
PUCSORTHOREF
350
310
  3
PUCSORTHOVIEW
350
311
  3
STYLESHEET
350
307
  3
TSTACKALIGN
350
304
  3
TSTACKSIZE
350
305
  3
UCSBASE
350
31B
  3
UCSORGBACK
350
321
  3
UCSORGBOTTOM
350
31D
  3
UCSORGFRONT
350
320
  3
UCSORGLEFT
350
31E
  3
UCSORGRIGHT
350
31F
  3
UCSORGTOP
350
31C
  3
UCSORTHOREF
350
319
  3
UCSORTHOVIEW
350
31A
  3
VERSIONGUID
350
30E
  0
MLINESTYLE
  5
18
102
{ACAD_REACTORS
330
17
102
}
330
17
100
AcDbMlineStyle
  2
Standard
 70
     0
  3

 62
   256
 51
90.0
 52
90.0
 71
     2
 49
0.5
 62
   256
  6
BYLAYER
 49
-0.5
 62
   256
  6
BYLAYER
  0
XRECORD
  5
30C
102
{ACAD_REACTORS
330
303
102
}
330
303
100
AcDbXrecord
 90
        0
  0
XRECORD
  5
322
102
{ACAD_REACTORS
330
303
102
}
330
303
100
AcDbXrecord
1000
DSTYLE
1002
{
1070
   179
 70
     2
1070
   171
 70
     3
1070
   143
 40
0.03937
1070
   274
 70
     3
1070
    41
 40
4.0
1070
   343
340
41
1070
   344
340
47
1070
   141
 40
2.5
1070
   176
 70
     7
1070
   177
 70
     7
1070
   178
 70
     7
1070
   271
 70
     2
1070
    46
 40
6.0
1070
    43
 40
10.0
1070
    44
 40
1.0
1070
    42
 40
1.0
1070
   147
 40
1.0
1070
   341
340
41
1070
   173
 70
     1
1070
    77
 70
     1
1070
   272
 70
     2
1070
    73
 70
     0
1070
   172
 70
     1
1070
    74
 70
     0
1070
   283
 70
     0
1070
   340
340
3F
1070
   140
 40
4.0
1070
   284
 70
     8
1070
    78
 70
     8
1002
}
  0
XRECORD
  5
30D
102
{ACAD_REACTORS
330
303
102
}
330
303
100
AcDbXrecord
  1
{9A36E9BC-0222-491C-8812-E834CB68D17A}
  0
XRECORD
  5
306
102
{ACAD_REACTORS
330
303
102
}
330
303
100
AcDbXrecord
  1

  0
XRECORD
  5
30B
102
{ACAD_REACTORS
330
303
102
}
330
303
100
AcDbXrecord
 90
        1
  0
XRECORD
  5
308
102
{ACAD_REACTORS
330
303
102
}
330
303
100
AcDbXrecord
340
1A
  0
XRECORD
  5
30A
102
{ACAD_REACTORS
330
303
102
}
330
303
100
AcDbXrecord
 90
    10781
  0
XRECORD
  5
309
102
{ACAD_REACTORS
330
303
102
}
330
303
100
AcDbXrecord
340
19
  0
XRECORD
  5
30F
102
{ACAD_REACTORS
330
303
102
}
330
303
100
AcDbXrecord
 40
0.0
  0
XRECORD
  5
312
102
{ACAD_REACTORS
330
303
102
}
330
303
100
AcDbXrecord
340
0
  0
XRECORD
  5
318
102
{ACAD_REACTORS
330
303
102
}
330
303
100
AcDbXrecord
 10
0.0
 20
0.0
 30
0.0
  0
XRECORD
  5
314
102
{ACAD_REACTORS
330
303
102
}
330
303
100
AcDbXrecord
 10
0.0
 20
0.0
 30
0.0
  0
XRECORD
  5
317
102
{ACAD_REACTORS
330
303
102
}
330
303
100
AcDbXrecord
 10
0.0
 20
0.0
 30
0.0
  0
XRECORD
  5
315
102
{ACAD_REACTORS
330
303
102
}
330
303
100
AcDbXrecord
 10
0.0
 20
0.0
 30
0.0
  0
XRECORD
  5
316
102
{ACAD_REACTORS
330
303
102
}
330
303
100
AcDbXrecord
 10
0.0
 20
0.0
 30
0.0
  0
XRECORD
  5
313
102
{ACAD_REACTORS
330
303
102
}
330
303
100
AcDbXrecord
 10
0.0
 20
0.0
 30
0.0
  0
XRECORD
  5
310
102
{ACAD_REACTORS
330
303
102
}
330
303
100
AcDbXrecord
340
0
  0
XRECORD
  5
311
102
{ACAD_REACTORS
330
303
102
}
330
303
100
AcDbXrecord
 70
     0
  0
XRECORD
  5
307
102
{ACAD_REACTORS
330
303
102
}
330
303
100
AcDbXrecord
  1

  0
XRECORD
  5
304
102
{ACAD_REACTORS
330
303
102
}
330
303
100
AcDbXrecord
 90
        1
  0
XRECORD
  5
305
102
{ACAD_REACTORS
330
303
102
}
330
303
100
AcDbXrecord
 90
       70
  0
XRECORD
  5
31B
102
{ACAD_REACTORS
330
303
102
}
330
303
100
AcDbXrecord
340
0
  0
XRECORD
  5
321
102
{ACAD_REACTORS
330
303
102
}
330
303
100
AcDbXrecord
 10
0.0
 20
0.0
 30
0.0
  0
XRECORD
  5
31D
102
{ACAD_REACTORS
330
303
102
}
330
303
100
AcDbXrecord
 10
0.0
 20
0.0
 30
0.0
  0
XRECORD
  5
320
102
{ACAD_REACTORS
330
303
102
}
330
303
100
AcDbXrecord
 10
0.0
 20
0.0
 30
0.0
  0
XRECORD
  5
31E
102
{ACAD_REACTORS
330
303
102
}
330
303
100
AcDbXrecord
 10
0.0
 20
0.0
 30
0.0
  0
XRECORD
  5
31F
102
{ACAD_REACTORS
330
303
102
}
330
303
100
AcDbXrecord
 10
0.0
 20
0.0
 30
0.0
  0
XRECORD
  5
31C
102
{ACAD_REACTORS
330
303
102
}
330
303
100
AcDbXrecord
 10
0.0
 20
0.0
 30
0.0
  0
XRECORD
  5
319
102
{ACAD_REACTORS
330
303
102
}
330
303
100
AcDbXrecord
340
0
  0
XRECORD
  5
31A
102
{ACAD_REACTORS
330
303
102
}
330
303
100
AcDbXrecord
 70
     0
  0
XRECORD
  5
30E
102
{ACAD_REACTORS
330
303
102
}
330
303
100
AcDbXrecord
  1
{FAEB1C32-E019-11D5-929B-00C0DF256EC4}
  0
ENDSEC
  0
EOF
