  0
SECTION
  2
HEADER
  9
$ACADVER
  1
AC1014
  9
$ACADMAINTVER
 70
     9
  9
$DWGCODEPAGE
  3
ANSI_932
  9
$INSBASE
 10
0.0
 20
0.0
 30
0.0
  9
$EXTMIN
 10
0.0
 20
0.0
 30
0.0
  9
$EXTMAX
 10
420.0
 20
297.0
 30
0.0
  9
$LIMMIN
 10
0.0
 20
0.0
  9
$LIMMAX
 10
420.0
 20
297.0
  9
$ORTHOMODE
 70
     0
  9
$REGENMODE
 70
     1
  9
$FILLMODE
 70
     1
  9
$QTEXTMODE
 70
     0
  9
$MIRRTEXT
 70
     1
  9
$DRAGMODE
 70
     2
  9
$LTSCALE
 40
1.0
  9
$OSMODE
 70
    37
  9
$ATTMODE
 70
     1
  9
$TEXTSIZE
 40
0.2
  9
$TRACEWID
 40
0.05
  9
$TEXTSTYLE
  7
STYLE1
  9
$CLAYER
  8
0
  9
$CELTYPE
  6
BYLAYER
  9
$CECOLOR
 62
   256
  9
$CELTSCALE
 40
1.0
  9
$DELOBJ
 70
     1
  9
$DISPSILH
 70
     0
  9
$DIMSCALE
 40
1.0
  9
$DIMASZ
 40
4.0
  9
$DIMEXO
 40
1.0
  9
$DIMDLI
 40
10.0
  9
$DIMRND
 40
0.0
  9
$DIMDLE
 40
6.0
  9
$DIMEXE
 40
1.0
  9
$DIMTP
 40
0.0
  9
$DIMTM
 40
0.0
  9
$DIMTXT
 40
4.0
  9
$DIMCEN
 40
2.5
  9
$DIMTSZ
 40
0.0
  9
$DIMTOL
 70
     0
  9
$DIMLIM
 70
     0
  9
$DIMTIH
 70
     0
  9
$DIMTOH
 70
     0
  9
$DIMSE1
 70
     0
  9
$DIMSE2
 70
     0
  9
$DIMTAD
 70
     1
  9
$DIMZIN
 70
     8
  9
$DIMBLK
  1

  9
$DIMASO
 70
     1
  9
$DIMSHO
 70
     1
  9
$DIMPOST
  1

  9
$DIMAPOST
  1

  9
$DIMALT
 70
     0
  9
$DIMALTD
 70
     3
  9
$DIMALTF
 40
0.03937
  9
$DIMLFAC
 40
1.0
  9
$DIMTOFL
 70
     1
  9
$DIMTVP
 40
0.0
  9
$DIMTIX
 70
     0
  9
$DIMSOXD
 70
     0
  9
$DIMSAH
 70
     1
  9
$DIMBLK1
  1
FXTIP_ARROW_S
  9
$DIMBLK2
  1
FXTIP_ARROW_E
  9
$DIMSTYLE
  2
FXDIMINFO
  9
$DIMCLRD
 70
     7
  9
$DIMCLRE
 70
     7
  9
$DIMCLRT
 70
     7
  9
$DIMTFAC
 40
1.0
  9
$DIMGAP
 40
1.0
  9
$DIMJUST
 70
     0
  9
$DIMSD1
 70
     0
  9
$DIMSD2
 70
     0
  9
$DIMTOLJ
 70
     0
  9
$DIMTZIN
 70
     8
  9
$DIMALTZ
 70
     0
  9
$DIMALTTZ
 70
     0
  9
$DIMFIT
 70
     3
  9
$DIMUPT
 70
     0
  9
$DIMUNIT
 70
     2
  9
$DIMDEC
 70
     2
  9
$DIMTDEC
 70
     2
  9
$DIMALTU
 70
     2
  9
$DIMALTTD
 70
     3
  9
$DIMTXSTY
  7
STYLE1
  9
$DIMAUNIT
 70
     0
  9
$LUNITS
 70
     2
  9
$LUPREC
 70
     4
  9
$SKETCHINC
 40
0.1
  9
$FILLETRAD
 40
0.5
  9
$AUNITS
 70
     0
  9
$AUPREC
 70
     0
  9
$MENU
  1
.
  9
$ELEVATION
 40
0.0
  9
$PELEVATION
 40
0.0
  9
$THICKNESS
 40
0.0
  9
$LIMCHECK
 70
     0
  9
$CHAMFERA
 40
0.5
  9
$CHAMFERB
 40
0.5
  9
$CHAMFERC
 40
1.0
  9
$CHAMFERD
 40
0.0
  9
$SKPOLY
 70
     0
  9
$TDCREATE
 40
2455303.468295243
  9
$TDUPDATE
 40
2455303.468295255
  9
$TDINDWG
 40
0.0000000116
  9
$TDUSRTIMER
 40
0.0000000116
  9
$USRTIMER
 70
     1
  9
$ANGBASE
 50
0.0
  9
$ANGDIR
 70
     0
  9
$PDMODE
 70
     0
  9
$PDSIZE
 40
0.0
  9
$PLINEWID
 40
0.0
  9
$COORDS
 70
     1
  9
$SPLFRAME
 70
     0
  9
$SPLINETYPE
 70
     6
  9
$SPLINESEGS
 70
     8
  9
$ATTDIA
 70
     0
  9
$ATTREQ
 70
     1
  9
$HANDLING
 70
     1
  9
$HANDSEED
  5
25C
  9
$SURFTAB1
 70
     6
  9
$SURFTAB2
 70
     6
  9
$SURFTYPE
 70
     6
  9
$SURFU
 70
     6
  9
$SURFV
 70
     6
  9
$UCSNAME
  2

  9
$UCSORG
 10
0.0
 20
0.0
 30
0.0
  9
$UCSXDIR
 10
1.0
 20
0.0
 30
0.0
  9
$UCSYDIR
 10
0.0
 20
1.0
 30
0.0
  9
$PUCSNAME
  2

  9
$PUCSORG
 10
0.0
 20
0.0
 30
0.0
  9
$PUCSXDIR
 10
1.0
 20
0.0
 30
0.0
  9
$PUCSYDIR
 10
0.0
 20
1.0
 30
0.0
  9
$USERI1
 70
     0
  9
$USERI2
 70
     0
  9
$USERI3
 70
     0
  9
$USERI4
 70
     0
  9
$USERI5
 70
     0
  9
$USERR1
 40
0.0
  9
$USERR2
 40
0.0
  9
$USERR3
 40
0.0
  9
$USERR4
 40
0.0
  9
$USERR5
 40
0.0
  9
$WORLDVIEW
 70
     1
  9
$SHADEDGE
 70
     3
  9
$SHADEDIF
 70
    70
  9
$TILEMODE
 70
     1
  9
$MAXACTVP
 70
    64
  9
$PINSBASE
 10
0.0
 20
0.0
 30
0.0
  9
$PLIMCHECK
 70
     0
  9
$PEXTMIN
 10
1.000000E+20
 20
1.000000E+20
 30
1.000000E+20
  9
$PEXTMAX
 10
-1.000000E+20
 20
-1.000000E+20
 30
-1.000000E+20
  9
$PLIMMIN
 10
0.0
 20
0.0
  9
$PLIMMAX
 10
12.0
 20
9.0
  9
$UNITMODE
 70
     0
  9
$VISRETAIN
 70
     1
  9
$PLINEGEN
 70
     0
  9
$PSLTSCALE
 70
     1
  9
$TREEDEPTH
 70
  3020
  9
$PICKSTYLE
 70
     1
  9
$CMLSTYLE
  2
STANDARD
  9
$CMLJUST
 70
     0
  9
$CMLSCALE
 40
1.0
  9
$PROXYGRAPHICS
 70
     1
  9
$MEASUREMENT
 70
     0
  0
ENDSEC
  0
SECTION
  2
CLASSES
  0
CLASS
  1
ACDBDICTIONARYWDFLT
  2
AcDbDictionaryWithDefault
  3
ObjectDBX Classes
 90
        0
280
     0
281
     0
  0
CLASS
  1
XRECORD
  2
AcDbXrecord
  3
AutoCAD 2000
 90
        0
280
     0
281
     0
  0
CLASS
  1
LWPOLYLINE
  2
AcDbPolyline
  3
AutoCAD 2000
 90
        0
280
     0
281
     1
  0
CLASS
  1
HATCH
  2
AcDbHatch
  3
AutoCAD 2000
 90
        0
280
     0
281
     1
  0
CLASS
  1
ACDBPLACEHOLDER
  2
AcDbPlaceHolder
  3
ObjectDBX Classes
 90
        0
280
     0
281
     0
  0
CLASS
  1
LAYOUT
  2
AcDbLayout
  3
ObjectDBX Classes
 90
        0
280
     0
281
     0
  0
ENDSEC
  0
SECTION
  2
TABLES
  0
TABLE
  2
VPORT
  5
8
330
0
100
AcDbSymbolTable
 70
     1
  0
VPORT
  5
29
330
8
100
AcDbSymbolTableRecord
100
AcDbViewportTableRecord
  2
*ACTIVE
 70
     0
 10
0.0
 20
0.0
 11
1.0
 21
1.0
 12
210.0
 22
148.5
 13
0.0
 23
0.0
 14
0.5
 24
0.5
 15
0.5
 25
0.5
 16
0.0
 26
0.0
 36
1.0
 17
0.0
 27
0.0
 37
0.0
 40
297.0
 41
1.414141
 42
50.0
 43
0.0
 44
0.0
 50
0.0
 51
0.0
 71
     0
 72
   100
 73
     1
 74
     3
 75
     0
 76
     0
 77
     0
 78
     0
  0
ENDTAB
  0
TABLE
  2
LTYPE
  5
5
330
0
100
AcDbSymbolTable
 70
     4
  0
LTYPE
  5
14
330
5
100
AcDbSymbolTableRecord
100
AcDbLinetypeTableRecord
  2
BYBLOCK
 70
     0
  3

 72
    65
 73
     0
 40
0.0
  0
LTYPE
  5
15
330
5
100
AcDbSymbolTableRecord
100
AcDbLinetypeTableRecord
  2
BYLAYER
 70
     0
  3

 72
    65
 73
     0
 40
0.0
  0
LTYPE
  5
16
330
5
100
AcDbSymbolTableRecord
100
AcDbLinetypeTableRecord
  2
CONTINUOUS
 70
     0
  3
--------------------
 72
    65
 73
     0
 40
0.0
  0
LTYPE
  5
2A
330
5
100
AcDbSymbolTableRecord
100
AcDbLinetypeTableRecord
  2
CENTER
 70
     0
  3
Center ____ _ ____ _ ____ _ ____ _ ____ _ ____
 72
    65
 73
     4
 40
13.0
 49
10.0
 74
     0
 49
-1.0
 74
     0
 49
1.0
 74
     0
 49
-1.0
 74
     0
  0
ENDTAB
  0
TABLE
  2
LAYER
  5
2
330
0
100
AcDbSymbolTable
 70
    20
  0
LAYER
  5
10
330
2
100
AcDbSymbolTableRecord
100
AcDbLayerTableRecord
  2
0
 70
     0
 62
     7
  6
CONTINUOUS
  0
LAYER
  5
2D
330
2
100
AcDbSymbolTableRecord
100
AcDbLayerTableRecord
  2
LAYERGROUP-1
 70
     0
 62
     3
  6
CONTINUOUS
  0
LAYER
  5
3D
330
2
100
AcDbSymbolTableRecord
100
AcDbLayerTableRecord
  2
}}ﾊﾊGG血CCТ
 70
     0
 62
     3
  6
CONTINUOUS
  0
LAYER
  5
B8
330
2
100
AcDbSymbolTableRecord
100
AcDbLayerTableRecord
  2
0-1
 70
     0
 62
     7
  6
CONTINUOUS
  0
LAYER
  5
D0
330
2
100
AcDbSymbolTableRecord
100
AcDbLayerTableRecord
  2
GR1-1
 70
     0
 62
     7
  6
CONTINUOUS
  0
ENDTAB
  0
TABLE
  2
STYLE
  5
3
330
0
100
AcDbSymbolTable
 70
     4
  0
STYLE
  5
11
330
3
100
AcDbSymbolTableRecord
100
AcDbTextStyleTableRecord
  2
STANDARD
 70
     0
 40
0.0
 41
1.0
 50
0.0
 71
     0
 42
0.2
  3
txt
  4

  0
STYLE
  5
3F
330
3
100
AcDbSymbolTableRecord
100
AcDbTextStyleTableRecord
  2
STYLE1
 70
     0
 40
0.0
 41
1.0
 50
0.0
 71
     0
 42
0.2
  3
MONOTXT.SHX
  4
extfont.shx
  0
STYLE
  5
40
330
3
100
AcDbSymbolTableRecord
100
AcDbTextStyleTableRecord
  2
FX_VECTOR
 70
     0
 40
0.0
 41
1.0
 50
0.0
 71
     0
 42
0.2
  3
MONOTXT.SHX
  4
BIGFONT.SHX
  0
ENDTAB
  0
TABLE
  2
VIEW
  5
6
330
0
100
AcDbSymbolTable
 70
     0
  0
ENDTAB
  0
TABLE
  2
UCS
  5
7
330
0
100
AcDbSymbolTable
 70
     0
  0
ENDTAB
  0
TABLE
  2
APPID
  5
9
330
0
100
AcDbSymbolTable
 70
     1
  0
APPID
  5
12
330
9
100
AcDbSymbolTableRecord
100
AcDbRegAppTableRecord
  2
ACAD
 70
     0
  0
ENDTAB
  0
TABLE
  2
DIMSTYLE
  5
A
330
0
100
AcDbSymbolTable
 70
     2
  0
DIMSTYLE
105
27
330
A
100
AcDbSymbolTableRecord
100
AcDbDimStyleTableRecord
  2
STANDARD
 70
     0
  3

  4

  5

  6

  7

 40
1.0
 41
0.18
 42
0.0625
 43
0.38
 44
0.18
 45
0.0
 46
0.0
 47
0.0
 48
0.0
140
0.18
141
0.09
142
0.0
143
25.4
144
1.0
145
0.0
146
1.0
147
0.09
 71
     0
 72
     0
 73
     1
 74
     1
 75
     0
 76
     0
 77
     0
 78
     0
170
     0
171
     2
172
     0
173
     0
174
     0
175
     0
176
     0
177
     0
178
     0
270
     2
271
     4
272
     4
273
     2
274
     2
340
11
275
     0
280
     0
281
     0
282
     0
283
     1
284
     0
285
     0
286
     0
287
     3
288
     0
  0
DIMSTYLE
105
A7
102
{ACAD_REACTORS
330
132
330
13C
330
146
330
150
330
15A
330
163
330
19F
330
1A9
330
1B3
330
1BD
330
227
102
}
330
A
100
AcDbSymbolTableRecord
100
AcDbDimStyleTableRecord
  2
FXDIMINFO
 70
     0
  3

  4

  5

  6
FXTIP_ARROW_S
  7
FXTIP_ARROW_E
 40
1.0
 41
4.0
 42
1.0
 43
10.0
 44
1.0
 45
0.0
 46
6.0
 47
0.0
 48
0.0
140
4.0
141
2.5
142
0.0
143
0.03937
144
1.0
145
0.0
146
1.0
147
1.0
 71
     0
 72
     0
 73
     0
 74
     0
 75
     0
 76
     0
 77
     1
 78
     8
170
     0
171
     3
172
     1
173
     1
174
     0
175
     0
176
     7
177
     7
178
     7
179
     2
270
     2
271
     2
272
     2
273
     2
274
     3
340
3F
275
     0
280
     0
281
     0
282
     0
283
     0
284
     8
285
     0
286
     0
287
     3
288
     0
  0
ENDTAB
  0
TABLE
  2
BLOCK_RECORD
  5
1
330
0
100
AcDbSymbolTable
 70
    40
  0
BLOCK_RECORD
  5
1F
330
1
100
AcDbSymbolTableRecord
100
AcDbBlockTableRecord
  2
*MODEL_SPACE
  0
BLOCK_RECORD
  5
1B
330
1
100
AcDbSymbolTableRecord
100
AcDbBlockTableRecord
  2
*PAPER_SPACE
  0
BLOCK_RECORD
  5
41
330
1
100
AcDbSymbolTableRecord
100
AcDbBlockTableRecord
  2
FXTIP_ARROW_S
  0
BLOCK_RECORD
  5
47
330
1
100
AcDbSymbolTableRecord
100
AcDbBlockTableRecord
  2
FXTIP_ARROW_E
  0
BLOCK_RECORD
  5
4D
330
1
100
AcDbSymbolTableRecord
100
AcDbBlockTableRecord
  2
FXTIP_BLACKDOT_S
  0
BLOCK_RECORD
  5
53
330
1
100
AcDbSymbolTableRecord
100
AcDbBlockTableRecord
  2
FXTIP_BLACKDOT_E
  0
BLOCK_RECORD
  5
59
330
1
100
AcDbSymbolTableRecord
100
AcDbBlockTableRecord
  2
FXTIP_TRIANGLE_S
  0
BLOCK_RECORD
  5
60
330
1
100
AcDbSymbolTableRecord
100
AcDbBlockTableRecord
  2
FXTIP_TRIANGLE_E
  0
BLOCK_RECORD
  5
67
330
1
100
AcDbSymbolTableRecord
100
AcDbBlockTableRecord
  2
FXTIP_ARCHITECT_S
  0
BLOCK_RECORD
  5
6D
330
1
100
AcDbSymbolTableRecord
100
AcDbBlockTableRecord
  2
FXTIP_ARCHITECT_E
  0
BLOCK_RECORD
  5
73
330
1
100
AcDbSymbolTableRecord
100
AcDbBlockTableRecord
  2
FXTIP_CIVIL_S
  0
BLOCK_RECORD
  5
79
330
1
100
AcDbSymbolTableRecord
100
AcDbBlockTableRecord
  2
FXTIP_CIVIL_E
  0
BLOCK_RECORD
  5
7F
330
1
100
AcDbSymbolTableRecord
100
AcDbBlockTableRecord
  2
FXTIP_WHITEDOT_S
  0
BLOCK_RECORD
  5
84
330
1
100
AcDbSymbolTableRecord
100
AcDbBlockTableRecord
  2
FXTIP_WHITEDOT_E
  0
BLOCK_RECORD
  5
89
330
1
100
AcDbSymbolTableRecord
100
AcDbBlockTableRecord
  2
FXTIP_UPARROW_S
  0
BLOCK_RECORD
  5
8E
330
1
100
AcDbSymbolTableRecord
100
AcDbBlockTableRecord
  2
FXTIP_UPARROW_E
  0
BLOCK_RECORD
  5
93
330
1
100
AcDbSymbolTableRecord
100
AcDbBlockTableRecord
  2
FXTIP_DOWNARROW_S
  0
BLOCK_RECORD
  5
98
330
1
100
AcDbSymbolTableRecord
100
AcDbBlockTableRecord
  2
FXTIP_DOWNARROW_E
  0
BLOCK_RECORD
  5
9D
330
1
100
AcDbSymbolTableRecord
100
AcDbBlockTableRecord
  2
FXTIP_BLACKTRIANGLE_S
  0
BLOCK_RECORD
  5
A2
330
1
100
AcDbSymbolTableRecord
100
AcDbBlockTableRecord
  2
FXTIP_BLACKTRIANGLE_E
  0
BLOCK_RECORD
  5
A8
330
1
100
AcDbSymbolTableRecord
100
AcDbBlockTableRecord
  2
BLKF021
  0
BLOCK_RECORD
  5
B4
330
1
100
AcDbSymbolTableRecord
100
AcDbBlockTableRecord
  2
BLKF022
  0
BLOCK_RECORD
  5
BD
330
1
100
AcDbSymbolTableRecord
100
AcDbBlockTableRecord
  2
BLKF023
  0
BLOCK_RECORD
  5
133
330
1
100
AcDbSymbolTableRecord
100
AcDbBlockTableRecord
  2
*D22
  0
BLOCK_RECORD
  5
13D
330
1
100
AcDbSymbolTableRecord
100
AcDbBlockTableRecord
  2
*D23
  0
BLOCK_RECORD
  5
147
330
1
100
AcDbSymbolTableRecord
100
AcDbBlockTableRecord
  2
*D24
  0
BLOCK_RECORD
  5
151
330
1
100
AcDbSymbolTableRecord
100
AcDbBlockTableRecord
  2
*D25
  0
BLOCK_RECORD
  5
15B
330
1
100
AcDbSymbolTableRecord
100
AcDbBlockTableRecord
  2
*D26
  0
BLOCK_RECORD
  5
164
330
1
100
AcDbSymbolTableRecord
100
AcDbBlockTableRecord
  2
*D27
  0
BLOCK_RECORD
  5
1A0
330
1
100
AcDbSymbolTableRecord
100
AcDbBlockTableRecord
  2
*D28
  0
BLOCK_RECORD
  5
1AA
330
1
100
AcDbSymbolTableRecord
100
AcDbBlockTableRecord
  2
*D29
  0
BLOCK_RECORD
  5
1B4
330
1
100
AcDbSymbolTableRecord
100
AcDbBlockTableRecord
  2
*D30
  0
BLOCK_RECORD
  5
1BE
330
1
100
AcDbSymbolTableRecord
100
AcDbBlockTableRecord
  2
*D31
  0
BLOCK_RECORD
  5
1C9
330
1
100
AcDbSymbolTableRecord
100
AcDbBlockTableRecord
  2
BLKF034
  0
BLOCK_RECORD
  5
1CE
330
1
100
AcDbSymbolTableRecord
100
AcDbBlockTableRecord
  2
BLKF035
  0
BLOCK_RECORD
  5
1D6
330
1
100
AcDbSymbolTableRecord
100
AcDbBlockTableRecord
  2
BLKF036
  0
BLOCK_RECORD
  5
1EC
330
1
100
AcDbSymbolTableRecord
100
AcDbBlockTableRecord
  2
BLKF037
  0
BLOCK_RECORD
  5
1FD
330
1
100
AcDbSymbolTableRecord
100
AcDbBlockTableRecord
  2
BLKF038
  0
BLOCK_RECORD
  5
207
330
1
100
AcDbSymbolTableRecord
100
AcDbBlockTableRecord
  2
BLKF039
  0
BLOCK_RECORD
  5
228
330
1
100
AcDbSymbolTableRecord
100
AcDbBlockTableRecord
  2
*D38
  0
BLOCK_RECORD
  5
231
330
1
100
AcDbSymbolTableRecord
100
AcDbBlockTableRecord
  2
BLKF041
  0
ENDTAB
  0
ENDSEC
  0
SECTION
  2
BLOCKS
  0
BLOCK
  5
20
330
1F
100
AcDbEntity
  8
0
100
AcDbBlockBegin
  2
*MODEL_SPACE
 70
     0
 71
     0
 10
0.0
 20
0.0
 30
0.0
  3
*MODEL_SPACE
  1

  0
ENDBLK
  5
21
330
1F
100
AcDbEntity
  8
0
100
AcDbBlockEnd
  0
BLOCK
  5
1C
330
1B
100
AcDbEntity
 67
     1
  8
0
100
AcDbBlockBegin
  2
*PAPER_SPACE
 70
     0
 71
     0
 10
0.0
 20
0.0
 30
0.0
  3
*PAPER_SPACE
  1

  0
ENDBLK
  5
1D
330
1B
100
AcDbEntity
 67
     1
  8
0
100
AcDbBlockEnd
  0
BLOCK
  5
42
330
41
100
AcDbEntity
  8
0
100
AcDbBlockBegin
  2
FXTIP_ARROW_S
 70
     0
 71
     0
 10
0.0
 20
0.0
 30
0.0
  3
FXTIP_ARROW_S
  1

  0
LINE
  5
44
330
41
100
AcDbEntity
  8
0
  6
CONTINUOUS
 62
     0
100
AcDbLine
 10
0.0
 20
0.0
 30
0.0
 11
-1.0
 21
0.0
 31
0.0
  0
LINE
  5
45
330
41
100
AcDbEntity
  8
0
  6
CONTINUOUS
 62
     0
100
AcDbLine
 10
0.0
 20
0.0
 30
0.0
 11
-0.965926
 21
-0.258819
 31
0.0
  0
LINE
  5
46
330
41
100
AcDbEntity
  8
0
  6
CONTINUOUS
 62
     0
100
AcDbLine
 10
0.0
 20
0.0
 30
0.0
 11
-0.965926
 21
0.258819
 31
0.0
  0
ENDBLK
  5
43
330
41
100
AcDbEntity
  8
0
100
AcDbBlockEnd
  0
BLOCK
  5
48
330
47
100
AcDbEntity
  8
0
100
AcDbBlockBegin
  2
FXTIP_ARROW_E
 70
     0
 71
     0
 10
0.0
 20
0.0
 30
0.0
  3
FXTIP_ARROW_E
  1

  0
LINE
  5
4A
330
47
100
AcDbEntity
  8
0
  6
CONTINUOUS
 62
     0
100
AcDbLine
 10
0.0
 20
0.0
 30
0.0
 11
-1.0
 21
0.0
 31
0.0
  0
LINE
  5
4B
330
47
100
AcDbEntity
  8
0
  6
CONTINUOUS
 62
     0
100
AcDbLine
 10
0.0
 20
0.0
 30
0.0
 11
-0.965926
 21
0.258819
 31
0.0
  0
LINE
  5
4C
330
47
100
AcDbEntity
  8
0
  6
CONTINUOUS
 62
     0
100
AcDbLine
 10
0.0
 20
0.0
 30
0.0
 11
-0.965926
 21
-0.258819
 31
0.0
  0
ENDBLK
  5
49
330
47
100
AcDbEntity
  8
0
100
AcDbBlockEnd
  0
BLOCK
  5
4E
330
4D
100
AcDbEntity
  8
0
100
AcDbBlockBegin
  2
FXTIP_BLACKDOT_S
 70
     0
 71
     0
 10
0.0
 20
0.0
 30
0.0
  3
FXTIP_BLACKDOT_S
  1

  0
LINE
  5
50
330
4D
100
AcDbEntity
  8
0
  6
CONTINUOUS
 62
     0
100
AcDbLine
 10
0.0
 20
0.0
 30
0.0
 11
-1.0
 21
0.0
 31
0.0
  0
LWPOLYLINE
  5
51
330
4D
100
AcDbEntity
  8
0
  6
CONTINUOUS
 62
     0
100
AcDbPolyline
 90
        2
 70
     1
 10
-0.25
 20
0.0
 40
0.5
 41
0.5
 42
1.0
 10
0.25
 20
0.0
 40
0.5
 41
0.5
 42
1.0
  0
CIRCLE
  5
52
330
4D
100
AcDbEntity
  8
0
  6
CONTINUOUS
 62
     0
100
AcDbCircle
 10
0.0
 20
0.0
 30
0.0
 40
0.5
  0
ENDBLK
  5
4F
330
4D
100
AcDbEntity
  8
0
100
AcDbBlockEnd
  0
BLOCK
  5
54
330
53
100
AcDbEntity
  8
0
100
AcDbBlockBegin
  2
FXTIP_BLACKDOT_E
 70
     0
 71
     0
 10
0.0
 20
0.0
 30
0.0
  3
FXTIP_BLACKDOT_E
  1

  0
LINE
  5
56
330
53
100
AcDbEntity
  8
0
  6
CONTINUOUS
 62
     0
100
AcDbLine
 10
0.0
 20
0.0
 30
0.0
 11
-1.0
 21
0.0
 31
0.0
  0
LWPOLYLINE
  5
57
330
53
100
AcDbEntity
  8
0
  6
CONTINUOUS
 62
     0
100
AcDbPolyline
 90
        2
 70
     1
 10
-0.25
 20
0.0
 40
0.5
 41
0.5
 42
1.0
 10
0.25
 20
0.0
 40
0.5
 41
0.5
 42
1.0
  0
CIRCLE
  5
58
330
53
100
AcDbEntity
  8
0
  6
CONTINUOUS
 62
     0
100
AcDbCircle
 10
0.0
 20
0.0
 30
0.0
 40
0.5
  0
ENDBLK
  5
55
330
53
100
AcDbEntity
  8
0
100
AcDbBlockEnd
  0
BLOCK
  5
5A
330
59
100
AcDbEntity
  8
0
100
AcDbBlockBegin
  2
FXTIP_TRIANGLE_S
 70
     0
 71
     0
 10
0.0
 20
0.0
 30
0.0
  3
FXTIP_TRIANGLE_S
  1

  0
LINE
  5
5C
330
59
100
AcDbEntity
  8
0
  6
CONTINUOUS
 62
     0
100
AcDbLine
 10
0.0
 20
0.0
 30
0.0
 11
-1.0
 21
0.0
 31
0.0
  0
LINE
  5
5D
330
59
100
AcDbEntity
  8
0
  6
CONTINUOUS
 62
     0
100
AcDbLine
 10
0.0
 20
0.0
 30
0.0
 11
-0.965926
 21
-0.258819
 31
0.0
  0
LINE
  5
5E
330
59
100
AcDbEntity
  8
0
  6
CONTINUOUS
 62
     0
100
AcDbLine
 10
0.0
 20
0.0
 30
0.0
 11
-0.965926
 21
0.258819
 31
0.0
  0
LINE
  5
5F
330
59
100
AcDbEntity
  8
0
  6
CONTINUOUS
 62
     0
100
AcDbLine
 10
-0.965926
 20
-0.258819
 30
0.0
 11
-0.965926
 21
0.258819
 31
0.0
  0
ENDBLK
  5
5B
330
59
100
AcDbEntity
  8
0
100
AcDbBlockEnd
  0
BLOCK
  5
61
330
60
100
AcDbEntity
  8
0
100
AcDbBlockBegin
  2
FXTIP_TRIANGLE_E
 70
     0
 71
     0
 10
0.0
 20
0.0
 30
0.0
  3
FXTIP_TRIANGLE_E
  1

  0
LINE
  5
63
330
60
100
AcDbEntity
  8
0
  6
CONTINUOUS
 62
     0
100
AcDbLine
 10
0.0
 20
0.0
 30
0.0
 11
-1.0
 21
0.0
 31
0.0
  0
LINE
  5
64
330
60
100
AcDbEntity
  8
0
  6
CONTINUOUS
 62
     0
100
AcDbLine
 10
0.0
 20
0.0
 30
0.0
 11
-0.965926
 21
0.258819
 31
0.0
  0
LINE
  5
65
330
60
100
AcDbEntity
  8
0
  6
CONTINUOUS
 62
     0
100
AcDbLine
 10
0.0
 20
0.0
 30
0.0
 11
-0.965926
 21
-0.258819
 31
0.0
  0
LINE
  5
66
330
60
100
AcDbEntity
  8
0
  6
CONTINUOUS
 62
     0
100
AcDbLine
 10
-0.965926
 20
0.258819
 30
0.0
 11
-0.965926
 21
-0.258819
 31
0.0
  0
ENDBLK
  5
62
330
60
100
AcDbEntity
  8
0
100
AcDbBlockEnd
  0
BLOCK
  5
68
330
67
100
AcDbEntity
  8
0
100
AcDbBlockBegin
  2
FXTIP_ARCHITECT_S
 70
     0
 71
     0
 10
0.0
 20
0.0
 30
0.0
  3
FXTIP_ARCHITECT_S
  1

  0
LINE
  5
6A
330
67
100
AcDbEntity
  8
0
  6
CONTINUOUS
 62
     0
100
AcDbLine
 10
0.0
 20
0.0
 30
0.0
 11
-1.0
 21
0.0
 31
0.0
  0
LINE
  5
6B
330
67
100
AcDbEntity
  8
0
  6
CONTINUOUS
 62
     0
100
AcDbLine
 10
0.0
 20
0.0
 30
0.0
 11
-0.707107
 21
-0.707107
 31
0.0
  0
LINE
  5
6C
330
67
100
AcDbEntity
  8
0
  6
CONTINUOUS
 62
     0
100
AcDbLine
 10
0.0
 20
0.0
 30
0.0
 11
0.707107
 21
0.707107
 31
0.0
  0
ENDBLK
  5
69
330
67
100
AcDbEntity
  8
0
100
AcDbBlockEnd
  0
BLOCK
  5
6E
330
6D
100
AcDbEntity
  8
0
100
AcDbBlockBegin
  2
FXTIP_ARCHITECT_E
 70
     0
 71
     0
 10
0.0
 20
0.0
 30
0.0
  3
FXTIP_ARCHITECT_E
  1

  0
LINE
  5
70
330
6D
100
AcDbEntity
  8
0
  6
CONTINUOUS
 62
     0
100
AcDbLine
 10
0.0
 20
0.0
 30
0.0
 11
-1.0
 21
0.0
 31
0.0
  0
LINE
  5
71
330
6D
100
AcDbEntity
  8
0
  6
CONTINUOUS
 62
     0
100
AcDbLine
 10
0.0
 20
0.0
 30
0.0
 11
0.707107
 21
0.707107
 31
0.0
  0
LINE
  5
72
330
6D
100
AcDbEntity
  8
0
  6
CONTINUOUS
 62
     0
100
AcDbLine
 10
0.0
 20
0.0
 30
0.0
 11
-0.707107
 21
-0.707107
 31
0.0
  0
ENDBLK
  5
6F
330
6D
100
AcDbEntity
  8
0
100
AcDbBlockEnd
  0
BLOCK
  5
74
330
73
100
AcDbEntity
  8
0
100
AcDbBlockBegin
  2
FXTIP_CIVIL_S
 70
     0
 71
     0
 10
0.0
 20
0.0
 30
0.0
  3
FXTIP_CIVIL_S
  1

  0
LINE
  5
76
330
73
100
AcDbEntity
  8
0
  6
CONTINUOUS
 62
     0
100
AcDbLine
 10
0.0
 20
0.0
 30
0.0
 11
-1.0
 21
0.0
 31
0.0
  0
LINE
  5
77
330
73
100
AcDbEntity
  8
0
  6
CONTINUOUS
 62
     0
100
AcDbLine
 10
0.0
 20
-0.0625
 30
0.0
 11
-1.0
 21
-0.0625
 31
0.0
  0
LINE
  5
78
330
73
100
AcDbEntity
  8
0
  6
CONTINUOUS
 62
     0
100
AcDbLine
 10
0.0
 20
-0.125
 30
0.0
 11
-1.0
 21
-0.125
 31
0.0
  0
ENDBLK
  5
75
330
73
100
AcDbEntity
  8
0
100
AcDbBlockEnd
  0
BLOCK
  5
7A
330
79
100
AcDbEntity
  8
0
100
AcDbBlockBegin
  2
FXTIP_CIVIL_E
 70
     0
 71
     0
 10
0.0
 20
0.0
 30
0.0
  3
FXTIP_CIVIL_E
  1

  0
LINE
  5
7C
330
79
100
AcDbEntity
  8
0
  6
CONTINUOUS
 62
     0
100
AcDbLine
 10
0.0
 20
0.0
 30
0.0
 11
-1.0
 21
0.0
 31
0.0
  0
LINE
  5
7D
330
79
100
AcDbEntity
  8
0
  6
CONTINUOUS
 62
     0
100
AcDbLine
 10
0.0
 20
0.0625
 30
0.0
 11
-1.0
 21
0.0625
 31
0.0
  0
LINE
  5
7E
330
79
100
AcDbEntity
  8
0
  6
CONTINUOUS
 62
     0
100
AcDbLine
 10
0.0
 20
0.125
 30
0.0
 11
-1.0
 21
0.125
 31
0.0
  0
ENDBLK
  5
7B
330
79
100
AcDbEntity
  8
0
100
AcDbBlockEnd
  0
BLOCK
  5
80
330
7F
100
AcDbEntity
  8
0
100
AcDbBlockBegin
  2
FXTIP_WHITEDOT_S
 70
     0
 71
     0
 10
0.0
 20
0.0
 30
0.0
  3
FXTIP_WHITEDOT_S
  1

  0
LINE
  5
82
330
7F
100
AcDbEntity
  8
0
  6
CONTINUOUS
 62
     0
100
AcDbLine
 10
0.0
 20
0.0
 30
0.0
 11
-1.0
 21
0.0
 31
0.0
  0
CIRCLE
  5
83
330
7F
100
AcDbEntity
  8
0
  6
CONTINUOUS
 62
     0
100
AcDbCircle
 10
0.0
 20
0.0
 30
0.0
 40
0.5
  0
ENDBLK
  5
81
330
7F
100
AcDbEntity
  8
0
100
AcDbBlockEnd
  0
BLOCK
  5
85
330
84
100
AcDbEntity
  8
0
100
AcDbBlockBegin
  2
FXTIP_WHITEDOT_E
 70
     0
 71
     0
 10
0.0
 20
0.0
 30
0.0
  3
FXTIP_WHITEDOT_E
  1

  0
LINE
  5
87
330
84
100
AcDbEntity
  8
0
  6
CONTINUOUS
 62
     0
100
AcDbLine
 10
0.0
 20
0.0
 30
0.0
 11
-1.0
 21
0.0
 31
0.0
  0
CIRCLE
  5
88
330
84
100
AcDbEntity
  8
0
  6
CONTINUOUS
 62
     0
100
AcDbCircle
 10
0.0
 20
0.0
 30
0.0
 40
0.5
  0
ENDBLK
  5
86
330
84
100
AcDbEntity
  8
0
100
AcDbBlockEnd
  0
BLOCK
  5
8A
330
89
100
AcDbEntity
  8
0
100
AcDbBlockBegin
  2
FXTIP_UPARROW_S
 70
     0
 71
     0
 10
0.0
 20
0.0
 30
0.0
  3
FXTIP_UPARROW_S
  1

  0
LINE
  5
8C
330
89
100
AcDbEntity
  8
0
  6
CONTINUOUS
 62
     0
100
AcDbLine
 10
0.0
 20
0.0
 30
0.0
 11
-1.0
 21
0.0
 31
0.0
  0
LINE
  5
8D
330
89
100
AcDbEntity
  8
0
  6
CONTINUOUS
 62
     0
100
AcDbLine
 10
0.0
 20
0.0
 30
0.0
 11
-0.965926
 21
-0.258819
 31
0.0
  0
ENDBLK
  5
8B
330
89
100
AcDbEntity
  8
0
100
AcDbBlockEnd
  0
BLOCK
  5
8F
330
8E
100
AcDbEntity
  8
0
100
AcDbBlockBegin
  2
FXTIP_UPARROW_E
 70
     0
 71
     0
 10
0.0
 20
0.0
 30
0.0
  3
FXTIP_UPARROW_E
  1

  0
LINE
  5
91
330
8E
100
AcDbEntity
  8
0
  6
CONTINUOUS
 62
     0
100
AcDbLine
 10
0.0
 20
0.0
 30
0.0
 11
-1.0
 21
0.0
 31
0.0
  0
LINE
  5
92
330
8E
100
AcDbEntity
  8
0
  6
CONTINUOUS
 62
     0
100
AcDbLine
 10
0.0
 20
0.0
 30
0.0
 11
-0.965926
 21
0.258819
 31
0.0
  0
ENDBLK
  5
90
330
8E
100
AcDbEntity
  8
0
100
AcDbBlockEnd
  0
BLOCK
  5
94
330
93
100
AcDbEntity
  8
0
100
AcDbBlockBegin
  2
FXTIP_DOWNARROW_S
 70
     0
 71
     0
 10
0.0
 20
0.0
 30
0.0
  3
FXTIP_DOWNARROW_S
  1

  0
LINE
  5
96
330
93
100
AcDbEntity
  8
0
  6
CONTINUOUS
 62
     0
100
AcDbLine
 10
0.0
 20
0.0
 30
0.0
 11
-1.0
 21
0.0
 31
0.0
  0
LINE
  5
97
330
93
100
AcDbEntity
  8
0
  6
CONTINUOUS
 62
     0
100
AcDbLine
 10
0.0
 20
0.0
 30
0.0
 11
-0.965926
 21
0.258819
 31
0.0
  0
ENDBLK
  5
95
330
93
100
AcDbEntity
  8
0
100
AcDbBlockEnd
  0
BLOCK
  5
99
330
98
100
AcDbEntity
  8
0
100
AcDbBlockBegin
  2
FXTIP_DOWNARROW_E
 70
     0
 71
     0
 10
0.0
 20
0.0
 30
0.0
  3
FXTIP_DOWNARROW_E
  1

  0
LINE
  5
9B
330
98
100
AcDbEntity
  8
0
  6
CONTINUOUS
 62
     0
100
AcDbLine
 10
0.0
 20
0.0
 30
0.0
 11
-1.0
 21
0.0
 31
0.0
  0
LINE
  5
9C
330
98
100
AcDbEntity
  8
0
  6
CONTINUOUS
 62
     0
100
AcDbLine
 10
0.0
 20
0.0
 30
0.0
 11
-0.965926
 21
-0.258819
 31
0.0
  0
ENDBLK
  5
9A
330
98
100
AcDbEntity
  8
0
100
AcDbBlockEnd
  0
BLOCK
  5
9E
330
9D
100
AcDbEntity
  8
0
100
AcDbBlockBegin
  2
FXTIP_BLACKTRIANGLE_S
 70
     0
 71
     0
 10
0.0
 20
0.0
 30
0.0
  3
FXTIP_BLACKTRIANGLE_S
  1

  0
LINE
  5
A0
330
9D
100
AcDbEntity
  8
0
  6
CONTINUOUS
 62
     0
100
AcDbLine
 10
0.0
 20
0.0
 30
0.0
 11
-1.0
 21
0.0
 31
0.0
  0
SOLID
  5
A1
330
9D
100
AcDbEntity
  8
0
  6
CONTINUOUS
 62
     0
100
AcDbTrace
 10
0.0
 20
0.0
 30
0.0
 11
-0.965926
 21
-0.258819
 31
0.0
 12
-0.965926
 22
0.258819
 32
0.0
 13
-0.965926
 23
0.258819
 33
0.0
  0
ENDBLK
  5
9F
330
9D
100
AcDbEntity
  8
0
100
AcDbBlockEnd
  0
BLOCK
  5
A3
330
A2
100
AcDbEntity
  8
0
100
AcDbBlockBegin
  2
FXTIP_BLACKTRIANGLE_E
 70
     0
 71
     0
 10
0.0
 20
0.0
 30
0.0
  3
FXTIP_BLACKTRIANGLE_E
  1

  0
LINE
  5
A5
330
A2
100
AcDbEntity
  8
0
  6
CONTINUOUS
 62
     0
100
AcDbLine
 10
0.0
 20
0.0
 30
0.0
 11
-1.0
 21
0.0
 31
0.0
  0
SOLID
  5
A6
330
A2
100
AcDbEntity
  8
0
  6
CONTINUOUS
 62
     0
100
AcDbTrace
 10
0.0
 20
0.0
 30
0.0
 11
-0.965926
 21
0.258819
 31
0.0
 12
-0.965926
 22
-0.258819
 32
0.0
 13
-0.965926
 23
-0.258819
 33
0.0
  0
ENDBLK
  5
A4
330
A2
100
AcDbEntity
  8
0
100
AcDbBlockEnd
  0
BLOCK
  5
A9
330
A8
100
AcDbEntity
  8
0
100
AcDbBlockBegin
  2
BLKF021
 70
     0
 71
     0
 10
0.0
 20
0.0
 30
0.0
  3
BLKF021
  1

  0
LINE
  5
AC
330
A8
100
AcDbEntity
  8
}}ﾊﾊGG血CCТ
  6
CONTINUOUS
 62
     7
100
AcDbLine
 10
10.0
 20
10.0
 30
0.0
 11
410.0
 21
10.0
 31
0.0
  0
LINE
  5
AD
330
A8
100
AcDbEntity
  8
}}ﾊﾊGG血CCТ
  6
CONTINUOUS
 62
     7
100
AcDbLine
 10
10.0
 20
10.0
 30
0.0
 11
10.0
 21
287.0
 31
0.0
  0
LINE
  5
AE
330
A8
100
AcDbEntity
  8
}}ﾊﾊGG血CCТ
  6
CONTINUOUS
 62
     7
100
AcDbLine
 10
10.0
 20
287.0
 30
0.0
 11
410.0
 21
287.0
 31
0.0
  0
LINE
  5
AF
330
A8
100
AcDbEntity
  8
}}ﾊﾊGG血CCТ
  6
CONTINUOUS
 62
     7
100
AcDbLine
 10
410.0
 20
287.0
 30
0.0
 11
410.0
 21
10.0
 31
0.0
  0
LINE
  5
B0
330
A8
100
AcDbEntity
  8
}}ﾊﾊGG血CCТ
  6
CONTINUOUS
 62
     7
100
AcDbLine
 10
153.0
 20
10.0
 30
0.0
 11
153.0
 21
20.0
 31
0.0
  0
TEXT
  5
B1
330
A8
100
AcDbEntity
  8
}}ﾊﾊGG血CCТ
  6
CONTINUOUS
 62
     7
100
AcDbText
 10
137.738815
 20
11.596879
 30
0.0
 40
6.648749
  1
品名
 41
1.083413
  7
FX_VECTOR
 72
     5
 11
149.058355
 21
11.596879
 31
0.0
100
AcDbText
  0
LINE
  5
B2
330
A8
100
AcDbEntity
  8
}}ﾊﾊGG血CCТ
  6
CONTINUOUS
 62
     7
100
AcDbLine
 10
233.0
 20
20.0
 30
0.0
 11
233.0
 21
10.0
 31
0.0
  0
LINE
  5
B3
330
A8
100
AcDbEntity
  8
}}ﾊﾊGG血CCТ
  6
CONTINUOUS
 62
     7
100
AcDbLine
 10
133.0
 20
20.0
 30
0.0
 11
410.0
 21
20.0
 31
0.0
  0
INSERT
  5
B7
330
A8
100
AcDbEntity
  8
0
100
AcDbBlockReference
  2
BLKF022
 10
0.0
 20
0.0
 30
0.0
  0
INSERT
  5
C0
330
A8
100
AcDbEntity
  8
0
100
AcDbBlockReference
  2
BLKF023
 10
0.0
 20
0.0
 30
0.0
  0
HATCH
  5
D1
330
A8
100
AcDbEntity
  8
GR1-1
  6
CONTINUOUS
 62
     7
100
AcDbHatch
 10
0.0
 20
0.0
 30
0.0
210
0.0
220
0.0
230
1.0
  2

 70
     0
 71
     1
 91
        2
 92
        0
 93
        4
 72
     1
 10
338.8018997861325
 20
17.91346152
 11
344.8018997861325
 21
17.91346152
 72
     1
 10
344.8018997861325
 20
17.91346152
 11
344.8018997861325
 21
11.91346152
 72
     1
 10
344.8018997861325
 20
11.91346152
 11
338.8018997861325
 21
11.91346152
 72
     1
 10
338.8018997861325
 20
11.91346152
 11
338.8018997861325
 21
17.91346152
 97
        0
 92
        0
 93
       15
 72
     1
 10
341.8018997861325
 20
17.76923076000002
 11
338.9461305461325
 21
14.91346152
 72
     1
 10
338.9461305461325
 20
14.91346152
 11
341.8018997861325
 21
12.05769228000001
 72
     1
 10
341.8018997861325
 20
12.05769228000001
 11
343.3595920661325
 21
13.61538462
 72
     1
 10
343.3595920661325
 20
13.61538462
 11
343.3595920661325
 21
12.98076924
 72
     1
 10
343.3595920661325
 20
12.98076924
 11
344.2249766861325
 21
12.98076924
 72
     1
 10
344.2249766861325
 20
12.98076924
 11
344.2249766861325
 21
15.00000000000001
 72
     1
 10
344.2249766861325
 20
15.00000000000001
 11
341.8018997861325
 21
15.00000000000001
 72
     1
 10
341.8018997861325
 20
15.00000000000001
 11
341.8018997861325
 21
14.13461538000001
 72
     1
 10
341.8018997861325
 20
14.13461538000001
 11
342.2461305461325
 21
14.13461538000001
 72
     1
 10
342.2461305461325
 20
14.13461538000001
 11
341.8018997861325
 21
13.69038462
 72
     1
 10
341.8018997861325
 20
13.69038462
 11
340.5788228861325
 21
14.91346152
 72
     1
 10
340.5788228861325
 20
14.91346152
 11
341.8018997861325
 21
16.13653842000003
 72
     1
 10
341.8018997861325
 20
16.13653842000003
 11
342.5922844061325
 21
15.3461538
 72
     1
 10
342.5922844061325
 20
15.3461538
 11
344.2249766861325
 21
15.3461538
 72
     1
 10
344.2249766861325
 20
15.3461538
 11
341.8018997861325
 21
17.76923076000002
 97
        0
 75
     0
 76
     0
 52
45.0
 41
0.05
 77
     0
 78
     1
 53
45.0
 43
0.0
 44
0.0
 45
-0.0353553390593274
 46
0.0353553390593274
 79
     0
 98
        0
  0
TEXT
  5
D2
330
A8
100
AcDbEntity
  8
}}ﾊﾊGG血CCТ
  6
CONTINUOUS
 62
     7
100
AcDbText
 10
349.225769
 20
11.461285
 30
0.0
 40
7.170908
  1
GOLD CASTER
 41
0.63978
  7
FX_VECTOR
 72
     5
 11
395.977636
 21
11.461285
 31
0.0
100
AcDbText
  0
LINE
  5
D3
330
A8
100
AcDbEntity
  8
}}ﾊﾊGG血CCТ
  6
CONTINUOUS
 62
     7
100
AcDbLine
 10
253.0
 20
10.0
 30
0.0
 11
253.0
 21
20.0
 31
0.0
  0
TEXT
  5
D4
330
A8
100
AcDbEntity
  8
}}ﾊﾊGG血CCТ
  6
CONTINUOUS
 62
     7
100
AcDbText
 10
237.738815
 20
11.596879
 30
0.0
 40
6.648749
  1
図番
 41
1.083413
  7
FX_VECTOR
 72
     5
 11
249.058355
 21
11.596879
 31
0.0
100
AcDbText
  0
LINE
  5
D5
330
A8
100
AcDbEntity
  8
}}ﾊﾊGG血CCТ
  6
CONTINUOUS
 62
     7
100
AcDbLine
 10
333.0
 20
20.0
 30
0.0
 11
333.0
 21
10.0
 31
0.0
  0
LINE
  5
D6
330
A8
100
AcDbEntity
  8
}}ﾊﾊGG血CCТ
  6
CONTINUOUS
 62
     7
100
AcDbLine
 10
133.0
 20
20.0
 30
0.0
 11
133.0
 21
10.0
 31
0.0
  0
ENDBLK
  5
AA
330
A8
100
AcDbEntity
  8
0
100
AcDbBlockEnd
  0
BLOCK
  5
B5
330
B4
100
AcDbEntity
  8
0
100
AcDbBlockBegin
  2
BLKF022
 70
     0
 71
     0
 10
0.0
 20
0.0
 30
0.0
  3
BLKF022
  1

  0
LINE
  5
B9
330
B4
100
AcDbEntity
  8
0-1
  6
CONTINUOUS
 62
     7
100
AcDbLine
 10
344.8019
 20
17.913462
 30
0.0
 11
338.8019
 21
17.913462
 31
0.0
  0
LINE
  5
BA
330
B4
100
AcDbEntity
  8
0-1
  6
CONTINUOUS
 62
     7
100
AcDbLine
 10
338.8019
 20
17.913462
 30
0.0
 11
338.8019
 21
11.913462
 31
0.0
  0
LINE
  5
BB
330
B4
100
AcDbEntity
  8
0-1
  6
CONTINUOUS
 62
     7
100
AcDbLine
 10
338.8019
 20
11.913462
 30
0.0
 11
344.8019
 21
11.913462
 31
0.0
  0
LINE
  5
BC
330
B4
100
AcDbEntity
  8
0-1
  6
CONTINUOUS
 62
     7
100
AcDbLine
 10
344.8019
 20
11.913462
 30
0.0
 11
344.8019
 21
17.913462
 31
0.0
  0
ENDBLK
  5
B6
330
B4
100
AcDbEntity
  8
0
100
AcDbBlockEnd
  0
BLOCK
  5
BE
330
BD
100
AcDbEntity
  8
0
100
AcDbBlockBegin
  2
BLKF023
 70
     0
 71
     0
 10
0.0
 20
0.0
 30
0.0
  3
BLKF023
  1

  0
LINE
  5
C1
330
BD
100
AcDbEntity
  8
0-1
  6
CONTINUOUS
 62
     7
100
AcDbLine
 10
344.224977
 20
15.346154
 30
0.0
 11
341.8019
 21
17.769231
 31
0.0
  0
LINE
  5
C2
330
BD
100
AcDbEntity
  8
0-1
  6
CONTINUOUS
 62
     7
100
AcDbLine
 10
341.8019
 20
17.769231
 30
0.0
 11
338.946131
 21
14.913462
 31
0.0
  0
LINE
  5
C3
330
BD
100
AcDbEntity
  8
0-1
  6
CONTINUOUS
 62
     7
100
AcDbLine
 10
338.946131
 20
14.913462
 30
0.0
 11
341.8019
 21
12.057692
 31
0.0
  0
LINE
  5
C4
330
BD
100
AcDbEntity
  8
0-1
  6
CONTINUOUS
 62
     7
100
AcDbLine
 10
341.8019
 20
12.057692
 30
0.0
 11
343.359592
 21
13.615385
 31
0.0
  0
LINE
  5
C5
330
BD
100
AcDbEntity
  8
0-1
  6
CONTINUOUS
 62
     7
100
AcDbLine
 10
343.359592
 20
13.615385
 30
0.0
 11
343.359592
 21
12.980769
 31
0.0
  0
LINE
  5
C6
330
BD
100
AcDbEntity
  8
0-1
  6
CONTINUOUS
 62
     7
100
AcDbLine
 10
343.359592
 20
12.980769
 30
0.0
 11
344.224977
 21
12.980769
 31
0.0
  0
LINE
  5
C7
330
BD
100
AcDbEntity
  8
0-1
  6
CONTINUOUS
 62
     7
100
AcDbLine
 10
344.224977
 20
12.980769
 30
0.0
 11
344.224977
 21
15.0
 31
0.0
  0
LINE
  5
C8
330
BD
100
AcDbEntity
  8
0-1
  6
CONTINUOUS
 62
     7
100
AcDbLine
 10
344.224977
 20
15.0
 30
0.0
 11
341.8019
 21
15.0
 31
0.0
  0
LINE
  5
C9
330
BD
100
AcDbEntity
  8
0-1
  6
CONTINUOUS
 62
     7
100
AcDbLine
 10
341.8019
 20
15.0
 30
0.0
 11
341.8019
 21
14.134615
 31
0.0
  0
LINE
  5
CA
330
BD
100
AcDbEntity
  8
0-1
  6
CONTINUOUS
 62
     7
100
AcDbLine
 10
341.8019
 20
14.134615
 30
0.0
 11
342.246131
 21
14.134615
 31
0.0
  0
LINE
  5
CB
330
BD
100
AcDbEntity
  8
0-1
  6
CONTINUOUS
 62
     7
100
AcDbLine
 10
342.246131
 20
14.134615
 30
0.0
 11
341.8019
 21
13.690385
 31
0.0
  0
LINE
  5
CC
330
BD
100
AcDbEntity
  8
0-1
  6
CONTINUOUS
 62
     7
100
AcDbLine
 10
341.8019
 20
13.690385
 30
0.0
 11
340.578823
 21
14.913462
 31
0.0
  0
LINE
  5
CD
330
BD
100
AcDbEntity
  8
0-1
  6
CONTINUOUS
 62
     7
100
AcDbLine
 10
340.578823
 20
14.913462
 30
0.0
 11
341.8019
 21
16.136538
 31
0.0
  0
LINE
  5
CE
330
BD
100
AcDbEntity
  8
0-1
  6
CONTINUOUS
 62
     7
100
AcDbLine
 10
341.8019
 20
16.136538
 30
0.0
 11
342.592284
 21
15.346154
 31
0.0
  0
LINE
  5
CF
330
BD
100
AcDbEntity
  8
0-1
  6
CONTINUOUS
 62
     7
100
AcDbLine
 10
342.592284
 20
15.346154
 30
0.0
 11
344.224977
 21
15.346154
 31
0.0
  0
ENDBLK
  5
BF
330
BD
100
AcDbEntity
  8
0
100
AcDbBlockEnd
  0
BLOCK
  5
134
330
133
100
AcDbEntity
  8
0
100
AcDbBlockBegin
  2
*D22
 70
     1
 71
     0
 10
0.0
 20
0.0
 30
0.0
  3
*D22
  1

  0
TEXT
  5
136
330
133
100
AcDbEntity
  8
LAYERGROUP-1
  6
CONTINUOUS
 62
     7
100
AcDbText
 10
190.850036
 20
277.815029
 30
0.0
 40
4.0
  1
4-%%c9
 50
319.359131
 41
0.777778
  7
FX_VECTOR
 72
     5
 11
199.955719
 21
269.999241
 31
0.0
100
AcDbText
  0
LINE
  5
137
330
133
100
AcDbEntity
  8
LAYERGROUP-1
  6
CONTINUOUS
 62
     7
100
AcDbLine
 10
204.924449
 20
264.416508
 30
0.0
 11
211.753712
 21
258.554667
 31
0.0
  0
LINE
  5
138
330
133
100
AcDbEntity
  8
LAYERGROUP-1
  6
CONTINUOUS
 62
     7
100
AcDbLine
 10
204.924449
 20
264.416508
 30
0.0
 11
184.578659
 21
281.880148
 31
0.0
  0
INSERT
  5
139
330
133
100
AcDbEntity
  8
LAYERGROUP-1
  6
CONTINUOUS
 62
     7
100
AcDbBlockReference
  2
FXTIP_ARROW_S
 10
204.924449
 20
264.416508
 30
0.0
 41
4.0
 42
4.0
 50
319.359132
  0
LINE
  5
13A
330
133
100
AcDbEntity
  8
LAYERGROUP-1
  6
CONTINUOUS
 62
     7
100
AcDbLine
 10
211.753712
 20
258.554667
 30
0.0
 11
216.306553
 21
254.646774
 31
0.0
  0
INSERT
  5
13B
330
133
100
AcDbEntity
  8
LAYERGROUP-1
  6
CONTINUOUS
 62
     7
100
AcDbBlockReference
  2
FXTIP_ARROW_S
 10
211.753712
 20
258.554667
 30
0.0
 41
4.0
 42
4.0
 50
139.359132
  0
ENDBLK
  5
135
330
133
100
AcDbEntity
  8
0
100
AcDbBlockEnd
  0
BLOCK
  5
13E
330
13D
100
AcDbEntity
  8
0
100
AcDbBlockBegin
  2
*D23
 70
     1
 71
     0
 10
0.0
 20
0.0
 30
0.0
  3
*D23
  1

  0
TEXT
  5
140
330
13D
100
AcDbEntity
  8
LAYERGROUP-1
  6
CONTINUOUS
 62
     7
100
AcDbText
 10
124.130104
 20
23.027527
 30
0.0
 40
4.0
  1
30
 41
0.851351
  7
FX_VECTOR
 72
     5
 11
130.130104
 21
23.027527
 31
0.0
100
AcDbText
  0
LINE
  5
141
330
13D
100
AcDbEntity
  8
LAYERGROUP-1
  6
CONTINUOUS
 62
     7
100
AcDbLine
 10
112.130102
 20
22.027539
 30
0.0
 11
142.130102
 21
22.027539
 31
0.0
  0
INSERT
  5
142
330
13D
100
AcDbEntity
  8
LAYERGROUP-1
  6
CONTINUOUS
 62
     7
100
AcDbBlockReference
  2
FXTIP_ARROW_S
 10
112.130102
 20
22.027539
 30
0.0
 41
4.0
 42
4.0
 50
180.0
  0
INSERT
  5
143
330
13D
100
AcDbEntity
  8
LAYERGROUP-1
  6
CONTINUOUS
 62
     7
100
AcDbBlockReference
  2
FXTIP_ARROW_E
 10
142.130102
 20
22.027539
 30
0.0
 41
4.0
 42
4.0
 50
360.0
  0
LINE
  5
144
330
13D
100
AcDbEntity
  8
LAYERGROUP-1
  6
CONTINUOUS
 62
     7
100
AcDbLine
 10
112.130102
 20
76.742207
 30
0.0
 11
112.130102
 21
21.027539
 31
0.0
  0
LINE
  5
145
330
13D
100
AcDbEntity
  8
LAYERGROUP-1
  6
CONTINUOUS
 62
     7
100
AcDbLine
 10
142.130102
 20
76.742207
 30
0.0
 11
142.130102
 21
21.027539
 31
0.0
  0
ENDBLK
  5
13F
330
13D
100
AcDbEntity
  8
0
100
AcDbBlockEnd
  0
BLOCK
  5
148
330
147
100
AcDbEntity
  8
0
100
AcDbBlockBegin
  2
*D24
 70
     1
 71
     0
 10
0.0
 20
0.0
 30
0.0
  3
*D24
  1

  0
TEXT
  5
14A
330
147
100
AcDbEntity
  8
LAYERGROUP-1
  6
CONTINUOUS
 62
     7
100
AcDbText
 10
231.339081
 20
32.480499
 30
0.0
 40
4.0
  1
30
 41
0.851351
  7
FX_VECTOR
 72
     5
 11
237.339081
 21
32.480499
 31
0.0
100
AcDbText
  0
LINE
  5
14B
330
147
100
AcDbEntity
  8
LAYERGROUP-1
  6
CONTINUOUS
 62
     7
100
AcDbLine
 10
219.33908
 20
31.480491
 30
0.0
 11
249.33908
 21
31.480491
 31
0.0
  0
INSERT
  5
14C
330
147
100
AcDbEntity
  8
LAYERGROUP-1
  6
CONTINUOUS
 62
     7
100
AcDbBlockReference
  2
FXTIP_ARROW_S
 10
219.33908
 20
31.480491
 30
0.0
 41
4.0
 42
4.0
 50
180.0
  0
INSERT
  5
14D
330
147
100
AcDbEntity
  8
LAYERGROUP-1
  6
CONTINUOUS
 62
     7
100
AcDbBlockReference
  2
FXTIP_ARROW_E
 10
249.33908
 20
31.480491
 30
0.0
 41
4.0
 42
4.0
 50
360.0
  0
LINE
  5
14E
330
147
100
AcDbEntity
  8
LAYERGROUP-1
  6
CONTINUOUS
 62
     7
100
AcDbLine
 10
219.33908
 20
37.439461
 30
0.0
 11
219.33908
 21
30.480491
 31
0.0
  0
LINE
  5
14F
330
147
100
AcDbEntity
  8
LAYERGROUP-1
  6
CONTINUOUS
 62
     7
100
AcDbLine
 10
249.33908
 20
114.066014
 30
0.0
 11
249.33908
 21
30.480491
 31
0.0
  0
ENDBLK
  5
149
330
147
100
AcDbEntity
  8
0
100
AcDbBlockEnd
  0
BLOCK
  5
152
330
151
100
AcDbEntity
  8
0
100
AcDbBlockBegin
  2
*D25
 70
     1
 71
     0
 10
0.0
 20
0.0
 30
0.0
  3
*D25
  1

  0
TEXT
  5
154
330
151
100
AcDbEntity
  8
LAYERGROUP-1
  6
CONTINUOUS
 62
     7
100
AcDbText
 10
318.339081
 20
98.242218
 30
0.0
 40
4.0
  1
122
 50
90.0
 41
0.828947
  7
FX_VECTOR
 72
     5
 11
318.339081
 21
107.242218
 31
0.0
100
AcDbText
  0
LINE
  5
155
330
151
100
AcDbEntity
  8
LAYERGROUP-1
  6
CONTINUOUS
 62
     7
100
AcDbLine
 10
319.33908
 20
41.742207
 30
0.0
 11
319.33908
 21
163.742207
 31
0.0
  0
INSERT
  5
156
330
151
100
AcDbEntity
  8
LAYERGROUP-1
  6
CONTINUOUS
 62
     7
100
AcDbBlockReference
  2
FXTIP_ARROW_S
 10
319.33908
 20
41.742207
 30
0.0
 41
4.0
 42
4.0
 50
270.0
  0
INSERT
  5
157
330
151
100
AcDbEntity
  8
LAYERGROUP-1
  6
CONTINUOUS
 62
     7
100
AcDbBlockReference
  2
FXTIP_ARROW_E
 10
319.33908
 20
163.742207
 30
0.0
 41
4.0
 42
4.0
 50
90.0
  0
LINE
  5
158
330
151
100
AcDbEntity
  8
LAYERGROUP-1
  6
CONTINUOUS
 62
     7
100
AcDbLine
 10
220.33908
 20
41.742207
 30
0.0
 11
320.33908
 21
41.742207
 31
0.0
  0
LINE
  5
159
330
151
100
AcDbEntity
  8
LAYERGROUP-1
  6
CONTINUOUS
 62
     7
100
AcDbLine
 10
300.33908
 20
163.742207
 30
0.0
 11
320.33908
 21
163.742207
 31
0.0
  0
ENDBLK
  5
153
330
151
100
AcDbEntity
  8
0
100
AcDbBlockEnd
  0
BLOCK
  5
15C
330
15B
100
AcDbEntity
  8
0
100
AcDbBlockBegin
  2
*D26
 70
     1
 71
     0
 10
0.0
 20
0.0
 30
0.0
  3
*D26
  1

  0
TEXT
  5
15E
330
15B
100
AcDbEntity
  8
LAYERGROUP-1
  6
CONTINUOUS
 62
     7
100
AcDbText
 10
308.339081
 20
124.742218
 30
0.0
 40
4.0
  1
72
 50
90.0
 41
0.851351
  7
FX_VECTOR
 72
     5
 11
308.339081
 21
130.742218
 31
0.0
100
AcDbText
  0
LINE
  5
15F
330
15B
100
AcDbEntity
  8
LAYERGROUP-1
  6
CONTINUOUS
 62
     7
100
AcDbLine
 10
309.33908
 20
91.742207
 30
0.0
 11
309.33908
 21
163.742207
 31
0.0
  0
INSERT
  5
160
330
15B
100
AcDbEntity
  8
LAYERGROUP-1
  6
CONTINUOUS
 62
     7
100
AcDbBlockReference
  2
FXTIP_ARROW_S
 10
309.33908
 20
91.742207
 30
0.0
 41
4.0
 42
4.0
 50
270.0
  0
INSERT
  5
161
330
15B
100
AcDbEntity
  8
LAYERGROUP-1
  6
CONTINUOUS
 62
     7
100
AcDbBlockReference
  2
FXTIP_ARROW_E
 10
309.33908
 20
163.742207
 30
0.0
 41
4.0
 42
4.0
 50
90.0
  0
LINE
  5
162
330
15B
100
AcDbEntity
  8
LAYERGROUP-1
  6
CONTINUOUS
 62
     7
100
AcDbLine
 10
273.436781
 20
91.742207
 30
0.0
 11
310.33908
 21
91.742207
 31
0.0
  0
ENDBLK
  5
15D
330
15B
100
AcDbEntity
  8
0
100
AcDbBlockEnd
  0
BLOCK
  5
165
330
164
100
AcDbEntity
  8
0
100
AcDbBlockBegin
  2
*D27
 70
     1
 71
     0
 10
0.0
 20
0.0
 30
0.0
  3
*D27
  1

  0
TEXT
  5
167
330
164
100
AcDbEntity
  8
LAYERGROUP-1
  6
CONTINUOUS
 62
     7
100
AcDbText
 10
96.209061
 20
85.742218
 30
0.0
 40
4.0
  1
%%c100
 50
90.0
 41
0.828947
  7
FX_VECTOR
 72
     5
 11
96.209061
 21
97.742218
 31
0.0
100
AcDbText
  0
LINE
  5
168
330
164
100
AcDbEntity
  8
LAYERGROUP-1
  6
CONTINUOUS
 62
     7
100
AcDbLine
 10
97.209058
 20
41.742207
 30
0.0
 11
97.209058
 21
141.742207
 31
0.0
  0
INSERT
  5
169
330
164
100
AcDbEntity
  8
LAYERGROUP-1
  6
CONTINUOUS
 62
     7
100
AcDbBlockReference
  2
FXTIP_ARROW_S
 10
97.209058
 20
41.742207
 30
0.0
 41
4.0
 42
4.0
 50
270.0
  0
INSERT
  5
16A
330
164
100
AcDbEntity
  8
LAYERGROUP-1
  6
CONTINUOUS
 62
     7
100
AcDbBlockReference
  2
FXTIP_ARROW_E
 10
97.209058
 20
141.742207
 30
0.0
 41
4.0
 42
4.0
 50
90.0
  0
LINE
  5
16B
330
164
100
AcDbEntity
  8
LAYERGROUP-1
  6
CONTINUOUS
 62
     7
100
AcDbLine
 10
126.130102
 20
41.742207
 30
0.0
 11
96.209058
 21
41.742207
 31
0.0
  0
LINE
  5
16C
330
164
100
AcDbEntity
  8
LAYERGROUP-1
  6
CONTINUOUS
 62
     7
100
AcDbLine
 10
126.130102
 20
141.742207
 30
0.0
 11
96.209058
 21
141.742207
 31
0.0
  0
ENDBLK
  5
166
330
164
100
AcDbEntity
  8
0
100
AcDbBlockEnd
  0
BLOCK
  5
1A1
330
1A0
100
AcDbEntity
  8
0
100
AcDbBlockBegin
  2
*D28
 70
     1
 71
     0
 10
0.0
 20
0.0
 30
0.0
  3
*D28
  1

  0
TEXT
  5
1A3
330
1A0
100
AcDbEntity
  8
GR1-1
  6
CONTINUOUS
 62
     7
100
AcDbText
 10
317.988525
 20
238.48558
 30
0.0
 40
4.0
  1
58
 50
90.0
 41
0.851351
  7
FX_VECTOR
 72
     5
 11
317.988525
 21
244.48558
 31
0.0
100
AcDbText
  0
LINE
  5
1A4
330
1A0
100
AcDbEntity
  8
GR1-1
  6
CONTINUOUS
 62
     7
100
AcDbLine
 10
318.98854
 20
212.485588
 30
0.0
 11
318.98854
 21
270.485588
 31
0.0
  0
INSERT
  5
1A5
330
1A0
100
AcDbEntity
  8
GR1-1
  6
CONTINUOUS
 62
     7
100
AcDbBlockReference
  2
FXTIP_ARROW_S
 10
318.98854
 20
212.485588
 30
0.0
 41
4.0
 42
4.0
 50
270.0
  0
INSERT
  5
1A6
330
1A0
100
AcDbEntity
  8
GR1-1
  6
CONTINUOUS
 62
     7
100
AcDbBlockReference
  2
FXTIP_ARROW_E
 10
318.98854
 20
270.485588
 30
0.0
 41
4.0
 42
4.0
 50
90.0
  0
LINE
  5
1A7
330
1A0
100
AcDbEntity
  8
GR1-1
  6
CONTINUOUS
 62
     7
100
AcDbLine
 10
293.33908
 20
212.485588
 30
0.0
 11
319.98854
 21
212.485588
 31
0.0
  0
LINE
  5
1A8
330
1A0
100
AcDbEntity
  8
GR1-1
  6
CONTINUOUS
 62
     7
100
AcDbLine
 10
293.33908
 20
270.485588
 30
0.0
 11
319.98854
 21
270.485588
 31
0.0
  0
ENDBLK
  5
1A2
330
1A0
100
AcDbEntity
  8
0
100
AcDbBlockEnd
  0
BLOCK
  5
1AB
330
1AA
100
AcDbEntity
  8
0
100
AcDbBlockBegin
  2
*D29
 70
     1
 71
     0
 10
0.0
 20
0.0
 30
0.0
  3
*D29
  1

  0
TEXT
  5
1AD
330
1AA
100
AcDbEntity
  8
GR1-1
  6
CONTINUOUS
 62
     7
100
AcDbText
 10
307.988525
 20
238.48558
 30
0.0
 40
4.0
  1
40
 50
90.0
 41
0.851351
  7
FX_VECTOR
 72
     5
 11
307.988525
 21
244.48558
 31
0.0
100
AcDbText
  0
LINE
  5
1AE
330
1AA
100
AcDbEntity
  8
GR1-1
  6
CONTINUOUS
 62
     7
100
AcDbLine
 10
308.98854
 20
221.485588
 30
0.0
 11
308.98854
 21
261.485588
 31
0.0
  0
INSERT
  5
1AF
330
1AA
100
AcDbEntity
  8
GR1-1
  6
CONTINUOUS
 62
     7
100
AcDbBlockReference
  2
FXTIP_ARROW_S
 10
308.98854
 20
221.485588
 30
0.0
 41
4.0
 42
4.0
 50
270.0
  0
INSERT
  5
1B0
330
1AA
100
AcDbEntity
  8
GR1-1
  6
CONTINUOUS
 62
     7
100
AcDbBlockReference
  2
FXTIP_ARROW_E
 10
308.98854
 20
261.485588
 30
0.0
 41
4.0
 42
4.0
 50
90.0
  0
LINE
  5
1B1
330
1AA
100
AcDbEntity
  8
GR1-1
  6
CONTINUOUS
 62
     7
100
AcDbLine
 10
299.33908
 20
221.485588
 30
0.0
 11
309.98854
 21
221.485588
 31
0.0
  0
LINE
  5
1B2
330
1AA
100
AcDbEntity
  8
GR1-1
  6
CONTINUOUS
 62
     7
100
AcDbLine
 10
299.33908
 20
261.485588
 30
0.0
 11
309.98854
 21
261.485588
 31
0.0
  0
ENDBLK
  5
1AC
330
1AA
100
AcDbEntity
  8
0
100
AcDbBlockEnd
  0
BLOCK
  5
1B5
330
1B4
100
AcDbEntity
  8
0
100
AcDbBlockBegin
  2
*D30
 70
     1
 71
     0
 10
0.0
 20
0.0
 30
0.0
  3
*D30
  1

  0
TEXT
  5
1B7
330
1B4
100
AcDbEntity
  8
GR1-1
  6
CONTINUOUS
 62
     7
100
AcDbText
 10
244.839081
 20
193.912781
 30
0.0
 40
4.0
  1
100
 41
0.828947
  7
FX_VECTOR
 72
     5
 11
253.839081
 21
193.912781
 31
0.0
100
AcDbText
  0
LINE
  5
1B8
330
1B4
100
AcDbEntity
  8
GR1-1
  6
CONTINUOUS
 62
     7
100
AcDbLine
 10
199.33908
 20
192.912775
 30
0.0
 11
299.33908
 21
192.912775
 31
0.0
  0
INSERT
  5
1B9
330
1B4
100
AcDbEntity
  8
GR1-1
  6
CONTINUOUS
 62
     7
100
AcDbBlockReference
  2
FXTIP_ARROW_S
 10
199.33908
 20
192.912775
 30
0.0
 41
4.0
 42
4.0
 50
180.0
  0
INSERT
  5
1BA
330
1B4
100
AcDbEntity
  8
GR1-1
  6
CONTINUOUS
 62
     7
100
AcDbBlockReference
  2
FXTIP_ARROW_E
 10
299.33908
 20
192.912775
 30
0.0
 41
4.0
 42
4.0
 50
360.0
  0
LINE
  5
1BB
330
1B4
100
AcDbEntity
  8
GR1-1
  6
CONTINUOUS
 62
     7
100
AcDbLine
 10
199.33908
 20
218.485588
 30
0.0
 11
199.33908
 21
191.912775
 31
0.0
  0
LINE
  5
1BC
330
1B4
100
AcDbEntity
  8
GR1-1
  6
CONTINUOUS
 62
     7
100
AcDbLine
 10
299.33908
 20
218.485588
 30
0.0
 11
299.33908
 21
191.912775
 31
0.0
  0
ENDBLK
  5
1B6
330
1B4
100
AcDbEntity
  8
0
100
AcDbBlockEnd
  0
BLOCK
  5
1BF
330
1BE
100
AcDbEntity
  8
0
100
AcDbBlockBegin
  2
*D31
 70
     1
 71
     0
 10
0.0
 20
0.0
 30
0.0
  3
*D31
  1

  0
TEXT
  5
1C1
330
1BE
100
AcDbEntity
  8
GR1-1
  6
CONTINUOUS
 62
     7
100
AcDbText
 10
246.339081
 20
203.912781
 30
0.0
 40
4.0
  1
82
 41
0.851351
  7
FX_VECTOR
 72
     5
 11
252.339081
 21
203.912781
 31
0.0
100
AcDbText
  0
LINE
  5
1C2
330
1BE
100
AcDbEntity
  8
GR1-1
  6
CONTINUOUS
 62
     7
100
AcDbLine
 10
208.33908
 20
202.912775
 30
0.0
 11
290.33908
 21
202.912775
 31
0.0
  0
INSERT
  5
1C3
330
1BE
100
AcDbEntity
  8
GR1-1
  6
CONTINUOUS
 62
     7
100
AcDbBlockReference
  2
FXTIP_ARROW_S
 10
208.33908
 20
202.912775
 30
0.0
 41
4.0
 42
4.0
 50
180.0
  0
INSERT
  5
1C4
330
1BE
100
AcDbEntity
  8
GR1-1
  6
CONTINUOUS
 62
     7
100
AcDbBlockReference
  2
FXTIP_ARROW_E
 10
290.33908
 20
202.912775
 30
0.0
 41
4.0
 42
4.0
 50
360.0
  0
LINE
  5
1C5
330
1BE
100
AcDbEntity
  8
GR1-1
  6
CONTINUOUS
 62
     7
100
AcDbLine
 10
208.33908
 20
212.485588
 30
0.0
 11
208.33908
 21
201.912775
 31
0.0
  0
LINE
  5
1C6
330
1BE
100
AcDbEntity
  8
GR1-1
  6
CONTINUOUS
 62
     7
100
AcDbLine
 10
290.33908
 20
212.485588
 30
0.0
 11
290.33908
 21
201.912775
 31
0.0
  0
ENDBLK
  5
1C0
330
1BE
100
AcDbEntity
  8
0
100
AcDbBlockEnd
  0
BLOCK
  5
1CA
330
1C9
100
AcDbEntity
  8
0
100
AcDbBlockBegin
  2
BLKF034
 70
     0
 71
     0
 10
0.0
 20
0.0
 30
0.0
  3
BLKF034
  1

  0
ARC
  5
1CD
330
1C9
100
AcDbEntity
  8
GR1-1
  6
CONTINUOUS
 62
     3
100
AcDbCircle
 10
219.33908
 20
91.742207
 30
0.0
 40
49.99967624316851
100
AcDbArc
 50
-258.892217
 51
48.476174
  0
INSERT
  5
1D1
330
1C9
100
AcDbEntity
  8
0
100
AcDbBlockReference
  2
BLKF035
 10
0.0
 20
0.0
 30
0.0
  0
INSERT
  5
1D9
330
1C9
100
AcDbEntity
  8
0
100
AcDbBlockReference
  2
BLKF036
 10
0.0
 20
0.0
 30
0.0
  0
HATCH
  5
1E9
330
1C9
100
AcDbEntity
  8
LAYERGROUP-1
  6
CONTINUOUS
 62
     2
100
AcDbHatch
 10
0.0
 20
0.0
 30
0.0
210
0.0
220
0.0
230
1.0
  2

 70
     0
 71
     1
 91
        2
 92
        0
 93
        4
 72
     1
 10
266.8149652786711
 20
97.46376336129424
 11
267.08204469107
 21
93.57704918753393
 72
     1
 10
267.08204469107
 20
93.57704918753393
 11
263.1953305173096
 21
93.30996977513496
 72
     1
 10
263.1953305173096
 20
93.30996977513496
 11
262.9282511049105
 21
97.19668394889527
 72
     1
 10
262.9282511049105
 20
97.19668394889527
 11
266.8149652786711
 21
97.46376336129424
 97
        0
 92
        0
 93
       15
 72
     1
 10
266.8550743654961
 20
95.51398609690506
 11
264.8780283692999
 21
97.23679303572044
 72
     1
 10
264.8780283692999
 20
97.23679303572044
 11
263.1552214304845
 21
95.2597470395242
 72
     1
 10
263.1552214304845
 20
95.2597470395242
 11
264.2336101822563
 21
94.32003420055139
 72
     1
 10
264.2336101822563
 20
94.32003420055139
 11
263.8225154187791
 21
94.29178541688435
 72
     1
 10
263.8225154187791
 20
94.29178541688435
 11
263.8610364882119
 21
93.73120163692158
 72
     1
 10
263.8610364882119
 20
93.73120163692158
 11
265.1690652868864
 21
93.82108413080533
 72
     1
 10
265.1690652868864
 20
93.82108413080533
 11
265.0612062951016
 21
95.39071867647135
 72
     1
 10
265.0612062951016
 20
95.39071867647135
 11
264.5006225151388
 21
95.35219760703859
 72
     1
 10
264.5006225151388
 20
95.35219760703859
 11
264.5203966632678
 21
95.06443127897614
 72
     1
 10
264.5203966632678
 20
95.06443127897614
 11
264.2128561870763
 21
95.33242345890949
 72
     1
 10
264.2128561870763
 20
95.33242345890949
 11
264.9507047886852
 21
96.17915827912856
 72
     1
 10
264.9507047886852
 20
96.17915827912856
 11
265.7974396089042
 21
95.44130967751971
 72
     1
 10
265.7974396089042
 20
95.44130967751971
 11
265.3206223328912
 21
94.89412724795096
 72
     1
 10
265.3206223328912
 20
94.89412724795096
 11
265.3932987478983
 21
93.83649255507567
 72
     1
 10
265.3932987478983
 20
93.83649255507567
 11
266.8550743654961
 21
95.51398609690506
 97
        0
 75
     0
 76
     0
 52
0.0
 41
0.1
 77
     0
 78
     1
 53
0.0
 43
0.0
 44
0.0
 45
0.0
 46
0.1
 79
     0
 98
        0
  0
ARC
  5
1EA
330
1C9
100
AcDbEntity
  8
GR1-1
  6
CONTINUOUS
 62
     6
100
AcDbCircle
 10
219.33908
 20
91.742207
 30
0.0
 40
36.49999999999999
100
AcDbArc
 50
-253.900962
 51
43.719685
  0
ARC
  5
1EB
330
1C9
100
AcDbEntity
  8
GR1-1
  6
CONTINUOUS
 62
     3
100
AcDbCircle
 10
219.33908
 20
91.742207
 30
0.0
 40
42.50000000000001
100
AcDbArc
 50
-256.525914
 51
46.219849
  0
INSERT
  5
1EF
330
1C9
100
AcDbEntity
  8
0
100
AcDbBlockReference
  2
BLKF037
 10
0.0
 20
0.0
 30
0.0
  0
INSERT
  5
200
330
1C9
100
AcDbEntity
  8
0
100
AcDbBlockReference
  2
BLKF038
 10
0.0
 20
0.0
 30
0.0
  0
ENDBLK
  5
1CB
330
1C9
100
AcDbEntity
  8
0
100
AcDbBlockEnd
  0
BLOCK
  5
1CF
330
1CE
100
AcDbEntity
  8
0
100
AcDbBlockBegin
  2
BLKF035
 70
     0
 71
     0
 10
0.0
 20
0.0
 30
0.0
  3
BLKF035
  1

  0
LINE
  5
1D2
330
1CE
100
AcDbEntity
  8
0-1
  6
CONTINUOUS
 62
     7
100
AcDbLine
 10
267.082045
 20
93.577049
 30
0.0
 11
266.814965
 21
97.463763
 31
0.0
  0
LINE
  5
1D3
330
1CE
100
AcDbEntity
  8
0-1
  6
CONTINUOUS
 62
     7
100
AcDbLine
 10
266.814965
 20
97.463763
 30
0.0
 11
262.928251
 21
97.196684
 31
0.0
  0
LINE
  5
1D4
330
1CE
100
AcDbEntity
  8
0-1
  6
CONTINUOUS
 62
     7
100
AcDbLine
 10
262.928251
 20
97.196684
 30
0.0
 11
263.195331
 21
93.30997
 31
0.0
  0
LINE
  5
1D5
330
1CE
100
AcDbEntity
  8
0-1
  6
CONTINUOUS
 62
     7
100
AcDbLine
 10
263.195331
 20
93.30997
 30
0.0
 11
267.082045
 21
93.577049
 31
0.0
  0
ENDBLK
  5
1D0
330
1CE
100
AcDbEntity
  8
0
100
AcDbBlockEnd
  0
BLOCK
  5
1D7
330
1D6
100
AcDbEntity
  8
0
100
AcDbBlockBegin
  2
BLKF036
 70
     0
 71
     0
 10
0.0
 20
0.0
 30
0.0
  3
BLKF036
  1

  0
LINE
  5
1DA
330
1D6
100
AcDbEntity
  8
0-1
  6
CONTINUOUS
 62
     7
100
AcDbLine
 10
265.393299
 20
93.836493
 30
0.0
 11
266.855074
 21
95.513986
 31
0.0
  0
LINE
  5
1DB
330
1D6
100
AcDbEntity
  8
0-1
  6
CONTINUOUS
 62
     7
100
AcDbLine
 10
266.855074
 20
95.513986
 30
0.0
 11
264.878028
 21
97.236793
 31
0.0
  0
LINE
  5
1DC
330
1D6
100
AcDbEntity
  8
0-1
  6
CONTINUOUS
 62
     7
100
AcDbLine
 10
264.878028
 20
97.236793
 30
0.0
 11
263.155221
 21
95.259747
 31
0.0
  0
LINE
  5
1DD
330
1D6
100
AcDbEntity
  8
0-1
  6
CONTINUOUS
 62
     7
100
AcDbLine
 10
263.155221
 20
95.259747
 30
0.0
 11
264.23361
 21
94.320034
 31
0.0
  0
LINE
  5
1DE
330
1D6
100
AcDbEntity
  8
0-1
  6
CONTINUOUS
 62
     7
100
AcDbLine
 10
264.23361
 20
94.320034
 30
0.0
 11
263.822515
 21
94.291785
 31
0.0
  0
LINE
  5
1DF
330
1D6
100
AcDbEntity
  8
0-1
  6
CONTINUOUS
 62
     7
100
AcDbLine
 10
263.822515
 20
94.291785
 30
0.0
 11
263.861036
 21
93.731202
 31
0.0
  0
LINE
  5
1E0
330
1D6
100
AcDbEntity
  8
0-1
  6
CONTINUOUS
 62
     7
100
AcDbLine
 10
263.861036
 20
93.731202
 30
0.0
 11
265.169065
 21
93.821084
 31
0.0
  0
LINE
  5
1E1
330
1D6
100
AcDbEntity
  8
0-1
  6
CONTINUOUS
 62
     7
100
AcDbLine
 10
265.169065
 20
93.821084
 30
0.0
 11
265.061206
 21
95.390719
 31
0.0
  0
LINE
  5
1E2
330
1D6
100
AcDbEntity
  8
0-1
  6
CONTINUOUS
 62
     7
100
AcDbLine
 10
265.061206
 20
95.390719
 30
0.0
 11
264.500623
 21
95.352198
 31
0.0
  0
LINE
  5
1E3
330
1D6
100
AcDbEntity
  8
0-1
  6
CONTINUOUS
 62
     7
100
AcDbLine
 10
264.500623
 20
95.352198
 30
0.0
 11
264.520397
 21
95.064431
 31
0.0
  0
LINE
  5
1E4
330
1D6
100
AcDbEntity
  8
0-1
  6
CONTINUOUS
 62
     7
100
AcDbLine
 10
264.520397
 20
95.064431
 30
0.0
 11
264.212856
 21
95.332423
 31
0.0
  0
LINE
  5
1E5
330
1D6
100
AcDbEntity
  8
0-1
  6
CONTINUOUS
 62
     7
100
AcDbLine
 10
264.212856
 20
95.332423
 30
0.0
 11
264.950705
 21
96.179158
 31
0.0
  0
LINE
  5
1E6
330
1D6
100
AcDbEntity
  8
0-1
  6
CONTINUOUS
 62
     7
100
AcDbLine
 10
264.950705
 20
96.179158
 30
0.0
 11
265.79744
 21
95.44131
 31
0.0
  0
LINE
  5
1E7
330
1D6
100
AcDbEntity
  8
0-1
  6
CONTINUOUS
 62
     7
100
AcDbLine
 10
265.79744
 20
95.44131
 30
0.0
 11
265.320622
 21
94.894127
 31
0.0
  0
LINE
  5
1E8
330
1D6
100
AcDbEntity
  8
0-1
  6
CONTINUOUS
 62
     7
100
AcDbLine
 10
265.320622
 20
94.894127
 30
0.0
 11
265.393299
 21
93.836493
 31
0.0
  0
ENDBLK
  5
1D8
330
1D6
100
AcDbEntity
  8
0
100
AcDbBlockEnd
  0
BLOCK
  5
1ED
330
1EC
100
AcDbEntity
  8
0
100
AcDbBlockBegin
  2
BLKF037
 70
     0
 71
     0
 10
0.0
 20
0.0
 30
0.0
  3
BLKF037
  1

  0
TEXT
  5
1F0
330
1EC
100
AcDbEntity
  8
GR1-1
  6
CONTINUOUS
 62
     7
100
AcDbText
 10
258.363139
 20
72.419312
 30
0.0
 40
4.0
  1
　
 50
241.025116
 41
1.4
 51
10.0
  7
FX_VECTOR
 72
     5
 11
256.425435
 21
68.919983
 31
0.0
100
AcDbText
  0
TEXT
  5
1F1
330
1EC
100
AcDbEntity
  8
GR1-1
  6
CONTINUOUS
 62
     7
100
AcDbText
 10
259.972585
 20
76.084319
 30
0.0
 40
4.0
  1
Ｄ
 50
246.293686
 41
1.4
 51
10.0
  7
FX_VECTOR
 72
     5
 11
258.36439
 21
72.421846
 31
0.0
100
AcDbText
  0
TEXT
  5
1F2
330
1EC
100
AcDbEntity
  8
GR1-1
  6
CONTINUOUS
 62
     7
100
AcDbText
 10
261.238688
 20
79.881619
 30
0.0
 40
4.0
  1
Ｌ
 50
251.562256
 41
1.4
 51
10.0
  7
FX_VECTOR
 72
     5
 11
259.973592
 21
76.086948
 31
0.0
100
AcDbText
  0
TEXT
  5
1F3
330
1EC
100
AcDbEntity
  8
GR1-1
  6
CONTINUOUS
 62
     7
100
AcDbText
 10
262.150752
 20
83.779129
 30
0.0
 40
4.0
  1
Ｏ
 50
256.830841
 41
1.4
 51
10.0
  7
FX_VECTOR
 72
     5
 11
261.239445
 21
79.884323
 31
0.0
100
AcDbText
  0
TEXT
  5
1F4
330
1EC
100
AcDbEntity
  8
GR1-1
  6
CONTINUOUS
 62
     7
100
AcDbText
 10
262.701087
 20
87.743956
 30
0.0
 40
4.0
  1
Ｇ
 50
262.099426
 41
1.4
 51
10.0
  7
FX_VECTOR
 72
     5
 11
262.151269
 21
83.781923
 31
0.0
100
AcDbText
  0
TEXT
  5
1F5
330
1EC
100
AcDbEntity
  8
GR1-1
  6
CONTINUOUS
 62
     7
100
AcDbText
 10
262.885025
 20
91.74255
 30
0.0
 40
4.0
  1
　
 50
267.367981
 41
1.4
 51
10.0
  7
FX_VECTOR
 72
     5
 11
262.70134
 21
87.746769
 31
0.0
100
AcDbText
  0
TEXT
  5
1F6
330
1EC
100
AcDbEntity
  8
GR1-1
  6
CONTINUOUS
 62
     7
100
AcDbText
 10
262.701029
 20
95.741108
 30
0.0
 40
4.0
  1
　
 50
272.636566
 41
1.4
 51
10.0
  7
FX_VECTOR
 72
     5
 11
262.885031
 21
91.745342
 31
0.0
100
AcDbText
  0
TEXT
  5
1F7
330
1EC
100
AcDbEntity
  8
GR1-1
  6
CONTINUOUS
 62
     7
100
AcDbText
 10
256.423944
 20
68.91759
 30
0.0
 40
4.0
  1
Ｃ
 50
235.756531
 41
1.4
 51
10.0
  7
FX_VECTOR
 72
     5
 11
254.173102
 21
65.610974
 31
0.0
100
AcDbText
  0
TEXT
  5
1F8
330
1EC
100
AcDbEntity
  8
GR1-1
  6
CONTINUOUS
 62
     7
100
AcDbText
 10
254.171421
 20
65.608717
 30
0.0
 40
4.0
  1
Ａ
 50
230.487976
 41
1.4
 51
10.0
  7
FX_VECTOR
 72
     5
 11
251.626461
 21
62.522753
 31
0.0
100
AcDbText
  0
TEXT
  5
1F9
330
1EC
100
AcDbEntity
  8
GR1-1
  6
CONTINUOUS
 62
     7
100
AcDbText
 10
251.624547
 20
62.520662
 30
0.0
 40
4.0
  1
Ｓ
 50
225.219391
 41
1.4
 51
10.0
  7
FX_VECTOR
 72
     5
 11
248.806971
 21
59.681425
 31
0.0
100
AcDbText
  0
TEXT
  5
1FA
330
1EC
100
AcDbEntity
  8
GR1-1
  6
CONTINUOUS
 62
     7
100
AcDbText
 10
248.804905
 20
59.679523
 30
0.0
 40
4.0
  1
Ｔ
 50
219.950806
 41
1.4
 51
10.0
  7
FX_VECTOR
 72
     5
 11
245.738521
 21
57.111004
 31
0.0
100
AcDbText
  0
TEXT
  5
1FB
330
1EC
100
AcDbEntity
  8
GR1-1
  6
CONTINUOUS
 62
     7
100
AcDbText
 10
245.73627
 20
57.109301
 30
0.0
 40
4.0
  1
Ｅ
 50
214.68222
 41
1.4
 51
10.0
  7
FX_VECTOR
 72
     5
 11
242.446988
 21
54.833204
 31
0.0
100
AcDbText
  0
TEXT
  5
1FC
330
1EC
100
AcDbEntity
  8
GR1-1
  6
CONTINUOUS
 62
     7
100
AcDbText
 10
242.444601
 20
54.83171
 30
0.0
 40
4.0
  1
Ｒ
 50
209.413666
 41
1.4
 51
10.0
  7
FX_VECTOR
 72
     5
 11
238.960214
 21
52.867264
 31
0.0
100
AcDbText
  0
ENDBLK
  5
1EE
330
1EC
100
AcDbEntity
  8
0
100
AcDbBlockEnd
  0
BLOCK
  5
1FE
330
1FD
100
AcDbEntity
  8
0
100
AcDbBlockBegin
  2
BLKF038
 70
     0
 71
     0
 10
0.0
 20
0.0
 30
0.0
  3
BLKF038
  1

  0
TEXT
  5
201
330
1FD
100
AcDbEntity
  8
GR1-1
  6
CONTINUOUS
 62
     7
100
AcDbText
 10
179.468178
 20
109.251082
 30
0.0
 40
4.0
  1
０
 50
63.659401
 41
1.4
  7
FX_VECTOR
 72
     5
 11
181.243003
 21
112.835771
 31
0.0
100
AcDbText
  0
TEXT
  5
202
330
1FD
100
AcDbEntity
  8
GR1-1
  6
CONTINUOUS
 62
     7
100
AcDbText
 10
178.028888
 20
105.516005
 30
0.0
 40
4.0
  1
０
 50
68.927971
 41
1.4
  7
FX_VECTOR
 72
     5
 11
179.467053
 21
109.248522
 31
0.0
100
AcDbText
  0
TEXT
  5
203
330
1FD
100
AcDbEntity
  8
GR1-1
  6
CONTINUOUS
 62
     7
100
AcDbText
 10
176.938631
 20
101.664494
 30
0.0
 40
4.0
  1
１
 50
74.196556
 41
1.4
  7
FX_VECTOR
 72
     5
 11
178.027983
 21
105.513301
 31
0.0
100
AcDbText
  0
TEXT
  5
204
330
1FD
100
AcDbEntity
  8
GR1-1
  6
CONTINUOUS
 62
     7
100
AcDbText
 10
181.244373
 20
112.838249
 30
0.0
 40
4.0
  1
×
 50
58.390816
 41
1.4
  7
FX_VECTOR
 72
     5
 11
183.340863
 21
116.24482
 31
0.0
100
AcDbText
  0
TEXT
  5
205
330
1FD
100
AcDbEntity
  8
GR1-1
  6
CONTINUOUS
 62
     7
100
AcDbText
 10
183.342444
 20
116.247134
 30
0.0
 40
4.0
  1
２
 50
53.122246
 41
1.4
  7
FX_VECTOR
 72
     5
 11
185.742883
 21
119.446805
 31
0.0
100
AcDbText
  0
TEXT
  5
206
330
1FD
100
AcDbEntity
  8
GR1-1
  6
CONTINUOUS
 62
     7
100
AcDbText
 10
185.744678
 20
119.448988
 30
0.0
 40
4.0
  1
７
 50
47.853661
 41
1.4
  7
FX_VECTOR
 72
     5
 11
188.428784
 21
122.414721
 31
0.0
100
AcDbText
  0
ENDBLK
  5
1FF
330
1FD
100
AcDbEntity
  8
0
100
AcDbBlockEnd
  0
BLOCK
  5
208
330
207
100
AcDbEntity
  8
0
100
AcDbBlockBegin
  2
BLKF039
 70
     0
 71
     0
 10
0.0
 20
0.0
 30
0.0
  3
BLKF039
  1

  0
LINE
  5
20B
330
207
100
AcDbEntity
  8
GR1-1
  6
CONTINUOUS
 62
     3
100
AcDbLine
 10
112.130102
 20
86.742207
 30
0.0
 11
112.130102
 21
82.540836
 31
0.0
  0
ARC
  5
20C
330
207
100
AcDbEntity
  8
GR1-1
  6
CONTINUOUS
 62
     3
100
AcDbCircle
 10
113.130102
 20
82.540836
 30
0.0
 40
1.0
100
AcDbArc
 50
180.0
 51
267.0
  0
LINE
  5
20D
330
207
100
AcDbEntity
  8
GR1-1
  6
CONTINUOUS
 62
     3
100
AcDbLine
 10
113.077766
 20
81.542207
 30
0.0
 11
113.630102
 21
81.51326
 31
0.0
  0
LINE
  5
20E
330
207
100
AcDbEntity
  8
GR1-1
  6
CONTINUOUS
 62
     3
100
AcDbLine
 10
140.630102
 20
53.242207
 30
0.0
 11
140.630102
 21
44.452169
 31
0.0
  0
ARC
  5
20F
330
207
100
AcDbEntity
  8
GR1-1
  6
CONTINUOUS
 62
     3
100
AcDbCircle
 10
138.630102
 20
44.452169
 30
0.0
 40
2.0
100
AcDbArc
 50
277.73638
 51
360.0
  0
LINE
  5
210
330
207
100
AcDbEntity
  8
GR1-1
  6
CONTINUOUS
 62
     3
100
AcDbLine
 10
113.630102
 20
53.242207
 30
0.0
 11
113.630102
 21
44.452169
 31
0.0
  0
ARC
  5
211
330
207
100
AcDbEntity
  8
GR1-1
  6
CONTINUOUS
 62
     3
100
AcDbCircle
 10
115.630102
 20
44.452169
 30
0.0
 40
2.0
100
AcDbArc
 50
180.0
 51
262.26362
  0
LINE
  5
212
330
207
100
AcDbEntity
  8
GR1-1
  6
CONTINUOUS
 62
     3
100
AcDbLine
 10
142.130102
 20
86.742207
 30
0.0
 11
142.130102
 21
82.540836
 31
0.0
  0
LINE
  5
213
330
207
100
AcDbEntity
  8
GR1-1
  6
CONTINUOUS
 62
     3
100
AcDbLine
 10
141.182438
 20
81.542207
 30
0.0
 11
140.630102
 21
81.51326
 31
0.0
  0
ARC
  5
214
330
207
100
AcDbEntity
  8
GR1-1
  6
CONTINUOUS
 62
     3
100
AcDbCircle
 10
141.130102
 20
82.540836
 30
0.0
 40
1.0
100
AcDbArc
 50
273.0
 51
360.0
  0
LINE
  5
215
330
207
100
AcDbEntity
  8
GR1-1
  6
CONTINUOUS
 62
     3
100
AcDbLine
 10
112.130102
 20
86.742207
 30
0.0
 11
112.130102
 21
96.742207
 31
0.0
  0
LINE
  5
216
330
207
100
AcDbEntity
  8
GR1-1
  6
CONTINUOUS
 62
     3
100
AcDbLine
 10
142.130102
 20
96.742207
 30
0.0
 11
142.130102
 21
86.742207
 31
0.0
  0
LINE
  5
217
330
207
100
AcDbEntity
  8
GR1-1
  6
CONTINUOUS
 62
     3
100
AcDbLine
 10
113.630102
 20
53.242207
 30
0.0
 11
113.630102
 21
91.742207
 31
0.0
  0
LINE
  5
218
330
207
100
AcDbEntity
  8
GR1-1
  6
CONTINUOUS
 62
     3
100
AcDbLine
 10
140.630102
 20
91.742207
 30
0.0
 11
140.630102
 21
53.242207
 31
0.0
  0
ARC
  5
219
330
207
100
AcDbEntity
  8
GR1-1
  6
CONTINUOUS
 62
     3
100
AcDbCircle
 10
127.130102
 20
137.218391
 30
0.0
 40
95.47618407592026
100
AcDbArc
 50
262.91921
 51
277.08079
  0
LINE
  5
21A
330
207
100
AcDbEntity
  8
GR1-1
  6
CONTINUOUS
 62
     3
100
AcDbLine
 10
112.130102
 20
96.742207
 30
0.0
 11
112.130102
 21
100.943577
 31
0.0
  0
ARC
  5
21B
330
207
100
AcDbEntity
  8
GR1-1
  6
CONTINUOUS
 62
     3
100
AcDbCircle
 10
113.130102
 20
100.943577
 30
0.0
 40
1.0
100
AcDbArc
 50
93.0
 51
180.0
  0
LINE
  5
21C
330
207
100
AcDbEntity
  8
GR1-1
  6
CONTINUOUS
 62
     3
100
AcDbLine
 10
113.077766
 20
101.942207
 30
0.0
 11
113.630102
 21
101.971154
 31
0.0
  0
LINE
  5
21D
330
207
100
AcDbEntity
  8
GR1-1
  6
CONTINUOUS
 62
     3
100
AcDbLine
 10
140.630102
 20
130.242207
 30
0.0
 11
140.630102
 21
139.032245
 31
0.0
  0
ARC
  5
21E
330
207
100
AcDbEntity
  8
GR1-1
  6
CONTINUOUS
 62
     3
100
AcDbCircle
 10
138.630102
 20
139.032245
 30
0.0
 40
2.0
100
AcDbArc
 50
0.0
 51
82.26362
  0
LINE
  5
21F
330
207
100
AcDbEntity
  8
GR1-1
  6
CONTINUOUS
 62
     3
100
AcDbLine
 10
113.630102
 20
130.242207
 30
0.0
 11
113.630102
 21
139.032245
 31
0.0
  0
ARC
  5
220
330
207
100
AcDbEntity
  8
GR1-1
  6
CONTINUOUS
 62
     3
100
AcDbCircle
 10
115.630102
 20
139.032245
 30
0.0
 40
2.0
100
AcDbArc
 50
97.73638
 51
180.0
  0
LINE
  5
221
330
207
100
AcDbEntity
  8
GR1-1
  6
CONTINUOUS
 62
     3
100
AcDbLine
 10
142.130102
 20
96.742207
 30
0.0
 11
142.130102
 21
100.943577
 31
0.0
  0
LINE
  5
222
330
207
100
AcDbEntity
  8
GR1-1
  6
CONTINUOUS
 62
     3
100
AcDbLine
 10
141.182438
 20
101.942207
 30
0.0
 11
140.630102
 21
101.971154
 31
0.0
  0
ARC
  5
223
330
207
100
AcDbEntity
  8
GR1-1
  6
CONTINUOUS
 62
     3
100
AcDbCircle
 10
141.130102
 20
100.943577
 30
0.0
 40
1.0
100
AcDbArc
 50
0.0
 51
87.0
  0
LINE
  5
224
330
207
100
AcDbEntity
  8
GR1-1
  6
CONTINUOUS
 62
     3
100
AcDbLine
 10
113.630102
 20
130.242207
 30
0.0
 11
113.630102
 21
91.742207
 31
0.0
  0
LINE
  5
225
330
207
100
AcDbEntity
  8
GR1-1
  6
CONTINUOUS
 62
     3
100
AcDbLine
 10
140.630102
 20
91.742207
 30
0.0
 11
140.630102
 21
130.242207
 31
0.0
  0
ARC
  5
226
330
207
100
AcDbEntity
  8
GR1-1
  6
CONTINUOUS
 62
     3
100
AcDbCircle
 10
127.130102
 20
46.266023
 30
0.0
 40
95.47618407592026
100
AcDbArc
 50
82.91921
 51
97.08079
  0
ENDBLK
  5
209
330
207
100
AcDbEntity
  8
0
100
AcDbBlockEnd
  0
BLOCK
  5
229
330
228
100
AcDbEntity
  8
0
100
AcDbBlockBegin
  2
*D38
 70
     1
 71
     0
 10
0.0
 20
0.0
 30
0.0
  3
*D38
  1

  0
TEXT
  5
22B
330
228
100
AcDbEntity
  8
LAYERGROUP-1
  6
CONTINUOUS
 62
     7
100
AcDbText
 10
124.130104
 20
33.096615
 30
0.0
 40
4.0
  1
27
 41
0.851351
  7
FX_VECTOR
 72
     5
 11
130.130104
 21
33.096615
 31
0.0
100
AcDbText
  0
LINE
  5
22C
330
228
100
AcDbEntity
  8
LAYERGROUP-1
  6
CONTINUOUS
 62
     7
100
AcDbLine
 10
113.630102
 20
32.096615
 30
0.0
 11
140.630102
 21
32.096615
 31
0.0
  0
INSERT
  5
22D
330
228
100
AcDbEntity
  8
LAYERGROUP-1
  6
CONTINUOUS
 62
     7
100
AcDbBlockReference
  2
FXTIP_ARROW_S
 10
113.630102
 20
32.096615
 30
0.0
 41
4.0
 42
4.0
 50
180.0
  0
INSERT
  5
22E
330
228
100
AcDbEntity
  8
LAYERGROUP-1
  6
CONTINUOUS
 62
     7
100
AcDbBlockReference
  2
FXTIP_ARROW_E
 10
140.630102
 20
32.096615
 30
0.0
 41
4.0
 42
4.0
 50
360.0
  0
LINE
  5
22F
330
228
100
AcDbEntity
  8
LAYERGROUP-1
  6
CONTINUOUS
 62
     7
100
AcDbLine
 10
113.630102
 20
43.452169
 30
0.0
 11
113.630102
 21
31.096615
 31
0.0
  0
LINE
  5
230
330
228
100
AcDbEntity
  8
LAYERGROUP-1
  6
CONTINUOUS
 62
     7
100
AcDbLine
 10
140.630102
 20
52.242207
 30
0.0
 11
140.630102
 21
31.096615
 31
0.0
  0
ENDBLK
  5
22A
330
228
100
AcDbEntity
  8
0
100
AcDbBlockEnd
  0
BLOCK
  5
232
330
231
100
AcDbEntity
  8
0
100
AcDbBlockBegin
  2
BLKF041
 70
     0
 71
     0
 10
0.0
 20
0.0
 30
0.0
  3
BLKF041
  1

  0
LINE
  5
235
330
231
100
AcDbEntity
  8
GR1-1
  6
CONTINUOUS
 62
     3
100
AcDbLine
 10
180.83908
 20
254.985588
 30
0.0
 11
172.049042
 21
254.985588
 31
0.0
  0
ARC
  5
236
330
231
100
AcDbEntity
  8
GR1-1
  6
CONTINUOUS
 62
     3
100
AcDbCircle
 10
172.049042
 20
252.985588
 30
0.0
 40
2.0
100
AcDbArc
 50
90.0
 51
172.26362
  0
LINE
  5
237
330
231
100
AcDbEntity
  8
GR1-1
  6
CONTINUOUS
 62
     3
100
AcDbLine
 10
180.83908
 20
227.985588
 30
0.0
 11
172.049042
 21
227.985588
 31
0.0
  0
ARC
  5
238
330
231
100
AcDbEntity
  8
GR1-1
  6
CONTINUOUS
 62
     3
100
AcDbCircle
 10
172.049042
 20
229.985588
 30
0.0
 40
2.0
100
AcDbArc
 50
187.73638
 51
270.0
  0
LINE
  5
239
330
231
100
AcDbEntity
  8
GR1-1
  6
CONTINUOUS
 62
     3
100
AcDbLine
 10
180.83908
 20
227.985588
 30
0.0
 11
200.709744
 21
227.985588
 31
0.0
  0
LINE
  5
23A
330
231
100
AcDbEntity
  8
GR1-1
  6
CONTINUOUS
 62
     3
100
AcDbLine
 10
200.709744
 20
254.985588
 30
0.0
 11
180.83908
 21
254.985588
 31
0.0
  0
ARC
  5
23B
330
231
100
AcDbEntity
  8
GR1-1
  6
CONTINUOUS
 62
     3
100
AcDbCircle
 10
264.815265
 20
241.485588
 30
0.0
 40
95.47618407592026
100
AcDbArc
 50
172.91921
 51
187.08079
  0
ENDBLK
  5
233
330
231
100
AcDbEntity
  8
0
100
AcDbBlockEnd
  0
ENDSEC
  0
SECTION
  2
ENTITIES
  0
INSERT
  5
AB
330
1F
100
AcDbEntity
  8
0
100
AcDbBlockReference
  2
BLKF021
 10
0.0
 20
0.0
 30
0.0
  0
TEXT
  5
D7
330
1F
100
AcDbEntity
  8
}}ﾊﾊGG血CCТ
  6
CONTINUOUS
 62
     7
100
AcDbText
 10
155.0
 20
12.0
 30
0.0
 40
6.0
  1
ＥＪ－１００　Ｕ
 41
0.794326
  7
FX_VECTOR
 72
     5
 11
187.0
 21
12.0
 31
0.0
100
AcDbText
  0
TEXT
  5
D8
330
1F
100
AcDbEntity
  8
LAYERGROUP-1
  6
CONTINUOUS
 62
     7
100
AcDbText
 10
255.0
 20
12.0
 30
0.0
 40
6.0
  1
E30A0LAA-C01
 41
0.736842
  7
FX_VECTOR
 72
     5
 11
303.0
 21
12.0
 31
0.0
100
AcDbText
  0
CIRCLE
  5
D9
330
1F
100
AcDbEntity
  8
GR1-1
  6
CONTINUOUS
 62
     3
100
AcDbCircle
 10
208.33908
 20
261.485588
 30
0.0
 40
4.5
  0
LINE
  5
DA
330
1F
100
AcDbEntity
  8
GR1-1
  6
CONTINUOUS
 62
     3
100
AcDbLine
 10
206.33908
 20
270.485588
 30
0.0
 11
292.33908
 21
270.485588
 31
0.0
  0
CIRCLE
  5
DB
330
1F
100
AcDbEntity
  8
GR1-1
  6
CONTINUOUS
 62
     3
100
AcDbCircle
 10
290.33908
 20
261.485588
 30
0.0
 40
4.5
  0
ARC
  5
DC
330
1F
100
AcDbEntity
  8
GR1-1
  6
CONTINUOUS
 62
     3
100
AcDbCircle
 10
397.052976
 20
241.485588
 30
0.0
 40
100.0
100
AcDbArc
 50
168.134938
 51
191.865062
  0
CIRCLE
  5
DD
330
1F
100
AcDbEntity
  8
GR1-1
  6
CONTINUOUS
 62
     3
100
AcDbCircle
 10
290.33908
 20
221.485588
 30
0.0
 40
4.5
  0
LINE
  5
DE
330
1F
100
AcDbEntity
  8
GR1-1
  6
CONTINUOUS
 62
     3
100
AcDbLine
 10
292.33908
 20
212.485588
 30
0.0
 11
206.33908
 21
212.485588
 31
0.0
  0
ARC
  5
DF
330
1F
100
AcDbEntity
  8
GR1-1
  6
CONTINUOUS
 62
     3
100
AcDbCircle
 10
101.625185
 20
241.485588
 30
0.0
 40
100.0
100
AcDbArc
 50
-11.865062
 51
11.865062
  0
ARC
  5
E0
330
1F
100
AcDbEntity
  8
GR1-1
  6
CONTINUOUS
 62
     3
100
AcDbCircle
 10
206.33908
 20
263.485588
 30
0.0
 40
7.0
100
AcDbArc
 50
90.0
 51
191.865062
  0
ARC
  5
E1
330
1F
100
AcDbEntity
  8
GR1-1
  6
CONTINUOUS
 62
     3
100
AcDbCircle
 10
206.33908
 20
219.485588
 30
0.0
 40
7.0
100
AcDbArc
 50
168.134938
 51
270.0
  0
CIRCLE
  5
E2
330
1F
100
AcDbEntity
  8
GR1-1
  6
CONTINUOUS
 62
     3
100
AcDbCircle
 10
208.33908
 20
221.485588
 30
0.0
 40
4.5
  0
CIRCLE
  5
E3
330
1F
100
AcDbEntity
  8
GR1-1
  6
CONTINUOUS
 62
     3
100
AcDbCircle
 10
249.33908
 20
241.485588
 30
0.0
 40
9.5
  0
ARC
  5
E4
330
1F
100
AcDbEntity
  8
GR1-1
  6
CONTINUOUS
 62
     3
100
AcDbCircle
 10
292.33908
 20
219.485588
 30
0.0
 40
7.0
100
AcDbArc
 50
-90.0
 51
11.865062
  0
ARC
  5
E5
330
1F
100
AcDbEntity
  8
GR1-1
  6
CONTINUOUS
 62
     3
100
AcDbCircle
 10
292.33908
 20
263.485588
 30
0.0
 40
7.0
100
AcDbArc
 50
-11.865062
 51
90.0
  0
LINE
  5
E6
330
1F
100
AcDbEntity
  8
GR1-1
  6
CONTINUOUS
 62
     3
100
AcDbLine
 10
271.83908
 20
147.086207
 30
0.0
 11
274.13908
 21
147.086207
 31
0.0
  0
LINE
  5
E7
330
1F
100
AcDbEntity
  8
GR1-1
  6
CONTINUOUS
 62
     3
100
AcDbLine
 10
274.13908
 20
147.086207
 30
0.0
 11
274.13908
 21
152.686207
 31
0.0
  0
ARC
  5
E8
330
1F
100
AcDbEntity
  8
GR1-1
  6
CONTINUOUS
 62
     3
100
AcDbCircle
 10
270.640509
 20
152.586207
 30
0.0
 40
3.5
100
AcDbArc
 50
1.637245
 51
90.0
  0
ARC
  5
E9
330
1F
100
AcDbEntity
  8
GR1-1
  6
CONTINUOUS
 62
     3
100
AcDbCircle
 10
264.893805
 20
141.24793
 30
0.0
 40
5.0
100
AcDbArc
 50
102.126685
 51
151.0
  0
LINE
  5
EA
330
1F
100
AcDbEntity
  8
GR1-1
  6
CONTINUOUS
 62
     3
100
AcDbLine
 10
260.520706
 20
143.671978
 30
0.0
 11
228.621398
 21
86.124102
 31
0.0
  0
ARC
  5
EB
330
1F
100
AcDbEntity
  8
GR1-1
  6
CONTINUOUS
 62
     3
100
AcDbCircle
 10
218.98908
 20
91.436207
 30
0.0
 40
11.0
100
AcDbArc
 50
180.0
 51
331.123806
  0
LINE
  5
EC
330
1F
100
AcDbEntity
  8
GR1-1
  6
CONTINUOUS
 62
     3
100
AcDbLine
 10
207.98908
 20
91.628201
 30
0.0
 11
210.031946
 21
150.128208
 31
0.0
  0
LINE
  5
ED
330
1F
100
AcDbEntity
  8
GR1-1
  6
CONTINUOUS
 62
     3
100
AcDbLine
 10
207.738471
 20
147.388325
 30
0.0
 11
207.33908
 21
149.653383
 31
0.0
  0
LINE
  5
EE
330
1F
100
AcDbEntity
  8
GR1-1
  6
CONTINUOUS
 62
     3
100
AcDbLine
 10
207.33908
 20
149.653383
 30
0.0
 11
230.210362
 21
153.686207
 31
0.0
  0
LINE
  5
EF
330
1F
100
AcDbEntity
  8
GR1-1
  6
CONTINUOUS
 62
     3
100
AcDbLine
 10
209.949884
 20
147.778257
 30
0.0
 11
207.738471
 21
147.388325
 31
0.0
  0
LINE
  5
F0
330
1F
100
AcDbEntity
  8
GR1-1
  6
CONTINUOUS
 62
     3
100
AcDbLine
 10
199.33908
 20
163.742207
 30
0.0
 11
299.33908
 21
163.742207
 31
0.0
  0
LINE
  5
F1
330
1F
100
AcDbEntity
  8
GR1-1
  6
CONTINUOUS
 62
     3
100
AcDbLine
 10
199.33908
 20
163.742207
 30
0.0
 11
199.33908
 21
161.442207
 31
0.0
  0
ARC
  5
F2
330
1F
100
AcDbEntity
  8
GR1-1
  6
CONTINUOUS
 62
     3
100
AcDbCircle
 10
228.037652
 20
152.586207
 30
0.0
 40
3.5
100
AcDbArc
 50
90.0
 51
178.362755
  0
ARC
  5
F3
330
1F
100
AcDbEntity
  8
GR1-1
  6
CONTINUOUS
 62
     3
100
AcDbCircle
 10
272.910829
 20
103.936644
 30
0.0
 40
43.1628713378084
100
AcDbArc
 50
91.42282
 51
102.126685
  0
LINE
  5
F4
330
1F
100
AcDbEntity
  8
GR1-1
  6
CONTINUOUS
 62
     3
100
AcDbLine
 10
156.130102
 20
163.742207
 30
0.0
 11
98.130102
 21
163.742207
 31
0.0
  0
LINE
  5
F5
330
1F
100
AcDbEntity
  8
GR1-1
  6
CONTINUOUS
 62
     3
100
AcDbLine
 10
98.130102
 20
163.742207
 30
0.0
 11
98.130102
 21
161.442207
 31
0.0
  0
LINE
  5
F6
330
1F
100
AcDbEntity
  8
GR1-1
  6
CONTINUOUS
 62
     3
100
AcDbLine
 10
98.130102
 20
161.442207
 30
0.0
 11
156.130102
 21
161.442207
 31
0.0
  0
LINE
  5
F7
330
1F
100
AcDbEntity
  8
GR1-1
  6
CONTINUOUS
 62
     3
100
AcDbLine
 10
156.130102
 20
161.442207
 30
0.0
 11
156.130102
 21
163.742207
 31
0.0
  0
ARC
  5
F8
330
1F
100
AcDbEntity
  8
GR1-1
  6
CONTINUOUS
 62
     3
100
AcDbCircle
 10
155.309091
 20
160.442207
 30
0.0
 40
1.0
100
AcDbArc
 50
90.0
 51
156.126621
  0
ARC
  5
F9
330
1F
100
AcDbEntity
  8
GR1-1
  6
CONTINUOUS
 62
     3
100
AcDbCircle
 10
147.079112
 20
164.084658
 30
0.0
 40
8.0
100
AcDbArc
 50
304.320141
 51
336.126621
  0
ARC
  5
FA
330
1F
100
AcDbEntity
  8
GR1-1
  6
CONTINUOUS
 62
     3
100
AcDbCircle
 10
150.180102
 20
159.542207
 30
0.0
 40
2.5
100
AcDbArc
 50
270.0
 51
304.320141
  0
LINE
  5
FB
330
1F
100
AcDbEntity
  8
GR1-1
  6
CONTINUOUS
 62
     3
100
AcDbLine
 10
150.180102
 20
157.042207
 30
0.0
 11
104.080102
 21
157.042207
 31
0.0
  0
ARC
  5
FC
330
1F
100
AcDbEntity
  8
GR1-1
  6
CONTINUOUS
 62
     3
100
AcDbCircle
 10
104.080102
 20
159.542207
 30
0.0
 40
2.5
100
AcDbArc
 50
235.679859
 51
270.0
  0
LINE
  5
FD
330
1F
100
AcDbEntity
  8
GR1-1
  6
CONTINUOUS
 62
     3
100
AcDbLine
 10
106.330102
 20
156.086207
 30
0.0
 11
147.930102
 21
156.086207
 31
0.0
  0
LINE
  5
FE
330
1F
100
AcDbEntity
  8
GR1-1
  6
CONTINUOUS
 62
     3
100
AcDbLine
 10
151.930102
 20
152.086207
 30
0.0
 11
151.930102
 21
128.39689
 31
0.0
  0
LINE
  5
FF
330
1F
100
AcDbEntity
  8
GR1-1
  6
CONTINUOUS
 62
     3
100
AcDbLine
 10
145.180102
 20
146.653383
 30
0.0
 11
145.180102
 21
80.436207
 31
0.0
  0
LINE
  5
100
330
1F
100
AcDbEntity
  8
GR1-1
  6
CONTINUOUS
 62
     3
100
AcDbLine
 10
145.180102
 20
80.436207
 30
0.0
 11
142.880102
 21
80.436207
 31
0.0
  0
LINE
  5
101
330
1F
100
AcDbEntity
  8
GR1-1
  6
CONTINUOUS
 62
     3
100
AcDbLine
 10
142.880102
 20
80.436207
 30
0.0
 11
142.880102
 21
146.888325
 31
0.0
  0
ARC
  5
102
330
1F
100
AcDbEntity
  8
GR1-1
  6
CONTINUOUS
 62
     3
100
AcDbCircle
 10
142.380102
 20
146.888325
 30
0.0
 40
0.5
100
AcDbArc
 50
0.0
 51
90.0
  0
LINE
  5
103
330
1F
100
AcDbEntity
  8
GR1-1
  6
CONTINUOUS
 62
     3
100
AcDbLine
 10
142.380102
 20
147.388325
 30
0.0
 11
111.880102
 21
147.388325
 31
0.0
  0
ARC
  5
104
330
1F
100
AcDbEntity
  8
GR1-1
  6
CONTINUOUS
 62
     3
100
AcDbCircle
 10
111.880102
 20
146.888325
 30
0.0
 40
0.5
100
AcDbArc
 50
90.0
 51
180.0
  0
LINE
  5
105
330
1F
100
AcDbEntity
  8
GR1-1
  6
CONTINUOUS
 62
     3
100
AcDbLine
 10
111.380102
 20
146.888325
 30
0.0
 11
111.380102
 21
80.436207
 31
0.0
  0
LINE
  5
106
330
1F
100
AcDbEntity
  8
GR1-1
  6
CONTINUOUS
 62
     3
100
AcDbLine
 10
111.380102
 20
80.436207
 30
0.0
 11
109.080102
 21
80.436207
 31
0.0
  0
LINE
  5
107
330
1F
100
AcDbEntity
  8
GR1-1
  6
CONTINUOUS
 62
     3
100
AcDbLine
 10
109.080102
 20
80.436207
 30
0.0
 11
109.080102
 21
146.653383
 31
0.0
  0
ARC
  5
108
330
1F
100
AcDbEntity
  8
GR1-1
  6
CONTINUOUS
 62
     3
100
AcDbCircle
 10
112.080102
 20
146.653383
 30
0.0
 40
3.0
100
AcDbArc
 50
90.0
 51
180.0
  0
LINE
  5
109
330
1F
100
AcDbEntity
  8
GR1-1
  6
CONTINUOUS
 62
     3
100
AcDbLine
 10
112.080102
 20
149.653383
 30
0.0
 11
142.180102
 21
149.653383
 31
0.0
  0
ARC
  5
10A
330
1F
100
AcDbEntity
  8
GR1-1
  6
CONTINUOUS
 62
     3
100
AcDbCircle
 10
142.180102
 20
146.653383
 30
0.0
 40
3.0
100
AcDbArc
 50
0.0
 51
90.0
  0
ARC
  5
10B
330
1F
100
AcDbEntity
  8
GR1-1
  6
CONTINUOUS
 62
     3
100
AcDbCircle
 10
147.930102
 20
152.086207
 30
0.0
 40
4.0
100
AcDbArc
 50
0.0
 51
90.0
  0
ARC
  5
10C
330
1F
100
AcDbEntity
  8
GR1-1
  6
CONTINUOUS
 62
     3
100
AcDbCircle
 10
106.330102
 20
152.086207
 30
0.0
 40
4.0
100
AcDbArc
 50
90.0
 51
180.0
  0
LINE
  5
10D
330
1F
100
AcDbEntity
  8
GR1-1
  6
CONTINUOUS
 62
     3
100
AcDbLine
 10
102.330102
 20
152.086207
 30
0.0
 11
102.330102
 21
128.39689
 31
0.0
  0
ARC
  5
10E
330
1F
100
AcDbEntity
  8
GR1-1
  6
CONTINUOUS
 62
     3
100
AcDbCircle
 10
175.63857
 20
125.912269
 30
0.0
 40
73.3402116851108
100
AcDbArc
 50
178.31418
 51
202.383216
  0
ARC
  5
10F
330
1F
100
AcDbEntity
  8
GR1-1
  6
CONTINUOUS
 62
     3
100
AcDbCircle
 10
93.727323
 20
91.85892
 30
0.0
 40
15.36999545692118
100
AcDbArc
 50
13.980129
 51
23.486424
  0
ARC
  5
110
330
1F
100
AcDbEntity
  8
GR1-1
  6
CONTINUOUS
 62
     3
100
AcDbCircle
 10
160.532881
 20
91.85892
 30
0.0
 40
15.36999545692118
100
AcDbArc
 50
156.513576
 51
157.494171
  0
ARC
  5
111
330
1F
100
AcDbEntity
  8
GR1-1
  6
CONTINUOUS
 62
     3
100
AcDbCircle
 10
78.621634
 20
125.912269
 30
0.0
 40
73.3402116851108
100
AcDbArc
 50
-22.383216
 51
1.68582
  0
ARC
  5
112
330
1F
100
AcDbEntity
  8
GR1-1
  6
CONTINUOUS
 62
     3
100
AcDbCircle
 10
107.181092
 20
164.084658
 30
0.0
 40
8.0
100
AcDbArc
 50
203.873379
 51
235.679859
  0
ARC
  5
113
330
1F
100
AcDbEntity
  8
GR1-1
  6
CONTINUOUS
 62
     3
100
AcDbCircle
 10
98.951114
 20
160.442207
 30
0.0
 40
1.0
100
AcDbArc
 50
23.873379
 51
90.0
  0
LINE
  5
114
330
1F
100
AcDbEntity
  8
GR1-1
  6
CENTER
 62
     6
100
AcDbLine
 10
104.788427
 20
91.742207
 30
0.0
 11
151.515412
 21
91.742207
 31
0.0
  0
LINE
  5
115
330
1F
100
AcDbEntity
  8
GR1-1
  6
CENTER
 62
     6
100
AcDbLine
 10
127.130102
 20
40.083361
 30
0.0
 11
127.130102
 21
166.086207
 31
0.0
  0
ARC
  5
116
330
1F
100
AcDbEntity
  8
GR1-1
  6
CONTINUOUS
 62
     6
100
AcDbCircle
 10
127.130102
 20
310.817457
 30
0.0
 40
158.0312500000001
100
AcDbArc
 50
263.550955
 51
276.449045
  0
LINE
  5
117
330
1F
100
AcDbEntity
  8
GR1-1
  6
CENTER
 62
     6
100
AcDbLine
 10
249.33908
 20
165.981557
 30
0.0
 11
249.33908
 21
116.44787
 31
0.0
  0
LINE
  5
118
330
1F
100
AcDbEntity
  8
GR1-1
  6
CONTINUOUS
 62
     6
100
AcDbLine
 10
232.332097
 20
96.086207
 30
0.0
 11
232.332097
 21
151.586207
 31
0.0
  0
LINE
  5
119
330
1F
100
AcDbEntity
  8
GR1-1
  6
CENTER
 62
     6
100
AcDbLine
 10
249.33908
 20
208.856817
 30
0.0
 11
249.33908
 21
273.25061
 31
0.0
  0
CIRCLE
  5
11A
330
1F
100
AcDbEntity
  8
GR1-1
  6
CONTINUOUS
 62
     6
100
AcDbCircle
 10
249.33908
 20
241.485588
 30
0.0
 40
12.79999999999998
  0
CIRCLE
  5
11B
330
1F
100
AcDbEntity
  8
GR1-1
  6
CONTINUOUS
 62
     6
100
AcDbCircle
 10
249.33908
 20
241.485588
 30
0.0
 40
22.0
  0
CIRCLE
  5
11C
330
1F
100
AcDbEntity
  8
GR1-1
  6
CONTINUOUS
 62
     6
100
AcDbCircle
 10
249.33908
 20
241.485588
 30
0.0
 40
24.10000000000001
  0
LINE
  5
11D
330
1F
100
AcDbEntity
  8
GR1-1
  6
CENTER
 62
     6
100
AcDbLine
 10
301.558487
 20
241.485588
 30
0.0
 11
163.459192
 21
241.485588
 31
0.0
  0
LINE
  5
11E
330
1F
100
AcDbEntity
  8
GR1-1
  6
CENTER
 62
     6
100
AcDbLine
 10
284.100202
 20
261.485588
 30
0.0
 11
296.743191
 21
261.485588
 31
0.0
  0
LINE
  5
11F
330
1F
100
AcDbEntity
  8
GR1-1
  6
CENTER
 62
     6
100
AcDbLine
 10
290.33908
 20
267.256774
 30
0.0
 11
290.33908
 21
255.211093
 31
0.0
  0
CIRCLE
  5
120
330
1F
100
AcDbEntity
  8
GR1-1
  6
CONTINUOUS
 62
     3
100
AcDbCircle
 10
219.33908
 20
91.742207
 30
0.0
 40
6.0
  0
LINE
  5
121
330
1F
100
AcDbEntity
  8
GR1-1
  6
CENTER
 62
     6
100
AcDbLine
 10
165.734905
 20
91.742207
 30
0.0
 11
272.436781
 21
91.742207
 31
0.0
  0
CIRCLE
  5
122
330
1F
100
AcDbEntity
  8
GR1-1
  6
CONTINUOUS
 62
     6
100
AcDbCircle
 10
219.33908
 20
91.742207
 30
0.0
 40
3.999999999999972
  0
LINE
  5
123
330
1F
100
AcDbEntity
  8
GR1-1
  6
CENTER
 62
     6
100
AcDbLine
 10
219.33908
 20
103.77096
 30
0.0
 11
219.33908
 21
38.439461
 31
0.0
  0
LINE
  5
124
330
1F
100
AcDbEntity
  8
GR1-1
  6
CONTINUOUS
 62
     3
100
AcDbLine
 10
107.580102
 20
89.678699
 30
0.0
 11
107.580102
 21
93.805715
 31
0.0
  0
ARC
  5
125
330
1F
100
AcDbEntity
  8
GR1-1
  6
CONTINUOUS
 62
     3
100
AcDbCircle
 10
109.580102
 20
93.805715
 30
0.0
 40
2.0
100
AcDbArc
 50
104.477512
 51
180.0
  0
ARC
  5
126
330
1F
100
AcDbEntity
  8
GR1-1
  6
CONTINUOUS
 62
     3
100
AcDbCircle
 10
109.580102
 20
89.678699
 30
0.0
 40
2.0
100
AcDbArc
 50
180.0
 51
255.522488
  0
LINE
  5
127
330
1F
100
AcDbEntity
  8
GR1-1
  6
CONTINUOUS
 62
     3
100
AcDbLine
 10
145.180102
 20
97.742207
 30
0.0
 11
146.680102
 21
97.742207
 31
0.0
  0
LINE
  5
128
330
1F
100
AcDbEntity
  8
GR1-1
  6
CONTINUOUS
 62
     3
100
AcDbLine
 10
148.680102
 20
95.742207
 30
0.0
 11
148.680102
 21
87.742207
 31
0.0
  0
LINE
  5
129
330
1F
100
AcDbEntity
  8
GR1-1
  6
CONTINUOUS
 62
     3
100
AcDbLine
 10
146.680102
 20
85.742207
 30
0.0
 11
145.180102
 21
85.742207
 31
0.0
  0
ARC
  5
12A
330
1F
100
AcDbEntity
  8
GR1-1
  6
CONTINUOUS
 62
     3
100
AcDbCircle
 10
146.680102
 20
87.742207
 30
0.0
 40
2.0
100
AcDbArc
 50
270.0
 51
360.0
  0
ARC
  5
12B
330
1F
100
AcDbEntity
  8
GR1-1
  6
CONTINUOUS
 62
     3
100
AcDbCircle
 10
146.680102
 20
95.742207
 30
0.0
 40
2.0
100
AcDbArc
 50
0.0
 51
90.0
  0
ARC
  5
12C
330
1F
100
AcDbEntity
  8
GR1-1
  6
CONTINUOUS
 62
     3
100
AcDbCircle
 10
221.160092
 20
160.442207
 30
0.0
 40
1.0
100
AcDbArc
 50
23.873379
 51
90.0
  0
ARC
  5
12D
330
1F
100
AcDbEntity
  8
GR1-1
  6
CONTINUOUS
 62
     3
100
AcDbCircle
 10
226.28908
 20
159.542207
 30
0.0
 40
2.5
100
AcDbArc
 50
235.679859
 51
270.0
  0
ARC
  5
12E
330
1F
100
AcDbEntity
  8
GR1-1
  6
CONTINUOUS
 62
     3
100
AcDbCircle
 10
229.390071
 20
164.084658
 30
0.0
 40
8.0
100
AcDbArc
 50
203.873379
 51
235.679859
  0
LINE
  5
12F
330
1F
100
AcDbEntity
  8
LAYERGROUP-1
  6
CONTINUOUS
 62
     3
100
AcDbLine
 10
199.33908
 20
161.442207
 30
0.0
 11
299.33908
 21
161.442207
 31
0.0
  0
LINE
  5
130
330
1F
100
AcDbEntity
  8
LAYERGROUP-1
  6
CONTINUOUS
 62
     3
100
AcDbLine
 10
226.28908
 20
157.042207
 30
0.0
 11
272.38908
 21
157.042207
 31
0.0
  0
LINE
  5
131
330
1F
100
AcDbEntity
  8
LAYERGROUP-1
  6
CONTINUOUS
 62
     3
100
AcDbLine
 10
228.037652
 20
156.086207
 30
0.0
 11
270.640509
 21
156.086207
 31
0.0
  0
DIMENSION
  5
132
330
1F
100
AcDbEntity
  8
LAYERGROUP-1
100
AcDbDimension
  2
*D22
 10
211.753712
 20
258.554667
 30
0.0
 11
195.402878
 21
273.907135
 31
0.0
 70
   163
  3
FXDIMINFO
100
AcDbDiametricDimension
 15
204.924449
 25
264.416508
 35
0.0
 40
0.0
  0
DIMENSION
  5
13C
330
1F
100
AcDbEntity
  8
LAYERGROUP-1
100
AcDbDimension
  2
*D23
 10
142.130102
 20
22.027539
 30
0.0
 11
127.130104
 21
23.027527
 31
0.0
 70
    33
  3
FXDIMINFO
100
AcDbAlignedDimension
 13
112.130102
 23
77.742207
 33
0.0
 14
142.130102
 24
77.742207
 34
0.0
1001
ACAD
1000
DSTYLE
1002
{
1070
     7
1000
FXTIP_ARROW_E
1070
     6
1000
FXTIP_ARROW_S
1070
   173
1070
     1
1002
}
  0
DIMENSION
  5
146
330
1F
100
AcDbEntity
  8
LAYERGROUP-1
100
AcDbDimension
  2
*D24
 10
249.33908
 20
31.480491
 30
0.0
 11
234.339081
 21
32.480499
 31
0.0
 70
    32
  3
FXDIMINFO
100
AcDbAlignedDimension
 13
219.33908
 23
38.439461
 33
0.0
 14
249.33908
 24
115.066014
 34
0.0
 50
180.0
100
AcDbRotatedDimension
1001
ACAD
1000
DSTYLE
1002
{
1070
     7
1000
FXTIP_ARROW_E
1070
     6
1000
FXTIP_ARROW_S
1070
   173
1070
     1
1002
}
  0
DIMENSION
  5
150
330
1F
100
AcDbEntity
  8
LAYERGROUP-1
100
AcDbDimension
  2
*D25
 10
319.33908
 20
163.742207
 30
0.0
 11
318.339081
 21
102.742218
 31
0.0
 70
    32
  3
FXDIMINFO
100
AcDbAlignedDimension
 13
219.33908
 23
41.742207
 33
0.0
 14
299.33908
 24
163.742207
 34
0.0
 50
270.0
100
AcDbRotatedDimension
1001
ACAD
1000
DSTYLE
1002
{
1070
     7
1000
FXTIP_ARROW_E
1070
     6
1000
FXTIP_ARROW_S
1070
   173
1070
     1
1002
}
  0
DIMENSION
  5
15A
330
1F
100
AcDbEntity
  8
LAYERGROUP-1
100
AcDbDimension
  2
*D26
 10
309.33908
 20
163.742207
 30
0.0
 11
308.339081
 21
127.742218
 31
0.0
 70
    32
  3
FXDIMINFO
100
AcDbAlignedDimension
 13
272.436781
 23
91.742207
 33
0.0
 14
299.33908
 24
163.742207
 34
0.0
 50
270.0
100
AcDbRotatedDimension
1001
ACAD
1000
DSTYLE
1002
{
1070
     7
1000
FXTIP_ARROW_E
1070
     6
1000
FXTIP_ARROW_S
1070
   173
1070
     1
1002
}
  0
DIMENSION
  5
163
330
1F
100
AcDbEntity
  8
LAYERGROUP-1
100
AcDbDimension
  2
*D27
 10
97.209058
 20
141.742207
 30
0.0
 11
96.209061
 21
91.742218
 31
0.0
 70
    33
  3
FXDIMINFO
100
AcDbAlignedDimension
 13
127.130102
 23
41.742207
 33
0.0
 14
127.130102
 24
141.742207
 34
0.0
1001
ACAD
1000
DSTYLE
1002
{
1070
     7
1000
FXTIP_ARROW_E
1070
     6
1000
FXTIP_ARROW_S
1070
   173
1070
     1
1002
}
  0
LINE
  5
16D
330
1F
100
AcDbEntity
  8
LAYERGROUP-1
  6
CONTINUOUS
 62
     3
100
AcDbLine
 10
111.380102
 20
95.742207
 30
0.0
 11
112.130102
 21
95.742207
 31
0.0
  0
LINE
  5
16E
330
1F
100
AcDbEntity
  8
LAYERGROUP-1
  6
CONTINUOUS
 62
     3
100
AcDbLine
 10
142.130102
 20
95.742207
 30
0.0
 11
142.880102
 21
95.742207
 31
0.0
  0
LINE
  5
16F
330
1F
100
AcDbEntity
  8
LAYERGROUP-1
  6
CONTINUOUS
 62
     3
100
AcDbLine
 10
111.380102
 20
87.742207
 30
0.0
 11
112.130102
 21
87.742207
 31
0.0
  0
LINE
  5
170
330
1F
100
AcDbEntity
  8
LAYERGROUP-1
  6
CONTINUOUS
 62
     3
100
AcDbLine
 10
142.130102
 20
87.742207
 30
0.0
 11
142.880102
 21
87.742207
 31
0.0
  0
ARC
  5
171
330
1F
100
AcDbEntity
  8
GR1-1
  6
CONTINUOUS
 62
     3
100
AcDbCircle
 10
127.130102
 20
157.664207
 30
0.0
 40
2.778
100
AcDbArc
 50
325.386717
 51
347.061675
  0
ARC
  5
172
330
1F
100
AcDbEntity
  8
GR1-1
  6
CONTINUOUS
 62
     3
100
AcDbCircle
 10
132.617245
 20
157.664207
 30
0.0
 40
2.778
100
AcDbArc
 50
325.386717
 51
347.061675
  0
ARC
  5
173
330
1F
100
AcDbEntity
  8
GR1-1
  6
CONTINUOUS
 62
     3
100
AcDbCircle
 10
137.563728
 20
157.664207
 30
0.0
 40
2.778
100
AcDbArc
 50
207.089575
 51
214.613283
  0
ARC
  5
174
330
1F
100
AcDbEntity
  8
GR1-1
  6
CONTINUOUS
 62
     3
100
AcDbCircle
 10
132.617245
 20
157.664207
 30
0.0
 40
2.778
100
AcDbArc
 50
192.938325
 51
214.613283
  0
ARC
  5
175
330
1F
100
AcDbEntity
  8
GR1-1
  6
CONTINUOUS
 62
     3
100
AcDbCircle
 10
137.563728
 20
157.664207
 30
0.0
 40
2.778
100
AcDbArc
 50
325.386717
 51
347.061675
  0
ARC
  5
176
330
1F
100
AcDbEntity
  8
GR1-1
  6
CONTINUOUS
 62
     3
100
AcDbCircle
 10
141.482163
 20
157.664207
 30
0.0
 40
2.778
100
AcDbArc
 50
325.386717
 51
347.061675
  0
ARC
  5
177
330
1F
100
AcDbEntity
  8
GR1-1
  6
CONTINUOUS
 62
     3
100
AcDbCircle
 10
143.986459
 20
157.664207
 30
0.0
 40
2.778
100
AcDbArc
 50
325.386717
 51
347.061675
  0
ARC
  5
178
330
1F
100
AcDbEntity
  8
GR1-1
  6
CONTINUOUS
 62
     3
100
AcDbCircle
 10
144.829862
 20
157.664207
 30
0.0
 40
2.778
100
AcDbArc
 50
325.386717
 51
347.061675
  0
ARC
  5
179
330
1F
100
AcDbEntity
  8
GR1-1
  6
CONTINUOUS
 62
     3
100
AcDbCircle
 10
127.130102
 20
157.664207
 30
0.0
 40
2.778
100
AcDbArc
 50
192.938325
 51
214.613283
  0
ARC
  5
17A
330
1F
100
AcDbEntity
  8
GR1-1
  6
CONTINUOUS
 62
     3
100
AcDbCircle
 10
121.642959
 20
157.664207
 30
0.0
 40
2.778
100
AcDbArc
 50
192.938325
 51
214.613283
  0
ARC
  5
17B
330
1F
100
AcDbEntity
  8
GR1-1
  6
CONTINUOUS
 62
     3
100
AcDbCircle
 10
116.696477
 20
157.664207
 30
0.0
 40
2.778
100
AcDbArc
 50
325.386717
 51
332.910425
  0
ARC
  5
17C
330
1F
100
AcDbEntity
  8
GR1-1
  6
CONTINUOUS
 62
     3
100
AcDbCircle
 10
121.642959
 20
157.664207
 30
0.0
 40
2.778
100
AcDbArc
 50
325.386717
 51
347.061675
  0
ARC
  5
17D
330
1F
100
AcDbEntity
  8
GR1-1
  6
CONTINUOUS
 62
     3
100
AcDbCircle
 10
116.696477
 20
157.664207
 30
0.0
 40
2.778
100
AcDbArc
 50
192.938325
 51
214.613283
  0
ARC
  5
17E
330
1F
100
AcDbEntity
  8
GR1-1
  6
CONTINUOUS
 62
     3
100
AcDbCircle
 10
112.778041
 20
157.664207
 30
0.0
 40
2.778
100
AcDbArc
 50
192.938325
 51
214.613283
  0
ARC
  5
17F
330
1F
100
AcDbEntity
  8
GR1-1
  6
CONTINUOUS
 62
     3
100
AcDbCircle
 10
110.273745
 20
157.664207
 30
0.0
 40
2.778
100
AcDbArc
 50
192.938325
 51
214.613283
  0
ARC
  5
180
330
1F
100
AcDbEntity
  8
GR1-1
  6
CONTINUOUS
 62
     3
100
AcDbCircle
 10
109.430342
 20
157.664207
 30
0.0
 40
2.778
100
AcDbArc
 50
192.938325
 51
214.613283
  0
LINE
  5
181
330
1F
100
AcDbEntity
  8
GR1-1
  6
CONTINUOUS
 62
     3
100
AcDbLine
 10
299.33908
 20
163.742207
 30
0.0
 11
299.33908
 21
161.442207
 31
0.0
  0
ARC
  5
182
330
1F
100
AcDbEntity
  8
GR1-1
  6
CONTINUOUS
 62
     3
100
AcDbCircle
 10
277.518069
 20
160.442207
 30
0.0
 40
1.0
100
AcDbArc
 50
90.0
 51
156.126621
  0
ARC
  5
183
330
1F
100
AcDbEntity
  8
GR1-1
  6
CONTINUOUS
 62
     3
100
AcDbCircle
 10
272.38908
 20
159.542207
 30
0.0
 40
2.5
100
AcDbArc
 50
270.0
 51
304.320141
  0
ARC
  5
184
330
1F
100
AcDbEntity
  8
GR1-1
  6
CONTINUOUS
 62
     3
100
AcDbCircle
 10
269.28809
 20
164.084658
 30
0.0
 40
8.0
100
AcDbArc
 50
304.320141
 51
336.126621
  0
ARC
  5
185
330
1F
100
AcDbEntity
  8
GR1-1
  6
CONTINUOUS
 62
     3
100
AcDbCircle
 10
249.33908
 20
157.664207
 30
0.0
 40
2.778
100
AcDbArc
 50
325.386717
 51
347.061675
  0
ARC
  5
186
330
1F
100
AcDbEntity
  8
GR1-1
  6
CONTINUOUS
 62
     3
100
AcDbCircle
 10
254.826223
 20
157.664207
 30
0.0
 40
2.778
100
AcDbArc
 50
325.386717
 51
347.061675
  0
ARC
  5
187
330
1F
100
AcDbEntity
  8
GR1-1
  6
CONTINUOUS
 62
     3
100
AcDbCircle
 10
259.772706
 20
157.664207
 30
0.0
 40
2.778
100
AcDbArc
 50
207.089575
 51
214.613283
  0
ARC
  5
188
330
1F
100
AcDbEntity
  8
GR1-1
  6
CONTINUOUS
 62
     3
100
AcDbCircle
 10
254.826223
 20
157.664207
 30
0.0
 40
2.778
100
AcDbArc
 50
192.938325
 51
214.613283
  0
ARC
  5
189
330
1F
100
AcDbEntity
  8
GR1-1
  6
CONTINUOUS
 62
     3
100
AcDbCircle
 10
259.772706
 20
157.664207
 30
0.0
 40
2.778
100
AcDbArc
 50
325.386717
 51
347.061675
  0
ARC
  5
18A
330
1F
100
AcDbEntity
  8
GR1-1
  6
CONTINUOUS
 62
     3
100
AcDbCircle
 10
263.691141
 20
157.664207
 30
0.0
 40
2.778
100
AcDbArc
 50
325.386717
 51
347.061675
  0
ARC
  5
18B
330
1F
100
AcDbEntity
  8
GR1-1
  6
CONTINUOUS
 62
     3
100
AcDbCircle
 10
266.195437
 20
157.664207
 30
0.0
 40
2.778
100
AcDbArc
 50
325.386717
 51
347.061675
  0
ARC
  5
18C
330
1F
100
AcDbEntity
  8
GR1-1
  6
CONTINUOUS
 62
     3
100
AcDbCircle
 10
267.03884
 20
157.664207
 30
0.0
 40
2.778
100
AcDbArc
 50
325.386717
 51
347.061675
  0
ARC
  5
18D
330
1F
100
AcDbEntity
  8
GR1-1
  6
CONTINUOUS
 62
     3
100
AcDbCircle
 10
249.33908
 20
157.664207
 30
0.0
 40
2.778
100
AcDbArc
 50
192.938325
 51
214.613283
  0
ARC
  5
18E
330
1F
100
AcDbEntity
  8
GR1-1
  6
CONTINUOUS
 62
     3
100
AcDbCircle
 10
243.851938
 20
157.664207
 30
0.0
 40
2.778
100
AcDbArc
 50
192.938325
 51
214.613283
  0
ARC
  5
18F
330
1F
100
AcDbEntity
  8
GR1-1
  6
CONTINUOUS
 62
     3
100
AcDbCircle
 10
238.905455
 20
157.664207
 30
0.0
 40
2.778
100
AcDbArc
 50
325.386717
 51
332.910425
  0
ARC
  5
190
330
1F
100
AcDbEntity
  8
GR1-1
  6
CONTINUOUS
 62
     3
100
AcDbCircle
 10
243.851938
 20
157.664207
 30
0.0
 40
2.778
100
AcDbArc
 50
325.386717
 51
347.061675
  0
ARC
  5
191
330
1F
100
AcDbEntity
  8
GR1-1
  6
CONTINUOUS
 62
     3
100
AcDbCircle
 10
238.905455
 20
157.664207
 30
0.0
 40
2.778
100
AcDbArc
 50
192.938325
 51
214.613283
  0
ARC
  5
192
330
1F
100
AcDbEntity
  8
GR1-1
  6
CONTINUOUS
 62
     3
100
AcDbCircle
 10
234.98702
 20
157.664207
 30
0.0
 40
2.778
100
AcDbArc
 50
192.938325
 51
214.613283
  0
ARC
  5
193
330
1F
100
AcDbEntity
  8
GR1-1
  6
CONTINUOUS
 62
     3
100
AcDbCircle
 10
232.482724
 20
157.664207
 30
0.0
 40
2.778
100
AcDbArc
 50
192.938325
 51
214.613283
  0
ARC
  5
194
330
1F
100
AcDbEntity
  8
GR1-1
  6
CONTINUOUS
 62
     3
100
AcDbCircle
 10
231.639321
 20
157.664207
 30
0.0
 40
2.778
100
AcDbArc
 50
192.938325
 51
214.613283
  0
LINE
  5
195
330
1F
100
AcDbEntity
  8
GR1-1
  6
CENTER
 62
     6
100
AcDbLine
 10
284.100202
 20
221.485588
 30
0.0
 11
296.743191
 21
221.485588
 31
0.0
  0
LINE
  5
196
330
1F
100
AcDbEntity
  8
GR1-1
  6
CENTER
 62
     6
100
AcDbLine
 10
290.33908
 20
227.256774
 30
0.0
 11
290.33908
 21
215.211093
 31
0.0
  0
LINE
  5
197
330
1F
100
AcDbEntity
  8
GR1-1
  6
CENTER
 62
     6
100
AcDbLine
 10
202.100202
 20
261.485588
 30
0.0
 11
214.743191
 21
261.485588
 31
0.0
  0
LINE
  5
198
330
1F
100
AcDbEntity
  8
GR1-1
  6
CENTER
 62
     6
100
AcDbLine
 10
208.33908
 20
267.256774
 30
0.0
 11
208.33908
 21
255.211093
 31
0.0
  0
LINE
  5
199
330
1F
100
AcDbEntity
  8
GR1-1
  6
CENTER
 62
     6
100
AcDbLine
 10
202.100202
 20
221.485588
 30
0.0
 11
214.743191
 21
221.485588
 31
0.0
  0
LINE
  5
19A
330
1F
100
AcDbEntity
  8
GR1-1
  6
CENTER
 62
     6
100
AcDbLine
 10
208.33908
 20
227.256774
 30
0.0
 11
208.33908
 21
215.211093
 31
0.0
  0
LINE
  5
19B
330
1F
100
AcDbEntity
  8
LAYERGROUP-1
  6
CENTER
 62
     6
100
AcDbLine
 10
290.33908
 20
166.70234
 30
0.0
 11
290.33908
 21
158.532954
 31
0.0
  0
LINE
  5
19C
330
1F
100
AcDbEntity
  8
LAYERGROUP-1
  6
CENTER
 62
     6
100
AcDbLine
 10
208.33908
 20
166.70234
 30
0.0
 11
208.33908
 21
158.532954
 31
0.0
  0
LINE
  5
19D
330
1F
100
AcDbEntity
  8
GR1-1
  6
CENTER
 62
     6
100
AcDbLine
 10
107.130102
 20
158.532954
 30
0.0
 11
107.130102
 21
166.086207
 31
0.0
  0
LINE
  5
19E
330
1F
100
AcDbEntity
  8
GR1-1
  6
CENTER
 62
     6
100
AcDbLine
 10
147.130102
 20
158.532954
 30
0.0
 11
147.130102
 21
166.086207
 31
0.0
  0
DIMENSION
  5
19F
330
1F
100
AcDbEntity
  8
GR1-1
100
AcDbDimension
  2
*D28
 10
318.98854
 20
270.485588
 30
0.0
 11
317.988525
 21
241.48558
 31
0.0
 70
    33
  3
FXDIMINFO
100
AcDbAlignedDimension
 13
292.33908
 23
212.485588
 33
0.0
 14
292.33908
 24
270.485588
 34
0.0
1001
ACAD
1000
DSTYLE
1002
{
1070
     7
1000
FXTIP_ARROW_E
1070
     6
1000
FXTIP_ARROW_S
1070
   173
1070
     1
1002
}
  0
DIMENSION
  5
1A9
330
1F
100
AcDbEntity
  8
GR1-1
100
AcDbDimension
  2
*D29
 10
308.98854
 20
261.485588
 30
0.0
 11
307.988525
 21
241.48558
 31
0.0
 70
    33
  3
FXDIMINFO
100
AcDbAlignedDimension
 13
298.33908
 23
221.485588
 33
0.0
 14
298.33908
 24
261.485588
 34
0.0
1001
ACAD
1000
DSTYLE
1002
{
1070
     7
1000
FXTIP_ARROW_E
1070
     6
1000
FXTIP_ARROW_S
1070
   173
1070
     1
1002
}
  0
DIMENSION
  5
1B3
330
1F
100
AcDbEntity
  8
GR1-1
100
AcDbDimension
  2
*D30
 10
299.33908
 20
192.912775
 30
0.0
 11
249.339081
 21
193.912781
 31
0.0
 70
    33
  3
FXDIMINFO
100
AcDbAlignedDimension
 13
199.33908
 23
219.485588
 33
0.0
 14
299.33908
 24
219.485588
 34
0.0
1001
ACAD
1000
DSTYLE
1002
{
1070
     7
1000
FXTIP_ARROW_E
1070
     6
1000
FXTIP_ARROW_S
1070
   173
1070
     1
1002
}
  0
DIMENSION
  5
1BD
330
1F
100
AcDbEntity
  8
GR1-1
100
AcDbDimension
  2
*D31
 10
290.33908
 20
202.912775
 30
0.0
 11
249.339081
 21
203.912781
 31
0.0
 70
    33
  3
FXDIMINFO
100
AcDbAlignedDimension
 13
208.33908
 23
213.485588
 33
0.0
 14
290.33908
 24
213.485588
 34
0.0
1001
ACAD
1000
DSTYLE
1002
{
1070
     7
1000
FXTIP_ARROW_E
1070
     6
1000
FXTIP_ARROW_S
1070
   173
1070
     1
1002
}
  0
CIRCLE
  5
1C7
330
1F
100
AcDbEntity
  8
LAYERGROUP-1
  6
CONTINUOUS
 62
     3
100
AcDbCircle
 10
219.33908
 20
91.742207
 30
0.0
 40
1.5
  0
CIRCLE
  5
1C8
330
1F
100
AcDbEntity
  8
LAYERGROUP-1
  6
CONTINUOUS
 62
     6
100
AcDbCircle
 10
219.33908
 20
91.742207
 30
0.0
 40
2.0
  0
INSERT
  5
1CC
330
1F
100
AcDbEntity
  8
0
100
AcDbBlockReference
  2
BLKF034
 10
0.0
 20
0.0
 30
0.0
  0
INSERT
  5
20A
330
1F
100
AcDbEntity
  8
0
100
AcDbBlockReference
  2
BLKF039
 10
0.0
 20
0.0
 30
0.0
  0
DIMENSION
  5
227
330
1F
100
AcDbEntity
  8
LAYERGROUP-1
100
AcDbDimension
  2
*D38
 10
140.630102
 20
32.096615
 30
0.0
 11
127.130104
 21
33.096615
 31
0.0
 70
    32
  3
FXDIMINFO
100
AcDbAlignedDimension
 13
113.630102
 23
44.452169
 33
0.0
 14
140.630102
 24
53.242207
 34
0.0
 50
180.0
100
AcDbRotatedDimension
1001
ACAD
1000
DSTYLE
1002
{
1070
     7
1000
FXTIP_ARROW_E
1070
     6
1000
FXTIP_ARROW_S
1070
   173
1070
     1
1002
}
  0
INSERT
  5
234
330
1F
100
AcDbEntity
  8
0
100
AcDbBlockReference
  2
BLKF041
 10
0.0
 20
0.0
 30
0.0
  0
ENDSEC
  0
SECTION
  2
OBJECTS
  0
DICTIONARY
  5
C
330
0
100
AcDbDictionary
  3
ACAD_GROUP
350
D
  3
ACAD_LAYOUT
350
1A
  3
ACAD_MLINESTYLE
350
17
  3
ACAD_PLOTSETTINGS
350
19
  3
ACDBHEADERROUNDTRIPXREC
350
23C
  0
DICTIONARY
  5
D
102
{ACAD_REACTORS
330
C
102
}
330
C
100
AcDbDictionary
  0
DICTIONARY
  5
1A
102
{ACAD_REACTORS
330
C
102
}
330
C
100
AcDbDictionary
  0
DICTIONARY
  5
17
102
{ACAD_REACTORS
330
C
102
}
330
C
100
AcDbDictionary
  3
STANDARD
350
18
  0
DICTIONARY
  5
19
102
{ACAD_REACTORS
330
C
102
}
330
C
100
AcDbDictionary
  0
DICTIONARY
  5
23C
102
{ACAD_REACTORS
330
C
102
}
330
C
100
AcDbDictionary
  3
CEPSNTYPE
350
245
  3
DIMSTYLEDATA
350
25B
  3
FINGERPRINTGUID
350
246
  3
HYPERLINKBASE
350
23F
  3
INSUNITS
350
244
  3
LAYOUTDICT
350
241
  3
LWETCUNION
350
243
  3
PLOTSETDICT
350
242
  3
PSVPSCALE
350
248
  3
PUCSBASE
350
24B
  3
PUCSORGBACK
350
251
  3
PUCSORGBOTTOM
350
24D
  3
PUCSORGFRONT
350
250
  3
PUCSORGLEFT
350
24E
  3
PUCSORGRIGHT
350
24F
  3
PUCSORGTOP
350
24C
  3
PUCSORTHOREF
350
249
  3
PUCSORTHOVIEW
350
24A
  3
STYLESHEET
350
240
  3
TSTACKALIGN
350
23D
  3
TSTACKSIZE
350
23E
  3
UCSBASE
350
254
  3
UCSORGBACK
350
25A
  3
UCSORGBOTTOM
350
256
  3
UCSORGFRONT
350
259
  3
UCSORGLEFT
350
257
  3
UCSORGRIGHT
350
258
  3
UCSORGTOP
350
255
  3
UCSORTHOREF
350
252
  3
UCSORTHOVIEW
350
253
  3
VERSIONGUID
350
247
  0
MLINESTYLE
  5
18
102
{ACAD_REACTORS
330
17
102
}
330
17
100
AcDbMlineStyle
  2
Standard
 70
     0
  3

 62
   256
 51
90.0
 52
90.0
 71
     2
 49
0.5
 62
   256
  6
BYLAYER
 49
-0.5
 62
   256
  6
BYLAYER
  0
XRECORD
  5
245
102
{ACAD_REACTORS
330
23C
102
}
330
23C
100
AcDbXrecord
 90
        0
  0
XRECORD
  5
25B
102
{ACAD_REACTORS
330
23C
102
}
330
23C
100
AcDbXrecord
1000
DSTYLE
1002
{
1070
   179
 70
     2
1070
   171
 70
     3
1070
   143
 40
0.03937
1070
   274
 70
     3
1070
    41
 40
4.0
1070
   343
340
41
1070
   344
340
47
1070
   141
 40
2.5
1070
   176
 70
     7
1070
   177
 70
     7
1070
   178
 70
     7
1070
   271
 70
     2
1070
    46
 40
6.0
1070
    43
 40
10.0
1070
    44
 40
1.0
1070
    42
 40
1.0
1070
   147
 40
1.0
1070
   341
340
41
1070
   173
 70
     1
1070
    77
 70
     1
1070
   272
 70
     2
1070
    73
 70
     0
1070
   172
 70
     1
1070
    74
 70
     0
1070
   283
 70
     0
1070
   340
340
3F
1070
   140
 40
4.0
1070
   284
 70
     8
1070
    78
 70
     8
1002
}
  0
XRECORD
  5
246
102
{ACAD_REACTORS
330
23C
102
}
330
23C
100
AcDbXrecord
  1
{685478F7-38C2-4997-B11B-FCB56C464A25}
  0
XRECORD
  5
23F
102
{ACAD_REACTORS
330
23C
102
}
330
23C
100
AcDbXrecord
  1

  0
XRECORD
  5
244
102
{ACAD_REACTORS
330
23C
102
}
330
23C
100
AcDbXrecord
 90
        1
  0
XRECORD
  5
241
102
{ACAD_REACTORS
330
23C
102
}
330
23C
100
AcDbXrecord
340
1A
  0
XRECORD
  5
243
102
{ACAD_REACTORS
330
23C
102
}
330
23C
100
AcDbXrecord
 90
    10781
  0
XRECORD
  5
242
102
{ACAD_REACTORS
330
23C
102
}
330
23C
100
AcDbXrecord
340
19
  0
XRECORD
  5
248
102
{ACAD_REACTORS
330
23C
102
}
330
23C
100
AcDbXrecord
 40
0.0
  0
XRECORD
  5
24B
102
{ACAD_REACTORS
330
23C
102
}
330
23C
100
AcDbXrecord
340
0
  0
XRECORD
  5
251
102
{ACAD_REACTORS
330
23C
102
}
330
23C
100
AcDbXrecord
 10
0.0
 20
0.0
 30
0.0
  0
XRECORD
  5
24D
102
{ACAD_REACTORS
330
23C
102
}
330
23C
100
AcDbXrecord
 10
0.0
 20
0.0
 30
0.0
  0
XRECORD
  5
250
102
{ACAD_REACTORS
330
23C
102
}
330
23C
100
AcDbXrecord
 10
0.0
 20
0.0
 30
0.0
  0
XRECORD
  5
24E
102
{ACAD_REACTORS
330
23C
102
}
330
23C
100
AcDbXrecord
 10
0.0
 20
0.0
 30
0.0
  0
XRECORD
  5
24F
102
{ACAD_REACTORS
330
23C
102
}
330
23C
100
AcDbXrecord
 10
0.0
 20
0.0
 30
0.0
  0
XRECORD
  5
24C
102
{ACAD_REACTORS
330
23C
102
}
330
23C
100
AcDbXrecord
 10
0.0
 20
0.0
 30
0.0
  0
XRECORD
  5
249
102
{ACAD_REACTORS
330
23C
102
}
330
23C
100
AcDbXrecord
340
0
  0
XRECORD
  5
24A
102
{ACAD_REACTORS
330
23C
102
}
330
23C
100
AcDbXrecord
 70
     0
  0
XRECORD
  5
240
102
{ACAD_REACTORS
330
23C
102
}
330
23C
100
AcDbXrecord
  1

  0
XRECORD
  5
23D
102
{ACAD_REACTORS
330
23C
102
}
330
23C
100
AcDbXrecord
 90
        1
  0
XRECORD
  5
23E
102
{ACAD_REACTORS
330
23C
102
}
330
23C
100
AcDbXrecord
 90
       70
  0
XRECORD
  5
254
102
{ACAD_REACTORS
330
23C
102
}
330
23C
100
AcDbXrecord
340
0
  0
XRECORD
  5
25A
102
{ACAD_REACTORS
330
23C
102
}
330
23C
100
AcDbXrecord
 10
0.0
 20
0.0
 30
0.0
  0
XRECORD
  5
256
102
{ACAD_REACTORS
330
23C
102
}
330
23C
100
AcDbXrecord
 10
0.0
 20
0.0
 30
0.0
  0
XRECORD
  5
259
102
{ACAD_REACTORS
330
23C
102
}
330
23C
100
AcDbXrecord
 10
0.0
 20
0.0
 30
0.0
  0
XRECORD
  5
257
102
{ACAD_REACTORS
330
23C
102
}
330
23C
100
AcDbXrecord
 10
0.0
 20
0.0
 30
0.0
  0
XRECORD
  5
258
102
{ACAD_REACTORS
330
23C
102
}
330
23C
100
AcDbXrecord
 10
0.0
 20
0.0
 30
0.0
  0
XRECORD
  5
255
102
{ACAD_REACTORS
330
23C
102
}
330
23C
100
AcDbXrecord
 10
0.0
 20
0.0
 30
0.0
  0
XRECORD
  5
252
102
{ACAD_REACTORS
330
23C
102
}
330
23C
100
AcDbXrecord
340
0
  0
XRECORD
  5
253
102
{ACAD_REACTORS
330
23C
102
}
330
23C
100
AcDbXrecord
 70
     0
  0
XRECORD
  5
247
102
{ACAD_REACTORS
330
23C
102
}
330
23C
100
AcDbXrecord
  1
{FAEB1C32-E019-11D5-929B-00C0DF256EC4}
  0
ENDSEC
  0
EOF
