  0
SECTION
  2
HEADER
  9
$ACADVER
  1
AC1014
  9
$ACADMAINTVER
 70
     9
  9
$DWGCODEPAGE
  3
ANSI_932
  9
$INSBASE
 10
0.0
 20
0.0
 30
0.0
  9
$EXTMIN
 10
0.0
 20
0.0
 30
0.0
  9
$EXTMAX
 10
420.0
 20
297.0
 30
0.0
  9
$LIMMIN
 10
0.0
 20
0.0
  9
$LIMMAX
 10
420.0
 20
297.0
  9
$ORTHOMODE
 70
     0
  9
$REGENMODE
 70
     1
  9
$FILLMODE
 70
     1
  9
$QTEXTMODE
 70
     0
  9
$MIRRTEXT
 70
     1
  9
$DRAGMODE
 70
     2
  9
$LTSCALE
 40
1.0
  9
$OSMODE
 70
    37
  9
$ATTMODE
 70
     1
  9
$TEXTSIZE
 40
0.2
  9
$TRACEWID
 40
0.05
  9
$TEXTSTYLE
  7
STYLE1
  9
$CLAYER
  8
0
  9
$CELTYPE
  6
BYLAYER
  9
$CECOLOR
 62
   256
  9
$CELTSCALE
 40
1.0
  9
$DELOBJ
 70
     1
  9
$DISPSILH
 70
     0
  9
$DIMSCALE
 40
1.0
  9
$DIMASZ
 40
4.0
  9
$DIMEXO
 40
1.0
  9
$DIMDLI
 40
10.0
  9
$DIMRND
 40
0.0
  9
$DIMDLE
 40
6.0
  9
$DIMEXE
 40
1.0
  9
$DIMTP
 40
0.0
  9
$DIMTM
 40
0.0
  9
$DIMTXT
 40
4.0
  9
$DIMCEN
 40
2.5
  9
$DIMTSZ
 40
0.0
  9
$DIMTOL
 70
     0
  9
$DIMLIM
 70
     0
  9
$DIMTIH
 70
     0
  9
$DIMTOH
 70
     0
  9
$DIMSE1
 70
     0
  9
$DIMSE2
 70
     0
  9
$DIMTAD
 70
     1
  9
$DIMZIN
 70
     8
  9
$DIMBLK
  1

  9
$DIMASO
 70
     1
  9
$DIMSHO
 70
     1
  9
$DIMPOST
  1

  9
$DIMAPOST
  1

  9
$DIMALT
 70
     0
  9
$DIMALTD
 70
     3
  9
$DIMALTF
 40
0.03937
  9
$DIMLFAC
 40
1.0
  9
$DIMTOFL
 70
     1
  9
$DIMTVP
 40
0.0
  9
$DIMTIX
 70
     0
  9
$DIMSOXD
 70
     0
  9
$DIMSAH
 70
     1
  9
$DIMBLK1
  1
FXTIP_ARROW_S
  9
$DIMBLK2
  1
FXTIP_ARROW_E
  9
$DIMSTYLE
  2
FXDIMINFO
  9
$DIMCLRD
 70
     7
  9
$DIMCLRE
 70
     7
  9
$DIMCLRT
 70
     7
  9
$DIMTFAC
 40
1.0
  9
$DIMGAP
 40
1.0
  9
$DIMJUST
 70
     0
  9
$DIMSD1
 70
     0
  9
$DIMSD2
 70
     0
  9
$DIMTOLJ
 70
     0
  9
$DIMTZIN
 70
     8
  9
$DIMALTZ
 70
     0
  9
$DIMALTTZ
 70
     0
  9
$DIMFIT
 70
     3
  9
$DIMUPT
 70
     0
  9
$DIMUNIT
 70
     2
  9
$DIMDEC
 70
     2
  9
$DIMTDEC
 70
     2
  9
$DIMALTU
 70
     2
  9
$DIMALTTD
 70
     3
  9
$DIMTXSTY
  7
STYLE1
  9
$DIMAUNIT
 70
     0
  9
$LUNITS
 70
     2
  9
$LUPREC
 70
     4
  9
$SKETCHINC
 40
0.1
  9
$FILLETRAD
 40
0.5
  9
$AUNITS
 70
     0
  9
$AUPREC
 70
     0
  9
$MENU
  1
.
  9
$ELEVATION
 40
0.0
  9
$PELEVATION
 40
0.0
  9
$THICKNESS
 40
0.0
  9
$LIMCHECK
 70
     0
  9
$CHAMFERA
 40
0.5
  9
$CHAMFERB
 40
0.5
  9
$CHAMFERC
 40
1.0
  9
$CHAMFERD
 40
0.0
  9
$SKPOLY
 70
     0
  9
$TDCREATE
 40
2455301.624724734
  9
$TDUPDATE
 40
2455301.624724745
  9
$TDINDWG
 40
0.0000000116
  9
$TDUSRTIMER
 40
0.0000000116
  9
$USRTIMER
 70
     1
  9
$ANGBASE
 50
0.0
  9
$ANGDIR
 70
     0
  9
$PDMODE
 70
     0
  9
$PDSIZE
 40
0.0
  9
$PLINEWID
 40
0.0
  9
$COORDS
 70
     1
  9
$SPLFRAME
 70
     0
  9
$SPLINETYPE
 70
     6
  9
$SPLINESEGS
 70
     8
  9
$ATTDIA
 70
     0
  9
$ATTREQ
 70
     1
  9
$HANDLING
 70
     1
  9
$HANDSEED
  5
285
  9
$SURFTAB1
 70
     6
  9
$SURFTAB2
 70
     6
  9
$SURFTYPE
 70
     6
  9
$SURFU
 70
     6
  9
$SURFV
 70
     6
  9
$UCSNAME
  2

  9
$UCSORG
 10
0.0
 20
0.0
 30
0.0
  9
$UCSXDIR
 10
1.0
 20
0.0
 30
0.0
  9
$UCSYDIR
 10
0.0
 20
1.0
 30
0.0
  9
$PUCSNAME
  2

  9
$PUCSORG
 10
0.0
 20
0.0
 30
0.0
  9
$PUCSXDIR
 10
1.0
 20
0.0
 30
0.0
  9
$PUCSYDIR
 10
0.0
 20
1.0
 30
0.0
  9
$USERI1
 70
     0
  9
$USERI2
 70
     0
  9
$USERI3
 70
     0
  9
$USERI4
 70
     0
  9
$USERI5
 70
     0
  9
$USERR1
 40
0.0
  9
$USERR2
 40
0.0
  9
$USERR3
 40
0.0
  9
$USERR4
 40
0.0
  9
$USERR5
 40
0.0
  9
$WORLDVIEW
 70
     1
  9
$SHADEDGE
 70
     3
  9
$SHADEDIF
 70
    70
  9
$TILEMODE
 70
     1
  9
$MAXACTVP
 70
    64
  9
$PINSBASE
 10
0.0
 20
0.0
 30
0.0
  9
$PLIMCHECK
 70
     0
  9
$PEXTMIN
 10
1.000000E+20
 20
1.000000E+20
 30
1.000000E+20
  9
$PEXTMAX
 10
-1.000000E+20
 20
-1.000000E+20
 30
-1.000000E+20
  9
$PLIMMIN
 10
0.0
 20
0.0
  9
$PLIMMAX
 10
12.0
 20
9.0
  9
$UNITMODE
 70
     0
  9
$VISRETAIN
 70
     1
  9
$PLINEGEN
 70
     0
  9
$PSLTSCALE
 70
     1
  9
$TREEDEPTH
 70
  3020
  9
$PICKSTYLE
 70
     1
  9
$CMLSTYLE
  2
STANDARD
  9
$CMLJUST
 70
     0
  9
$CMLSCALE
 40
1.0
  9
$PROXYGRAPHICS
 70
     1
  9
$MEASUREMENT
 70
     0
  0
ENDSEC
  0
SECTION
  2
CLASSES
  0
CLASS
  1
ACDBDICTIONARYWDFLT
  2
AcDbDictionaryWithDefault
  3
ObjectDBX Classes
 90
        0
280
     0
281
     0
  0
CLASS
  1
XRECORD
  2
AcDbXrecord
  3
AutoCAD 2000
 90
        0
280
     0
281
     0
  0
CLASS
  1
LWPOLYLINE
  2
AcDbPolyline
  3
AutoCAD 2000
 90
        0
280
     0
281
     1
  0
CLASS
  1
HATCH
  2
AcDbHatch
  3
AutoCAD 2000
 90
        0
280
     0
281
     1
  0
CLASS
  1
ACDBPLACEHOLDER
  2
AcDbPlaceHolder
  3
ObjectDBX Classes
 90
        0
280
     0
281
     0
  0
CLASS
  1
LAYOUT
  2
AcDbLayout
  3
ObjectDBX Classes
 90
        0
280
     0
281
     0
  0
ENDSEC
  0
SECTION
  2
TABLES
  0
TABLE
  2
VPORT
  5
8
330
0
100
AcDbSymbolTable
 70
     1
  0
VPORT
  5
29
330
8
100
AcDbSymbolTableRecord
100
AcDbViewportTableRecord
  2
*ACTIVE
 70
     0
 10
0.0
 20
0.0
 11
1.0
 21
1.0
 12
210.0
 22
148.5
 13
0.0
 23
0.0
 14
0.5
 24
0.5
 15
0.5
 25
0.5
 16
0.0
 26
0.0
 36
1.0
 17
0.0
 27
0.0
 37
0.0
 40
297.0
 41
1.414141
 42
50.0
 43
0.0
 44
0.0
 50
0.0
 51
0.0
 71
     0
 72
   100
 73
     1
 74
     3
 75
     0
 76
     0
 77
     0
 78
     0
  0
ENDTAB
  0
TABLE
  2
LTYPE
  5
5
330
0
100
AcDbSymbolTable
 70
     4
  0
LTYPE
  5
14
330
5
100
AcDbSymbolTableRecord
100
AcDbLinetypeTableRecord
  2
BYBLOCK
 70
     0
  3

 72
    65
 73
     0
 40
0.0
  0
LTYPE
  5
15
330
5
100
AcDbSymbolTableRecord
100
AcDbLinetypeTableRecord
  2
BYLAYER
 70
     0
  3

 72
    65
 73
     0
 40
0.0
  0
LTYPE
  5
16
330
5
100
AcDbSymbolTableRecord
100
AcDbLinetypeTableRecord
  2
CONTINUOUS
 70
     0
  3
--------------------
 72
    65
 73
     0
 40
0.0
  0
LTYPE
  5
2A
330
5
100
AcDbSymbolTableRecord
100
AcDbLinetypeTableRecord
  2
CENTER
 70
     0
  3
Center ____ _ ____ _ ____ _ ____ _ ____ _ ____
 72
    65
 73
     4
 40
13.0
 49
10.0
 74
     0
 49
-1.0
 74
     0
 49
1.0
 74
     0
 49
-1.0
 74
     0
  0
ENDTAB
  0
TABLE
  2
LAYER
  5
2
330
0
100
AcDbSymbolTable
 70
    20
  0
LAYER
  5
10
330
2
100
AcDbSymbolTableRecord
100
AcDbLayerTableRecord
  2
0
 70
     0
 62
     7
  6
CONTINUOUS
  0
LAYER
  5
2D
330
2
100
AcDbSymbolTableRecord
100
AcDbLayerTableRecord
  2
LAYERGROUP-1
 70
     0
 62
     3
  6
CONTINUOUS
  0
LAYER
  5
3D
330
2
100
AcDbSymbolTableRecord
100
AcDbLayerTableRecord
  2
}}ﾊﾊGG血CCТ
 70
     0
 62
     3
  6
CONTINUOUS
  0
LAYER
  5
BA
330
2
100
AcDbSymbolTableRecord
100
AcDbLayerTableRecord
  2
0-1
 70
     0
 62
     7
  6
CONTINUOUS
  0
LAYER
  5
D2
330
2
100
AcDbSymbolTableRecord
100
AcDbLayerTableRecord
  2
GR1-1
 70
     0
 62
     7
  6
CONTINUOUS
  0
ENDTAB
  0
TABLE
  2
STYLE
  5
3
330
0
100
AcDbSymbolTable
 70
     4
  0
STYLE
  5
11
330
3
100
AcDbSymbolTableRecord
100
AcDbTextStyleTableRecord
  2
STANDARD
 70
     0
 40
0.0
 41
1.0
 50
0.0
 71
     0
 42
0.2
  3
txt
  4

  0
STYLE
  5
3F
330
3
100
AcDbSymbolTableRecord
100
AcDbTextStyleTableRecord
  2
STYLE1
 70
     0
 40
0.0
 41
1.0
 50
0.0
 71
     0
 42
0.2
  3
MONOTXT.SHX
  4
extfont.shx
  0
STYLE
  5
40
330
3
100
AcDbSymbolTableRecord
100
AcDbTextStyleTableRecord
  2
FX_VECTOR
 70
     0
 40
0.0
 41
1.0
 50
0.0
 71
     0
 42
0.2
  3
MONOTXT.SHX
  4
BIGFONT.SHX
  0
ENDTAB
  0
TABLE
  2
VIEW
  5
6
330
0
100
AcDbSymbolTable
 70
     0
  0
ENDTAB
  0
TABLE
  2
UCS
  5
7
330
0
100
AcDbSymbolTable
 70
     0
  0
ENDTAB
  0
TABLE
  2
APPID
  5
9
330
0
100
AcDbSymbolTable
 70
     1
  0
APPID
  5
12
330
9
100
AcDbSymbolTableRecord
100
AcDbRegAppTableRecord
  2
ACAD
 70
     0
  0
ENDTAB
  0
TABLE
  2
DIMSTYLE
  5
A
330
0
100
AcDbSymbolTable
 70
     2
  0
DIMSTYLE
105
27
330
A
100
AcDbSymbolTableRecord
100
AcDbDimStyleTableRecord
  2
STANDARD
 70
     0
  3

  4

  5

  6

  7

 40
1.0
 41
0.18
 42
0.0625
 43
0.38
 44
0.18
 45
0.0
 46
0.0
 47
0.0
 48
0.0
140
0.18
141
0.09
142
0.0
143
25.4
144
1.0
145
0.0
146
1.0
147
0.09
 71
     0
 72
     0
 73
     1
 74
     1
 75
     0
 76
     0
 77
     0
 78
     0
170
     0
171
     2
172
     0
173
     0
174
     0
175
     0
176
     0
177
     0
178
     0
270
     2
271
     4
272
     4
273
     2
274
     2
340
11
275
     0
280
     0
281
     0
282
     0
283
     1
284
     0
285
     0
286
     0
287
     3
288
     0
  0
DIMSTYLE
105
A7
102
{ACAD_REACTORS
330
E2
330
EC
330
F6
330
100
330
10A
330
15E
330
177
330
181
330
243
330
24D
330
25B
102
}
330
A
100
AcDbSymbolTableRecord
100
AcDbDimStyleTableRecord
  2
FXDIMINFO
 70
     0
  3

  4

  5

  6
FXTIP_ARROW_S
  7
FXTIP_ARROW_E
 40
1.0
 41
4.0
 42
1.0
 43
10.0
 44
1.0
 45
0.0
 46
6.0
 47
0.0
 48
0.0
140
4.0
141
2.5
142
0.0
143
0.03937
144
1.0
145
0.0
146
1.0
147
1.0
 71
     0
 72
     0
 73
     0
 74
     0
 75
     0
 76
     0
 77
     1
 78
     8
170
     0
171
     3
172
     1
173
     1
174
     0
175
     0
176
     7
177
     7
178
     7
179
     2
270
     2
271
     2
272
     2
273
     2
274
     3
340
3F
275
     0
280
     0
281
     0
282
     0
283
     0
284
     8
285
     0
286
     0
287
     3
288
     0
  0
ENDTAB
  0
TABLE
  2
BLOCK_RECORD
  5
1
330
0
100
AcDbSymbolTable
 70
    35
  0
BLOCK_RECORD
  5
1F
330
1
100
AcDbSymbolTableRecord
100
AcDbBlockTableRecord
  2
*MODEL_SPACE
  0
BLOCK_RECORD
  5
1B
330
1
100
AcDbSymbolTableRecord
100
AcDbBlockTableRecord
  2
*PAPER_SPACE
  0
BLOCK_RECORD
  5
41
330
1
100
AcDbSymbolTableRecord
100
AcDbBlockTableRecord
  2
FXTIP_ARROW_S
  0
BLOCK_RECORD
  5
47
330
1
100
AcDbSymbolTableRecord
100
AcDbBlockTableRecord
  2
FXTIP_ARROW_E
  0
BLOCK_RECORD
  5
4D
330
1
100
AcDbSymbolTableRecord
100
AcDbBlockTableRecord
  2
FXTIP_BLACKDOT_S
  0
BLOCK_RECORD
  5
53
330
1
100
AcDbSymbolTableRecord
100
AcDbBlockTableRecord
  2
FXTIP_BLACKDOT_E
  0
BLOCK_RECORD
  5
59
330
1
100
AcDbSymbolTableRecord
100
AcDbBlockTableRecord
  2
FXTIP_TRIANGLE_S
  0
BLOCK_RECORD
  5
60
330
1
100
AcDbSymbolTableRecord
100
AcDbBlockTableRecord
  2
FXTIP_TRIANGLE_E
  0
BLOCK_RECORD
  5
67
330
1
100
AcDbSymbolTableRecord
100
AcDbBlockTableRecord
  2
FXTIP_ARCHITECT_S
  0
BLOCK_RECORD
  5
6D
330
1
100
AcDbSymbolTableRecord
100
AcDbBlockTableRecord
  2
FXTIP_ARCHITECT_E
  0
BLOCK_RECORD
  5
73
330
1
100
AcDbSymbolTableRecord
100
AcDbBlockTableRecord
  2
FXTIP_CIVIL_S
  0
BLOCK_RECORD
  5
79
330
1
100
AcDbSymbolTableRecord
100
AcDbBlockTableRecord
  2
FXTIP_CIVIL_E
  0
BLOCK_RECORD
  5
7F
330
1
100
AcDbSymbolTableRecord
100
AcDbBlockTableRecord
  2
FXTIP_WHITEDOT_S
  0
BLOCK_RECORD
  5
84
330
1
100
AcDbSymbolTableRecord
100
AcDbBlockTableRecord
  2
FXTIP_WHITEDOT_E
  0
BLOCK_RECORD
  5
89
330
1
100
AcDbSymbolTableRecord
100
AcDbBlockTableRecord
  2
FXTIP_UPARROW_S
  0
BLOCK_RECORD
  5
8E
330
1
100
AcDbSymbolTableRecord
100
AcDbBlockTableRecord
  2
FXTIP_UPARROW_E
  0
BLOCK_RECORD
  5
93
330
1
100
AcDbSymbolTableRecord
100
AcDbBlockTableRecord
  2
FXTIP_DOWNARROW_S
  0
BLOCK_RECORD
  5
98
330
1
100
AcDbSymbolTableRecord
100
AcDbBlockTableRecord
  2
FXTIP_DOWNARROW_E
  0
BLOCK_RECORD
  5
9D
330
1
100
AcDbSymbolTableRecord
100
AcDbBlockTableRecord
  2
FXTIP_BLACKTRIANGLE_S
  0
BLOCK_RECORD
  5
A2
330
1
100
AcDbSymbolTableRecord
100
AcDbBlockTableRecord
  2
FXTIP_BLACKTRIANGLE_E
  0
BLOCK_RECORD
  5
AA
330
1
100
AcDbSymbolTableRecord
100
AcDbBlockTableRecord
  2
BLKF021
  0
BLOCK_RECORD
  5
B6
330
1
100
AcDbSymbolTableRecord
100
AcDbBlockTableRecord
  2
BLKF022
  0
BLOCK_RECORD
  5
BF
330
1
100
AcDbSymbolTableRecord
100
AcDbBlockTableRecord
  2
BLKF023
  0
BLOCK_RECORD
  5
E3
330
1
100
AcDbSymbolTableRecord
100
AcDbBlockTableRecord
  2
*D22
  0
BLOCK_RECORD
  5
ED
330
1
100
AcDbSymbolTableRecord
100
AcDbBlockTableRecord
  2
*D23
  0
BLOCK_RECORD
  5
F7
330
1
100
AcDbSymbolTableRecord
100
AcDbBlockTableRecord
  2
*D24
  0
BLOCK_RECORD
  5
101
330
1
100
AcDbSymbolTableRecord
100
AcDbBlockTableRecord
  2
*D25
  0
BLOCK_RECORD
  5
10B
330
1
100
AcDbSymbolTableRecord
100
AcDbBlockTableRecord
  2
*D26
  0
BLOCK_RECORD
  5
15F
330
1
100
AcDbSymbolTableRecord
100
AcDbBlockTableRecord
  2
*D27
  0
BLOCK_RECORD
  5
178
330
1
100
AcDbSymbolTableRecord
100
AcDbBlockTableRecord
  2
*D28
  0
BLOCK_RECORD
  5
182
330
1
100
AcDbSymbolTableRecord
100
AcDbBlockTableRecord
  2
*D29
  0
BLOCK_RECORD
  5
1CE
330
1
100
AcDbSymbolTableRecord
100
AcDbBlockTableRecord
  2
BLKF032
  0
BLOCK_RECORD
  5
229
330
1
100
AcDbSymbolTableRecord
100
AcDbBlockTableRecord
  2
BLKF033
  0
BLOCK_RECORD
  5
244
330
1
100
AcDbSymbolTableRecord
100
AcDbBlockTableRecord
  2
*D32
  0
BLOCK_RECORD
  5
24E
330
1
100
AcDbSymbolTableRecord
100
AcDbBlockTableRecord
  2
*D33
  0
BLOCK_RECORD
  5
25C
330
1
100
AcDbSymbolTableRecord
100
AcDbBlockTableRecord
  2
*D34
  0
ENDTAB
  0
ENDSEC
  0
SECTION
  2
BLOCKS
  0
BLOCK
  5
20
330
1F
100
AcDbEntity
  8
0
100
AcDbBlockBegin
  2
*MODEL_SPACE
 70
     0
 71
     0
 10
0.0
 20
0.0
 30
0.0
  3
*MODEL_SPACE
  1

  0
ENDBLK
  5
21
330
1F
100
AcDbEntity
  8
0
100
AcDbBlockEnd
  0
BLOCK
  5
1C
330
1B
100
AcDbEntity
 67
     1
  8
0
100
AcDbBlockBegin
  2
*PAPER_SPACE
 70
     0
 71
     0
 10
0.0
 20
0.0
 30
0.0
  3
*PAPER_SPACE
  1

  0
ENDBLK
  5
1D
330
1B
100
AcDbEntity
 67
     1
  8
0
100
AcDbBlockEnd
  0
BLOCK
  5
42
330
41
100
AcDbEntity
  8
0
100
AcDbBlockBegin
  2
FXTIP_ARROW_S
 70
     0
 71
     0
 10
0.0
 20
0.0
 30
0.0
  3
FXTIP_ARROW_S
  1

  0
LINE
  5
44
330
41
100
AcDbEntity
  8
0
  6
CONTINUOUS
 62
     0
100
AcDbLine
 10
0.0
 20
0.0
 30
0.0
 11
-1.0
 21
0.0
 31
0.0
  0
LINE
  5
45
330
41
100
AcDbEntity
  8
0
  6
CONTINUOUS
 62
     0
100
AcDbLine
 10
0.0
 20
0.0
 30
0.0
 11
-0.965926
 21
-0.258819
 31
0.0
  0
LINE
  5
46
330
41
100
AcDbEntity
  8
0
  6
CONTINUOUS
 62
     0
100
AcDbLine
 10
0.0
 20
0.0
 30
0.0
 11
-0.965926
 21
0.258819
 31
0.0
  0
ENDBLK
  5
43
330
41
100
AcDbEntity
  8
0
100
AcDbBlockEnd
  0
BLOCK
  5
48
330
47
100
AcDbEntity
  8
0
100
AcDbBlockBegin
  2
FXTIP_ARROW_E
 70
     0
 71
     0
 10
0.0
 20
0.0
 30
0.0
  3
FXTIP_ARROW_E
  1

  0
LINE
  5
4A
330
47
100
AcDbEntity
  8
0
  6
CONTINUOUS
 62
     0
100
AcDbLine
 10
0.0
 20
0.0
 30
0.0
 11
-1.0
 21
0.0
 31
0.0
  0
LINE
  5
4B
330
47
100
AcDbEntity
  8
0
  6
CONTINUOUS
 62
     0
100
AcDbLine
 10
0.0
 20
0.0
 30
0.0
 11
-0.965926
 21
0.258819
 31
0.0
  0
LINE
  5
4C
330
47
100
AcDbEntity
  8
0
  6
CONTINUOUS
 62
     0
100
AcDbLine
 10
0.0
 20
0.0
 30
0.0
 11
-0.965926
 21
-0.258819
 31
0.0
  0
ENDBLK
  5
49
330
47
100
AcDbEntity
  8
0
100
AcDbBlockEnd
  0
BLOCK
  5
4E
330
4D
100
AcDbEntity
  8
0
100
AcDbBlockBegin
  2
FXTIP_BLACKDOT_S
 70
     0
 71
     0
 10
0.0
 20
0.0
 30
0.0
  3
FXTIP_BLACKDOT_S
  1

  0
LINE
  5
50
330
4D
100
AcDbEntity
  8
0
  6
CONTINUOUS
 62
     0
100
AcDbLine
 10
0.0
 20
0.0
 30
0.0
 11
-1.0
 21
0.0
 31
0.0
  0
LWPOLYLINE
  5
51
330
4D
100
AcDbEntity
  8
0
  6
CONTINUOUS
 62
     0
100
AcDbPolyline
 90
        2
 70
     1
 10
-0.25
 20
0.0
 40
0.5
 41
0.5
 42
1.0
 10
0.25
 20
0.0
 40
0.5
 41
0.5
 42
1.0
  0
CIRCLE
  5
52
330
4D
100
AcDbEntity
  8
0
  6
CONTINUOUS
 62
     0
100
AcDbCircle
 10
0.0
 20
0.0
 30
0.0
 40
0.5
  0
ENDBLK
  5
4F
330
4D
100
AcDbEntity
  8
0
100
AcDbBlockEnd
  0
BLOCK
  5
54
330
53
100
AcDbEntity
  8
0
100
AcDbBlockBegin
  2
FXTIP_BLACKDOT_E
 70
     0
 71
     0
 10
0.0
 20
0.0
 30
0.0
  3
FXTIP_BLACKDOT_E
  1

  0
LINE
  5
56
330
53
100
AcDbEntity
  8
0
  6
CONTINUOUS
 62
     0
100
AcDbLine
 10
0.0
 20
0.0
 30
0.0
 11
-1.0
 21
0.0
 31
0.0
  0
LWPOLYLINE
  5
57
330
53
100
AcDbEntity
  8
0
  6
CONTINUOUS
 62
     0
100
AcDbPolyline
 90
        2
 70
     1
 10
-0.25
 20
0.0
 40
0.5
 41
0.5
 42
1.0
 10
0.25
 20
0.0
 40
0.5
 41
0.5
 42
1.0
  0
CIRCLE
  5
58
330
53
100
AcDbEntity
  8
0
  6
CONTINUOUS
 62
     0
100
AcDbCircle
 10
0.0
 20
0.0
 30
0.0
 40
0.5
  0
ENDBLK
  5
55
330
53
100
AcDbEntity
  8
0
100
AcDbBlockEnd
  0
BLOCK
  5
5A
330
59
100
AcDbEntity
  8
0
100
AcDbBlockBegin
  2
FXTIP_TRIANGLE_S
 70
     0
 71
     0
 10
0.0
 20
0.0
 30
0.0
  3
FXTIP_TRIANGLE_S
  1

  0
LINE
  5
5C
330
59
100
AcDbEntity
  8
0
  6
CONTINUOUS
 62
     0
100
AcDbLine
 10
0.0
 20
0.0
 30
0.0
 11
-1.0
 21
0.0
 31
0.0
  0
LINE
  5
5D
330
59
100
AcDbEntity
  8
0
  6
CONTINUOUS
 62
     0
100
AcDbLine
 10
0.0
 20
0.0
 30
0.0
 11
-0.965926
 21
-0.258819
 31
0.0
  0
LINE
  5
5E
330
59
100
AcDbEntity
  8
0
  6
CONTINUOUS
 62
     0
100
AcDbLine
 10
0.0
 20
0.0
 30
0.0
 11
-0.965926
 21
0.258819
 31
0.0
  0
LINE
  5
5F
330
59
100
AcDbEntity
  8
0
  6
CONTINUOUS
 62
     0
100
AcDbLine
 10
-0.965926
 20
-0.258819
 30
0.0
 11
-0.965926
 21
0.258819
 31
0.0
  0
ENDBLK
  5
5B
330
59
100
AcDbEntity
  8
0
100
AcDbBlockEnd
  0
BLOCK
  5
61
330
60
100
AcDbEntity
  8
0
100
AcDbBlockBegin
  2
FXTIP_TRIANGLE_E
 70
     0
 71
     0
 10
0.0
 20
0.0
 30
0.0
  3
FXTIP_TRIANGLE_E
  1

  0
LINE
  5
63
330
60
100
AcDbEntity
  8
0
  6
CONTINUOUS
 62
     0
100
AcDbLine
 10
0.0
 20
0.0
 30
0.0
 11
-1.0
 21
0.0
 31
0.0
  0
LINE
  5
64
330
60
100
AcDbEntity
  8
0
  6
CONTINUOUS
 62
     0
100
AcDbLine
 10
0.0
 20
0.0
 30
0.0
 11
-0.965926
 21
0.258819
 31
0.0
  0
LINE
  5
65
330
60
100
AcDbEntity
  8
0
  6
CONTINUOUS
 62
     0
100
AcDbLine
 10
0.0
 20
0.0
 30
0.0
 11
-0.965926
 21
-0.258819
 31
0.0
  0
LINE
  5
66
330
60
100
AcDbEntity
  8
0
  6
CONTINUOUS
 62
     0
100
AcDbLine
 10
-0.965926
 20
0.258819
 30
0.0
 11
-0.965926
 21
-0.258819
 31
0.0
  0
ENDBLK
  5
62
330
60
100
AcDbEntity
  8
0
100
AcDbBlockEnd
  0
BLOCK
  5
68
330
67
100
AcDbEntity
  8
0
100
AcDbBlockBegin
  2
FXTIP_ARCHITECT_S
 70
     0
 71
     0
 10
0.0
 20
0.0
 30
0.0
  3
FXTIP_ARCHITECT_S
  1

  0
LINE
  5
6A
330
67
100
AcDbEntity
  8
0
  6
CONTINUOUS
 62
     0
100
AcDbLine
 10
0.0
 20
0.0
 30
0.0
 11
-1.0
 21
0.0
 31
0.0
  0
LINE
  5
6B
330
67
100
AcDbEntity
  8
0
  6
CONTINUOUS
 62
     0
100
AcDbLine
 10
0.0
 20
0.0
 30
0.0
 11
-0.707107
 21
-0.707107
 31
0.0
  0
LINE
  5
6C
330
67
100
AcDbEntity
  8
0
  6
CONTINUOUS
 62
     0
100
AcDbLine
 10
0.0
 20
0.0
 30
0.0
 11
0.707107
 21
0.707107
 31
0.0
  0
ENDBLK
  5
69
330
67
100
AcDbEntity
  8
0
100
AcDbBlockEnd
  0
BLOCK
  5
6E
330
6D
100
AcDbEntity
  8
0
100
AcDbBlockBegin
  2
FXTIP_ARCHITECT_E
 70
     0
 71
     0
 10
0.0
 20
0.0
 30
0.0
  3
FXTIP_ARCHITECT_E
  1

  0
LINE
  5
70
330
6D
100
AcDbEntity
  8
0
  6
CONTINUOUS
 62
     0
100
AcDbLine
 10
0.0
 20
0.0
 30
0.0
 11
-1.0
 21
0.0
 31
0.0
  0
LINE
  5
71
330
6D
100
AcDbEntity
  8
0
  6
CONTINUOUS
 62
     0
100
AcDbLine
 10
0.0
 20
0.0
 30
0.0
 11
0.707107
 21
0.707107
 31
0.0
  0
LINE
  5
72
330
6D
100
AcDbEntity
  8
0
  6
CONTINUOUS
 62
     0
100
AcDbLine
 10
0.0
 20
0.0
 30
0.0
 11
-0.707107
 21
-0.707107
 31
0.0
  0
ENDBLK
  5
6F
330
6D
100
AcDbEntity
  8
0
100
AcDbBlockEnd
  0
BLOCK
  5
74
330
73
100
AcDbEntity
  8
0
100
AcDbBlockBegin
  2
FXTIP_CIVIL_S
 70
     0
 71
     0
 10
0.0
 20
0.0
 30
0.0
  3
FXTIP_CIVIL_S
  1

  0
LINE
  5
76
330
73
100
AcDbEntity
  8
0
  6
CONTINUOUS
 62
     0
100
AcDbLine
 10
0.0
 20
0.0
 30
0.0
 11
-1.0
 21
0.0
 31
0.0
  0
LINE
  5
77
330
73
100
AcDbEntity
  8
0
  6
CONTINUOUS
 62
     0
100
AcDbLine
 10
0.0
 20
-0.0625
 30
0.0
 11
-1.0
 21
-0.0625
 31
0.0
  0
LINE
  5
78
330
73
100
AcDbEntity
  8
0
  6
CONTINUOUS
 62
     0
100
AcDbLine
 10
0.0
 20
-0.125
 30
0.0
 11
-1.0
 21
-0.125
 31
0.0
  0
ENDBLK
  5
75
330
73
100
AcDbEntity
  8
0
100
AcDbBlockEnd
  0
BLOCK
  5
7A
330
79
100
AcDbEntity
  8
0
100
AcDbBlockBegin
  2
FXTIP_CIVIL_E
 70
     0
 71
     0
 10
0.0
 20
0.0
 30
0.0
  3
FXTIP_CIVIL_E
  1

  0
LINE
  5
7C
330
79
100
AcDbEntity
  8
0
  6
CONTINUOUS
 62
     0
100
AcDbLine
 10
0.0
 20
0.0
 30
0.0
 11
-1.0
 21
0.0
 31
0.0
  0
LINE
  5
7D
330
79
100
AcDbEntity
  8
0
  6
CONTINUOUS
 62
     0
100
AcDbLine
 10
0.0
 20
0.0625
 30
0.0
 11
-1.0
 21
0.0625
 31
0.0
  0
LINE
  5
7E
330
79
100
AcDbEntity
  8
0
  6
CONTINUOUS
 62
     0
100
AcDbLine
 10
0.0
 20
0.125
 30
0.0
 11
-1.0
 21
0.125
 31
0.0
  0
ENDBLK
  5
7B
330
79
100
AcDbEntity
  8
0
100
AcDbBlockEnd
  0
BLOCK
  5
80
330
7F
100
AcDbEntity
  8
0
100
AcDbBlockBegin
  2
FXTIP_WHITEDOT_S
 70
     0
 71
     0
 10
0.0
 20
0.0
 30
0.0
  3
FXTIP_WHITEDOT_S
  1

  0
LINE
  5
82
330
7F
100
AcDbEntity
  8
0
  6
CONTINUOUS
 62
     0
100
AcDbLine
 10
0.0
 20
0.0
 30
0.0
 11
-1.0
 21
0.0
 31
0.0
  0
CIRCLE
  5
83
330
7F
100
AcDbEntity
  8
0
  6
CONTINUOUS
 62
     0
100
AcDbCircle
 10
0.0
 20
0.0
 30
0.0
 40
0.5
  0
ENDBLK
  5
81
330
7F
100
AcDbEntity
  8
0
100
AcDbBlockEnd
  0
BLOCK
  5
85
330
84
100
AcDbEntity
  8
0
100
AcDbBlockBegin
  2
FXTIP_WHITEDOT_E
 70
     0
 71
     0
 10
0.0
 20
0.0
 30
0.0
  3
FXTIP_WHITEDOT_E
  1

  0
LINE
  5
87
330
84
100
AcDbEntity
  8
0
  6
CONTINUOUS
 62
     0
100
AcDbLine
 10
0.0
 20
0.0
 30
0.0
 11
-1.0
 21
0.0
 31
0.0
  0
CIRCLE
  5
88
330
84
100
AcDbEntity
  8
0
  6
CONTINUOUS
 62
     0
100
AcDbCircle
 10
0.0
 20
0.0
 30
0.0
 40
0.5
  0
ENDBLK
  5
86
330
84
100
AcDbEntity
  8
0
100
AcDbBlockEnd
  0
BLOCK
  5
8A
330
89
100
AcDbEntity
  8
0
100
AcDbBlockBegin
  2
FXTIP_UPARROW_S
 70
     0
 71
     0
 10
0.0
 20
0.0
 30
0.0
  3
FXTIP_UPARROW_S
  1

  0
LINE
  5
8C
330
89
100
AcDbEntity
  8
0
  6
CONTINUOUS
 62
     0
100
AcDbLine
 10
0.0
 20
0.0
 30
0.0
 11
-1.0
 21
0.0
 31
0.0
  0
LINE
  5
8D
330
89
100
AcDbEntity
  8
0
  6
CONTINUOUS
 62
     0
100
AcDbLine
 10
0.0
 20
0.0
 30
0.0
 11
-0.965926
 21
-0.258819
 31
0.0
  0
ENDBLK
  5
8B
330
89
100
AcDbEntity
  8
0
100
AcDbBlockEnd
  0
BLOCK
  5
8F
330
8E
100
AcDbEntity
  8
0
100
AcDbBlockBegin
  2
FXTIP_UPARROW_E
 70
     0
 71
     0
 10
0.0
 20
0.0
 30
0.0
  3
FXTIP_UPARROW_E
  1

  0
LINE
  5
91
330
8E
100
AcDbEntity
  8
0
  6
CONTINUOUS
 62
     0
100
AcDbLine
 10
0.0
 20
0.0
 30
0.0
 11
-1.0
 21
0.0
 31
0.0
  0
LINE
  5
92
330
8E
100
AcDbEntity
  8
0
  6
CONTINUOUS
 62
     0
100
AcDbLine
 10
0.0
 20
0.0
 30
0.0
 11
-0.965926
 21
0.258819
 31
0.0
  0
ENDBLK
  5
90
330
8E
100
AcDbEntity
  8
0
100
AcDbBlockEnd
  0
BLOCK
  5
94
330
93
100
AcDbEntity
  8
0
100
AcDbBlockBegin
  2
FXTIP_DOWNARROW_S
 70
     0
 71
     0
 10
0.0
 20
0.0
 30
0.0
  3
FXTIP_DOWNARROW_S
  1

  0
LINE
  5
96
330
93
100
AcDbEntity
  8
0
  6
CONTINUOUS
 62
     0
100
AcDbLine
 10
0.0
 20
0.0
 30
0.0
 11
-1.0
 21
0.0
 31
0.0
  0
LINE
  5
97
330
93
100
AcDbEntity
  8
0
  6
CONTINUOUS
 62
     0
100
AcDbLine
 10
0.0
 20
0.0
 30
0.0
 11
-0.965926
 21
0.258819
 31
0.0
  0
ENDBLK
  5
95
330
93
100
AcDbEntity
  8
0
100
AcDbBlockEnd
  0
BLOCK
  5
99
330
98
100
AcDbEntity
  8
0
100
AcDbBlockBegin
  2
FXTIP_DOWNARROW_E
 70
     0
 71
     0
 10
0.0
 20
0.0
 30
0.0
  3
FXTIP_DOWNARROW_E
  1

  0
LINE
  5
9B
330
98
100
AcDbEntity
  8
0
  6
CONTINUOUS
 62
     0
100
AcDbLine
 10
0.0
 20
0.0
 30
0.0
 11
-1.0
 21
0.0
 31
0.0
  0
LINE
  5
9C
330
98
100
AcDbEntity
  8
0
  6
CONTINUOUS
 62
     0
100
AcDbLine
 10
0.0
 20
0.0
 30
0.0
 11
-0.965926
 21
-0.258819
 31
0.0
  0
ENDBLK
  5
9A
330
98
100
AcDbEntity
  8
0
100
AcDbBlockEnd
  0
BLOCK
  5
9E
330
9D
100
AcDbEntity
  8
0
100
AcDbBlockBegin
  2
FXTIP_BLACKTRIANGLE_S
 70
     0
 71
     0
 10
0.0
 20
0.0
 30
0.0
  3
FXTIP_BLACKTRIANGLE_S
  1

  0
LINE
  5
A0
330
9D
100
AcDbEntity
  8
0
  6
CONTINUOUS
 62
     0
100
AcDbLine
 10
0.0
 20
0.0
 30
0.0
 11
-1.0
 21
0.0
 31
0.0
  0
SOLID
  5
A1
330
9D
100
AcDbEntity
  8
0
  6
CONTINUOUS
 62
     0
100
AcDbTrace
 10
0.0
 20
0.0
 30
0.0
 11
-0.965926
 21
-0.258819
 31
0.0
 12
-0.965926
 22
0.258819
 32
0.0
 13
-0.965926
 23
0.258819
 33
0.0
  0
ENDBLK
  5
9F
330
9D
100
AcDbEntity
  8
0
100
AcDbBlockEnd
  0
BLOCK
  5
A3
330
A2
100
AcDbEntity
  8
0
100
AcDbBlockBegin
  2
FXTIP_BLACKTRIANGLE_E
 70
     0
 71
     0
 10
0.0
 20
0.0
 30
0.0
  3
FXTIP_BLACKTRIANGLE_E
  1

  0
LINE
  5
A5
330
A2
100
AcDbEntity
  8
0
  6
CONTINUOUS
 62
     0
100
AcDbLine
 10
0.0
 20
0.0
 30
0.0
 11
-1.0
 21
0.0
 31
0.0
  0
SOLID
  5
A6
330
A2
100
AcDbEntity
  8
0
  6
CONTINUOUS
 62
     0
100
AcDbTrace
 10
0.0
 20
0.0
 30
0.0
 11
-0.965926
 21
0.258819
 31
0.0
 12
-0.965926
 22
-0.258819
 32
0.0
 13
-0.965926
 23
-0.258819
 33
0.0
  0
ENDBLK
  5
A4
330
A2
100
AcDbEntity
  8
0
100
AcDbBlockEnd
  0
BLOCK
  5
AB
330
AA
100
AcDbEntity
  8
0
100
AcDbBlockBegin
  2
BLKF021
 70
     0
 71
     0
 10
0.0
 20
0.0
 30
0.0
  3
BLKF021
  1

  0
LINE
  5
AE
330
AA
100
AcDbEntity
  8
}}ﾊﾊGG血CCТ
  6
CONTINUOUS
 62
     7
100
AcDbLine
 10
10.0
 20
10.0
 30
0.0
 11
410.0
 21
10.0
 31
0.0
  0
LINE
  5
AF
330
AA
100
AcDbEntity
  8
}}ﾊﾊGG血CCТ
  6
CONTINUOUS
 62
     7
100
AcDbLine
 10
10.0
 20
10.0
 30
0.0
 11
10.0
 21
287.0
 31
0.0
  0
LINE
  5
B0
330
AA
100
AcDbEntity
  8
}}ﾊﾊGG血CCТ
  6
CONTINUOUS
 62
     7
100
AcDbLine
 10
10.0
 20
287.0
 30
0.0
 11
410.0
 21
287.0
 31
0.0
  0
LINE
  5
B1
330
AA
100
AcDbEntity
  8
}}ﾊﾊGG血CCТ
  6
CONTINUOUS
 62
     7
100
AcDbLine
 10
410.0
 20
287.0
 30
0.0
 11
410.0
 21
10.0
 31
0.0
  0
LINE
  5
B2
330
AA
100
AcDbEntity
  8
}}ﾊﾊGG血CCТ
  6
CONTINUOUS
 62
     7
100
AcDbLine
 10
153.0
 20
10.0
 30
0.0
 11
153.0
 21
20.0
 31
0.0
  0
TEXT
  5
B3
330
AA
100
AcDbEntity
  8
}}ﾊﾊGG血CCТ
  6
CONTINUOUS
 62
     7
100
AcDbText
 10
137.738815
 20
11.596879
 30
0.0
 40
6.648749
  1
品名
 41
1.083413
  7
FX_VECTOR
 72
     5
 11
149.058355
 21
11.596879
 31
0.0
100
AcDbText
  0
LINE
  5
B4
330
AA
100
AcDbEntity
  8
}}ﾊﾊGG血CCТ
  6
CONTINUOUS
 62
     7
100
AcDbLine
 10
233.0
 20
20.0
 30
0.0
 11
233.0
 21
10.0
 31
0.0
  0
LINE
  5
B5
330
AA
100
AcDbEntity
  8
}}ﾊﾊGG血CCТ
  6
CONTINUOUS
 62
     7
100
AcDbLine
 10
133.0
 20
20.0
 30
0.0
 11
410.0
 21
20.0
 31
0.0
  0
INSERT
  5
B9
330
AA
100
AcDbEntity
  8
0
100
AcDbBlockReference
  2
BLKF022
 10
0.0
 20
0.0
 30
0.0
  0
INSERT
  5
C2
330
AA
100
AcDbEntity
  8
0
100
AcDbBlockReference
  2
BLKF023
 10
0.0
 20
0.0
 30
0.0
  0
HATCH
  5
D3
330
AA
100
AcDbEntity
  8
GR1-1
  6
CONTINUOUS
 62
     7
100
AcDbHatch
 10
0.0
 20
0.0
 30
0.0
210
0.0
220
0.0
230
1.0
  2

 70
     0
 71
     1
 91
        2
 92
        0
 93
        4
 72
     1
 10
338.8018997861325
 20
17.91346152
 11
344.8018997861325
 21
17.91346152
 72
     1
 10
344.8018997861325
 20
17.91346152
 11
344.8018997861325
 21
11.91346152
 72
     1
 10
344.8018997861325
 20
11.91346152
 11
338.8018997861325
 21
11.91346152
 72
     1
 10
338.8018997861325
 20
11.91346152
 11
338.8018997861325
 21
17.91346152
 97
        0
 92
        0
 93
       15
 72
     1
 10
341.8018997861325
 20
17.76923076000002
 11
338.9461305461325
 21
14.91346152
 72
     1
 10
338.9461305461325
 20
14.91346152
 11
341.8018997861325
 21
12.05769228000001
 72
     1
 10
341.8018997861325
 20
12.05769228000001
 11
343.3595920661325
 21
13.61538462
 72
     1
 10
343.3595920661325
 20
13.61538462
 11
343.3595920661325
 21
12.98076924
 72
     1
 10
343.3595920661325
 20
12.98076924
 11
344.2249766861325
 21
12.98076924
 72
     1
 10
344.2249766861325
 20
12.98076924
 11
344.2249766861325
 21
15.00000000000001
 72
     1
 10
344.2249766861325
 20
15.00000000000001
 11
341.8018997861325
 21
15.00000000000001
 72
     1
 10
341.8018997861325
 20
15.00000000000001
 11
341.8018997861325
 21
14.13461538000001
 72
     1
 10
341.8018997861325
 20
14.13461538000001
 11
342.2461305461325
 21
14.13461538000001
 72
     1
 10
342.2461305461325
 20
14.13461538000001
 11
341.8018997861325
 21
13.69038462
 72
     1
 10
341.8018997861325
 20
13.69038462
 11
340.5788228861325
 21
14.91346152
 72
     1
 10
340.5788228861325
 20
14.91346152
 11
341.8018997861325
 21
16.13653842000003
 72
     1
 10
341.8018997861325
 20
16.13653842000003
 11
342.5922844061325
 21
15.3461538
 72
     1
 10
342.5922844061325
 20
15.3461538
 11
344.2249766861325
 21
15.3461538
 72
     1
 10
344.2249766861325
 20
15.3461538
 11
341.8018997861325
 21
17.76923076000002
 97
        0
 75
     0
 76
     0
 52
45.0
 41
0.05
 77
     0
 78
     1
 53
45.0
 43
0.0
 44
0.0
 45
-0.0353553390593274
 46
0.0353553390593274
 79
     0
 98
        0
  0
TEXT
  5
D4
330
AA
100
AcDbEntity
  8
}}ﾊﾊGG血CCТ
  6
CONTINUOUS
 62
     7
100
AcDbText
 10
349.225769
 20
11.461285
 30
0.0
 40
6.0
  1
GOLD CASTER
 41
0.719626
  7
FX_VECTOR
 72
     5
 11
393.225769
 21
11.461285
 31
0.0
100
AcDbText
  0
LINE
  5
D5
330
AA
100
AcDbEntity
  8
}}ﾊﾊGG血CCТ
  6
CONTINUOUS
 62
     7
100
AcDbLine
 10
253.0
 20
10.0
 30
0.0
 11
253.0
 21
20.0
 31
0.0
  0
TEXT
  5
D6
330
AA
100
AcDbEntity
  8
}}ﾊﾊGG血CCТ
  6
CONTINUOUS
 62
     7
100
AcDbText
 10
237.738815
 20
11.596879
 30
0.0
 40
6.648749
  1
図番
 41
1.083413
  7
FX_VECTOR
 72
     5
 11
249.058355
 21
11.596879
 31
0.0
100
AcDbText
  0
LINE
  5
D7
330
AA
100
AcDbEntity
  8
}}ﾊﾊGG血CCТ
  6
CONTINUOUS
 62
     7
100
AcDbLine
 10
333.0
 20
20.0
 30
0.0
 11
333.0
 21
10.0
 31
0.0
  0
LINE
  5
D8
330
AA
100
AcDbEntity
  8
}}ﾊﾊGG血CCТ
  6
CONTINUOUS
 62
     7
100
AcDbLine
 10
133.0
 20
20.0
 30
0.0
 11
133.0
 21
10.0
 31
0.0
  0
ENDBLK
  5
AC
330
AA
100
AcDbEntity
  8
0
100
AcDbBlockEnd
  0
BLOCK
  5
B7
330
B6
100
AcDbEntity
  8
0
100
AcDbBlockBegin
  2
BLKF022
 70
     0
 71
     0
 10
0.0
 20
0.0
 30
0.0
  3
BLKF022
  1

  0
LINE
  5
BB
330
B6
100
AcDbEntity
  8
0-1
  6
CONTINUOUS
 62
     7
100
AcDbLine
 10
344.8019
 20
17.913462
 30
0.0
 11
338.8019
 21
17.913462
 31
0.0
  0
LINE
  5
BC
330
B6
100
AcDbEntity
  8
0-1
  6
CONTINUOUS
 62
     7
100
AcDbLine
 10
338.8019
 20
17.913462
 30
0.0
 11
338.8019
 21
11.913462
 31
0.0
  0
LINE
  5
BD
330
B6
100
AcDbEntity
  8
0-1
  6
CONTINUOUS
 62
     7
100
AcDbLine
 10
338.8019
 20
11.913462
 30
0.0
 11
344.8019
 21
11.913462
 31
0.0
  0
LINE
  5
BE
330
B6
100
AcDbEntity
  8
0-1
  6
CONTINUOUS
 62
     7
100
AcDbLine
 10
344.8019
 20
11.913462
 30
0.0
 11
344.8019
 21
17.913462
 31
0.0
  0
ENDBLK
  5
B8
330
B6
100
AcDbEntity
  8
0
100
AcDbBlockEnd
  0
BLOCK
  5
C0
330
BF
100
AcDbEntity
  8
0
100
AcDbBlockBegin
  2
BLKF023
 70
     0
 71
     0
 10
0.0
 20
0.0
 30
0.0
  3
BLKF023
  1

  0
LINE
  5
C3
330
BF
100
AcDbEntity
  8
0-1
  6
CONTINUOUS
 62
     7
100
AcDbLine
 10
344.224977
 20
15.346154
 30
0.0
 11
341.8019
 21
17.769231
 31
0.0
  0
LINE
  5
C4
330
BF
100
AcDbEntity
  8
0-1
  6
CONTINUOUS
 62
     7
100
AcDbLine
 10
341.8019
 20
17.769231
 30
0.0
 11
338.946131
 21
14.913462
 31
0.0
  0
LINE
  5
C5
330
BF
100
AcDbEntity
  8
0-1
  6
CONTINUOUS
 62
     7
100
AcDbLine
 10
338.946131
 20
14.913462
 30
0.0
 11
341.8019
 21
12.057692
 31
0.0
  0
LINE
  5
C6
330
BF
100
AcDbEntity
  8
0-1
  6
CONTINUOUS
 62
     7
100
AcDbLine
 10
341.8019
 20
12.057692
 30
0.0
 11
343.359592
 21
13.615385
 31
0.0
  0
LINE
  5
C7
330
BF
100
AcDbEntity
  8
0-1
  6
CONTINUOUS
 62
     7
100
AcDbLine
 10
343.359592
 20
13.615385
 30
0.0
 11
343.359592
 21
12.980769
 31
0.0
  0
LINE
  5
C8
330
BF
100
AcDbEntity
  8
0-1
  6
CONTINUOUS
 62
     7
100
AcDbLine
 10
343.359592
 20
12.980769
 30
0.0
 11
344.224977
 21
12.980769
 31
0.0
  0
LINE
  5
C9
330
BF
100
AcDbEntity
  8
0-1
  6
CONTINUOUS
 62
     7
100
AcDbLine
 10
344.224977
 20
12.980769
 30
0.0
 11
344.224977
 21
15.0
 31
0.0
  0
LINE
  5
CA
330
BF
100
AcDbEntity
  8
0-1
  6
CONTINUOUS
 62
     7
100
AcDbLine
 10
344.224977
 20
15.0
 30
0.0
 11
341.8019
 21
15.0
 31
0.0
  0
LINE
  5
CB
330
BF
100
AcDbEntity
  8
0-1
  6
CONTINUOUS
 62
     7
100
AcDbLine
 10
341.8019
 20
15.0
 30
0.0
 11
341.8019
 21
14.134615
 31
0.0
  0
LINE
  5
CC
330
BF
100
AcDbEntity
  8
0-1
  6
CONTINUOUS
 62
     7
100
AcDbLine
 10
341.8019
 20
14.134615
 30
0.0
 11
342.246131
 21
14.134615
 31
0.0
  0
LINE
  5
CD
330
BF
100
AcDbEntity
  8
0-1
  6
CONTINUOUS
 62
     7
100
AcDbLine
 10
342.246131
 20
14.134615
 30
0.0
 11
341.8019
 21
13.690385
 31
0.0
  0
LINE
  5
CE
330
BF
100
AcDbEntity
  8
0-1
  6
CONTINUOUS
 62
     7
100
AcDbLine
 10
341.8019
 20
13.690385
 30
0.0
 11
340.578823
 21
14.913462
 31
0.0
  0
LINE
  5
CF
330
BF
100
AcDbEntity
  8
0-1
  6
CONTINUOUS
 62
     7
100
AcDbLine
 10
340.578823
 20
14.913462
 30
0.0
 11
341.8019
 21
16.136538
 31
0.0
  0
LINE
  5
D0
330
BF
100
AcDbEntity
  8
0-1
  6
CONTINUOUS
 62
     7
100
AcDbLine
 10
341.8019
 20
16.136538
 30
0.0
 11
342.592284
 21
15.346154
 31
0.0
  0
LINE
  5
D1
330
BF
100
AcDbEntity
  8
0-1
  6
CONTINUOUS
 62
     7
100
AcDbLine
 10
342.592284
 20
15.346154
 30
0.0
 11
344.224977
 21
15.346154
 31
0.0
  0
ENDBLK
  5
C1
330
BF
100
AcDbEntity
  8
0
100
AcDbBlockEnd
  0
BLOCK
  5
E4
330
E3
100
AcDbEntity
  8
0
100
AcDbBlockBegin
  2
*D22
 70
     1
 71
     0
 10
0.0
 20
0.0
 30
0.0
  3
*D22
  1

  0
TEXT
  5
E6
330
E3
100
AcDbEntity
  8
GR1-1
  6
CONTINUOUS
 62
     7
100
AcDbText
 10
236.145813
 20
192.950058
 30
0.0
 40
4.0
  1
70
 41
0.851351
  7
FX_VECTOR
 72
     5
 11
242.145813
 21
192.950058
 31
0.0
100
AcDbText
  0
LINE
  5
E7
330
E3
100
AcDbEntity
  8
GR1-1
  6
CONTINUOUS
 62
     7
100
AcDbLine
 10
204.145822
 20
217.232632
 30
0.0
 11
204.145822
 21
190.95005
 31
0.0
  0
LINE
  5
E8
330
E3
100
AcDbEntity
  8
GR1-1
  6
CONTINUOUS
 62
     7
100
AcDbLine
 10
274.145822
 20
217.232632
 30
0.0
 11
274.145822
 21
190.95005
 31
0.0
  0
LINE
  5
E9
330
E3
100
AcDbEntity
  8
GR1-1
  6
CONTINUOUS
 62
     7
100
AcDbLine
 10
204.145822
 20
191.95005
 30
0.0
 11
274.145822
 21
191.95005
 31
0.0
  0
INSERT
  5
EA
330
E3
100
AcDbEntity
  8
GR1-1
  6
CONTINUOUS
 62
     7
100
AcDbBlockReference
  2
FXTIP_ARROW_S
 10
204.145822
 20
191.95005
 30
0.0
 41
4.0
 42
4.0
 50
180.0
  0
INSERT
  5
EB
330
E3
100
AcDbEntity
  8
GR1-1
  6
CONTINUOUS
 62
     7
100
AcDbBlockReference
  2
FXTIP_ARROW_E
 10
274.145822
 20
191.95005
 30
0.0
 41
4.0
 42
4.0
 50
360.0
  0
ENDBLK
  5
E5
330
E3
100
AcDbEntity
  8
0
100
AcDbBlockEnd
  0
BLOCK
  5
EE
330
ED
100
AcDbEntity
  8
0
100
AcDbBlockBegin
  2
*D23
 70
     1
 71
     0
 10
0.0
 20
0.0
 30
0.0
  3
*D23
  1

  0
TEXT
  5
F0
330
ED
100
AcDbEntity
  8
GR1-1
  6
CONTINUOUS
 62
     7
100
AcDbText
 10
236.145813
 20
202.950058
 30
0.0
 40
4.0
  1
56
 41
0.851351
  7
FX_VECTOR
 72
     5
 11
242.145813
 21
202.950058
 31
0.0
100
AcDbText
  0
LINE
  5
F1
330
ED
100
AcDbEntity
  8
GR1-1
  6
CONTINUOUS
 62
     7
100
AcDbLine
 10
211.145822
 20
212.232632
 30
0.0
 11
211.145822
 21
200.95005
 31
0.0
  0
LINE
  5
F2
330
ED
100
AcDbEntity
  8
GR1-1
  6
CONTINUOUS
 62
     7
100
AcDbLine
 10
267.145822
 20
212.232632
 30
0.0
 11
267.145822
 21
200.95005
 31
0.0
  0
LINE
  5
F3
330
ED
100
AcDbEntity
  8
GR1-1
  6
CONTINUOUS
 62
     7
100
AcDbLine
 10
211.145822
 20
201.95005
 30
0.0
 11
267.145822
 21
201.95005
 31
0.0
  0
INSERT
  5
F4
330
ED
100
AcDbEntity
  8
GR1-1
  6
CONTINUOUS
 62
     7
100
AcDbBlockReference
  2
FXTIP_ARROW_S
 10
211.145822
 20
201.95005
 30
0.0
 41
4.0
 42
4.0
 50
180.0
  0
INSERT
  5
F5
330
ED
100
AcDbEntity
  8
GR1-1
  6
CONTINUOUS
 62
     7
100
AcDbBlockReference
  2
FXTIP_ARROW_E
 10
267.145822
 20
201.95005
 30
0.0
 41
4.0
 42
4.0
 50
360.0
  0
ENDBLK
  5
EF
330
ED
100
AcDbEntity
  8
0
100
AcDbBlockEnd
  0
BLOCK
  5
F8
330
F7
100
AcDbEntity
  8
0
100
AcDbBlockBegin
  2
*D24
 70
     1
 71
     0
 10
0.0
 20
0.0
 30
0.0
  3
*D24
  1

  0
TEXT
  5
FA
330
F7
100
AcDbEntity
  8
GR1-1
  6
CONTINUOUS
 62
     7
100
AcDbText
 10
293.15152
 20
229.732635
 30
0.0
 40
4.0
  1
42
 50
90.0
 41
0.851351
  7
FX_VECTOR
 72
     5
 11
293.15152
 21
235.732635
 31
0.0
100
AcDbText
  0
LINE
  5
FB
330
F7
100
AcDbEntity
  8
GR1-1
  6
CONTINUOUS
 62
     7
100
AcDbLine
 10
268.145822
 20
211.732632
 30
0.0
 11
295.15153
 21
211.732632
 31
0.0
  0
LINE
  5
FC
330
F7
100
AcDbEntity
  8
GR1-1
  6
CONTINUOUS
 62
     7
100
AcDbLine
 10
268.645822
 20
253.732632
 30
0.0
 11
295.15153
 21
253.732632
 31
0.0
  0
LINE
  5
FD
330
F7
100
AcDbEntity
  8
GR1-1
  6
CONTINUOUS
 62
     7
100
AcDbLine
 10
294.15153
 20
211.732632
 30
0.0
 11
294.15153
 21
253.732632
 31
0.0
  0
INSERT
  5
FE
330
F7
100
AcDbEntity
  8
GR1-1
  6
CONTINUOUS
 62
     7
100
AcDbBlockReference
  2
FXTIP_ARROW_S
 10
294.15153
 20
211.732632
 30
0.0
 41
4.0
 42
4.0
 50
270.0
  0
INSERT
  5
FF
330
F7
100
AcDbEntity
  8
GR1-1
  6
CONTINUOUS
 62
     7
100
AcDbBlockReference
  2
FXTIP_ARROW_E
 10
294.15153
 20
253.732632
 30
0.0
 41
4.0
 42
4.0
 50
90.0
  0
ENDBLK
  5
F9
330
F7
100
AcDbEntity
  8
0
100
AcDbBlockEnd
  0
BLOCK
  5
102
330
101
100
AcDbEntity
  8
0
100
AcDbBlockBegin
  2
*D25
 70
     1
 71
     0
 10
0.0
 20
0.0
 30
0.0
  3
*D25
  1

  0
TEXT
  5
104
330
101
100
AcDbEntity
  8
GR1-1
  6
CONTINUOUS
 62
     7
100
AcDbText
 10
283.15152
 20
229.732635
 30
0.0
 40
4.0
  1
28
 50
90.0
 41
0.851351
  7
FX_VECTOR
 72
     5
 11
283.15152
 21
235.732635
 31
0.0
100
AcDbText
  0
LINE
  5
105
330
101
100
AcDbEntity
  8
GR1-1
  6
CONTINUOUS
 62
     7
100
AcDbLine
 10
273.645822
 20
218.732632
 30
0.0
 11
285.15153
 21
218.732632
 31
0.0
  0
LINE
  5
106
330
101
100
AcDbEntity
  8
GR1-1
  6
CONTINUOUS
 62
     7
100
AcDbLine
 10
273.645822
 20
246.732632
 30
0.0
 11
285.15153
 21
246.732632
 31
0.0
  0
LINE
  5
107
330
101
100
AcDbEntity
  8
GR1-1
  6
CONTINUOUS
 62
     7
100
AcDbLine
 10
284.15153
 20
218.732632
 30
0.0
 11
284.15153
 21
246.732632
 31
0.0
  0
INSERT
  5
108
330
101
100
AcDbEntity
  8
GR1-1
  6
CONTINUOUS
 62
     7
100
AcDbBlockReference
  2
FXTIP_ARROW_S
 10
284.15153
 20
218.732632
 30
0.0
 41
4.0
 42
4.0
 50
270.0
  0
INSERT
  5
109
330
101
100
AcDbEntity
  8
GR1-1
  6
CONTINUOUS
 62
     7
100
AcDbBlockReference
  2
FXTIP_ARROW_E
 10
284.15153
 20
246.732632
 30
0.0
 41
4.0
 42
4.0
 50
90.0
  0
ENDBLK
  5
103
330
101
100
AcDbEntity
  8
0
100
AcDbBlockEnd
  0
BLOCK
  5
10C
330
10B
100
AcDbEntity
  8
0
100
AcDbBlockBegin
  2
*D26
 70
     1
 71
     0
 10
0.0
 20
0.0
 30
0.0
  3
*D26
  1

  0
TEXT
  5
10E
330
10B
100
AcDbEntity
  8
GR1-1
  6
CONTINUOUS
 62
     7
100
AcDbText
 10
188.375302
 20
263.447371
 30
0.0
 40
4.0
  1
4-%%c6.5
 50
325.74823
 41
0.84375
  7
FX_VECTOR
 72
     5
 11
203.253604
 21
253.316423
 31
0.0
100
AcDbText
  0
LINE
  5
10F
330
10B
100
AcDbEntity
  8
GR1-1
  6
CONTINUOUS
 62
     7
100
AcDbLine
 10
208.459462
 20
248.561831
 30
0.0
 11
213.832182
 21
244.903432
 31
0.0
  0
LINE
  5
110
330
10B
100
AcDbEntity
  8
GR1-1
  6
CONTINUOUS
 62
     7
100
AcDbLine
 10
213.832182
 20
244.903432
 30
0.0
 11
218.791615
 21
241.526448
 31
0.0
  0
INSERT
  5
111
330
10B
100
AcDbEntity
  8
GR1-1
  6
CONTINUOUS
 62
     7
100
AcDbBlockReference
  2
FXTIP_ARROW_S
 10
213.832182
 20
244.903432
 30
0.0
 41
4.0
 42
4.0
 50
145.748218
  0
LINE
  5
112
330
10B
100
AcDbEntity
  8
GR1-1
  6
CONTINUOUS
 62
     7
100
AcDbLine
 10
208.459462
 20
248.561831
 30
0.0
 11
182.043813
 21
266.548809
 31
0.0
  0
INSERT
  5
113
330
10B
100
AcDbEntity
  8
GR1-1
  6
CONTINUOUS
 62
     7
100
AcDbBlockReference
  2
FXTIP_ARROW_S
 10
208.459462
 20
248.561831
 30
0.0
 41
4.0
 42
4.0
 50
325.748218
  0
ENDBLK
  5
10D
330
10B
100
AcDbEntity
  8
0
100
AcDbBlockEnd
  0
BLOCK
  5
160
330
15F
100
AcDbEntity
  8
0
100
AcDbBlockBegin
  2
*D27
 70
     1
 71
     0
 10
0.0
 20
0.0
 30
0.0
  3
*D27
  1

  0
TEXT
  5
162
330
15F
100
AcDbEntity
  8
LAYERGROUP-1
  6
CONTINUOUS
 62
     7
100
AcDbText
 10
225.645813
 20
64.261627
 30
0.0
 40
4.0
  1
21
 41
1.016129
  7
FX_VECTOR
 72
     5
 11
231.645813
 21
64.261627
 31
0.0
100
AcDbText
  0
LINE
  5
163
330
15F
100
AcDbEntity
  8
LAYERGROUP-1
  6
CONTINUOUS
 62
     7
100
AcDbLine
 10
218.145822
 20
63.261632
 30
0.0
 11
239.145822
 21
63.261632
 31
0.0
  0
INSERT
  5
164
330
15F
100
AcDbEntity
  8
LAYERGROUP-1
  6
CONTINUOUS
 62
     7
100
AcDbBlockReference
  2
FXTIP_ARROW_S
 10
218.145822
 20
63.261632
 30
0.0
 41
4.0
 42
4.0
 50
180.0
  0
INSERT
  5
165
330
15F
100
AcDbEntity
  8
LAYERGROUP-1
  6
CONTINUOUS
 62
     7
100
AcDbBlockReference
  2
FXTIP_ARROW_E
 10
239.145822
 20
63.261632
 30
0.0
 41
4.0
 42
4.0
 50
360.0
  0
LINE
  5
166
330
15F
100
AcDbEntity
  8
LAYERGROUP-1
  6
CONTINUOUS
 62
     7
100
AcDbLine
 10
218.145822
 20
70.457815
 30
0.0
 11
218.145822
 21
62.261632
 31
0.0
  0
LINE
  5
167
330
15F
100
AcDbEntity
  8
LAYERGROUP-1
  6
CONTINUOUS
 62
     7
100
AcDbLine
 10
239.145822
 20
107.612832
 30
0.0
 11
239.145822
 21
62.261632
 31
0.0
  0
ENDBLK
  5
161
330
15F
100
AcDbEntity
  8
0
100
AcDbBlockEnd
  0
BLOCK
  5
179
330
178
100
AcDbEntity
  8
0
100
AcDbBlockBegin
  2
*D28
 70
     1
 71
     0
 10
0.0
 20
0.0
 30
0.0
  3
*D28
  1

  0
TEXT
  5
17B
330
178
100
AcDbEntity
  8
LAYERGROUP-1
  6
CONTINUOUS
 62
     7
100
AcDbText
 10
293.158691
 20
102.761635
 30
0.0
 40
4.0
  1
65
 50
90.0
 41
0.851351
  7
FX_VECTOR
 72
     5
 11
293.158691
 21
108.761635
 31
0.0
100
AcDbText
  0
LINE
  5
17C
330
178
100
AcDbEntity
  8
LAYERGROUP-1
  6
CONTINUOUS
 62
     7
100
AcDbLine
 10
294.158702
 20
73.261632
 30
0.0
 11
294.158702
 21
138.261632
 31
0.0
  0
INSERT
  5
17D
330
178
100
AcDbEntity
  8
LAYERGROUP-1
  6
CONTINUOUS
 62
     7
100
AcDbBlockReference
  2
FXTIP_ARROW_S
 10
294.158702
 20
73.261632
 30
0.0
 41
4.0
 42
4.0
 50
270.0
  0
INSERT
  5
17E
330
178
100
AcDbEntity
  8
LAYERGROUP-1
  6
CONTINUOUS
 62
     7
100
AcDbBlockReference
  2
FXTIP_ARROW_E
 10
294.158702
 20
138.261632
 30
0.0
 41
4.0
 42
4.0
 50
90.0
  0
LINE
  5
17F
330
178
100
AcDbEntity
  8
LAYERGROUP-1
  6
CONTINUOUS
 62
     7
100
AcDbLine
 10
219.145822
 20
73.261632
 30
0.0
 11
295.158702
 21
73.261632
 31
0.0
  0
LINE
  5
180
330
178
100
AcDbEntity
  8
LAYERGROUP-1
  6
CONTINUOUS
 62
     7
100
AcDbLine
 10
275.145822
 20
138.261632
 30
0.0
 11
295.158702
 21
138.261632
 31
0.0
  0
ENDBLK
  5
17A
330
178
100
AcDbEntity
  8
0
100
AcDbBlockEnd
  0
BLOCK
  5
183
330
182
100
AcDbEntity
  8
0
100
AcDbBlockBegin
  2
*D29
 70
     1
 71
     0
 10
0.0
 20
0.0
 30
0.0
  3
*D29
  1

  0
TEXT
  5
185
330
182
100
AcDbEntity
  8
LAYERGROUP-1
  6
CONTINUOUS
 62
     7
100
AcDbText
 10
283.158691
 20
115.261635
 30
0.0
 40
4.0
  1
40
 50
90.0
 41
0.851351
  7
FX_VECTOR
 72
     5
 11
283.158691
 21
121.261635
 31
0.0
100
AcDbText
  0
LINE
  5
186
330
182
100
AcDbEntity
  8
LAYERGROUP-1
  6
CONTINUOUS
 62
     7
100
AcDbLine
 10
284.158702
 20
98.261632
 30
0.0
 11
284.158702
 21
138.261632
 31
0.0
  0
INSERT
  5
187
330
182
100
AcDbEntity
  8
LAYERGROUP-1
  6
CONTINUOUS
 62
     7
100
AcDbBlockReference
  2
FXTIP_ARROW_S
 10
284.158702
 20
98.261632
 30
0.0
 41
4.0
 42
4.0
 50
270.0
  0
INSERT
  5
188
330
182
100
AcDbEntity
  8
LAYERGROUP-1
  6
CONTINUOUS
 62
     7
100
AcDbBlockReference
  2
FXTIP_ARROW_E
 10
284.158702
 20
138.261632
 30
0.0
 41
4.0
 42
4.0
 50
90.0
  0
LINE
  5
189
330
182
100
AcDbEntity
  8
LAYERGROUP-1
  6
CONTINUOUS
 62
     7
100
AcDbLine
 10
245.796643
 20
98.261632
 30
0.0
 11
285.158702
 21
98.261632
 31
0.0
  0
ENDBLK
  5
184
330
182
100
AcDbEntity
  8
0
100
AcDbBlockEnd
  0
BLOCK
  5
1CF
330
1CE
100
AcDbEntity
  8
0
100
AcDbBlockBegin
  2
BLKF032
 70
     0
 71
     0
 10
0.0
 20
0.0
 30
0.0
  3
BLKF032
  1

  0
LINE
  5
1D2
330
1CE
100
AcDbEntity
  8
GR1-1
  6
CONTINUOUS
 62
     7
100
AcDbLine
 10
223.787629
 20
87.854297
 30
0.0
 11
223.751586
 21
87.588732
 31
0.0
  0
LINE
  5
1D3
330
1CE
100
AcDbEntity
  8
GR1-1
  6
CONTINUOUS
 62
     7
100
AcDbLine
 10
223.938433
 20
87.969058
 30
0.0
 11
223.866348
 21
87.437928
 31
0.0
  0
LINE
  5
1D4
330
1CE
100
AcDbEntity
  8
GR1-1
  6
CONTINUOUS
 62
     7
100
AcDbLine
 10
224.089237
 20
88.083819
 30
0.0
 11
223.981109
 21
87.287124
 31
0.0
  0
LINE
  5
1D5
330
1CE
100
AcDbEntity
  8
GR1-1
  6
CONTINUOUS
 62
     7
100
AcDbLine
 10
224.240041
 20
88.198581
 30
0.0
 11
224.09587
 21
87.13632
 31
0.0
  0
LINE
  5
1D6
330
1CE
100
AcDbEntity
  8
GR1-1
  6
CONTINUOUS
 62
     7
100
AcDbLine
 10
224.390845
 20
88.313342
 30
0.0
 11
224.266514
 21
87.397262
 31
0.0
  0
LINE
  5
1D7
330
1CE
100
AcDbEntity
  8
GR1-1
  6
CONTINUOUS
 62
     7
100
AcDbLine
 10
224.232495
 20
87.146608
 30
0.0
 11
224.210631
 21
86.985516
 31
0.0
  0
LINE
  5
1D8
330
1CE
100
AcDbEntity
  8
GR1-1
  6
CONTINUOUS
 62
     7
100
AcDbLine
 10
224.541649
 20
88.428103
 30
0.0
 11
224.417318
 21
87.512023
 31
0.0
  0
LINE
  5
1D9
330
1CE
100
AcDbEntity
  8
GR1-1
  6
CONTINUOUS
 62
     7
100
AcDbLine
 10
224.347256
 20
86.995804
 30
0.0
 11
224.325392
 21
86.834712
 31
0.0
  0
LINE
  5
1DA
330
1CE
100
AcDbEntity
  8
GR1-1
  6
CONTINUOUS
 62
     7
100
AcDbLine
 10
224.692453
 20
88.542864
 30
0.0
 11
224.568122
 21
87.626784
 31
0.0
  0
LINE
  5
1DB
330
1CE
100
AcDbEntity
  8
GR1-1
  6
CONTINUOUS
 62
     7
100
AcDbLine
 10
224.462017
 20
86.845
 30
0.0
 11
224.440154
 21
86.683907
 31
0.0
  0
LINE
  5
1DC
330
1CE
100
AcDbEntity
  8
GR1-1
  6
CONTINUOUS
 62
     7
100
AcDbLine
 10
224.843258
 20
88.657626
 30
0.0
 11
224.704209
 21
87.633111
 31
0.0
  0
LINE
  5
1DD
330
1CE
100
AcDbEntity
  8
GR1-1
  6
CONTINUOUS
 62
     7
100
AcDbLine
 10
224.576779
 20
86.694196
 30
0.0
 11
224.554915
 21
86.533103
 31
0.0
  0
LINE
  5
1DE
330
1CE
100
AcDbEntity
  8
GR1-1
  6
CONTINUOUS
 62
     7
100
AcDbLine
 10
224.994062
 20
88.772387
 30
0.0
 11
224.81897
 21
87.482307
 31
0.0
  0
LINE
  5
1DF
330
1CE
100
AcDbEntity
  8
GR1-1
  6
CONTINUOUS
 62
     7
100
AcDbLine
 10
224.69154
 20
86.543392
 30
0.0
 11
224.669676
 21
86.382299
 31
0.0
  0
LINE
  5
1E0
330
1CE
100
AcDbEntity
  8
GR1-1
  6
CONTINUOUS
 62
     7
100
AcDbLine
 10
225.144866
 20
88.887148
 30
0.0
 11
224.933732
 21
87.331503
 31
0.0
  0
LINE
  5
1E1
330
1CE
100
AcDbEntity
  8
GR1-1
  6
CONTINUOUS
 62
     7
100
AcDbLine
 10
224.806301
 20
86.392588
 30
0.0
 11
224.784437
 21
86.231495
 31
0.0
  0
LINE
  5
1E2
330
1CE
100
AcDbEntity
  8
GR1-1
  6
CONTINUOUS
 62
     7
100
AcDbLine
 10
225.29567
 20
89.001909
 30
0.0
 11
225.059023
 21
87.258288
 31
0.0
  0
LINE
  5
1E3
330
1CE
100
AcDbEntity
  8
GR1-1
  6
CONTINUOUS
 62
     7
100
AcDbLine
 10
224.921062
 20
86.241784
 30
0.0
 11
224.899199
 21
86.080691
 31
0.0
  0
LINE
  5
1E4
330
1CE
100
AcDbEntity
  8
GR1-1
  6
CONTINUOUS
 62
     7
100
AcDbLine
 10
225.446474
 20
89.11667
 30
0.0
 11
225.410431
 21
88.851105
 31
0.0
  0
LINE
  5
1E5
330
1CE
100
AcDbEntity
  8
GR1-1
  6
CONTINUOUS
 62
     7
100
AcDbLine
 10
225.064182
 20
86.299925
 30
0.0
 11
225.01396
 21
85.929887
 31
0.0
  0
LINE
  5
1E6
330
1CE
100
AcDbEntity
  8
GR1-1
  6
CONTINUOUS
 62
     7
100
AcDbLine
 10
225.597278
 20
89.231432
 30
0.0
 11
225.543214
 21
88.833084
 31
0.0
  0
LINE
  5
1E7
330
1CE
100
AcDbEntity
  8
GR1-1
  6
CONTINUOUS
 62
     7
100
AcDbLine
 10
225.214986
 20
86.414687
 30
0.0
 11
225.128721
 21
85.779083
 31
0.0
  0
LINE
  5
1E8
330
1CE
100
AcDbEntity
  8
GR1-1
  6
CONTINUOUS
 62
     7
100
AcDbLine
 10
225.748082
 20
89.346193
 30
0.0
 11
225.675996
 21
88.815062
 31
0.0
  0
LINE
  5
1E9
330
1CE
100
AcDbEntity
  8
GR1-1
  6
CONTINUOUS
 62
     7
100
AcDbLine
 10
225.36579
 20
86.529448
 30
0.0
 11
225.327561
 21
86.247773
 31
0.0
  0
LINE
  5
1EA
330
1CE
100
AcDbEntity
  8
GR1-1
  6
CONTINUOUS
 62
     7
100
AcDbLine
 10
225.315568
 20
86.15941
 30
0.0
 11
225.243482
 21
85.628279
 31
0.0
  0
LINE
  5
1EB
330
1CE
100
AcDbEntity
  8
GR1-1
  6
CONTINUOUS
 62
     7
100
AcDbLine
 10
225.898886
 20
89.460954
 30
0.0
 11
225.808779
 21
88.797041
 31
0.0
  0
LINE
  5
1EC
330
1CE
100
AcDbEntity
  8
GR1-1
  6
CONTINUOUS
 62
     7
100
AcDbLine
 10
225.516594
 20
86.644209
 30
0.0
 11
225.478365
 21
86.362535
 31
0.0
  0
LINE
  5
1ED
330
1CE
100
AcDbEntity
  8
GR1-1
  6
CONTINUOUS
 62
     7
100
AcDbLine
 10
225.448351
 20
86.141388
 30
0.0
 11
225.358243
 21
85.477475
 31
0.0
  0
LINE
  5
1EE
330
1CE
100
AcDbEntity
  8
GR1-1
  6
CONTINUOUS
 62
     7
100
AcDbLine
 10
226.04969
 20
89.575715
 30
0.0
 11
225.941561
 21
88.77902
 31
0.0
  0
LINE
  5
1EF
330
1CE
100
AcDbEntity
  8
GR1-1
  6
CONTINUOUS
 62
     7
100
AcDbLine
 10
225.667398
 20
86.75897
 30
0.0
 11
225.629169
 21
86.477296
 31
0.0
  0
LINE
  5
1F0
330
1CE
100
AcDbEntity
  8
GR1-1
  6
CONTINUOUS
 62
     7
100
AcDbLine
 10
225.581133
 20
86.123367
 30
0.0
 11
225.473005
 21
85.326671
 31
0.0
  0
LINE
  5
1F1
330
1CE
100
AcDbEntity
  8
GR1-1
  6
CONTINUOUS
 62
     7
100
AcDbLine
 10
226.200494
 20
89.690477
 30
0.0
 11
226.074344
 21
88.760998
 31
0.0
  0
LINE
  5
1F2
330
1CE
100
AcDbEntity
  8
GR1-1
  6
CONTINUOUS
 62
     7
100
AcDbLine
 10
225.984237
 20
88.097085
 30
0.0
 11
225.882111
 21
87.344615
 31
0.0
  0
LINE
  5
1F3
330
1CE
100
AcDbEntity
  8
GR1-1
  6
CONTINUOUS
 62
     7
100
AcDbLine
 10
225.818202
 20
86.873732
 30
0.0
 11
225.779973
 21
86.592057
 31
0.0
  0
LINE
  5
1F4
330
1CE
100
AcDbEntity
  8
GR1-1
  6
CONTINUOUS
 62
     7
100
AcDbLine
 10
225.713916
 20
86.105345
 30
0.0
 11
225.587766
 21
85.175867
 31
0.0
  0
LINE
  5
1F5
330
1CE
100
AcDbEntity
  8
GR1-1
  6
CONTINUOUS
 62
     7
100
AcDbLine
 10
226.351298
 20
89.805238
 30
0.0
 11
226.207127
 21
88.742977
 31
0.0
  0
LINE
  5
1F6
330
1CE
100
AcDbEntity
  8
GR1-1
  6
CONTINUOUS
 62
     7
100
AcDbLine
 10
226.11702
 20
88.079064
 30
0.0
 11
226.032721
 21
87.45795
 31
0.0
  0
LINE
  5
1F7
330
1CE
100
AcDbEntity
  8
GR1-1
  6
CONTINUOUS
 62
     7
100
AcDbLine
 10
225.969006
 20
86.988493
 30
0.0
 11
225.930777
 21
86.706818
 31
0.0
  0
LINE
  5
1F8
330
1CE
100
AcDbEntity
  8
GR1-1
  6
CONTINUOUS
 62
     7
100
AcDbLine
 10
225.846698
 20
86.087324
 30
0.0
 11
225.702527
 21
85.025063
 31
0.0
  0
LINE
  5
1F9
330
1CE
100
AcDbEntity
  8
GR1-1
  6
CONTINUOUS
 62
     7
100
AcDbLine
 10
226.502102
 20
89.919999
 30
0.0
 11
226.339909
 21
88.724955
 31
0.0
  0
LINE
  5
1FA
330
1CE
100
AcDbEntity
  8
GR1-1
  6
CONTINUOUS
 62
     7
100
AcDbLine
 10
226.249802
 20
88.061042
 30
0.0
 11
226.183525
 21
87.572711
 31
0.0
  0
LINE
  5
1FB
330
1CE
100
AcDbEntity
  8
GR1-1
  6
CONTINUOUS
 62
     7
100
AcDbLine
 10
226.11981
 20
87.103254
 30
0.0
 11
226.069588
 21
86.733216
 31
0.0
  0
LINE
  5
1FC
330
1CE
100
AcDbEntity
  8
GR1-1
  6
CONTINUOUS
 62
     7
100
AcDbLine
 10
225.979481
 20
86.069303
 30
0.0
 11
225.817288
 21
84.874259
 31
0.0
  0
LINE
  5
1FD
330
1CE
100
AcDbEntity
  8
GR1-1
  6
CONTINUOUS
 62
     7
100
AcDbLine
 10
226.652906
 20
90.03476
 30
0.0
 11
226.472692
 21
88.706934
 31
0.0
  0
LINE
  5
1FE
330
1CE
100
AcDbEntity
  8
GR1-1
  6
CONTINUOUS
 62
     7
100
AcDbLine
 10
226.382585
 20
88.043021
 30
0.0
 11
226.314342
 21
87.5402
 31
0.0
  0
LINE
  5
1FF
330
1CE
100
AcDbEntity
  8
GR1-1
  6
CONTINUOUS
 62
     7
100
AcDbLine
 10
226.270614
 20
87.218015
 30
0.0
 11
226.202371
 21
86.715194
 31
0.0
  0
LINE
  5
200
330
1CE
100
AcDbEntity
  8
GR1-1
  6
CONTINUOUS
 62
     7
100
AcDbLine
 10
226.112264
 20
86.051281
 30
0.0
 11
225.93205
 21
84.723455
 31
0.0
  0
LINE
  5
201
330
1CE
100
AcDbEntity
  8
GR1-1
  6
CONTINUOUS
 62
     7
100
AcDbLine
 10
226.80371
 20
90.149521
 30
0.0
 11
226.605475
 21
88.688912
 31
0.0
  0
LINE
  5
202
330
1CE
100
AcDbEntity
  8
GR1-1
  6
CONTINUOUS
 62
     7
100
AcDbLine
 10
226.515368
 20
88.024999
 30
0.0
 11
226.429103
 21
87.389396
 31
0.0
  0
LINE
  5
203
330
1CE
100
AcDbEntity
  8
GR1-1
  6
CONTINUOUS
 62
     7
100
AcDbLine
 10
226.421418
 20
87.332776
 30
0.0
 11
226.335153
 21
86.697173
 31
0.0
  0
LINE
  5
204
330
1CE
100
AcDbEntity
  8
GR1-1
  6
CONTINUOUS
 62
     7
100
AcDbLine
 10
226.245046
 20
86.03326
 30
0.0
 11
226.046811
 21
84.572651
 31
0.0
  0
LINE
  5
205
330
1CE
100
AcDbEntity
  8
GR1-1
  6
CONTINUOUS
 62
     7
100
AcDbLine
 10
226.926156
 20
90.055337
 30
0.0
 11
226.738257
 21
88.670891
 31
0.0
  0
LINE
  5
206
330
1CE
100
AcDbEntity
  8
GR1-1
  6
CONTINUOUS
 62
     7
100
AcDbLine
 10
226.64815
 20
88.006978
 30
0.0
 11
226.467936
 21
86.679152
 31
0.0
  0
LINE
  5
207
330
1CE
100
AcDbEntity
  8
GR1-1
  6
CONTINUOUS
 62
     7
100
AcDbLine
 10
226.377829
 20
86.015238
 30
0.0
 11
226.18993
 21
84.630793
 31
0.0
  0
LINE
  5
208
330
1CE
100
AcDbEntity
  8
GR1-1
  6
CONTINUOUS
 62
     7
100
AcDbLine
 10
227.040917
 20
89.904533
 30
0.0
 11
226.87104
 21
88.65287
 31
0.0
  0
LINE
  5
209
330
1CE
100
AcDbEntity
  8
GR1-1
  6
CONTINUOUS
 62
     7
100
AcDbLine
 10
226.780933
 20
87.988956
 30
0.0
 11
226.600719
 21
86.66113
 31
0.0
  0
LINE
  5
20A
330
1CE
100
AcDbEntity
  8
GR1-1
  6
CONTINUOUS
 62
     7
100
AcDbLine
 10
226.510612
 20
85.997217
 30
0.0
 11
226.340734
 21
84.745554
 31
0.0
  0
LINE
  5
20B
330
1CE
100
AcDbEntity
  8
GR1-1
  6
CONTINUOUS
 62
     7
100
AcDbLine
 10
227.155678
 20
89.753729
 30
0.0
 11
227.003823
 21
88.634848
 31
0.0
  0
LINE
  5
20C
330
1CE
100
AcDbEntity
  8
GR1-1
  6
CONTINUOUS
 62
     7
100
AcDbLine
 10
226.913715
 20
87.970935
 30
0.0
 11
226.733501
 21
86.643109
 31
0.0
  0
LINE
  5
20D
330
1CE
100
AcDbEntity
  8
GR1-1
  6
CONTINUOUS
 62
     7
100
AcDbLine
 10
226.643394
 20
85.979196
 30
0.0
 11
226.491538
 21
84.860315
 31
0.0
  0
LINE
  5
20E
330
1CE
100
AcDbEntity
  8
GR1-1
  6
CONTINUOUS
 62
     7
100
AcDbLine
 10
227.27044
 20
89.602925
 30
0.0
 11
227.136605
 21
88.616827
 31
0.0
  0
LINE
  5
20F
330
1CE
100
AcDbEntity
  8
GR1-1
  6
CONTINUOUS
 62
     7
100
AcDbLine
 10
227.046498
 20
87.952914
 30
0.0
 11
226.866284
 21
86.625087
 31
0.0
  0
LINE
  5
210
330
1CE
100
AcDbEntity
  8
GR1-1
  6
CONTINUOUS
 62
     7
100
AcDbLine
 10
226.776177
 20
85.961174
 30
0.0
 11
226.642343
 21
84.975076
 31
0.0
  0
LINE
  5
211
330
1CE
100
AcDbEntity
  8
GR1-1
  6
CONTINUOUS
 62
     7
100
AcDbLine
 10
227.385201
 20
89.452121
 30
0.0
 11
227.269388
 21
88.598805
 31
0.0
  0
LINE
  5
212
330
1CE
100
AcDbEntity
  8
GR1-1
  6
CONTINUOUS
 62
     7
100
AcDbLine
 10
227.179281
 20
87.934892
 30
0.0
 11
226.999067
 21
86.607066
 31
0.0
  0
LINE
  5
213
330
1CE
100
AcDbEntity
  8
GR1-1
  6
CONTINUOUS
 62
     7
100
AcDbLine
 10
226.90896
 20
85.943153
 30
0.0
 11
226.793147
 21
85.089837
 31
0.0
  0
LINE
  5
214
330
1CE
100
AcDbEntity
  8
GR1-1
  6
CONTINUOUS
 62
     7
100
AcDbLine
 10
227.499962
 20
89.301317
 30
0.0
 11
227.40217
 21
88.580784
 31
0.0
  0
LINE
  5
215
330
1CE
100
AcDbEntity
  8
GR1-1
  6
CONTINUOUS
 62
     7
100
AcDbLine
 10
227.041742
 20
85.925131
 30
0.0
 11
226.943951
 21
85.204599
 31
0.0
  0
LINE
  5
216
330
1CE
100
AcDbEntity
  8
GR1-1
  6
CONTINUOUS
 62
     7
100
AcDbLine
 10
227.614723
 20
89.150513
 30
0.0
 11
227.534953
 21
88.562763
 31
0.0
  0
LINE
  5
217
330
1CE
100
AcDbEntity
  8
GR1-1
  6
CONTINUOUS
 62
     7
100
AcDbLine
 10
227.174525
 20
85.90711
 30
0.0
 11
227.094755
 21
85.31936
 31
0.0
  0
LINE
  5
218
330
1CE
100
AcDbEntity
  8
GR1-1
  6
CONTINUOUS
 62
     7
100
AcDbLine
 10
227.729484
 20
88.999709
 30
0.0
 11
227.667736
 21
88.544741
 31
0.0
  0
LINE
  5
219
330
1CE
100
AcDbEntity
  8
GR1-1
  6
CONTINUOUS
 62
     7
100
AcDbLine
 10
227.307307
 20
85.889088
 30
0.0
 11
227.245559
 21
85.434121
 31
0.0
  0
LINE
  5
21A
330
1CE
100
AcDbEntity
  8
GR1-1
  6
CONTINUOUS
 62
     7
100
AcDbLine
 10
227.844246
 20
88.848904
 30
0.0
 11
227.800518
 21
88.52672
 31
0.0
  0
LINE
  5
21B
330
1CE
100
AcDbEntity
  8
GR1-1
  6
CONTINUOUS
 62
     7
100
AcDbLine
 10
227.44009
 20
85.871067
 30
0.0
 11
227.396363
 21
85.548882
 31
0.0
  0
LINE
  5
21C
330
1CE
100
AcDbEntity
  8
GR1-1
  6
CONTINUOUS
 62
     7
100
AcDbLine
 10
227.959007
 20
88.6981
 30
0.0
 11
227.933301
 21
88.508698
 31
0.0
  0
LINE
  5
21D
330
1CE
100
AcDbEntity
  8
GR1-1
  6
CONTINUOUS
 62
     7
100
AcDbLine
 10
227.572873
 20
85.853046
 30
0.0
 11
227.547167
 21
85.663644
 31
0.0
  0
LINE
  5
21E
330
1CE
100
AcDbEntity
  8
GR1-1
  6
CONTINUOUS
 62
     7
100
AcDbLine
 10
228.073768
 20
88.547296
 30
0.0
 11
227.697971
 21
85.778405
 31
0.0
  0
LINE
  5
21F
330
1CE
100
AcDbEntity
  8
GR1-1
  6
CONTINUOUS
 62
     7
100
AcDbLine
 10
228.188529
 20
88.396492
 30
0.0
 11
227.848775
 21
85.893166
 31
0.0
  0
LINE
  5
220
330
1CE
100
AcDbEntity
  8
GR1-1
  6
CONTINUOUS
 62
     7
100
AcDbLine
 10
228.303291
 20
88.245688
 30
0.0
 11
227.999579
 21
86.007927
 31
0.0
  0
LINE
  5
221
330
1CE
100
AcDbEntity
  8
GR1-1
  6
CONTINUOUS
 62
     7
100
AcDbLine
 10
228.418052
 20
88.094884
 30
0.0
 11
228.150383
 21
86.122688
 31
0.0
  0
LINE
  5
222
330
1CE
100
AcDbEntity
  8
GR1-1
  6
CONTINUOUS
 62
     7
100
AcDbLine
 10
228.532813
 20
87.94408
 30
0.0
 11
228.301187
 21
86.23745
 31
0.0
  0
LINE
  5
223
330
1CE
100
AcDbEntity
  8
GR1-1
  6
CONTINUOUS
 62
     7
100
AcDbLine
 10
228.647574
 20
87.793276
 30
0.0
 11
228.451991
 21
86.352211
 31
0.0
  0
LINE
  5
224
330
1CE
100
AcDbEntity
  8
GR1-1
  6
CONTINUOUS
 62
     7
100
AcDbLine
 10
228.762335
 20
87.642472
 30
0.0
 11
228.602795
 21
86.466972
 31
0.0
  0
LINE
  5
225
330
1CE
100
AcDbEntity
  8
GR1-1
  6
CONTINUOUS
 62
     7
100
AcDbLine
 10
228.877097
 20
87.491668
 30
0.0
 11
228.753599
 21
86.581733
 31
0.0
  0
LINE
  5
226
330
1CE
100
AcDbEntity
  8
GR1-1
  6
CONTINUOUS
 62
     7
100
AcDbLine
 10
228.991858
 20
87.340864
 30
0.0
 11
228.904403
 21
86.696495
 31
0.0
  0
LINE
  5
227
330
1CE
100
AcDbEntity
  8
GR1-1
  6
CONTINUOUS
 62
     7
100
AcDbLine
 10
229.106619
 20
87.19006
 30
0.0
 11
229.055207
 21
86.811256
 31
0.0
  0
LINE
  5
228
330
1CE
100
AcDbEntity
  8
GR1-1
  6
CONTINUOUS
 62
     7
100
AcDbLine
 10
229.22138
 20
87.039256
 30
0.0
 11
229.206011
 21
86.926017
 31
0.0
  0
ENDBLK
  5
1D0
330
1CE
100
AcDbEntity
  8
0
100
AcDbBlockEnd
  0
BLOCK
  5
22A
330
229
100
AcDbEntity
  8
0
100
AcDbBlockBegin
  2
BLKF033
 70
     0
 71
     0
 10
0.0
 20
0.0
 30
0.0
  3
BLKF033
  1

  0
TEXT
  5
22D
330
229
100
AcDbEntity
  8
GR1-1
  6
CONTINUOUS
 62
     7
100
AcDbText
 10
206.923176
 20
101.186005
 30
0.0
 40
3.9
  1
×
 50
67.963326
 41
1.4
  7
FX_VECTOR
 72
     5
 11
208.386456
 21
104.801086
 31
0.0
100
AcDbText
  0
TEXT
  5
22E
330
229
100
AcDbEntity
  8
GR1-1
  6
CONTINUOUS
 62
     7
100
AcDbText
 10
206.548623
 20
98.19252
 30
0.0
 40
3.9
  1
0
 50
82.910057
 41
1.235294
  7
FX_VECTOR
 72
     5
 11
207.02999
 21
102.062699
 31
0.0
100
AcDbText
  0
TEXT
  5
22F
330
229
100
AcDbEntity
  8
GR1-1
  6
CONTINUOUS
 62
     7
100
AcDbText
 10
206.958805
 20
95.203688
 30
0.0
 40
3.9
  1
5
 50
97.856773
 41
1.235294
  7
FX_VECTOR
 72
     5
 11
206.425686
 21
99.067079
 31
0.0
100
AcDbText
  0
TEXT
  5
230
330
229
100
AcDbEntity
  8
GR1-1
  6
CONTINUOUS
 62
     7
100
AcDbText
 10
208.057121
 20
103.981666
 30
0.0
 40
3.9
  1
2
 50
53.016594
 41
1.235294
  7
FX_VECTOR
 72
     5
 11
210.403298
 21
107.097024
 31
0.0
100
AcDbText
  0
TEXT
  5
231
330
229
100
AcDbEntity
  8
GR1-1
  6
CONTINUOUS
 62
     7
100
AcDbText
 10
209.873765
 20
106.390208
 30
0.0
 40
3.9
  1
0
 50
38.069878
 41
1.235294
  7
FX_VECTOR
 72
     5
 11
212.944076
 21
108.795034
 31
0.0
100
AcDbText
  0
ENDBLK
  5
22B
330
229
100
AcDbEntity
  8
0
100
AcDbBlockEnd
  0
BLOCK
  5
245
330
244
100
AcDbEntity
  8
0
100
AcDbBlockBegin
  2
*D32
 70
     1
 71
     0
 10
0.0
 20
0.0
 30
0.0
  3
*D32
  1

  0
TEXT
  5
247
330
244
100
AcDbEntity
  8
GR1-1
  6
CONTINUOUS
 62
     7
100
AcDbText
 10
113.936844
 20
44.703514
 30
0.0
 40
4.0
  1
23
 41
0.851351
  7
FX_VECTOR
 72
     5
 11
119.936844
 21
44.703514
 31
0.0
100
AcDbText
  0
LINE
  5
248
330
244
100
AcDbEntity
  8
GR1-1
  6
CONTINUOUS
 62
     7
100
AcDbLine
 10
105.436844
 20
43.703531
 30
0.0
 11
128.436844
 21
43.703531
 31
0.0
  0
INSERT
  5
249
330
244
100
AcDbEntity
  8
GR1-1
  6
CONTINUOUS
 62
     7
100
AcDbBlockReference
  2
FXTIP_ARROW_S
 10
105.436844
 20
43.703531
 30
0.0
 41
4.0
 42
4.0
 50
180.0
  0
INSERT
  5
24A
330
244
100
AcDbEntity
  8
GR1-1
  6
CONTINUOUS
 62
     7
100
AcDbBlockReference
  2
FXTIP_ARROW_E
 10
128.436844
 20
43.703531
 30
0.0
 41
4.0
 42
4.0
 50
360.0
  0
LINE
  5
24B
330
244
100
AcDbEntity
  8
GR1-1
  6
CONTINUOUS
 62
     7
100
AcDbLine
 10
105.436844
 20
91.100731
 30
0.0
 11
105.436844
 21
42.703531
 31
0.0
  0
LINE
  5
24C
330
244
100
AcDbEntity
  8
GR1-1
  6
CONTINUOUS
 62
     7
100
AcDbLine
 10
128.436844
 20
91.100731
 30
0.0
 11
128.436844
 21
42.703531
 31
0.0
  0
ENDBLK
  5
246
330
244
100
AcDbEntity
  8
0
100
AcDbBlockEnd
  0
BLOCK
  5
24F
330
24E
100
AcDbEntity
  8
0
100
AcDbBlockBegin
  2
*D33
 70
     1
 71
     0
 10
0.0
 20
0.0
 30
0.0
  3
*D33
  1

  0
TEXT
  5
251
330
24E
100
AcDbEntity
  8
GR1-1
  6
CONTINUOUS
 62
     7
100
AcDbText
 10
113.936844
 20
54.703514
 30
0.0
 40
4.0
  1
20
 41
0.851351
  7
FX_VECTOR
 72
     5
 11
119.936844
 21
54.703514
 31
0.0
100
AcDbText
  0
LINE
  5
252
330
24E
100
AcDbEntity
  8
GR1-1
  6
CONTINUOUS
 62
     7
100
AcDbLine
 10
106.936844
 20
53.703531
 30
0.0
 11
126.936844
 21
53.703531
 31
0.0
  0
INSERT
  5
253
330
24E
100
AcDbEntity
  8
GR1-1
  6
CONTINUOUS
 62
     7
100
AcDbBlockReference
  2
FXTIP_ARROW_S
 10
106.936844
 20
53.703531
 30
0.0
 41
4.0
 42
4.0
 50
180.0
  0
INSERT
  5
254
330
24E
100
AcDbEntity
  8
GR1-1
  6
CONTINUOUS
 62
     7
100
AcDbBlockReference
  2
FXTIP_ARROW_E
 10
126.936844
 20
53.703531
 30
0.0
 41
4.0
 42
4.0
 50
360.0
  0
LINE
  5
255
330
24E
100
AcDbEntity
  8
GR1-1
  6
CONTINUOUS
 62
     7
100
AcDbLine
 10
106.936844
 20
73.451909
 30
0.0
 11
106.936844
 21
52.703531
 31
0.0
  0
LINE
  5
256
330
24E
100
AcDbEntity
  8
GR1-1
  6
CONTINUOUS
 62
     7
100
AcDbLine
 10
126.936844
 20
73.452113
 30
0.0
 11
126.936844
 21
52.703531
 31
0.0
  0
ENDBLK
  5
250
330
24E
100
AcDbEntity
  8
0
100
AcDbBlockEnd
  0
BLOCK
  5
25D
330
25C
100
AcDbEntity
  8
0
100
AcDbBlockBegin
  2
*D34
 70
     1
 71
     0
 10
0.0
 20
0.0
 30
0.0
  3
*D34
  1

  0
TEXT
  5
25F
330
25C
100
AcDbEntity
  8
GR1-1
  6
CONTINUOUS
 62
     7
100
AcDbText
 10
155.671982
 20
93.76162
 30
0.0
 40
4.0
  1
φ50
 50
90.0
 41
0.859091
  7
FX_VECTOR
 72
     5
 11
155.671982
 21
102.76162
 31
0.0
100
AcDbText
  0
LINE
  5
260
330
25C
100
AcDbEntity
  8
GR1-1
  6
CONTINUOUS
 62
     7
100
AcDbLine
 10
156.671992
 20
73.261632
 30
0.0
 11
156.671992
 21
123.261632
 31
0.0
  0
INSERT
  5
261
330
25C
100
AcDbEntity
  8
GR1-1
  6
CONTINUOUS
 62
     7
100
AcDbBlockReference
  2
FXTIP_ARROW_S
 10
156.671992
 20
73.261632
 30
0.0
 41
4.0
 42
4.0
 50
270.0
  0
INSERT
  5
262
330
25C
100
AcDbEntity
  8
GR1-1
  6
CONTINUOUS
 62
     7
100
AcDbBlockReference
  2
FXTIP_ARROW_E
 10
156.671992
 20
123.261632
 30
0.0
 41
4.0
 42
4.0
 50
90.0
  0
LINE
  5
263
330
25C
100
AcDbEntity
  8
GR1-1
  6
CONTINUOUS
 62
     7
100
AcDbLine
 10
117.936844
 20
73.261632
 30
0.0
 11
157.671992
 21
73.261632
 31
0.0
  0
LINE
  5
264
330
25C
100
AcDbEntity
  8
GR1-1
  6
CONTINUOUS
 62
     7
100
AcDbLine
 10
117.936844
 20
123.261632
 30
0.0
 11
157.671992
 21
123.261632
 31
0.0
  0
ENDBLK
  5
25E
330
25C
100
AcDbEntity
  8
0
100
AcDbBlockEnd
  0
ENDSEC
  0
SECTION
  2
ENTITIES
  0
TEXT
  5
A8
330
1F
100
AcDbEntity
  8
}}ﾊﾊGG血CCТ
  6
CONTINUOUS
 62
     7
100
AcDbText
 10
155.0
 20
12.0
 30
0.0
 40
6.0
  1
ＥＪ－　５０　Ｕ
 41
0.794326
  7
FX_VECTOR
 72
     5
 11
187.0
 21
12.0
 31
0.0
100
AcDbText
  0
TEXT
  5
A9
330
1F
100
AcDbEntity
  8
}}ﾊﾊGG血CCТ
  6
CONTINUOUS
 62
     7
100
AcDbText
 10
255.0
 20
12.0
 30
0.0
 40
6.0
  1
E20A0LAA-C01
 41
0.736842
  7
FX_VECTOR
 72
     5
 11
303.0
 21
12.0
 31
0.0
100
AcDbText
  0
INSERT
  5
AD
330
1F
100
AcDbEntity
  8
0
100
AcDbBlockReference
  2
BLKF021
 10
0.0
 20
0.0
 30
0.0
  0
LINE
  5
D9
330
1F
100
AcDbEntity
  8
GR1-1
  6
CONTINUOUS
 62
     3
100
AcDbLine
 10
257.945822
 20
124.732632
 30
0.0
 11
257.945822
 21
130.232632
 31
0.0
  0
ARC
  5
DA
330
1F
100
AcDbEntity
  8
GR1-1
  6
CONTINUOUS
 62
     3
100
AcDbCircle
 10
254.948499
 20
129.685866
 30
0.0
 40
3.046784742691989
100
AcDbArc
 50
10.338115
 51
89.798462
  0
LINE
  5
DB
330
1F
100
AcDbEntity
  8
GR1-1
  6
CONTINUOUS
 62
     3
100
AcDbLine
 10
212.843119
 20
126.378849
 30
0.0
 11
214.76019
 21
126.716881
 31
0.0
  0
ARC
  5
DC
330
1F
100
AcDbEntity
  8
GR1-1
  6
CONTINUOUS
 62
     3
100
AcDbCircle
 10
223.343145
 20
129.685866
 30
0.0
 40
3.046784742691989
100
AcDbArc
 50
90.201538
 51
169.661885
  0
LINE
  5
DD
330
1F
100
AcDbEntity
  8
GR1-1
  6
CONTINUOUS
 62
     3
100
AcDbLine
 10
220.345822
 20
130.232632
 30
0.0
 11
220.345822
 21
129.732632
 31
0.0
  0
LINE
  5
DE
330
1F
100
AcDbEntity
  8
GR1-1
  6
CONTINUOUS
 62
     3
100
AcDbLine
 10
225.734671
 20
130.682831
 30
0.0
 11
212.495822
 21
128.348465
 31
0.0
  0
LINE
  5
DF
330
1F
100
AcDbEntity
  8
GR1-1
  6
CONTINUOUS
 62
     3
100
AcDbLine
 10
212.495822
 20
128.348465
 30
0.0
 11
212.843119
 21
126.378849
 31
0.0
  0
LINE
  5
E0
330
1F
100
AcDbEntity
  8
GR1-1
  6
CENTER
 62
     6
100
AcDbLine
 10
116.936844
 20
70.602314
 30
0.0
 11
116.936844
 21
140.378078
 31
0.0
  0
LINE
  5
E1
330
1F
100
AcDbEntity
  8
GR1-1
  6
CENTER
 62
     6
100
AcDbLine
 10
239.145822
 20
139.904506
 30
0.0
 11
239.145822
 21
109.122632
 31
0.0
  0
DIMENSION
  5
E2
330
1F
100
AcDbEntity
  8
GR1-1
100
AcDbDimension
  2
*D22
 10
274.145822
 20
191.95005
 30
0.0
 11
239.145813
 21
192.950058
 31
0.0
 70
    33
  3
FXDIMINFO
100
AcDbAlignedDimension
 13
204.145822
 23
218.232632
 33
0.0
 14
274.145822
 24
218.232632
 34
0.0
1001
ACAD
1000
DSTYLE
1002
{
1070
     7
1000
FXTIP_ARROW_E
1070
     6
1000
FXTIP_ARROW_S
1070
   173
1070
     1
1002
}
  0
DIMENSION
  5
EC
330
1F
100
AcDbEntity
  8
GR1-1
100
AcDbDimension
  2
*D23
 10
267.145822
 20
201.95005
 30
0.0
 11
239.145813
 21
202.950058
 31
0.0
 70
    33
  3
FXDIMINFO
100
AcDbAlignedDimension
 13
211.145822
 23
213.232632
 33
0.0
 14
267.145822
 24
213.232632
 34
0.0
1001
ACAD
1000
DSTYLE
1002
{
1070
     7
1000
FXTIP_ARROW_E
1070
     6
1000
FXTIP_ARROW_S
1070
   173
1070
     1
1002
}
  0
DIMENSION
  5
F6
330
1F
100
AcDbEntity
  8
GR1-1
100
AcDbDimension
  2
*D24
 10
294.15153
 20
253.732632
 30
0.0
 11
293.15152
 21
232.732635
 31
0.0
 70
    32
  3
FXDIMINFO
100
AcDbAlignedDimension
 13
267.145822
 23
211.732632
 33
0.0
 14
267.645822
 24
253.732632
 34
0.0
 50
270.0
100
AcDbRotatedDimension
1001
ACAD
1000
DSTYLE
1002
{
1070
     7
1000
FXTIP_ARROW_E
1070
     6
1000
FXTIP_ARROW_S
1070
   173
1070
     1
1002
}
  0
DIMENSION
  5
100
330
1F
100
AcDbEntity
  8
GR1-1
100
AcDbDimension
  2
*D25
 10
284.15153
 20
246.732632
 30
0.0
 11
283.15152
 21
232.732635
 31
0.0
 70
    33
  3
FXDIMINFO
100
AcDbAlignedDimension
 13
272.645822
 23
218.732632
 33
0.0
 14
272.645822
 24
246.732632
 34
0.0
1001
ACAD
1000
DSTYLE
1002
{
1070
     7
1000
FXTIP_ARROW_E
1070
     6
1000
FXTIP_ARROW_S
1070
   173
1070
     1
1002
}
  0
DIMENSION
  5
10A
330
1F
100
AcDbEntity
  8
GR1-1
100
AcDbDimension
  2
*D26
 10
213.832182
 20
244.903432
 30
0.0
 11
195.814453
 21
258.381897
 31
0.0
 70
   163
  3
FXDIMINFO
100
AcDbDiametricDimension
 15
208.459462
 25
248.561831
 35
0.0
 40
0.0
  0
ARC
  5
114
330
1F
100
AcDbEntity
  8
GR1-1
  6
CONTINUOUS
 62
     3
100
AcDbCircle
 10
210.645822
 20
247.232632
 30
0.0
 40
6.5
100
AcDbArc
 50
90.0
 51
199.564814
  0
CIRCLE
  5
115
330
1F
100
AcDbEntity
  8
GR1-1
  6
CONTINUOUS
 62
     3
100
AcDbCircle
 10
211.145822
 20
246.732632
 30
0.0
 40
3.25
  0
LINE
  5
116
330
1F
100
AcDbEntity
  8
GR1-1
  6
CONTINUOUS
 62
     3
100
AcDbLine
 10
210.645822
 20
253.732632
 30
0.0
 11
267.645822
 21
253.732632
 31
0.0
  0
CIRCLE
  5
117
330
1F
100
AcDbEntity
  8
GR1-1
  6
CONTINUOUS
 62
     3
100
AcDbCircle
 10
267.145822
 20
246.732632
 30
0.0
 40
3.25
  0
ARC
  5
118
330
1F
100
AcDbEntity
  8
GR1-1
  6
CONTINUOUS
 62
     3
100
AcDbCircle
 10
267.645822
 20
247.232632
 30
0.0
 40
6.5
100
AcDbArc
 50
-19.564814
 51
90.0
  0
ARC
  5
119
330
1F
100
AcDbEntity
  8
GR1-1
  6
CONTINUOUS
 62
     3
100
AcDbCircle
 10
308.445822
 20
232.732632
 30
0.0
 40
36.8
100
AcDbArc
 50
160.435186
 51
199.564814
  0
CIRCLE
  5
11A
330
1F
100
AcDbEntity
  8
GR1-1
  6
CONTINUOUS
 62
     3
100
AcDbCircle
 10
267.145822
 20
218.732632
 30
0.0
 40
3.25
  0
LINE
  5
11B
330
1F
100
AcDbEntity
  8
GR1-1
  6
CONTINUOUS
 62
     3
100
AcDbLine
 10
267.645822
 20
211.732632
 30
0.0
 11
210.645822
 21
211.732632
 31
0.0
  0
CIRCLE
  5
11C
330
1F
100
AcDbEntity
  8
GR1-1
  6
CONTINUOUS
 62
     3
100
AcDbCircle
 10
211.145822
 20
218.732632
 30
0.0
 40
3.25
  0
ARC
  5
11D
330
1F
100
AcDbEntity
  8
GR1-1
  6
CONTINUOUS
 62
     3
100
AcDbCircle
 10
210.645822
 20
218.232632
 30
0.0
 40
6.5
100
AcDbArc
 50
160.435186
 51
270.0
  0
ARC
  5
11E
330
1F
100
AcDbEntity
  8
GR1-1
  6
CONTINUOUS
 62
     3
100
AcDbCircle
 10
169.845822
 20
232.732632
 30
0.0
 40
36.8
100
AcDbArc
 50
-19.564814
 51
19.564814
  0
ARC
  5
11F
330
1F
100
AcDbEntity
  8
GR1-1
  6
CONTINUOUS
 62
     3
100
AcDbCircle
 10
267.645822
 20
218.232632
 30
0.0
 40
6.5
100
AcDbArc
 50
-90.0
 51
19.564814
  0
LINE
  5
120
330
1F
100
AcDbEntity
  8
GR1-1
  6
CENTER
 62
     6
100
AcDbLine
 10
239.145822
 20
209.576529
 30
0.0
 11
239.145822
 21
256.326081
 31
0.0
  0
LINE
  5
121
330
1F
100
AcDbEntity
  8
GR1-1
  6
CENTER
 62
     6
100
AcDbLine
 10
189.251847
 20
232.732632
 30
0.0
 11
274.354393
 21
232.732632
 31
0.0
  0
CIRCLE
  5
122
330
1F
100
AcDbEntity
  8
GR1-1
  6
CONTINUOUS
 62
     6
100
AcDbCircle
 10
239.145822
 20
232.732632
 30
0.0
 40
17.34999999999999
  0
CIRCLE
  5
123
330
1F
100
AcDbEntity
  8
GR1-1
  6
CONTINUOUS
 62
     6
100
AcDbCircle
 10
239.145822
 20
232.732632
 30
0.0
 40
15.95
  0
CIRCLE
  5
124
330
1F
100
AcDbEntity
  8
GR1-1
  6
CONTINUOUS
 62
     6
100
AcDbCircle
 10
239.145822
 20
232.732632
 30
0.0
 40
13.60000000000001
  0
CIRCLE
  5
125
330
1F
100
AcDbEntity
  8
GR1-1
  6
CONTINUOUS
 62
     6
100
AcDbCircle
 10
239.145822
 20
232.732632
 30
0.0
 40
12.20000000000002
  0
CIRCLE
  5
126
330
1F
100
AcDbEntity
  8
GR1-1
  6
CONTINUOUS
 62
     6
100
AcDbCircle
 10
239.145822
 20
232.732632
 30
0.0
 40
8.40000000000002
  0
LINE
  5
127
330
1F
100
AcDbEntity
  8
GR1-1
  6
CENTER
 62
     6
100
AcDbLine
 10
262.91248
 20
246.732632
 30
0.0
 11
271.759543
 21
246.732632
 31
0.0
  0
LINE
  5
128
330
1F
100
AcDbEntity
  8
GR1-1
  6
CENTER
 62
     6
100
AcDbLine
 10
267.145822
 20
250.962576
 30
0.0
 11
267.145822
 21
242.744348
 31
0.0
  0
CIRCLE
  5
129
330
1F
100
AcDbEntity
  8
GR1-1
  6
CONTINUOUS
 62
     3
100
AcDbCircle
 10
239.145822
 20
232.732632
 30
0.0
 40
5.399999999999977
  0
CIRCLE
  5
12A
330
1F
100
AcDbEntity
  8
GR1-1
  6
CONTINUOUS
 62
     6
100
AcDbCircle
 10
239.145822
 20
232.732632
 30
0.0
 40
4.400000000000006
  0
LINE
  5
12B
330
1F
100
AcDbEntity
  8
GR1-1
  6
CONTINUOUS
 62
     3
100
AcDbLine
 10
204.145822
 20
138.261632
 30
0.0
 11
274.145822
 21
138.261632
 31
0.0
  0
LINE
  5
12C
330
1F
100
AcDbEntity
  8
GR1-1
  6
CONTINUOUS
 62
     3
100
AcDbLine
 10
204.145822
 20
138.261632
 30
0.0
 11
204.145822
 21
136.261632
 31
0.0
  0
LINE
  5
12D
330
1F
100
AcDbEntity
  8
GR1-1
  6
CONTINUOUS
 62
     3
100
AcDbLine
 10
204.145822
 20
136.261632
 30
0.0
 11
274.145822
 21
136.261632
 31
0.0
  0
ARC
  5
12E
330
1F
100
AcDbEntity
  8
GR1-1
  6
CONTINUOUS
 62
     3
100
AcDbCircle
 10
223.501665
 20
137.124412
 30
0.0
 40
4.0
100
AcDbArc
 50
192.456307
 51
227.889539
  0
ARC
  5
12F
330
1F
100
AcDbEntity
  8
GR1-1
  6
CONTINUOUS
 62
     3
100
AcDbCircle
 10
222.495822
 20
136.011632
 30
0.0
 40
2.5
100
AcDbArc
 50
227.889539
 51
270.0
  0
LINE
  5
130
330
1F
100
AcDbEntity
  8
GR1-1
  6
CONTINUOUS
 62
     3
100
AcDbLine
 10
222.495822
 20
133.511632
 30
0.0
 11
255.795822
 21
133.511632
 31
0.0
  0
LINE
  5
131
330
1F
100
AcDbEntity
  8
GR1-1
  6
CONTINUOUS
 62
     3
100
AcDbLine
 10
137.936844
 20
138.261632
 30
0.0
 11
95.936844
 21
138.261632
 31
0.0
  0
LINE
  5
132
330
1F
100
AcDbEntity
  8
GR1-1
  6
CONTINUOUS
 62
     3
100
AcDbLine
 10
95.936844
 20
138.261632
 30
0.0
 11
95.936844
 21
136.261632
 31
0.0
  0
LINE
  5
133
330
1F
100
AcDbEntity
  8
GR1-1
  6
CONTINUOUS
 62
     3
100
AcDbLine
 10
95.936844
 20
136.261632
 30
0.0
 11
137.936844
 21
136.261632
 31
0.0
  0
LINE
  5
134
330
1F
100
AcDbEntity
  8
GR1-1
  6
CONTINUOUS
 62
     3
100
AcDbLine
 10
137.936844
 20
136.261632
 30
0.0
 11
137.936844
 21
138.261632
 31
0.0
  0
ARC
  5
135
330
1F
100
AcDbEntity
  8
GR1-1
  6
CONTINUOUS
 62
     3
100
AcDbCircle
 10
132.581001
 20
137.124412
 30
0.0
 40
4.0
100
AcDbArc
 50
312.110461
 51
347.543693
  0
LINE
  5
136
330
1F
100
AcDbEntity
  8
GR1-1
  6
CONTINUOUS
 62
     3
100
AcDbLine
 10
133.586844
 20
133.511632
 30
0.0
 11
100.286844
 21
133.511632
 31
0.0
  0
ARC
  5
137
330
1F
100
AcDbEntity
  8
GR1-1
  6
CONTINUOUS
 62
     3
100
AcDbCircle
 10
133.586844
 20
136.011632
 30
0.0
 40
2.5
100
AcDbArc
 50
270.0
 51
312.110461
  0
ARC
  5
138
330
1F
100
AcDbEntity
  8
GR1-1
  6
CONTINUOUS
 62
     3
100
AcDbCircle
 10
100.286844
 20
136.011632
 30
0.0
 40
2.5
100
AcDbArc
 50
227.889539
 51
270.0
  0
ARC
  5
139
330
1F
100
AcDbEntity
  8
GR1-1
  6
CONTINUOUS
 62
     3
100
AcDbCircle
 10
101.292687
 20
137.124412
 30
0.0
 40
4.0
100
AcDbArc
 50
192.456307
 51
227.889539
  0
LINE
  5
13A
330
1F
100
AcDbEntity
  8
GR1-1
  6
CONTINUOUS
 62
     3
100
AcDbLine
 10
251.751319
 20
124.732632
 30
0.0
 11
257.945822
 21
124.732632
 31
0.0
  0
ARC
  5
13B
330
1F
100
AcDbEntity
  8
LAYERGROUP-1
  6
CONTINUOUS
 62
     3
100
AcDbCircle
 10
218.665758
 20
98.302632
 30
0.0
 40
7.0
100
AcDbArc
 50
173.7
 51
322.509333
  0
LINE
  5
13C
330
1F
100
AcDbEntity
  8
LAYERGROUP-1
  6
CONTINUOUS
 62
     3
100
AcDbLine
 10
211.708031
 20
99.070772
 30
0.0
 11
214.98885
 21
128.788053
 31
0.0
  0
LINE
  5
13D
330
1F
100
AcDbEntity
  8
LAYERGROUP-1
  6
CONTINUOUS
 62
     3
100
AcDbLine
 10
229.131965
 20
100.432632
 30
0.0
 11
224.219925
 21
94.042206
 31
0.0
  0
ARC
  5
13E
330
1F
100
AcDbEntity
  8
LAYERGROUP-1
  6
CONTINUOUS
 62
     3
100
AcDbCircle
 10
338.628219
 20
30.823761
 30
0.0
 40
129.7490830020363
100
AcDbArc
 50
137.349086
 51
147.555096
  0
ARC
  5
13F
330
1F
100
AcDbEntity
  8
LAYERGROUP-1
  6
CONTINUOUS
 62
     3
100
AcDbCircle
 10
251.751319
 20
116.732632
 30
0.0
 40
8.0
100
AcDbArc
 50
90.0
 51
142.4521
  0
LINE
  5
140
330
1F
100
AcDbEntity
  8
LAYERGROUP-1
  6
CONTINUOUS
 62
     3
100
AcDbLine
 10
245.408566
 20
121.608027
 30
0.0
 11
243.198376
 21
118.732632
 31
0.0
  0
LINE
  5
141
330
1F
100
AcDbEntity
  8
GR1-1
  6
CONTINUOUS
 62
     6
100
AcDbLine
 10
226.941315
 20
101.303953
 30
0.0
 11
226.941315
 21
129.232632
 31
0.0
  0
LINE
  5
142
330
1F
100
AcDbEntity
  8
GR1-1
  6
CONTINUOUS
 62
     3
100
AcDbLine
 10
102.636844
 20
91.302632
 30
0.0
 11
104.636844
 21
91.302632
 31
0.0
  0
LINE
  5
143
330
1F
100
AcDbEntity
  8
GR1-1
  6
CONTINUOUS
 62
     3
100
AcDbLine
 10
104.636844
 20
91.302632
 30
0.0
 11
104.636844
 21
125.878849
 31
0.0
  0
LINE
  5
144
330
1F
100
AcDbEntity
  8
GR1-1
  6
CONTINUOUS
 62
     3
100
AcDbLine
 10
105.136844
 20
126.378849
 30
0.0
 11
128.736844
 21
126.378849
 31
0.0
  0
LINE
  5
145
330
1F
100
AcDbEntity
  8
GR1-1
  6
CONTINUOUS
 62
     3
100
AcDbLine
 10
129.236844
 20
125.878849
 30
0.0
 11
129.236844
 21
91.302632
 31
0.0
  0
LINE
  5
146
330
1F
100
AcDbEntity
  8
GR1-1
  6
CONTINUOUS
 62
     3
100
AcDbLine
 10
129.236844
 20
91.302632
 30
0.0
 11
131.236844
 21
91.302632
 31
0.0
  0
LINE
  5
147
330
1F
100
AcDbEntity
  8
GR1-1
  6
CONTINUOUS
 62
     3
100
AcDbLine
 10
131.236844
 20
91.302632
 30
0.0
 11
131.236844
 21
125.848465
 31
0.0
  0
ARC
  5
148
330
1F
100
AcDbEntity
  8
GR1-1
  6
CONTINUOUS
 62
     3
100
AcDbCircle
 10
128.736844
 20
125.848465
 30
0.0
 40
2.5
100
AcDbArc
 50
0.0
 51
90.0
  0
LINE
  5
149
330
1F
100
AcDbEntity
  8
GR1-1
  6
CONTINUOUS
 62
     3
100
AcDbLine
 10
128.736844
 20
128.348465
 30
0.0
 11
105.136844
 21
128.348465
 31
0.0
  0
ARC
  5
14A
330
1F
100
AcDbEntity
  8
GR1-1
  6
CONTINUOUS
 62
     3
100
AcDbCircle
 10
105.136844
 20
125.848465
 30
0.0
 40
2.5
100
AcDbArc
 50
90.0
 51
180.0
  0
LINE
  5
14B
330
1F
100
AcDbEntity
  8
GR1-1
  6
CONTINUOUS
 62
     3
100
AcDbLine
 10
102.636844
 20
125.848465
 30
0.0
 11
102.636844
 21
91.302632
 31
0.0
  0
LINE
  5
14C
330
1F
100
AcDbEntity
  8
GR1-1
  6
CONTINUOUS
 62
     3
100
AcDbLine
 10
101.136844
 20
132.732632
 30
0.0
 11
132.736844
 21
132.732632
 31
0.0
  0
LINE
  5
14D
330
1F
100
AcDbEntity
  8
GR1-1
  6
CONTINUOUS
 62
     3
100
AcDbLine
 10
135.736844
 20
129.732632
 30
0.0
 11
135.736844
 21
118.732632
 31
0.0
  0
ARC
  5
14E
330
1F
100
AcDbEntity
  8
GR1-1
  6
CONTINUOUS
 62
     3
100
AcDbCircle
 10
128.736844
 20
125.878849
 30
0.0
 40
0.5
100
AcDbArc
 50
0.0
 51
90.0
  0
ARC
  5
14F
330
1F
100
AcDbEntity
  8
GR1-1
  6
CONTINUOUS
 62
     3
100
AcDbCircle
 10
132.736844
 20
129.732632
 30
0.0
 40
3.0
100
AcDbArc
 50
0.0
 51
90.0
  0
ARC
  5
150
330
1F
100
AcDbEntity
  8
GR1-1
  6
CONTINUOUS
 62
     3
100
AcDbCircle
 10
105.136844
 20
125.878849
 30
0.0
 40
0.5
100
AcDbArc
 50
90.0
 51
180.0
  0
ARC
  5
151
330
1F
100
AcDbEntity
  8
GR1-1
  6
CONTINUOUS
 62
     3
100
AcDbCircle
 10
101.136844
 20
129.732632
 30
0.0
 40
3.0
100
AcDbArc
 50
90.0
 51
180.0
  0
ARC
  5
152
330
1F
100
AcDbEntity
  8
GR1-1
  6
CONTINUOUS
 62
     3
100
AcDbCircle
 10
142.723238
 20
98.886212
 30
0.0
 40
11.59002427735587
100
AcDbArc
 50
160.321789
 51
160.465438
  0
LINE
  5
153
330
1F
100
AcDbEntity
  8
GR1-1
  6
CENTER
 62
     6
100
AcDbLine
 10
98.975189
 20
98.261632
 30
0.0
 11
135.84717
 21
98.261632
 31
0.0
  0
ARC
  5
154
330
1F
100
AcDbEntity
  8
GR1-1
  6
CONTINUOUS
 62
     6
100
AcDbCircle
 10
116.936844
 20
224.763882
 30
0.0
 40
95.03125000000009
100
AcDbArc
 50
261.680715
 51
278.319285
  0
LINE
  5
155
330
1F
100
AcDbEntity
  8
GR1-1
  6
CONTINUOUS
 62
     3
100
AcDbLine
 10
98.136844
 20
129.732632
 30
0.0
 11
98.136844
 21
118.732632
 31
0.0
  0
ARC
  5
156
330
1F
100
AcDbEntity
  8
LAYERGROUP-1
  6
CONTINUOUS
 62
     3
100
AcDbCircle
 10
100.111642
 20
119.051392
 30
0.0
 40
35.62662770167334
100
AcDbArc
 50
332.840624
 51
359.487354
  0
ARC
  5
157
330
1F
100
AcDbEntity
  8
GR1-1
  6
CONTINUOUS
 62
     3
100
AcDbCircle
 10
91.15045
 20
98.886212
 30
0.0
 40
11.59002427735587
100
AcDbArc
 50
19.419416
 51
19.678211
  0
ARC
  5
158
330
1F
100
AcDbEntity
  8
LAYERGROUP-1
  6
CONTINUOUS
 62
     3
100
AcDbCircle
 10
133.762046
 20
119.051392
 30
0.0
 40
35.62662770167334
100
AcDbArc
 50
180.512646
 51
207.159376
  0
LINE
  5
159
330
1F
100
AcDbEntity
  8
LAYERGROUP-1
  6
CONTINUOUS
 62
     3
100
AcDbLine
 10
223.332428
 20
132.732632
 30
0.0
 11
254.959216
 21
132.732632
 31
0.0
  0
CIRCLE
  5
15A
330
1F
100
AcDbEntity
  8
GR1-1
  6
CONTINUOUS
 62
     3
100
AcDbCircle
 10
218.145822
 20
98.261632
 30
0.0
 40
4.5
  0
CIRCLE
  5
15B
330
1F
100
AcDbEntity
  8
GR1-1
  6
CONTINUOUS
 62
     6
100
AcDbCircle
 10
218.145822
 20
98.261632
 30
0.0
 40
1.25
  0
LINE
  5
15C
330
1F
100
AcDbEntity
  8
GR1-1
  6
CENTER
 62
     6
100
AcDbLine
 10
244.796643
 20
98.261632
 30
0.0
 11
191.113467
 21
98.261632
 31
0.0
  0
LINE
  5
15D
330
1F
100
AcDbEntity
  8
GR1-1
  6
CENTER
 62
     6
100
AcDbLine
 10
218.145822
 20
71.457815
 30
0.0
 11
218.145822
 21
106.44416
 31
0.0
  0
DIMENSION
  5
15E
330
1F
100
AcDbEntity
  8
LAYERGROUP-1
100
AcDbDimension
  2
*D27
 10
239.145822
 20
63.261632
 30
0.0
 11
228.645813
 21
64.261627
 31
0.0
 70
    32
  3
FXDIMINFO
100
AcDbAlignedDimension
 13
218.145822
 23
71.457815
 33
0.0
 14
239.145822
 24
108.612832
 34
0.0
 50
180.0
100
AcDbRotatedDimension
1001
ACAD
1000
DSTYLE
1002
{
1070
     7
1000
FXTIP_ARROW_E
1070
     6
1000
FXTIP_ARROW_S
1070
   173
1070
     1
1002
}
  0
ARC
  5
168
330
1F
100
AcDbEntity
  8
GR1-1
  6
CONTINUOUS
 62
     3
100
AcDbCircle
 10
124.736844
 20
98.638526
 30
0.0
 40
9.0
100
AcDbArc
 50
0.0
 51
27.266044
  0
LINE
  5
169
330
1F
100
AcDbEntity
  8
GR1-1
  6
CONTINUOUS
 62
     3
100
AcDbLine
 10
132.736844
 20
102.761632
 30
0.0
 11
131.236844
 21
102.761632
 31
0.0
  0
LINE
  5
16A
330
1F
100
AcDbEntity
  8
GR1-1
  6
CONTINUOUS
 62
     3
100
AcDbLine
 10
131.236844
 20
93.761632
 30
0.0
 11
132.736844
 21
93.761632
 31
0.0
  0
ARC
  5
16B
330
1F
100
AcDbEntity
  8
GR1-1
  6
CONTINUOUS
 62
     3
100
AcDbCircle
 10
124.736844
 20
97.884737
 30
0.0
 40
9.0
100
AcDbArc
 50
332.733956
 51
360.0
  0
LINE
  5
16C
330
1F
100
AcDbEntity
  8
GR1-1
  6
CONTINUOUS
 62
     3
100
AcDbLine
 10
133.736844
 20
97.884737
 30
0.0
 11
133.736844
 21
98.638526
 31
0.0
  0
LINE
  5
16D
330
1F
100
AcDbEntity
  8
GR1-1
  6
CONTINUOUS
 62
     6
100
AcDbLine
 10
132.736844
 20
102.761632
 30
0.0
 11
132.736844
 21
93.761632
 31
0.0
  0
ARC
  5
16E
330
1F
100
AcDbEntity
  8
GR1-1
  6
CONTINUOUS
 62
     3
100
AcDbCircle
 10
102.336844
 20
101.261632
 30
0.0
 40
1.5
100
AcDbArc
 50
90.0
 51
180.0
  0
LINE
  5
16F
330
1F
100
AcDbEntity
  8
GR1-1
  6
CONTINUOUS
 62
     3
100
AcDbLine
 10
102.336844
 20
102.761632
 30
0.0
 11
102.636844
 21
102.761632
 31
0.0
  0
LINE
  5
170
330
1F
100
AcDbEntity
  8
GR1-1
  6
CONTINUOUS
 62
     3
100
AcDbLine
 10
100.836844
 20
101.261632
 30
0.0
 11
100.836844
 21
95.261632
 31
0.0
  0
ARC
  5
171
330
1F
100
AcDbEntity
  8
GR1-1
  6
CONTINUOUS
 62
     3
100
AcDbCircle
 10
102.336844
 20
95.261632
 30
0.0
 40
1.5
100
AcDbArc
 50
180.0
 51
270.0
  0
LINE
  5
172
330
1F
100
AcDbEntity
  8
GR1-1
  6
CONTINUOUS
 62
     3
100
AcDbLine
 10
102.336844
 20
93.761632
 30
0.0
 11
102.636844
 21
93.761632
 31
0.0
  0
LINE
  5
173
330
1F
100
AcDbEntity
  8
GR1-1
  6
CONTINUOUS
 62
     3
100
AcDbLine
 10
129.236844
 20
101.261632
 30
0.0
 11
128.436844
 21
101.261632
 31
0.0
  0
LINE
  5
174
330
1F
100
AcDbEntity
  8
GR1-1
  6
CONTINUOUS
 62
     3
100
AcDbLine
 10
104.636844
 20
95.261632
 30
0.0
 11
105.436844
 21
95.261632
 31
0.0
  0
LINE
  5
175
330
1F
100
AcDbEntity
  8
GR1-1
  6
CONTINUOUS
 62
     3
100
AcDbLine
 10
128.436844
 20
95.261632
 30
0.0
 11
129.236844
 21
95.261632
 31
0.0
  0
LINE
  5
176
330
1F
100
AcDbEntity
  8
GR1-1
  6
CONTINUOUS
 62
     3
100
AcDbLine
 10
105.436844
 20
101.261632
 30
0.0
 11
104.636844
 21
101.261632
 31
0.0
  0
DIMENSION
  5
177
330
1F
100
AcDbEntity
  8
LAYERGROUP-1
100
AcDbDimension
  2
*D28
 10
294.158702
 20
138.261632
 30
0.0
 11
293.158691
 21
105.761635
 31
0.0
 70
    32
  3
FXDIMINFO
100
AcDbAlignedDimension
 13
218.145822
 23
73.261632
 33
0.0
 14
274.145822
 24
138.261632
 34
0.0
 50
270.0
100
AcDbRotatedDimension
1001
ACAD
1000
DSTYLE
1002
{
1070
     7
1000
FXTIP_ARROW_E
1070
     6
1000
FXTIP_ARROW_S
1070
   173
1070
     1
1002
}
  0
DIMENSION
  5
181
330
1F
100
AcDbEntity
  8
LAYERGROUP-1
100
AcDbDimension
  2
*D29
 10
284.158702
 20
138.261632
 30
0.0
 11
283.158691
 21
118.261635
 31
0.0
 70
    32
  3
FXDIMINFO
100
AcDbAlignedDimension
 13
244.796643
 23
98.261632
 33
0.0
 14
274.145822
 24
138.261632
 34
0.0
 50
270.0
100
AcDbRotatedDimension
1001
ACAD
1000
DSTYLE
1002
{
1070
     7
1000
FXTIP_ARROW_E
1070
     6
1000
FXTIP_ARROW_S
1070
   173
1070
     1
1002
}
  0
LINE
  5
18A
330
1F
100
AcDbEntity
  8
GR1-1
  6
CONTINUOUS
 62
     3
100
AcDbLine
 10
105.186844
 20
124.903632
 30
0.0
 11
128.686844
 21
124.903632
 31
0.0
  0
ARC
  5
18B
330
1F
100
AcDbEntity
  8
GR1-1
  6
CONTINUOUS
 62
     3
100
AcDbCircle
 10
128.686844
 20
125.903632
 30
0.0
 40
1.0
100
AcDbArc
 50
270.0
 51
303.367013
  0
ARC
  5
18C
330
1F
100
AcDbEntity
  8
GR1-1
  6
CONTINUOUS
 62
     3
100
AcDbCircle
 10
105.186844
 20
125.903632
 30
0.0
 40
1.0
100
AcDbArc
 50
236.632987
 51
270.0
  0
LINE
  5
18D
330
1F
100
AcDbEntity
  8
LAYERGROUP-1
  6
CONTINUOUS
 62
     3
100
AcDbLine
 10
104.636844
 20
124.732632
 30
0.0
 11
129.236844
 21
124.732632
 31
0.0
  0
LINE
  5
18E
330
1F
100
AcDbEntity
  8
GR1-1
  6
CONTINUOUS
 62
     3
100
AcDbLine
 10
274.145822
 20
138.261632
 30
0.0
 11
274.145822
 21
136.261632
 31
0.0
  0
ARC
  5
18F
330
1F
100
AcDbEntity
  8
GR1-1
  6
CONTINUOUS
 62
     3
100
AcDbCircle
 10
254.789979
 20
137.124412
 30
0.0
 40
4.0
100
AcDbArc
 50
312.110461
 51
347.543693
  0
ARC
  5
190
330
1F
100
AcDbEntity
  8
GR1-1
  6
CONTINUOUS
 62
     3
100
AcDbCircle
 10
255.795822
 20
136.011632
 30
0.0
 40
2.5
100
AcDbArc
 50
270.0
 51
312.110461
  0
ARC
  5
191
330
1F
100
AcDbEntity
  8
GR1-1
  6
CONTINUOUS
 62
     3
100
AcDbCircle
 10
226.395822
 20
133.207232
 30
0.0
 40
1.9844
100
AcDbArc
 50
171.17619
 51
193.837292
  0
ARC
  5
192
330
1F
100
AcDbEntity
  8
GR1-1
  6
CONTINUOUS
 62
     3
100
AcDbCircle
 10
239.145822
 20
133.207232
 30
0.0
 40
1.9844
100
AcDbArc
 50
171.17619
 51
193.837292
  0
ARC
  5
193
330
1F
100
AcDbEntity
  8
GR1-1
  6
CONTINUOUS
 62
     3
100
AcDbCircle
 10
239.145822
 20
133.207232
 30
0.0
 40
1.9844
100
AcDbArc
 50
-13.837292
 51
8.82381
  0
ARC
  5
194
330
1F
100
AcDbEntity
  8
GR1-1
  6
CONTINUOUS
 62
     3
100
AcDbCircle
 10
251.895822
 20
133.207232
 30
0.0
 40
1.9844
100
AcDbArc
 50
-13.837292
 51
8.82381
  0
ARC
  5
195
330
1F
100
AcDbEntity
  8
GR1-1
  6
CONTINUOUS
 62
     3
100
AcDbCircle
 10
236.721037
 20
133.207232
 30
0.0
 40
1.9844
100
AcDbArc
 50
171.17619
 51
193.837292
  0
ARC
  5
196
330
1F
100
AcDbEntity
  8
GR1-1
  6
CONTINUOUS
 62
     3
100
AcDbCircle
 10
234.748213
 20
133.207232
 30
0.0
 40
1.9844
100
AcDbArc
 50
171.17619
 51
193.837292
  0
ARC
  5
197
330
1F
100
AcDbEntity
  8
GR1-1
  6
CONTINUOUS
 62
     3
100
AcDbCircle
 10
232.837525
 20
133.207232
 30
0.0
 40
1.9844
100
AcDbArc
 50
171.17619
 51
193.837292
  0
ARC
  5
198
330
1F
100
AcDbEntity
  8
GR1-1
  6
CONTINUOUS
 62
     3
100
AcDbCircle
 10
231.12878
 20
133.207232
 30
0.0
 40
1.9844
100
AcDbArc
 50
171.17619
 51
193.837292
  0
ARC
  5
199
330
1F
100
AcDbEntity
  8
GR1-1
  6
CONTINUOUS
 62
     3
100
AcDbCircle
 10
229.388967
 20
133.207232
 30
0.0
 40
1.9844
100
AcDbArc
 50
171.17619
 51
193.837292
  0
ARC
  5
19A
330
1F
100
AcDbEntity
  8
GR1-1
  6
CONTINUOUS
 62
     3
100
AcDbCircle
 10
227.882165
 20
133.207232
 30
0.0
 40
1.9844
100
AcDbArc
 50
171.17619
 51
193.837292
  0
ARC
  5
19B
330
1F
100
AcDbEntity
  8
GR1-1
  6
CONTINUOUS
 62
     3
100
AcDbCircle
 10
241.570607
 20
133.207232
 30
0.0
 40
1.9844
100
AcDbArc
 50
-13.837292
 51
8.82381
  0
ARC
  5
19C
330
1F
100
AcDbEntity
  8
GR1-1
  6
CONTINUOUS
 62
     3
100
AcDbCircle
 10
243.543431
 20
133.207232
 30
0.0
 40
1.9844
100
AcDbArc
 50
-13.837292
 51
8.82381
  0
ARC
  5
19D
330
1F
100
AcDbEntity
  8
GR1-1
  6
CONTINUOUS
 62
     3
100
AcDbCircle
 10
245.454119
 20
133.207232
 30
0.0
 40
1.9844
100
AcDbArc
 50
-13.837292
 51
8.82381
  0
ARC
  5
19E
330
1F
100
AcDbEntity
  8
GR1-1
  6
CONTINUOUS
 62
     3
100
AcDbCircle
 10
247.162864
 20
133.207232
 30
0.0
 40
1.9844
100
AcDbArc
 50
-13.837292
 51
8.82381
  0
ARC
  5
19F
330
1F
100
AcDbEntity
  8
GR1-1
  6
CONTINUOUS
 62
     3
100
AcDbCircle
 10
248.902677
 20
133.207232
 30
0.0
 40
1.9844
100
AcDbArc
 50
-13.837292
 51
8.82381
  0
ARC
  5
1A0
330
1F
100
AcDbEntity
  8
GR1-1
  6
CONTINUOUS
 62
     3
100
AcDbCircle
 10
250.40948
 20
133.207232
 30
0.0
 40
1.9844
100
AcDbArc
 50
-13.837292
 51
8.82381
  0
ARC
  5
1A1
330
1F
100
AcDbEntity
  8
GR1-1
  6
CONTINUOUS
 62
     3
100
AcDbCircle
 10
104.186844
 20
133.207232
 30
0.0
 40
1.9844
100
AcDbArc
 50
171.17619
 51
193.837292
  0
ARC
  5
1A2
330
1F
100
AcDbEntity
  8
GR1-1
  6
CONTINUOUS
 62
     3
100
AcDbCircle
 10
116.936844
 20
133.207232
 30
0.0
 40
1.9844
100
AcDbArc
 50
171.17619
 51
193.837292
  0
ARC
  5
1A3
330
1F
100
AcDbEntity
  8
GR1-1
  6
CONTINUOUS
 62
     3
100
AcDbCircle
 10
116.936844
 20
133.207232
 30
0.0
 40
1.9844
100
AcDbArc
 50
-13.837292
 51
8.82381
  0
ARC
  5
1A4
330
1F
100
AcDbEntity
  8
GR1-1
  6
CONTINUOUS
 62
     3
100
AcDbCircle
 10
129.686844
 20
133.207232
 30
0.0
 40
1.9844
100
AcDbArc
 50
-13.837292
 51
8.82381
  0
ARC
  5
1A5
330
1F
100
AcDbEntity
  8
GR1-1
  6
CONTINUOUS
 62
     3
100
AcDbCircle
 10
114.512059
 20
133.207232
 30
0.0
 40
1.9844
100
AcDbArc
 50
171.17619
 51
193.837292
  0
ARC
  5
1A6
330
1F
100
AcDbEntity
  8
GR1-1
  6
CONTINUOUS
 62
     3
100
AcDbCircle
 10
112.539235
 20
133.207232
 30
0.0
 40
1.9844
100
AcDbArc
 50
171.17619
 51
193.837292
  0
ARC
  5
1A7
330
1F
100
AcDbEntity
  8
GR1-1
  6
CONTINUOUS
 62
     3
100
AcDbCircle
 10
110.628547
 20
133.207232
 30
0.0
 40
1.9844
100
AcDbArc
 50
171.17619
 51
193.837292
  0
ARC
  5
1A8
330
1F
100
AcDbEntity
  8
GR1-1
  6
CONTINUOUS
 62
     3
100
AcDbCircle
 10
108.919802
 20
133.207232
 30
0.0
 40
1.9844
100
AcDbArc
 50
171.17619
 51
193.837292
  0
ARC
  5
1A9
330
1F
100
AcDbEntity
  8
GR1-1
  6
CONTINUOUS
 62
     3
100
AcDbCircle
 10
107.179989
 20
133.207232
 30
0.0
 40
1.9844
100
AcDbArc
 50
171.17619
 51
193.837292
  0
ARC
  5
1AA
330
1F
100
AcDbEntity
  8
GR1-1
  6
CONTINUOUS
 62
     3
100
AcDbCircle
 10
105.673186
 20
133.207232
 30
0.0
 40
1.9844
100
AcDbArc
 50
171.17619
 51
193.837292
  0
ARC
  5
1AB
330
1F
100
AcDbEntity
  8
GR1-1
  6
CONTINUOUS
 62
     3
100
AcDbCircle
 10
119.361629
 20
133.207232
 30
0.0
 40
1.9844
100
AcDbArc
 50
-13.837292
 51
8.82381
  0
ARC
  5
1AC
330
1F
100
AcDbEntity
  8
GR1-1
  6
CONTINUOUS
 62
     3
100
AcDbCircle
 10
121.334453
 20
133.207232
 30
0.0
 40
1.9844
100
AcDbArc
 50
-13.837292
 51
8.82381
  0
ARC
  5
1AD
330
1F
100
AcDbEntity
  8
GR1-1
  6
CONTINUOUS
 62
     3
100
AcDbCircle
 10
123.245141
 20
133.207232
 30
0.0
 40
1.9844
100
AcDbArc
 50
-13.837292
 51
8.82381
  0
ARC
  5
1AE
330
1F
100
AcDbEntity
  8
GR1-1
  6
CONTINUOUS
 62
     3
100
AcDbCircle
 10
124.953886
 20
133.207232
 30
0.0
 40
1.9844
100
AcDbArc
 50
-13.837292
 51
8.82381
  0
ARC
  5
1AF
330
1F
100
AcDbEntity
  8
GR1-1
  6
CONTINUOUS
 62
     3
100
AcDbCircle
 10
126.693699
 20
133.207232
 30
0.0
 40
1.9844
100
AcDbArc
 50
-13.837292
 51
8.82381
  0
ARC
  5
1B0
330
1F
100
AcDbEntity
  8
GR1-1
  6
CONTINUOUS
 62
     3
100
AcDbCircle
 10
128.200501
 20
133.207232
 30
0.0
 40
1.9844
100
AcDbArc
 50
-13.837292
 51
8.82381
  0
LINE
  5
1B1
330
1F
100
AcDbEntity
  8
GR1-1
  6
CENTER
 62
     6
100
AcDbLine
 10
215.379164
 20
246.732632
 30
0.0
 11
206.532101
 21
246.732632
 31
0.0
  0
LINE
  5
1B2
330
1F
100
AcDbEntity
  8
GR1-1
  6
CENTER
 62
     6
100
AcDbLine
 10
211.145822
 20
250.962576
 30
0.0
 11
211.145822
 21
242.744348
 31
0.0
  0
LINE
  5
1B3
330
1F
100
AcDbEntity
  8
GR1-1
  6
CENTER
 62
     6
100
AcDbLine
 10
262.91248
 20
218.732632
 30
0.0
 11
271.759543
 21
218.732632
 31
0.0
  0
LINE
  5
1B4
330
1F
100
AcDbEntity
  8
GR1-1
  6
CENTER
 62
     6
100
AcDbLine
 10
267.145822
 20
214.502688
 30
0.0
 11
267.145822
 21
222.720915
 31
0.0
  0
LINE
  5
1B5
330
1F
100
AcDbEntity
  8
GR1-1
  6
CENTER
 62
     6
100
AcDbLine
 10
215.379164
 20
218.732632
 30
0.0
 11
206.532101
 21
218.732632
 31
0.0
  0
LINE
  5
1B6
330
1F
100
AcDbEntity
  8
GR1-1
  6
CENTER
 62
     6
100
AcDbLine
 10
211.145822
 20
214.502688
 30
0.0
 11
211.145822
 21
222.720915
 31
0.0
  0
LINE
  5
1B7
330
1F
100
AcDbEntity
  8
LAYERGROUP-1
  6
CENTER
 62
     6
100
AcDbLine
 10
267.145822
 20
139.363147
 30
0.0
 11
267.145822
 21
134.892586
 31
0.0
  0
LINE
  5
1B8
330
1F
100
AcDbEntity
  8
LAYERGROUP-1
  6
CENTER
 62
     6
100
AcDbLine
 10
211.145822
 20
139.363147
 30
0.0
 11
211.145822
 21
134.892586
 31
0.0
  0
LINE
  5
1B9
330
1F
100
AcDbEntity
  8
GR1-1
  6
CENTER
 62
     6
100
AcDbLine
 10
102.936844
 20
134.892586
 30
0.0
 11
102.936844
 21
139.363147
 31
0.0
  0
LINE
  5
1BA
330
1F
100
AcDbEntity
  8
GR1-1
  6
CENTER
 62
     6
100
AcDbLine
 10
130.936844
 20
134.892586
 30
0.0
 11
130.936844
 21
139.363147
 31
0.0
  0
LINE
  5
1BB
330
1F
100
AcDbEntity
  8
GR1-1
  6
CONTINUOUS
 62
     3
100
AcDbLine
 10
194.8361
 20
242.732632
 30
0.0
 11
205.261073
 21
242.732632
 31
0.0
  0
LINE
  5
1BC
330
1F
100
AcDbEntity
  8
GR1-1
  6
CONTINUOUS
 62
     3
100
AcDbLine
 10
194.836303
 20
222.732632
 30
0.0
 11
205.261073
 21
222.732632
 31
0.0
  0
ARC
  5
1BD
330
1F
100
AcDbEntity
  8
GR1-1
  6
CONTINUOUS
 62
     6
100
AcDbCircle
 10
218.145822
 20
98.261632
 30
0.0
 40
7.000000000000028
100
AcDbArc
 50
151.643616
 51
276.643746
  0
ARC
  5
1BE
330
1F
100
AcDbEntity
  8
GR1-1
  6
CONTINUOUS
 62
     3
100
AcDbCircle
 10
218.145822
 20
98.261632
 30
0.0
 40
11.5
100
AcDbArc
 50
201.786789
 51
218.213211
  0
LINE
  5
1BF
330
1F
100
AcDbEntity
  8
GR1-1
  6
CONTINUOUS
 62
     3
100
AcDbLine
 10
211.233446
 20
97.157521
 30
0.0
 11
207.895822
 21
95.230543
 31
0.0
  0
LINE
  5
1C0
330
1F
100
AcDbEntity
  8
GR1-1
  6
CONTINUOUS
 62
     3
100
AcDbLine
 10
213.733446
 20
92.827394
 30
0.0
 11
210.395822
 21
90.900416
 31
0.0
  0
ARC
  5
1C1
330
1F
100
AcDbEntity
  8
GR1-1
  6
CONTINUOUS
 62
     3
100
AcDbCircle
 10
218.145822
 20
98.261632
 30
0.0
 40
11.5
100
AcDbArc
 50
321.786789
 51
338.213211
  0
LINE
  5
1C2
330
1F
100
AcDbEntity
  8
GR1-1
  6
CONTINUOUS
 62
     3
100
AcDbLine
 10
222.825807
 20
92.67289
 30
0.0
 11
225.895822
 21
90.900416
 31
0.0
  0
LINE
  5
1C3
330
1F
100
AcDbEntity
  8
GR1-1
  6
CONTINUOUS
 62
     3
100
AcDbLine
 10
226.136152
 20
96.535164
 30
0.0
 11
228.395822
 21
95.230543
 31
0.0
  0
ARC
  5
1C4
330
1F
100
AcDbEntity
  8
GR1-1
  6
CONTINUOUS
 62
     3
100
AcDbCircle
 10
253.145822
 20
232.732632
 30
0.0
 40
60.0
100
AcDbArc
 50
171.227006
 51
188.77429
  0
ARC
  5
1C5
330
1F
100
AcDbEntity
  8
GR1-1
  6
CONTINUOUS
 62
     3
100
AcDbCircle
 10
194.836303
 20
223.732632
 30
0.0
 40
1.0
100
AcDbArc
 50
188.77429
 51
270.0
  0
ARC
  5
1C6
330
1F
100
AcDbEntity
  8
GR1-1
  6
CONTINUOUS
 62
     3
100
AcDbCircle
 10
194.8361
 20
241.731313
 30
0.0
 40
1.0
100
AcDbArc
 50
90.0
 51
171.227006
  0
ARC
  5
1C7
330
1F
100
AcDbEntity
  8
GR1-1
  6
CONTINUOUS
 62
     3
100
AcDbCircle
 10
218.145822
 20
98.261632
 30
0.0
 40
24.99999999999997
100
AcDbArc
 50
-261.259122
 51
36.343333
  0
ARC
  5
1C8
330
1F
100
AcDbEntity
  8
GR1-1
  6
CONTINUOUS
 62
     6
100
AcDbCircle
 10
218.145822
 20
98.261632
 30
0.0
 40
17.49999999999994
100
AcDbArc
 50
-254.539607
 51
29.119311
  0
ARC
  5
1C9
330
1F
100
AcDbEntity
  8
GR1-1
  6
CONTINUOUS
 62
     3
100
AcDbCircle
 10
218.145822
 20
98.261632
 30
0.0
 40
21.49999999999996
100
AcDbArc
 50
-258.737039
 51
33.807096
  0
ARC
  5
1CA
330
1F
100
AcDbEntity
  8
GR1-1
  6
CONTINUOUS
 62
     3
100
AcDbCircle
 10
226.395822
 20
91.766441
 30
0.0
 40
1.0
100
AcDbArc
 50
240.0
 51
321.786789
  0
ARC
  5
1CB
330
1F
100
AcDbEntity
  8
GR1-1
  6
CONTINUOUS
 62
     3
100
AcDbCircle
 10
227.895822
 20
94.364517
 30
0.0
 40
1.0
100
AcDbArc
 50
-21.786789
 51
60.0
  0
ARC
  5
1CC
330
1F
100
AcDbEntity
  8
GR1-1
  6
CONTINUOUS
 62
     3
100
AcDbCircle
 10
209.895822
 20
91.766441
 30
0.0
 40
1.0
100
AcDbArc
 50
218.213211
 51
300.0
  0
ARC
  5
1CD
330
1F
100
AcDbEntity
  8
GR1-1
  6
CONTINUOUS
 62
     3
100
AcDbCircle
 10
208.395822
 20
94.364517
 30
0.0
 40
1.0
100
AcDbArc
 50
120.0
 51
201.786789
  0
INSERT
  5
1D1
330
1F
100
AcDbEntity
  8
0
100
AcDbBlockReference
  2
BLKF032
 10
0.0
 20
0.0
 30
0.0
  0
INSERT
  5
22C
330
1F
100
AcDbEntity
  8
0
100
AcDbBlockReference
  2
BLKF033
 10
0.0
 20
0.0
 30
0.0
  0
LINE
  5
232
330
1F
100
AcDbEntity
  8
GR1-1
  6
CONTINUOUS
 62
     3
100
AcDbLine
 10
126.936844
 20
121.571354
 30
0.0
 11
126.936844
 21
116.600975
 31
0.0
  0
LINE
  5
233
330
1F
100
AcDbEntity
  8
GR1-1
  6
CONTINUOUS
 62
     3
100
AcDbLine
 10
127.610492
 20
105.40734
 30
0.0
 11
126.936844
 21
105.526122
 31
0.0
  0
ARC
  5
234
330
1F
100
AcDbEntity
  8
GR1-1
  6
CONTINUOUS
 62
     3
100
AcDbCircle
 10
127.436844
 20
104.422532
 30
0.0
 40
1.0
100
AcDbArc
 50
0.0
 51
80.0
  0
ARC
  5
235
330
1F
100
AcDbEntity
  8
GR1-1
  6
CONTINUOUS
 62
     3
100
AcDbCircle
 10
106.436844
 20
104.422532
 30
0.0
 40
1.0
100
AcDbArc
 50
100.0
 51
180.0
  0
LINE
  5
236
330
1F
100
AcDbEntity
  8
GR1-1
  6
CONTINUOUS
 62
     3
100
AcDbLine
 10
106.263196
 20
105.40734
 30
0.0
 11
106.936844
 21
105.526122
 31
0.0
  0
LINE
  5
237
330
1F
100
AcDbEntity
  8
GR1-1
  6
CONTINUOUS
 62
     3
100
AcDbLine
 10
106.936844
 20
121.571151
 30
0.0
 11
106.936844
 21
74.952113
 31
0.0
  0
LINE
  5
238
330
1F
100
AcDbEntity
  8
GR1-1
  6
CONTINUOUS
 62
     3
100
AcDbLine
 10
128.436844
 20
92.100731
 30
0.0
 11
128.436844
 21
104.422532
 31
0.0
  0
ARC
  5
239
330
1F
100
AcDbEntity
  8
GR1-1
  6
CONTINUOUS
 62
     3
100
AcDbCircle
 10
127.436844
 20
92.100731
 30
0.0
 40
1.0
100
AcDbArc
 50
280.0
 51
360.0
  0
LINE
  5
23A
330
1F
100
AcDbEntity
  8
GR1-1
  6
CONTINUOUS
 62
     3
100
AcDbLine
 10
105.436844
 20
92.100731
 30
0.0
 11
105.436844
 21
104.422532
 31
0.0
  0
ARC
  5
23B
330
1F
100
AcDbEntity
  8
GR1-1
  6
CONTINUOUS
 62
     3
100
AcDbCircle
 10
106.436844
 20
92.100731
 30
0.0
 40
1.0
100
AcDbArc
 50
180.0
 51
260.0
  0
LINE
  5
23C
330
1F
100
AcDbEntity
  8
GR1-1
  6
CONTINUOUS
 62
     3
100
AcDbLine
 10
106.263196
 20
91.115923
 30
0.0
 11
106.936844
 21
90.997141
 31
0.0
  0
LINE
  5
23D
330
1F
100
AcDbEntity
  8
GR1-1
  6
CONTINUOUS
 62
     3
100
AcDbLine
 10
126.935971
 20
116.600975
 30
0.0
 11
126.937416
 21
98.261632
 31
0.0
  0
ARC
  5
23E
330
1F
100
AcDbEntity
  8
GR1-1
  6
CONTINUOUS
 62
     3
100
AcDbCircle
 10
116.936844
 20
63.261632
 30
0.0
 40
60.0
100
AcDbArc
 50
81.227006
 51
98.77429
  0
ARC
  5
23F
330
1F
100
AcDbEntity
  8
GR1-1
  6
CONTINUOUS
 62
     3
100
AcDbCircle
 10
107.936844
 20
121.571151
 30
0.0
 40
1.0
100
AcDbArc
 50
98.77429
 51
180.0
  0
ARC
  5
240
330
1F
100
AcDbEntity
  8
GR1-1
  6
CONTINUOUS
 62
     3
100
AcDbCircle
 10
125.935525
 20
121.571354
 30
0.0
 40
1.0
100
AcDbArc
 50
0.0
 51
81.227006
  0
LINE
  5
241
330
1F
100
AcDbEntity
  8
GR1-1
  6
CONTINUOUS
 62
     3
100
AcDbLine
 10
127.610492
 20
91.115923
 30
0.0
 11
126.935525
 21
90.996909
 31
0.0
  0
LINE
  5
242
330
1F
100
AcDbEntity
  8
GR1-1
  6
CONTINUOUS
 62
     3
100
AcDbLine
 10
126.935456
 20
79.922288
 30
0.0
 11
126.935571
 21
98.261632
 31
0.0
  0
DIMENSION
  5
243
330
1F
100
AcDbEntity
  8
GR1-1
100
AcDbDimension
  2
*D32
 10
128.436844
 20
43.703531
 30
0.0
 11
116.936844
 21
44.703514
 31
0.0
 70
    33
  3
FXDIMINFO
100
AcDbAlignedDimension
 13
105.436844
 23
92.100731
 33
0.0
 14
128.436844
 24
92.100731
 34
0.0
1001
ACAD
1000
DSTYLE
1002
{
1070
     7
1000
FXTIP_ARROW_E
1070
     6
1000
FXTIP_ARROW_S
1070
   173
1070
     1
1002
}
  0
DIMENSION
  5
24D
330
1F
100
AcDbEntity
  8
GR1-1
100
AcDbDimension
  2
*D33
 10
126.936844
 20
53.703531
 30
0.0
 11
116.936844
 21
54.703514
 31
0.0
 70
    33
  3
FXDIMINFO
100
AcDbAlignedDimension
 13
106.936844
 23
74.451909
 33
0.0
 14
126.936844
 24
74.452113
 34
0.0
1001
ACAD
1000
DSTYLE
1002
{
1070
     7
1000
FXTIP_ARROW_E
1070
     6
1000
FXTIP_ARROW_S
1070
   173
1070
     1
1002
}
  0
LINE
  5
257
330
1F
100
AcDbEntity
  8
GR1-1
  6
CONTINUOUS
 62
     3
100
AcDbLine
 10
126.936844
 20
74.951909
 30
0.0
 11
126.936844
 21
79.922288
 31
0.0
  0
ARC
  5
258
330
1F
100
AcDbEntity
  8
GR1-1
  6
CONTINUOUS
 62
     3
100
AcDbCircle
 10
116.936844
 20
133.261632
 30
0.0
 40
60.0
100
AcDbArc
 50
261.22571
 51
278.772994
  0
ARC
  5
259
330
1F
100
AcDbEntity
  8
GR1-1
  6
CONTINUOUS
 62
     3
100
AcDbCircle
 10
107.936844
 20
74.952113
 30
0.0
 40
1.0
100
AcDbArc
 50
180.0
 51
261.22571
  0
ARC
  5
25A
330
1F
100
AcDbEntity
  8
GR1-1
  6
CONTINUOUS
 62
     3
100
AcDbCircle
 10
125.935525
 20
74.951909
 30
0.0
 40
1.0
100
AcDbArc
 50
278.772994
 51
360.0
  0
DIMENSION
  5
25B
330
1F
100
AcDbEntity
  8
GR1-1
100
AcDbDimension
  2
*D34
 10
156.671992
 20
123.261632
 30
0.0
 11
155.671982
 21
98.26162
 31
0.0
 70
    33
  3
FXDIMINFO
100
AcDbAlignedDimension
 13
116.936844
 23
73.261632
 33
0.0
 14
116.936844
 24
123.261632
 34
0.0
1001
ACAD
1000
DSTYLE
1002
{
1070
     7
1000
FXTIP_ARROW_E
1070
     6
1000
FXTIP_ARROW_S
1070
   173
1070
     1
1002
}
  0
ENDSEC
  0
SECTION
  2
OBJECTS
  0
DICTIONARY
  5
C
330
0
100
AcDbDictionary
  3
ACAD_GROUP
350
D
  3
ACAD_LAYOUT
350
1A
  3
ACAD_MLINESTYLE
350
17
  3
ACAD_PLOTSETTINGS
350
19
  3
ACDBHEADERROUNDTRIPXREC
350
265
  0
DICTIONARY
  5
D
102
{ACAD_REACTORS
330
C
102
}
330
C
100
AcDbDictionary
  0
DICTIONARY
  5
1A
102
{ACAD_REACTORS
330
C
102
}
330
C
100
AcDbDictionary
  0
DICTIONARY
  5
17
102
{ACAD_REACTORS
330
C
102
}
330
C
100
AcDbDictionary
  3
STANDARD
350
18
  0
DICTIONARY
  5
19
102
{ACAD_REACTORS
330
C
102
}
330
C
100
AcDbDictionary
  0
DICTIONARY
  5
265
102
{ACAD_REACTORS
330
C
102
}
330
C
100
AcDbDictionary
  3
CEPSNTYPE
350
26E
  3
DIMSTYLEDATA
350
284
  3
FINGERPRINTGUID
350
26F
  3
HYPERLINKBASE
350
268
  3
INSUNITS
350
26D
  3
LAYOUTDICT
350
26A
  3
LWETCUNION
350
26C
  3
PLOTSETDICT
350
26B
  3
PSVPSCALE
350
271
  3
PUCSBASE
350
274
  3
PUCSORGBACK
350
27A
  3
PUCSORGBOTTOM
350
276
  3
PUCSORGFRONT
350
279
  3
PUCSORGLEFT
350
277
  3
PUCSORGRIGHT
350
278
  3
PUCSORGTOP
350
275
  3
PUCSORTHOREF
350
272
  3
PUCSORTHOVIEW
350
273
  3
STYLESHEET
350
269
  3
TSTACKALIGN
350
266
  3
TSTACKSIZE
350
267
  3
UCSBASE
350
27D
  3
UCSORGBACK
350
283
  3
UCSORGBOTTOM
350
27F
  3
UCSORGFRONT
350
282
  3
UCSORGLEFT
350
280
  3
UCSORGRIGHT
350
281
  3
UCSORGTOP
350
27E
  3
UCSORTHOREF
350
27B
  3
UCSORTHOVIEW
350
27C
  3
VERSIONGUID
350
270
  0
MLINESTYLE
  5
18
102
{ACAD_REACTORS
330
17
102
}
330
17
100
AcDbMlineStyle
  2
Standard
 70
     0
  3

 62
   256
 51
90.0
 52
90.0
 71
     2
 49
0.5
 62
   256
  6
BYLAYER
 49
-0.5
 62
   256
  6
BYLAYER
  0
XRECORD
  5
26E
102
{ACAD_REACTORS
330
265
102
}
330
265
100
AcDbXrecord
 90
        0
  0
XRECORD
  5
284
102
{ACAD_REACTORS
330
265
102
}
330
265
100
AcDbXrecord
1000
DSTYLE
1002
{
1070
   179
 70
     2
1070
   171
 70
     3
1070
   143
 40
0.03937
1070
   274
 70
     3
1070
    41
 40
4.0
1070
   343
340
41
1070
   344
340
47
1070
   141
 40
2.5
1070
   176
 70
     7
1070
   177
 70
     7
1070
   178
 70
     7
1070
   271
 70
     2
1070
    46
 40
6.0
1070
    43
 40
10.0
1070
    44
 40
1.0
1070
    42
 40
1.0
1070
   147
 40
1.0
1070
   341
340
41
1070
   173
 70
     1
1070
    77
 70
     1
1070
   272
 70
     2
1070
    73
 70
     0
1070
   172
 70
     1
1070
    74
 70
     0
1070
   283
 70
     0
1070
   340
340
3F
1070
   140
 40
4.0
1070
   284
 70
     8
1070
    78
 70
     8
1002
}
  0
XRECORD
  5
26F
102
{ACAD_REACTORS
330
265
102
}
330
265
100
AcDbXrecord
  1
{8D91BBAD-B3EF-406F-807D-6B9B87823C9E}
  0
XRECORD
  5
268
102
{ACAD_REACTORS
330
265
102
}
330
265
100
AcDbXrecord
  1

  0
XRECORD
  5
26D
102
{ACAD_REACTORS
330
265
102
}
330
265
100
AcDbXrecord
 90
        1
  0
XRECORD
  5
26A
102
{ACAD_REACTORS
330
265
102
}
330
265
100
AcDbXrecord
340
1A
  0
XRECORD
  5
26C
102
{ACAD_REACTORS
330
265
102
}
330
265
100
AcDbXrecord
 90
    10781
  0
XRECORD
  5
26B
102
{ACAD_REACTORS
330
265
102
}
330
265
100
AcDbXrecord
340
19
  0
XRECORD
  5
271
102
{ACAD_REACTORS
330
265
102
}
330
265
100
AcDbXrecord
 40
0.0
  0
XRECORD
  5
274
102
{ACAD_REACTORS
330
265
102
}
330
265
100
AcDbXrecord
340
0
  0
XRECORD
  5
27A
102
{ACAD_REACTORS
330
265
102
}
330
265
100
AcDbXrecord
 10
0.0
 20
0.0
 30
0.0
  0
XRECORD
  5
276
102
{ACAD_REACTORS
330
265
102
}
330
265
100
AcDbXrecord
 10
0.0
 20
0.0
 30
0.0
  0
XRECORD
  5
279
102
{ACAD_REACTORS
330
265
102
}
330
265
100
AcDbXrecord
 10
0.0
 20
0.0
 30
0.0
  0
XRECORD
  5
277
102
{ACAD_REACTORS
330
265
102
}
330
265
100
AcDbXrecord
 10
0.0
 20
0.0
 30
0.0
  0
XRECORD
  5
278
102
{ACAD_REACTORS
330
265
102
}
330
265
100
AcDbXrecord
 10
0.0
 20
0.0
 30
0.0
  0
XRECORD
  5
275
102
{ACAD_REACTORS
330
265
102
}
330
265
100
AcDbXrecord
 10
0.0
 20
0.0
 30
0.0
  0
XRECORD
  5
272
102
{ACAD_REACTORS
330
265
102
}
330
265
100
AcDbXrecord
340
0
  0
XRECORD
  5
273
102
{ACAD_REACTORS
330
265
102
}
330
265
100
AcDbXrecord
 70
     0
  0
XRECORD
  5
269
102
{ACAD_REACTORS
330
265
102
}
330
265
100
AcDbXrecord
  1

  0
XRECORD
  5
266
102
{ACAD_REACTORS
330
265
102
}
330
265
100
AcDbXrecord
 90
        1
  0
XRECORD
  5
267
102
{ACAD_REACTORS
330
265
102
}
330
265
100
AcDbXrecord
 90
       70
  0
XRECORD
  5
27D
102
{ACAD_REACTORS
330
265
102
}
330
265
100
AcDbXrecord
340
0
  0
XRECORD
  5
283
102
{ACAD_REACTORS
330
265
102
}
330
265
100
AcDbXrecord
 10
0.0
 20
0.0
 30
0.0
  0
XRECORD
  5
27F
102
{ACAD_REACTORS
330
265
102
}
330
265
100
AcDbXrecord
 10
0.0
 20
0.0
 30
0.0
  0
XRECORD
  5
282
102
{ACAD_REACTORS
330
265
102
}
330
265
100
AcDbXrecord
 10
0.0
 20
0.0
 30
0.0
  0
XRECORD
  5
280
102
{ACAD_REACTORS
330
265
102
}
330
265
100
AcDbXrecord
 10
0.0
 20
0.0
 30
0.0
  0
XRECORD
  5
281
102
{ACAD_REACTORS
330
265
102
}
330
265
100
AcDbXrecord
 10
0.0
 20
0.0
 30
0.0
  0
XRECORD
  5
27E
102
{ACAD_REACTORS
330
265
102
}
330
265
100
AcDbXrecord
 10
0.0
 20
0.0
 30
0.0
  0
XRECORD
  5
27B
102
{ACAD_REACTORS
330
265
102
}
330
265
100
AcDbXrecord
340
0
  0
XRECORD
  5
27C
102
{ACAD_REACTORS
330
265
102
}
330
265
100
AcDbXrecord
 70
     0
  0
XRECORD
  5
270
102
{ACAD_REACTORS
330
265
102
}
330
265
100
AcDbXrecord
  1
{FAEB1C32-E019-11D5-929B-00C0DF256EC4}
  0
ENDSEC
  0
EOF
