  0
SECTION
  2
HEADER
  9
$ACADVER
  1
AC1014
  9
$ACADMAINTVER
 70
     9
  9
$DWGCODEPAGE
  3
ANSI_932
  9
$INSBASE
 10
0.0
 20
0.0
 30
0.0
  9
$EXTMIN
 10
0.0
 20
0.0
 30
0.0
  9
$EXTMAX
 10
420.0
 20
297.0
 30
0.0
  9
$LIMMIN
 10
0.0
 20
0.0
  9
$LIMMAX
 10
420.0
 20
297.0
  9
$ORTHOMODE
 70
     0
  9
$REGENMODE
 70
     1
  9
$FILLMODE
 70
     1
  9
$QTEXTMODE
 70
     0
  9
$MIRRTEXT
 70
     1
  9
$DRAGMODE
 70
     2
  9
$LTSCALE
 40
1.0
  9
$OSMODE
 70
    37
  9
$ATTMODE
 70
     1
  9
$TEXTSIZE
 40
0.2
  9
$TRACEWID
 40
0.05
  9
$TEXTSTYLE
  7
STYLE1
  9
$CLAYER
  8
0
  9
$CELTYPE
  6
BYLAYER
  9
$CECOLOR
 62
   256
  9
$CELTSCALE
 40
1.0
  9
$DELOBJ
 70
     1
  9
$DISPSILH
 70
     0
  9
$DIMSCALE
 40
1.0
  9
$DIMASZ
 40
4.0
  9
$DIMEXO
 40
1.0
  9
$DIMDLI
 40
10.0
  9
$DIMRND
 40
0.0
  9
$DIMDLE
 40
6.0
  9
$DIMEXE
 40
1.0
  9
$DIMTP
 40
0.0
  9
$DIMTM
 40
0.0
  9
$DIMTXT
 40
4.0
  9
$DIMCEN
 40
2.5
  9
$DIMTSZ
 40
0.0
  9
$DIMTOL
 70
     0
  9
$DIMLIM
 70
     0
  9
$DIMTIH
 70
     0
  9
$DIMTOH
 70
     0
  9
$DIMSE1
 70
     0
  9
$DIMSE2
 70
     0
  9
$DIMTAD
 70
     1
  9
$DIMZIN
 70
     8
  9
$DIMBLK
  1

  9
$DIMASO
 70
     1
  9
$DIMSHO
 70
     1
  9
$DIMPOST
  1

  9
$DIMAPOST
  1

  9
$DIMALT
 70
     0
  9
$DIMALTD
 70
     3
  9
$DIMALTF
 40
0.03937
  9
$DIMLFAC
 40
1.0
  9
$DIMTOFL
 70
     1
  9
$DIMTVP
 40
0.0
  9
$DIMTIX
 70
     0
  9
$DIMSOXD
 70
     0
  9
$DIMSAH
 70
     1
  9
$DIMBLK1
  1
FXTIP_ARROW_S
  9
$DIMBLK2
  1
FXTIP_ARROW_E
  9
$DIMSTYLE
  2
FXDIMINFO
  9
$DIMCLRD
 70
     7
  9
$DIMCLRE
 70
     7
  9
$DIMCLRT
 70
     7
  9
$DIMTFAC
 40
1.0
  9
$DIMGAP
 40
1.0
  9
$DIMJUST
 70
     0
  9
$DIMSD1
 70
     0
  9
$DIMSD2
 70
     0
  9
$DIMTOLJ
 70
     0
  9
$DIMTZIN
 70
     8
  9
$DIMALTZ
 70
     0
  9
$DIMALTTZ
 70
     0
  9
$DIMFIT
 70
     3
  9
$DIMUPT
 70
     0
  9
$DIMUNIT
 70
     2
  9
$DIMDEC
 70
     2
  9
$DIMTDEC
 70
     2
  9
$DIMALTU
 70
     2
  9
$DIMALTTD
 70
     3
  9
$DIMTXSTY
  7
STYLE1
  9
$DIMAUNIT
 70
     0
  9
$LUNITS
 70
     2
  9
$LUPREC
 70
     4
  9
$SKETCHINC
 40
0.1
  9
$FILLETRAD
 40
0.5
  9
$AUNITS
 70
     0
  9
$AUPREC
 70
     0
  9
$MENU
  1
.
  9
$ELEVATION
 40
0.0
  9
$PELEVATION
 40
0.0
  9
$THICKNESS
 40
0.0
  9
$LIMCHECK
 70
     0
  9
$CHAMFERA
 40
0.5
  9
$CHAMFERB
 40
0.5
  9
$CHAMFERC
 40
1.0
  9
$CHAMFERD
 40
0.0
  9
$SKPOLY
 70
     0
  9
$TDCREATE
 40
2455303.41131213
  9
$TDUPDATE
 40
2455303.411312141
  9
$TDINDWG
 40
0.0000000116
  9
$TDUSRTIMER
 40
0.0000000116
  9
$USRTIMER
 70
     1
  9
$ANGBASE
 50
0.0
  9
$ANGDIR
 70
     0
  9
$PDMODE
 70
     0
  9
$PDSIZE
 40
0.0
  9
$PLINEWID
 40
0.0
  9
$COORDS
 70
     1
  9
$SPLFRAME
 70
     0
  9
$SPLINETYPE
 70
     6
  9
$SPLINESEGS
 70
     8
  9
$ATTDIA
 70
     0
  9
$ATTREQ
 70
     1
  9
$HANDLING
 70
     1
  9
$HANDSEED
  5
2B2
  9
$SURFTAB1
 70
     6
  9
$SURFTAB2
 70
     6
  9
$SURFTYPE
 70
     6
  9
$SURFU
 70
     6
  9
$SURFV
 70
     6
  9
$UCSNAME
  2

  9
$UCSORG
 10
0.0
 20
0.0
 30
0.0
  9
$UCSXDIR
 10
1.0
 20
0.0
 30
0.0
  9
$UCSYDIR
 10
0.0
 20
1.0
 30
0.0
  9
$PUCSNAME
  2

  9
$PUCSORG
 10
0.0
 20
0.0
 30
0.0
  9
$PUCSXDIR
 10
1.0
 20
0.0
 30
0.0
  9
$PUCSYDIR
 10
0.0
 20
1.0
 30
0.0
  9
$USERI1
 70
     0
  9
$USERI2
 70
     0
  9
$USERI3
 70
     0
  9
$USERI4
 70
     0
  9
$USERI5
 70
     0
  9
$USERR1
 40
0.0
  9
$USERR2
 40
0.0
  9
$USERR3
 40
0.0
  9
$USERR4
 40
0.0
  9
$USERR5
 40
0.0
  9
$WORLDVIEW
 70
     1
  9
$SHADEDGE
 70
     3
  9
$SHADEDIF
 70
    70
  9
$TILEMODE
 70
     1
  9
$MAXACTVP
 70
    64
  9
$PINSBASE
 10
0.0
 20
0.0
 30
0.0
  9
$PLIMCHECK
 70
     0
  9
$PEXTMIN
 10
1.000000E+20
 20
1.000000E+20
 30
1.000000E+20
  9
$PEXTMAX
 10
-1.000000E+20
 20
-1.000000E+20
 30
-1.000000E+20
  9
$PLIMMIN
 10
0.0
 20
0.0
  9
$PLIMMAX
 10
12.0
 20
9.0
  9
$UNITMODE
 70
     0
  9
$VISRETAIN
 70
     1
  9
$PLINEGEN
 70
     0
  9
$PSLTSCALE
 70
     1
  9
$TREEDEPTH
 70
  3020
  9
$PICKSTYLE
 70
     1
  9
$CMLSTYLE
  2
STANDARD
  9
$CMLJUST
 70
     0
  9
$CMLSCALE
 40
1.0
  9
$PROXYGRAPHICS
 70
     1
  9
$MEASUREMENT
 70
     0
  0
ENDSEC
  0
SECTION
  2
CLASSES
  0
CLASS
  1
ACDBDICTIONARYWDFLT
  2
AcDbDictionaryWithDefault
  3
ObjectDBX Classes
 90
        0
280
     0
281
     0
  0
CLASS
  1
XRECORD
  2
AcDbXrecord
  3
AutoCAD 2000
 90
        0
280
     0
281
     0
  0
CLASS
  1
LWPOLYLINE
  2
AcDbPolyline
  3
AutoCAD 2000
 90
        0
280
     0
281
     1
  0
CLASS
  1
HATCH
  2
AcDbHatch
  3
AutoCAD 2000
 90
        0
280
     0
281
     1
  0
CLASS
  1
ACDBPLACEHOLDER
  2
AcDbPlaceHolder
  3
ObjectDBX Classes
 90
        0
280
     0
281
     0
  0
CLASS
  1
LAYOUT
  2
AcDbLayout
  3
ObjectDBX Classes
 90
        0
280
     0
281
     0
  0
ENDSEC
  0
SECTION
  2
TABLES
  0
TABLE
  2
VPORT
  5
8
330
0
100
AcDbSymbolTable
 70
     1
  0
VPORT
  5
29
330
8
100
AcDbSymbolTableRecord
100
AcDbViewportTableRecord
  2
*ACTIVE
 70
     0
 10
0.0
 20
0.0
 11
1.0
 21
1.0
 12
210.0
 22
148.5
 13
0.0
 23
0.0
 14
0.5
 24
0.5
 15
0.5
 25
0.5
 16
0.0
 26
0.0
 36
1.0
 17
0.0
 27
0.0
 37
0.0
 40
297.0
 41
1.414141
 42
50.0
 43
0.0
 44
0.0
 50
0.0
 51
0.0
 71
     0
 72
   100
 73
     1
 74
     3
 75
     0
 76
     0
 77
     0
 78
     0
  0
ENDTAB
  0
TABLE
  2
LTYPE
  5
5
330
0
100
AcDbSymbolTable
 70
     4
  0
LTYPE
  5
14
330
5
100
AcDbSymbolTableRecord
100
AcDbLinetypeTableRecord
  2
BYBLOCK
 70
     0
  3

 72
    65
 73
     0
 40
0.0
  0
LTYPE
  5
15
330
5
100
AcDbSymbolTableRecord
100
AcDbLinetypeTableRecord
  2
BYLAYER
 70
     0
  3

 72
    65
 73
     0
 40
0.0
  0
LTYPE
  5
16
330
5
100
AcDbSymbolTableRecord
100
AcDbLinetypeTableRecord
  2
CONTINUOUS
 70
     0
  3
--------------------
 72
    65
 73
     0
 40
0.0
  0
LTYPE
  5
2A
330
5
100
AcDbSymbolTableRecord
100
AcDbLinetypeTableRecord
  2
CENTER
 70
     0
  3
Center ____ _ ____ _ ____ _ ____ _ ____ _ ____
 72
    65
 73
     4
 40
13.0
 49
10.0
 74
     0
 49
-1.0
 74
     0
 49
1.0
 74
     0
 49
-1.0
 74
     0
  0
ENDTAB
  0
TABLE
  2
LAYER
  5
2
330
0
100
AcDbSymbolTable
 70
    20
  0
LAYER
  5
10
330
2
100
AcDbSymbolTableRecord
100
AcDbLayerTableRecord
  2
0
 70
     0
 62
     7
  6
CONTINUOUS
  0
LAYER
  5
2D
330
2
100
AcDbSymbolTableRecord
100
AcDbLayerTableRecord
  2
LAYERGROUP-1
 70
     0
 62
     3
  6
CONTINUOUS
  0
LAYER
  5
3D
330
2
100
AcDbSymbolTableRecord
100
AcDbLayerTableRecord
  2
}}ﾊﾊGG血CCТ
 70
     0
 62
     3
  6
CONTINUOUS
  0
LAYER
  5
B8
330
2
100
AcDbSymbolTableRecord
100
AcDbLayerTableRecord
  2
0-1
 70
     0
 62
     7
  6
CONTINUOUS
  0
LAYER
  5
D0
330
2
100
AcDbSymbolTableRecord
100
AcDbLayerTableRecord
  2
GR1-1
 70
     0
 62
     7
  6
CONTINUOUS
  0
ENDTAB
  0
TABLE
  2
STYLE
  5
3
330
0
100
AcDbSymbolTable
 70
     4
  0
STYLE
  5
11
330
3
100
AcDbSymbolTableRecord
100
AcDbTextStyleTableRecord
  2
STANDARD
 70
     0
 40
0.0
 41
1.0
 50
0.0
 71
     0
 42
0.2
  3
txt
  4

  0
STYLE
  5
3F
330
3
100
AcDbSymbolTableRecord
100
AcDbTextStyleTableRecord
  2
STYLE1
 70
     0
 40
0.0
 41
1.0
 50
0.0
 71
     0
 42
0.2
  3
MONOTXT.SHX
  4
extfont.shx
  0
STYLE
  5
40
330
3
100
AcDbSymbolTableRecord
100
AcDbTextStyleTableRecord
  2
FX_VECTOR
 70
     0
 40
0.0
 41
1.0
 50
0.0
 71
     0
 42
0.2
  3
MONOTXT.SHX
  4
BIGFONT.SHX
  0
ENDTAB
  0
TABLE
  2
VIEW
  5
6
330
0
100
AcDbSymbolTable
 70
     0
  0
ENDTAB
  0
TABLE
  2
UCS
  5
7
330
0
100
AcDbSymbolTable
 70
     0
  0
ENDTAB
  0
TABLE
  2
APPID
  5
9
330
0
100
AcDbSymbolTable
 70
     1
  0
APPID
  5
12
330
9
100
AcDbSymbolTableRecord
100
AcDbRegAppTableRecord
  2
ACAD
 70
     0
  0
ENDTAB
  0
TABLE
  2
DIMSTYLE
  5
A
330
0
100
AcDbSymbolTable
 70
     2
  0
DIMSTYLE
105
27
330
A
100
AcDbSymbolTableRecord
100
AcDbDimStyleTableRecord
  2
STANDARD
 70
     0
  3

  4

  5

  6

  7

 40
1.0
 41
0.18
 42
0.0625
 43
0.38
 44
0.18
 45
0.0
 46
0.0
 47
0.0
 48
0.0
140
0.18
141
0.09
142
0.0
143
25.4
144
1.0
145
0.0
146
1.0
147
0.09
 71
     0
 72
     0
 73
     1
 74
     1
 75
     0
 76
     0
 77
     0
 78
     0
170
     0
171
     2
172
     0
173
     0
174
     0
175
     0
176
     0
177
     0
178
     0
270
     2
271
     4
272
     4
273
     2
274
     2
340
11
275
     0
280
     0
281
     0
282
     0
283
     1
284
     0
285
     0
286
     0
287
     3
288
     0
  0
DIMSTYLE
105
A7
102
{ACAD_REACTORS
330
13F
330
149
330
155
330
15F
330
169
330
173
330
1AA
330
1B4
330
1BE
330
1C8
330
1D2
102
}
330
A
100
AcDbSymbolTableRecord
100
AcDbDimStyleTableRecord
  2
FXDIMINFO
 70
     0
  3

  4

  5

  6
FXTIP_ARROW_S
  7
FXTIP_ARROW_E
 40
1.0
 41
4.0
 42
1.0
 43
10.0
 44
1.0
 45
0.0
 46
6.0
 47
0.0
 48
0.0
140
4.0
141
2.5
142
0.0
143
0.03937
144
1.0
145
0.0
146
1.0
147
1.0
 71
     0
 72
     0
 73
     0
 74
     0
 75
     0
 76
     0
 77
     1
 78
     8
170
     0
171
     3
172
     1
173
     1
174
     0
175
     0
176
     7
177
     7
178
     7
179
     2
270
     2
271
     2
272
     2
273
     2
274
     3
340
3F
275
     0
280
     0
281
     0
282
     0
283
     0
284
     8
285
     0
286
     0
287
     3
288
     0
  0
ENDTAB
  0
TABLE
  2
BLOCK_RECORD
  5
1
330
0
100
AcDbSymbolTable
 70
    36
  0
BLOCK_RECORD
  5
1F
330
1
100
AcDbSymbolTableRecord
100
AcDbBlockTableRecord
  2
*MODEL_SPACE
  0
BLOCK_RECORD
  5
1B
330
1
100
AcDbSymbolTableRecord
100
AcDbBlockTableRecord
  2
*PAPER_SPACE
  0
BLOCK_RECORD
  5
41
330
1
100
AcDbSymbolTableRecord
100
AcDbBlockTableRecord
  2
FXTIP_ARROW_S
  0
BLOCK_RECORD
  5
47
330
1
100
AcDbSymbolTableRecord
100
AcDbBlockTableRecord
  2
FXTIP_ARROW_E
  0
BLOCK_RECORD
  5
4D
330
1
100
AcDbSymbolTableRecord
100
AcDbBlockTableRecord
  2
FXTIP_BLACKDOT_S
  0
BLOCK_RECORD
  5
53
330
1
100
AcDbSymbolTableRecord
100
AcDbBlockTableRecord
  2
FXTIP_BLACKDOT_E
  0
BLOCK_RECORD
  5
59
330
1
100
AcDbSymbolTableRecord
100
AcDbBlockTableRecord
  2
FXTIP_TRIANGLE_S
  0
BLOCK_RECORD
  5
60
330
1
100
AcDbSymbolTableRecord
100
AcDbBlockTableRecord
  2
FXTIP_TRIANGLE_E
  0
BLOCK_RECORD
  5
67
330
1
100
AcDbSymbolTableRecord
100
AcDbBlockTableRecord
  2
FXTIP_ARCHITECT_S
  0
BLOCK_RECORD
  5
6D
330
1
100
AcDbSymbolTableRecord
100
AcDbBlockTableRecord
  2
FXTIP_ARCHITECT_E
  0
BLOCK_RECORD
  5
73
330
1
100
AcDbSymbolTableRecord
100
AcDbBlockTableRecord
  2
FXTIP_CIVIL_S
  0
BLOCK_RECORD
  5
79
330
1
100
AcDbSymbolTableRecord
100
AcDbBlockTableRecord
  2
FXTIP_CIVIL_E
  0
BLOCK_RECORD
  5
7F
330
1
100
AcDbSymbolTableRecord
100
AcDbBlockTableRecord
  2
FXTIP_WHITEDOT_S
  0
BLOCK_RECORD
  5
84
330
1
100
AcDbSymbolTableRecord
100
AcDbBlockTableRecord
  2
FXTIP_WHITEDOT_E
  0
BLOCK_RECORD
  5
89
330
1
100
AcDbSymbolTableRecord
100
AcDbBlockTableRecord
  2
FXTIP_UPARROW_S
  0
BLOCK_RECORD
  5
8E
330
1
100
AcDbSymbolTableRecord
100
AcDbBlockTableRecord
  2
FXTIP_UPARROW_E
  0
BLOCK_RECORD
  5
93
330
1
100
AcDbSymbolTableRecord
100
AcDbBlockTableRecord
  2
FXTIP_DOWNARROW_S
  0
BLOCK_RECORD
  5
98
330
1
100
AcDbSymbolTableRecord
100
AcDbBlockTableRecord
  2
FXTIP_DOWNARROW_E
  0
BLOCK_RECORD
  5
9D
330
1
100
AcDbSymbolTableRecord
100
AcDbBlockTableRecord
  2
FXTIP_BLACKTRIANGLE_S
  0
BLOCK_RECORD
  5
A2
330
1
100
AcDbSymbolTableRecord
100
AcDbBlockTableRecord
  2
FXTIP_BLACKTRIANGLE_E
  0
BLOCK_RECORD
  5
A8
330
1
100
AcDbSymbolTableRecord
100
AcDbBlockTableRecord
  2
BLKF021
  0
BLOCK_RECORD
  5
B4
330
1
100
AcDbSymbolTableRecord
100
AcDbBlockTableRecord
  2
BLKF022
  0
BLOCK_RECORD
  5
BD
330
1
100
AcDbSymbolTableRecord
100
AcDbBlockTableRecord
  2
BLKF023
  0
BLOCK_RECORD
  5
140
330
1
100
AcDbSymbolTableRecord
100
AcDbBlockTableRecord
  2
*D22
  0
BLOCK_RECORD
  5
14A
330
1
100
AcDbSymbolTableRecord
100
AcDbBlockTableRecord
  2
*D23
  0
BLOCK_RECORD
  5
156
330
1
100
AcDbSymbolTableRecord
100
AcDbBlockTableRecord
  2
*D24
  0
BLOCK_RECORD
  5
160
330
1
100
AcDbSymbolTableRecord
100
AcDbBlockTableRecord
  2
*D25
  0
BLOCK_RECORD
  5
16A
330
1
100
AcDbSymbolTableRecord
100
AcDbBlockTableRecord
  2
*D26
  0
BLOCK_RECORD
  5
174
330
1
100
AcDbSymbolTableRecord
100
AcDbBlockTableRecord
  2
*D27
  0
BLOCK_RECORD
  5
1AB
330
1
100
AcDbSymbolTableRecord
100
AcDbBlockTableRecord
  2
*D28
  0
BLOCK_RECORD
  5
1B5
330
1
100
AcDbSymbolTableRecord
100
AcDbBlockTableRecord
  2
*D29
  0
BLOCK_RECORD
  5
1BF
330
1
100
AcDbSymbolTableRecord
100
AcDbBlockTableRecord
  2
*D30
  0
BLOCK_RECORD
  5
1C9
330
1
100
AcDbSymbolTableRecord
100
AcDbBlockTableRecord
  2
*D31
  0
BLOCK_RECORD
  5
1D3
330
1
100
AcDbSymbolTableRecord
100
AcDbBlockTableRecord
  2
*D32
  0
BLOCK_RECORD
  5
1E0
330
1
100
AcDbSymbolTableRecord
100
AcDbBlockTableRecord
  2
BLKF035
  0
BLOCK_RECORD
  5
20B
330
1
100
AcDbSymbolTableRecord
100
AcDbBlockTableRecord
  2
BLKF036
  0
BLOCK_RECORD
  5
20F
330
1
100
AcDbSymbolTableRecord
100
AcDbBlockTableRecord
  2
BLKF037
  0
ENDTAB
  0
ENDSEC
  0
SECTION
  2
BLOCKS
  0
BLOCK
  5
20
330
1F
100
AcDbEntity
  8
0
100
AcDbBlockBegin
  2
*MODEL_SPACE
 70
     0
 71
     0
 10
0.0
 20
0.0
 30
0.0
  3
*MODEL_SPACE
  1

  0
ENDBLK
  5
21
330
1F
100
AcDbEntity
  8
0
100
AcDbBlockEnd
  0
BLOCK
  5
1C
330
1B
100
AcDbEntity
 67
     1
  8
0
100
AcDbBlockBegin
  2
*PAPER_SPACE
 70
     0
 71
     0
 10
0.0
 20
0.0
 30
0.0
  3
*PAPER_SPACE
  1

  0
ENDBLK
  5
1D
330
1B
100
AcDbEntity
 67
     1
  8
0
100
AcDbBlockEnd
  0
BLOCK
  5
42
330
41
100
AcDbEntity
  8
0
100
AcDbBlockBegin
  2
FXTIP_ARROW_S
 70
     0
 71
     0
 10
0.0
 20
0.0
 30
0.0
  3
FXTIP_ARROW_S
  1

  0
LINE
  5
44
330
41
100
AcDbEntity
  8
0
  6
CONTINUOUS
 62
     0
100
AcDbLine
 10
0.0
 20
0.0
 30
0.0
 11
-1.0
 21
0.0
 31
0.0
  0
LINE
  5
45
330
41
100
AcDbEntity
  8
0
  6
CONTINUOUS
 62
     0
100
AcDbLine
 10
0.0
 20
0.0
 30
0.0
 11
-0.965926
 21
-0.258819
 31
0.0
  0
LINE
  5
46
330
41
100
AcDbEntity
  8
0
  6
CONTINUOUS
 62
     0
100
AcDbLine
 10
0.0
 20
0.0
 30
0.0
 11
-0.965926
 21
0.258819
 31
0.0
  0
ENDBLK
  5
43
330
41
100
AcDbEntity
  8
0
100
AcDbBlockEnd
  0
BLOCK
  5
48
330
47
100
AcDbEntity
  8
0
100
AcDbBlockBegin
  2
FXTIP_ARROW_E
 70
     0
 71
     0
 10
0.0
 20
0.0
 30
0.0
  3
FXTIP_ARROW_E
  1

  0
LINE
  5
4A
330
47
100
AcDbEntity
  8
0
  6
CONTINUOUS
 62
     0
100
AcDbLine
 10
0.0
 20
0.0
 30
0.0
 11
-1.0
 21
0.0
 31
0.0
  0
LINE
  5
4B
330
47
100
AcDbEntity
  8
0
  6
CONTINUOUS
 62
     0
100
AcDbLine
 10
0.0
 20
0.0
 30
0.0
 11
-0.965926
 21
0.258819
 31
0.0
  0
LINE
  5
4C
330
47
100
AcDbEntity
  8
0
  6
CONTINUOUS
 62
     0
100
AcDbLine
 10
0.0
 20
0.0
 30
0.0
 11
-0.965926
 21
-0.258819
 31
0.0
  0
ENDBLK
  5
49
330
47
100
AcDbEntity
  8
0
100
AcDbBlockEnd
  0
BLOCK
  5
4E
330
4D
100
AcDbEntity
  8
0
100
AcDbBlockBegin
  2
FXTIP_BLACKDOT_S
 70
     0
 71
     0
 10
0.0
 20
0.0
 30
0.0
  3
FXTIP_BLACKDOT_S
  1

  0
LINE
  5
50
330
4D
100
AcDbEntity
  8
0
  6
CONTINUOUS
 62
     0
100
AcDbLine
 10
0.0
 20
0.0
 30
0.0
 11
-1.0
 21
0.0
 31
0.0
  0
LWPOLYLINE
  5
51
330
4D
100
AcDbEntity
  8
0
  6
CONTINUOUS
 62
     0
100
AcDbPolyline
 90
        2
 70
     1
 10
-0.25
 20
0.0
 40
0.5
 41
0.5
 42
1.0
 10
0.25
 20
0.0
 40
0.5
 41
0.5
 42
1.0
  0
CIRCLE
  5
52
330
4D
100
AcDbEntity
  8
0
  6
CONTINUOUS
 62
     0
100
AcDbCircle
 10
0.0
 20
0.0
 30
0.0
 40
0.5
  0
ENDBLK
  5
4F
330
4D
100
AcDbEntity
  8
0
100
AcDbBlockEnd
  0
BLOCK
  5
54
330
53
100
AcDbEntity
  8
0
100
AcDbBlockBegin
  2
FXTIP_BLACKDOT_E
 70
     0
 71
     0
 10
0.0
 20
0.0
 30
0.0
  3
FXTIP_BLACKDOT_E
  1

  0
LINE
  5
56
330
53
100
AcDbEntity
  8
0
  6
CONTINUOUS
 62
     0
100
AcDbLine
 10
0.0
 20
0.0
 30
0.0
 11
-1.0
 21
0.0
 31
0.0
  0
LWPOLYLINE
  5
57
330
53
100
AcDbEntity
  8
0
  6
CONTINUOUS
 62
     0
100
AcDbPolyline
 90
        2
 70
     1
 10
-0.25
 20
0.0
 40
0.5
 41
0.5
 42
1.0
 10
0.25
 20
0.0
 40
0.5
 41
0.5
 42
1.0
  0
CIRCLE
  5
58
330
53
100
AcDbEntity
  8
0
  6
CONTINUOUS
 62
     0
100
AcDbCircle
 10
0.0
 20
0.0
 30
0.0
 40
0.5
  0
ENDBLK
  5
55
330
53
100
AcDbEntity
  8
0
100
AcDbBlockEnd
  0
BLOCK
  5
5A
330
59
100
AcDbEntity
  8
0
100
AcDbBlockBegin
  2
FXTIP_TRIANGLE_S
 70
     0
 71
     0
 10
0.0
 20
0.0
 30
0.0
  3
FXTIP_TRIANGLE_S
  1

  0
LINE
  5
5C
330
59
100
AcDbEntity
  8
0
  6
CONTINUOUS
 62
     0
100
AcDbLine
 10
0.0
 20
0.0
 30
0.0
 11
-1.0
 21
0.0
 31
0.0
  0
LINE
  5
5D
330
59
100
AcDbEntity
  8
0
  6
CONTINUOUS
 62
     0
100
AcDbLine
 10
0.0
 20
0.0
 30
0.0
 11
-0.965926
 21
-0.258819
 31
0.0
  0
LINE
  5
5E
330
59
100
AcDbEntity
  8
0
  6
CONTINUOUS
 62
     0
100
AcDbLine
 10
0.0
 20
0.0
 30
0.0
 11
-0.965926
 21
0.258819
 31
0.0
  0
LINE
  5
5F
330
59
100
AcDbEntity
  8
0
  6
CONTINUOUS
 62
     0
100
AcDbLine
 10
-0.965926
 20
-0.258819
 30
0.0
 11
-0.965926
 21
0.258819
 31
0.0
  0
ENDBLK
  5
5B
330
59
100
AcDbEntity
  8
0
100
AcDbBlockEnd
  0
BLOCK
  5
61
330
60
100
AcDbEntity
  8
0
100
AcDbBlockBegin
  2
FXTIP_TRIANGLE_E
 70
     0
 71
     0
 10
0.0
 20
0.0
 30
0.0
  3
FXTIP_TRIANGLE_E
  1

  0
LINE
  5
63
330
60
100
AcDbEntity
  8
0
  6
CONTINUOUS
 62
     0
100
AcDbLine
 10
0.0
 20
0.0
 30
0.0
 11
-1.0
 21
0.0
 31
0.0
  0
LINE
  5
64
330
60
100
AcDbEntity
  8
0
  6
CONTINUOUS
 62
     0
100
AcDbLine
 10
0.0
 20
0.0
 30
0.0
 11
-0.965926
 21
0.258819
 31
0.0
  0
LINE
  5
65
330
60
100
AcDbEntity
  8
0
  6
CONTINUOUS
 62
     0
100
AcDbLine
 10
0.0
 20
0.0
 30
0.0
 11
-0.965926
 21
-0.258819
 31
0.0
  0
LINE
  5
66
330
60
100
AcDbEntity
  8
0
  6
CONTINUOUS
 62
     0
100
AcDbLine
 10
-0.965926
 20
0.258819
 30
0.0
 11
-0.965926
 21
-0.258819
 31
0.0
  0
ENDBLK
  5
62
330
60
100
AcDbEntity
  8
0
100
AcDbBlockEnd
  0
BLOCK
  5
68
330
67
100
AcDbEntity
  8
0
100
AcDbBlockBegin
  2
FXTIP_ARCHITECT_S
 70
     0
 71
     0
 10
0.0
 20
0.0
 30
0.0
  3
FXTIP_ARCHITECT_S
  1

  0
LINE
  5
6A
330
67
100
AcDbEntity
  8
0
  6
CONTINUOUS
 62
     0
100
AcDbLine
 10
0.0
 20
0.0
 30
0.0
 11
-1.0
 21
0.0
 31
0.0
  0
LINE
  5
6B
330
67
100
AcDbEntity
  8
0
  6
CONTINUOUS
 62
     0
100
AcDbLine
 10
0.0
 20
0.0
 30
0.0
 11
-0.707107
 21
-0.707107
 31
0.0
  0
LINE
  5
6C
330
67
100
AcDbEntity
  8
0
  6
CONTINUOUS
 62
     0
100
AcDbLine
 10
0.0
 20
0.0
 30
0.0
 11
0.707107
 21
0.707107
 31
0.0
  0
ENDBLK
  5
69
330
67
100
AcDbEntity
  8
0
100
AcDbBlockEnd
  0
BLOCK
  5
6E
330
6D
100
AcDbEntity
  8
0
100
AcDbBlockBegin
  2
FXTIP_ARCHITECT_E
 70
     0
 71
     0
 10
0.0
 20
0.0
 30
0.0
  3
FXTIP_ARCHITECT_E
  1

  0
LINE
  5
70
330
6D
100
AcDbEntity
  8
0
  6
CONTINUOUS
 62
     0
100
AcDbLine
 10
0.0
 20
0.0
 30
0.0
 11
-1.0
 21
0.0
 31
0.0
  0
LINE
  5
71
330
6D
100
AcDbEntity
  8
0
  6
CONTINUOUS
 62
     0
100
AcDbLine
 10
0.0
 20
0.0
 30
0.0
 11
0.707107
 21
0.707107
 31
0.0
  0
LINE
  5
72
330
6D
100
AcDbEntity
  8
0
  6
CONTINUOUS
 62
     0
100
AcDbLine
 10
0.0
 20
0.0
 30
0.0
 11
-0.707107
 21
-0.707107
 31
0.0
  0
ENDBLK
  5
6F
330
6D
100
AcDbEntity
  8
0
100
AcDbBlockEnd
  0
BLOCK
  5
74
330
73
100
AcDbEntity
  8
0
100
AcDbBlockBegin
  2
FXTIP_CIVIL_S
 70
     0
 71
     0
 10
0.0
 20
0.0
 30
0.0
  3
FXTIP_CIVIL_S
  1

  0
LINE
  5
76
330
73
100
AcDbEntity
  8
0
  6
CONTINUOUS
 62
     0
100
AcDbLine
 10
0.0
 20
0.0
 30
0.0
 11
-1.0
 21
0.0
 31
0.0
  0
LINE
  5
77
330
73
100
AcDbEntity
  8
0
  6
CONTINUOUS
 62
     0
100
AcDbLine
 10
0.0
 20
-0.0625
 30
0.0
 11
-1.0
 21
-0.0625
 31
0.0
  0
LINE
  5
78
330
73
100
AcDbEntity
  8
0
  6
CONTINUOUS
 62
     0
100
AcDbLine
 10
0.0
 20
-0.125
 30
0.0
 11
-1.0
 21
-0.125
 31
0.0
  0
ENDBLK
  5
75
330
73
100
AcDbEntity
  8
0
100
AcDbBlockEnd
  0
BLOCK
  5
7A
330
79
100
AcDbEntity
  8
0
100
AcDbBlockBegin
  2
FXTIP_CIVIL_E
 70
     0
 71
     0
 10
0.0
 20
0.0
 30
0.0
  3
FXTIP_CIVIL_E
  1

  0
LINE
  5
7C
330
79
100
AcDbEntity
  8
0
  6
CONTINUOUS
 62
     0
100
AcDbLine
 10
0.0
 20
0.0
 30
0.0
 11
-1.0
 21
0.0
 31
0.0
  0
LINE
  5
7D
330
79
100
AcDbEntity
  8
0
  6
CONTINUOUS
 62
     0
100
AcDbLine
 10
0.0
 20
0.0625
 30
0.0
 11
-1.0
 21
0.0625
 31
0.0
  0
LINE
  5
7E
330
79
100
AcDbEntity
  8
0
  6
CONTINUOUS
 62
     0
100
AcDbLine
 10
0.0
 20
0.125
 30
0.0
 11
-1.0
 21
0.125
 31
0.0
  0
ENDBLK
  5
7B
330
79
100
AcDbEntity
  8
0
100
AcDbBlockEnd
  0
BLOCK
  5
80
330
7F
100
AcDbEntity
  8
0
100
AcDbBlockBegin
  2
FXTIP_WHITEDOT_S
 70
     0
 71
     0
 10
0.0
 20
0.0
 30
0.0
  3
FXTIP_WHITEDOT_S
  1

  0
LINE
  5
82
330
7F
100
AcDbEntity
  8
0
  6
CONTINUOUS
 62
     0
100
AcDbLine
 10
0.0
 20
0.0
 30
0.0
 11
-1.0
 21
0.0
 31
0.0
  0
CIRCLE
  5
83
330
7F
100
AcDbEntity
  8
0
  6
CONTINUOUS
 62
     0
100
AcDbCircle
 10
0.0
 20
0.0
 30
0.0
 40
0.5
  0
ENDBLK
  5
81
330
7F
100
AcDbEntity
  8
0
100
AcDbBlockEnd
  0
BLOCK
  5
85
330
84
100
AcDbEntity
  8
0
100
AcDbBlockBegin
  2
FXTIP_WHITEDOT_E
 70
     0
 71
     0
 10
0.0
 20
0.0
 30
0.0
  3
FXTIP_WHITEDOT_E
  1

  0
LINE
  5
87
330
84
100
AcDbEntity
  8
0
  6
CONTINUOUS
 62
     0
100
AcDbLine
 10
0.0
 20
0.0
 30
0.0
 11
-1.0
 21
0.0
 31
0.0
  0
CIRCLE
  5
88
330
84
100
AcDbEntity
  8
0
  6
CONTINUOUS
 62
     0
100
AcDbCircle
 10
0.0
 20
0.0
 30
0.0
 40
0.5
  0
ENDBLK
  5
86
330
84
100
AcDbEntity
  8
0
100
AcDbBlockEnd
  0
BLOCK
  5
8A
330
89
100
AcDbEntity
  8
0
100
AcDbBlockBegin
  2
FXTIP_UPARROW_S
 70
     0
 71
     0
 10
0.0
 20
0.0
 30
0.0
  3
FXTIP_UPARROW_S
  1

  0
LINE
  5
8C
330
89
100
AcDbEntity
  8
0
  6
CONTINUOUS
 62
     0
100
AcDbLine
 10
0.0
 20
0.0
 30
0.0
 11
-1.0
 21
0.0
 31
0.0
  0
LINE
  5
8D
330
89
100
AcDbEntity
  8
0
  6
CONTINUOUS
 62
     0
100
AcDbLine
 10
0.0
 20
0.0
 30
0.0
 11
-0.965926
 21
-0.258819
 31
0.0
  0
ENDBLK
  5
8B
330
89
100
AcDbEntity
  8
0
100
AcDbBlockEnd
  0
BLOCK
  5
8F
330
8E
100
AcDbEntity
  8
0
100
AcDbBlockBegin
  2
FXTIP_UPARROW_E
 70
     0
 71
     0
 10
0.0
 20
0.0
 30
0.0
  3
FXTIP_UPARROW_E
  1

  0
LINE
  5
91
330
8E
100
AcDbEntity
  8
0
  6
CONTINUOUS
 62
     0
100
AcDbLine
 10
0.0
 20
0.0
 30
0.0
 11
-1.0
 21
0.0
 31
0.0
  0
LINE
  5
92
330
8E
100
AcDbEntity
  8
0
  6
CONTINUOUS
 62
     0
100
AcDbLine
 10
0.0
 20
0.0
 30
0.0
 11
-0.965926
 21
0.258819
 31
0.0
  0
ENDBLK
  5
90
330
8E
100
AcDbEntity
  8
0
100
AcDbBlockEnd
  0
BLOCK
  5
94
330
93
100
AcDbEntity
  8
0
100
AcDbBlockBegin
  2
FXTIP_DOWNARROW_S
 70
     0
 71
     0
 10
0.0
 20
0.0
 30
0.0
  3
FXTIP_DOWNARROW_S
  1

  0
LINE
  5
96
330
93
100
AcDbEntity
  8
0
  6
CONTINUOUS
 62
     0
100
AcDbLine
 10
0.0
 20
0.0
 30
0.0
 11
-1.0
 21
0.0
 31
0.0
  0
LINE
  5
97
330
93
100
AcDbEntity
  8
0
  6
CONTINUOUS
 62
     0
100
AcDbLine
 10
0.0
 20
0.0
 30
0.0
 11
-0.965926
 21
0.258819
 31
0.0
  0
ENDBLK
  5
95
330
93
100
AcDbEntity
  8
0
100
AcDbBlockEnd
  0
BLOCK
  5
99
330
98
100
AcDbEntity
  8
0
100
AcDbBlockBegin
  2
FXTIP_DOWNARROW_E
 70
     0
 71
     0
 10
0.0
 20
0.0
 30
0.0
  3
FXTIP_DOWNARROW_E
  1

  0
LINE
  5
9B
330
98
100
AcDbEntity
  8
0
  6
CONTINUOUS
 62
     0
100
AcDbLine
 10
0.0
 20
0.0
 30
0.0
 11
-1.0
 21
0.0
 31
0.0
  0
LINE
  5
9C
330
98
100
AcDbEntity
  8
0
  6
CONTINUOUS
 62
     0
100
AcDbLine
 10
0.0
 20
0.0
 30
0.0
 11
-0.965926
 21
-0.258819
 31
0.0
  0
ENDBLK
  5
9A
330
98
100
AcDbEntity
  8
0
100
AcDbBlockEnd
  0
BLOCK
  5
9E
330
9D
100
AcDbEntity
  8
0
100
AcDbBlockBegin
  2
FXTIP_BLACKTRIANGLE_S
 70
     0
 71
     0
 10
0.0
 20
0.0
 30
0.0
  3
FXTIP_BLACKTRIANGLE_S
  1

  0
LINE
  5
A0
330
9D
100
AcDbEntity
  8
0
  6
CONTINUOUS
 62
     0
100
AcDbLine
 10
0.0
 20
0.0
 30
0.0
 11
-1.0
 21
0.0
 31
0.0
  0
SOLID
  5
A1
330
9D
100
AcDbEntity
  8
0
  6
CONTINUOUS
 62
     0
100
AcDbTrace
 10
0.0
 20
0.0
 30
0.0
 11
-0.965926
 21
-0.258819
 31
0.0
 12
-0.965926
 22
0.258819
 32
0.0
 13
-0.965926
 23
0.258819
 33
0.0
  0
ENDBLK
  5
9F
330
9D
100
AcDbEntity
  8
0
100
AcDbBlockEnd
  0
BLOCK
  5
A3
330
A2
100
AcDbEntity
  8
0
100
AcDbBlockBegin
  2
FXTIP_BLACKTRIANGLE_E
 70
     0
 71
     0
 10
0.0
 20
0.0
 30
0.0
  3
FXTIP_BLACKTRIANGLE_E
  1

  0
LINE
  5
A5
330
A2
100
AcDbEntity
  8
0
  6
CONTINUOUS
 62
     0
100
AcDbLine
 10
0.0
 20
0.0
 30
0.0
 11
-1.0
 21
0.0
 31
0.0
  0
SOLID
  5
A6
330
A2
100
AcDbEntity
  8
0
  6
CONTINUOUS
 62
     0
100
AcDbTrace
 10
0.0
 20
0.0
 30
0.0
 11
-0.965926
 21
0.258819
 31
0.0
 12
-0.965926
 22
-0.258819
 32
0.0
 13
-0.965926
 23
-0.258819
 33
0.0
  0
ENDBLK
  5
A4
330
A2
100
AcDbEntity
  8
0
100
AcDbBlockEnd
  0
BLOCK
  5
A9
330
A8
100
AcDbEntity
  8
0
100
AcDbBlockBegin
  2
BLKF021
 70
     0
 71
     0
 10
0.0
 20
0.0
 30
0.0
  3
BLKF021
  1

  0
LINE
  5
AC
330
A8
100
AcDbEntity
  8
}}ﾊﾊGG血CCТ
  6
CONTINUOUS
 62
     7
100
AcDbLine
 10
10.0
 20
10.0
 30
0.0
 11
410.0
 21
10.0
 31
0.0
  0
LINE
  5
AD
330
A8
100
AcDbEntity
  8
}}ﾊﾊGG血CCТ
  6
CONTINUOUS
 62
     7
100
AcDbLine
 10
10.0
 20
10.0
 30
0.0
 11
10.0
 21
287.0
 31
0.0
  0
LINE
  5
AE
330
A8
100
AcDbEntity
  8
}}ﾊﾊGG血CCТ
  6
CONTINUOUS
 62
     7
100
AcDbLine
 10
10.0
 20
287.0
 30
0.0
 11
410.0
 21
287.0
 31
0.0
  0
LINE
  5
AF
330
A8
100
AcDbEntity
  8
}}ﾊﾊGG血CCТ
  6
CONTINUOUS
 62
     7
100
AcDbLine
 10
410.0
 20
287.0
 30
0.0
 11
410.0
 21
10.0
 31
0.0
  0
LINE
  5
B0
330
A8
100
AcDbEntity
  8
}}ﾊﾊGG血CCТ
  6
CONTINUOUS
 62
     7
100
AcDbLine
 10
153.0
 20
10.0
 30
0.0
 11
153.0
 21
20.0
 31
0.0
  0
TEXT
  5
B1
330
A8
100
AcDbEntity
  8
}}ﾊﾊGG血CCТ
  6
CONTINUOUS
 62
     7
100
AcDbText
 10
137.738815
 20
11.596879
 30
0.0
 40
6.648749
  1
品名
 41
1.083413
  7
FX_VECTOR
 72
     5
 11
149.058355
 21
11.596879
 31
0.0
100
AcDbText
  0
LINE
  5
B2
330
A8
100
AcDbEntity
  8
}}ﾊﾊGG血CCТ
  6
CONTINUOUS
 62
     7
100
AcDbLine
 10
233.0
 20
20.0
 30
0.0
 11
233.0
 21
10.0
 31
0.0
  0
LINE
  5
B3
330
A8
100
AcDbEntity
  8
}}ﾊﾊGG血CCТ
  6
CONTINUOUS
 62
     7
100
AcDbLine
 10
133.0
 20
20.0
 30
0.0
 11
410.0
 21
20.0
 31
0.0
  0
INSERT
  5
B7
330
A8
100
AcDbEntity
  8
0
100
AcDbBlockReference
  2
BLKF022
 10
0.0
 20
0.0
 30
0.0
  0
INSERT
  5
C0
330
A8
100
AcDbEntity
  8
0
100
AcDbBlockReference
  2
BLKF023
 10
0.0
 20
0.0
 30
0.0
  0
HATCH
  5
D1
330
A8
100
AcDbEntity
  8
GR1-1
  6
CONTINUOUS
 62
     7
100
AcDbHatch
 10
0.0
 20
0.0
 30
0.0
210
0.0
220
0.0
230
1.0
  2

 70
     0
 71
     1
 91
        2
 92
        0
 93
        4
 72
     1
 10
338.8018997861325
 20
17.91346152
 11
344.8018997861325
 21
17.91346152
 72
     1
 10
344.8018997861325
 20
17.91346152
 11
344.8018997861325
 21
11.91346152
 72
     1
 10
344.8018997861325
 20
11.91346152
 11
338.8018997861325
 21
11.91346152
 72
     1
 10
338.8018997861325
 20
11.91346152
 11
338.8018997861325
 21
17.91346152
 97
        0
 92
        0
 93
       15
 72
     1
 10
341.8018997861325
 20
17.76923076000002
 11
338.9461305461325
 21
14.91346152
 72
     1
 10
338.9461305461325
 20
14.91346152
 11
341.8018997861325
 21
12.05769228000001
 72
     1
 10
341.8018997861325
 20
12.05769228000001
 11
343.3595920661325
 21
13.61538462
 72
     1
 10
343.3595920661325
 20
13.61538462
 11
343.3595920661325
 21
12.98076924
 72
     1
 10
343.3595920661325
 20
12.98076924
 11
344.2249766861325
 21
12.98076924
 72
     1
 10
344.2249766861325
 20
12.98076924
 11
344.2249766861325
 21
15.00000000000001
 72
     1
 10
344.2249766861325
 20
15.00000000000001
 11
341.8018997861325
 21
15.00000000000001
 72
     1
 10
341.8018997861325
 20
15.00000000000001
 11
341.8018997861325
 21
14.13461538000001
 72
     1
 10
341.8018997861325
 20
14.13461538000001
 11
342.2461305461325
 21
14.13461538000001
 72
     1
 10
342.2461305461325
 20
14.13461538000001
 11
341.8018997861325
 21
13.69038462
 72
     1
 10
341.8018997861325
 20
13.69038462
 11
340.5788228861325
 21
14.91346152
 72
     1
 10
340.5788228861325
 20
14.91346152
 11
341.8018997861325
 21
16.13653842000003
 72
     1
 10
341.8018997861325
 20
16.13653842000003
 11
342.5922844061325
 21
15.3461538
 72
     1
 10
342.5922844061325
 20
15.3461538
 11
344.2249766861325
 21
15.3461538
 72
     1
 10
344.2249766861325
 20
15.3461538
 11
341.8018997861325
 21
17.76923076000002
 97
        0
 75
     0
 76
     0
 52
45.0
 41
0.05
 77
     0
 78
     1
 53
45.0
 43
0.0
 44
0.0
 45
-0.0353553390593274
 46
0.0353553390593274
 79
     0
 98
        0
  0
TEXT
  5
D2
330
A8
100
AcDbEntity
  8
}}ﾊﾊGG血CCТ
  6
CONTINUOUS
 62
     7
100
AcDbText
 10
349.225769
 20
11.461285
 30
0.0
 40
7.170908
  1
GOLD CASTER
 41
0.63978
  7
FX_VECTOR
 72
     5
 11
395.977636
 21
11.461285
 31
0.0
100
AcDbText
  0
LINE
  5
D3
330
A8
100
AcDbEntity
  8
}}ﾊﾊGG血CCТ
  6
CONTINUOUS
 62
     7
100
AcDbLine
 10
253.0
 20
10.0
 30
0.0
 11
253.0
 21
20.0
 31
0.0
  0
TEXT
  5
D4
330
A8
100
AcDbEntity
  8
}}ﾊﾊGG血CCТ
  6
CONTINUOUS
 62
     7
100
AcDbText
 10
237.738815
 20
11.596879
 30
0.0
 40
6.648749
  1
図番
 41
1.083413
  7
FX_VECTOR
 72
     5
 11
249.058355
 21
11.596879
 31
0.0
100
AcDbText
  0
LINE
  5
D5
330
A8
100
AcDbEntity
  8
}}ﾊﾊGG血CCТ
  6
CONTINUOUS
 62
     7
100
AcDbLine
 10
333.0
 20
20.0
 30
0.0
 11
333.0
 21
10.0
 31
0.0
  0
LINE
  5
D6
330
A8
100
AcDbEntity
  8
}}ﾊﾊGG血CCТ
  6
CONTINUOUS
 62
     7
100
AcDbLine
 10
133.0
 20
20.0
 30
0.0
 11
133.0
 21
10.0
 31
0.0
  0
ENDBLK
  5
AA
330
A8
100
AcDbEntity
  8
0
100
AcDbBlockEnd
  0
BLOCK
  5
B5
330
B4
100
AcDbEntity
  8
0
100
AcDbBlockBegin
  2
BLKF022
 70
     0
 71
     0
 10
0.0
 20
0.0
 30
0.0
  3
BLKF022
  1

  0
LINE
  5
B9
330
B4
100
AcDbEntity
  8
0-1
  6
CONTINUOUS
 62
     7
100
AcDbLine
 10
344.8019
 20
17.913462
 30
0.0
 11
338.8019
 21
17.913462
 31
0.0
  0
LINE
  5
BA
330
B4
100
AcDbEntity
  8
0-1
  6
CONTINUOUS
 62
     7
100
AcDbLine
 10
338.8019
 20
17.913462
 30
0.0
 11
338.8019
 21
11.913462
 31
0.0
  0
LINE
  5
BB
330
B4
100
AcDbEntity
  8
0-1
  6
CONTINUOUS
 62
     7
100
AcDbLine
 10
338.8019
 20
11.913462
 30
0.0
 11
344.8019
 21
11.913462
 31
0.0
  0
LINE
  5
BC
330
B4
100
AcDbEntity
  8
0-1
  6
CONTINUOUS
 62
     7
100
AcDbLine
 10
344.8019
 20
11.913462
 30
0.0
 11
344.8019
 21
17.913462
 31
0.0
  0
ENDBLK
  5
B6
330
B4
100
AcDbEntity
  8
0
100
AcDbBlockEnd
  0
BLOCK
  5
BE
330
BD
100
AcDbEntity
  8
0
100
AcDbBlockBegin
  2
BLKF023
 70
     0
 71
     0
 10
0.0
 20
0.0
 30
0.0
  3
BLKF023
  1

  0
LINE
  5
C1
330
BD
100
AcDbEntity
  8
0-1
  6
CONTINUOUS
 62
     7
100
AcDbLine
 10
344.224977
 20
15.346154
 30
0.0
 11
341.8019
 21
17.769231
 31
0.0
  0
LINE
  5
C2
330
BD
100
AcDbEntity
  8
0-1
  6
CONTINUOUS
 62
     7
100
AcDbLine
 10
341.8019
 20
17.769231
 30
0.0
 11
338.946131
 21
14.913462
 31
0.0
  0
LINE
  5
C3
330
BD
100
AcDbEntity
  8
0-1
  6
CONTINUOUS
 62
     7
100
AcDbLine
 10
338.946131
 20
14.913462
 30
0.0
 11
341.8019
 21
12.057692
 31
0.0
  0
LINE
  5
C4
330
BD
100
AcDbEntity
  8
0-1
  6
CONTINUOUS
 62
     7
100
AcDbLine
 10
341.8019
 20
12.057692
 30
0.0
 11
343.359592
 21
13.615385
 31
0.0
  0
LINE
  5
C5
330
BD
100
AcDbEntity
  8
0-1
  6
CONTINUOUS
 62
     7
100
AcDbLine
 10
343.359592
 20
13.615385
 30
0.0
 11
343.359592
 21
12.980769
 31
0.0
  0
LINE
  5
C6
330
BD
100
AcDbEntity
  8
0-1
  6
CONTINUOUS
 62
     7
100
AcDbLine
 10
343.359592
 20
12.980769
 30
0.0
 11
344.224977
 21
12.980769
 31
0.0
  0
LINE
  5
C7
330
BD
100
AcDbEntity
  8
0-1
  6
CONTINUOUS
 62
     7
100
AcDbLine
 10
344.224977
 20
12.980769
 30
0.0
 11
344.224977
 21
15.0
 31
0.0
  0
LINE
  5
C8
330
BD
100
AcDbEntity
  8
0-1
  6
CONTINUOUS
 62
     7
100
AcDbLine
 10
344.224977
 20
15.0
 30
0.0
 11
341.8019
 21
15.0
 31
0.0
  0
LINE
  5
C9
330
BD
100
AcDbEntity
  8
0-1
  6
CONTINUOUS
 62
     7
100
AcDbLine
 10
341.8019
 20
15.0
 30
0.0
 11
341.8019
 21
14.134615
 31
0.0
  0
LINE
  5
CA
330
BD
100
AcDbEntity
  8
0-1
  6
CONTINUOUS
 62
     7
100
AcDbLine
 10
341.8019
 20
14.134615
 30
0.0
 11
342.246131
 21
14.134615
 31
0.0
  0
LINE
  5
CB
330
BD
100
AcDbEntity
  8
0-1
  6
CONTINUOUS
 62
     7
100
AcDbLine
 10
342.246131
 20
14.134615
 30
0.0
 11
341.8019
 21
13.690385
 31
0.0
  0
LINE
  5
CC
330
BD
100
AcDbEntity
  8
0-1
  6
CONTINUOUS
 62
     7
100
AcDbLine
 10
341.8019
 20
13.690385
 30
0.0
 11
340.578823
 21
14.913462
 31
0.0
  0
LINE
  5
CD
330
BD
100
AcDbEntity
  8
0-1
  6
CONTINUOUS
 62
     7
100
AcDbLine
 10
340.578823
 20
14.913462
 30
0.0
 11
341.8019
 21
16.136538
 31
0.0
  0
LINE
  5
CE
330
BD
100
AcDbEntity
  8
0-1
  6
CONTINUOUS
 62
     7
100
AcDbLine
 10
341.8019
 20
16.136538
 30
0.0
 11
342.592284
 21
15.346154
 31
0.0
  0
LINE
  5
CF
330
BD
100
AcDbEntity
  8
0-1
  6
CONTINUOUS
 62
     7
100
AcDbLine
 10
342.592284
 20
15.346154
 30
0.0
 11
344.224977
 21
15.346154
 31
0.0
  0
ENDBLK
  5
BF
330
BD
100
AcDbEntity
  8
0
100
AcDbBlockEnd
  0
BLOCK
  5
141
330
140
100
AcDbEntity
  8
0
100
AcDbBlockBegin
  2
*D22
 70
     1
 71
     0
 10
0.0
 20
0.0
 30
0.0
  3
*D22
  1

  0
TEXT
  5
143
330
140
100
AcDbEntity
  8
GR1-1
  6
CONTINUOUS
 62
     7
100
AcDbText
 10
289.660919
 20
120.778992
 30
0.0
 40
4.0
  1
54.5
 50
90.0
 41
0.940299
  7
FX_VECTOR
 72
     5
 11
289.660919
 21
132.778992
 31
0.0
100
AcDbText
  0
LINE
  5
144
330
140
100
AcDbEntity
  8
GR1-1
  6
CONTINUOUS
 62
     7
100
AcDbLine
 10
290.66092
 20
99.528981
 30
0.0
 11
290.66092
 21
154.029
 31
0.0
  0
INSERT
  5
145
330
140
100
AcDbEntity
  8
GR1-1
  6
CONTINUOUS
 62
     7
100
AcDbBlockReference
  2
FXTIP_ARROW_S
 10
290.66092
 20
99.528981
 30
0.0
 41
4.0
 42
4.0
 50
270.0
  0
INSERT
  5
146
330
140
100
AcDbEntity
  8
GR1-1
  6
CONTINUOUS
 62
     7
100
AcDbBlockReference
  2
FXTIP_ARROW_E
 10
290.66092
 20
154.029
 30
0.0
 41
4.0
 42
4.0
 50
90.0
  0
LINE
  5
147
330
140
100
AcDbEntity
  8
GR1-1
  6
CONTINUOUS
 62
     7
100
AcDbLine
 10
258.55546
 20
99.528981
 30
0.0
 11
291.66092
 21
99.528981
 31
0.0
  0
LINE
  5
148
330
140
100
AcDbEntity
  8
GR1-1
  6
CONTINUOUS
 62
     7
100
AcDbLine
 10
282.66092
 20
154.029
 30
0.0
 11
291.66092
 21
154.029
 31
0.0
  0
ENDBLK
  5
142
330
140
100
AcDbEntity
  8
0
100
AcDbBlockEnd
  0
BLOCK
  5
14B
330
14A
100
AcDbEntity
  8
0
100
AcDbBlockBegin
  2
*D23
 70
     1
 71
     0
 10
0.0
 20
0.0
 30
0.0
  3
*D23
  1

  0
TEXT
  5
14D
330
14A
100
AcDbEntity
  8
GR1-1
  6
CONTINUOUS
 62
     7
100
AcDbText
 10
228.660919
 20
53.028992
 30
0.0
 40
4.0
  1
28
 41
0.851351
  7
FX_VECTOR
 72
     5
 11
234.660919
 21
53.028992
 31
0.0
100
AcDbText
  0
LINE
  5
14E
330
14A
100
AcDbEntity
  8
GR1-1
  6
CONTINUOUS
 62
     7
100
AcDbLine
 10
217.66092
 20
52.028981
 30
0.0
 11
245.66092
 21
52.028981
 31
0.0
  0
INSERT
  5
14F
330
14A
100
AcDbEntity
  8
GR1-1
  6
CONTINUOUS
 62
     7
100
AcDbBlockReference
  2
FXTIP_ARROW_S
 10
217.66092
 20
52.028981
 30
0.0
 41
4.0
 42
4.0
 50
180.0
  0
INSERT
  5
150
330
14A
100
AcDbEntity
  8
GR1-1
  6
CONTINUOUS
 62
     7
100
AcDbBlockReference
  2
FXTIP_ARROW_E
 10
245.66092
 20
52.028981
 30
0.0
 41
4.0
 42
4.0
 50
360.0
  0
LINE
  5
151
330
14A
100
AcDbEntity
  8
GR1-1
  6
CONTINUOUS
 62
     7
100
AcDbLine
 10
217.66092
 20
56.814641
 30
0.0
 11
217.66092
 21
51.028981
 31
0.0
  0
LINE
  5
152
330
14A
100
AcDbEntity
  8
GR1-1
  6
CONTINUOUS
 62
     7
100
AcDbLine
 10
245.66092
 20
117.234817
 30
0.0
 11
245.66092
 21
51.028981
 31
0.0
  0
ENDBLK
  5
14C
330
14A
100
AcDbEntity
  8
0
100
AcDbBlockEnd
  0
BLOCK
  5
157
330
156
100
AcDbEntity
  8
0
100
AcDbBlockBegin
  2
*D24
 70
     1
 71
     0
 10
0.0
 20
0.0
 30
0.0
  3
*D24
  1

  0
TEXT
  5
159
330
156
100
AcDbEntity
  8
LAYERGROUP-1
  6
CONTINUOUS
 62
     7
100
AcDbText
 10
152.50531
 20
95.028992
 30
0.0
 40
4.0
  1
%%c75
 50
90.0
 41
0.84375
  7
FX_VECTOR
 72
     5
 11
152.50531
 21
104.028992
 31
0.0
100
AcDbText
  0
LINE
  5
15A
330
156
100
AcDbEntity
  8
LAYERGROUP-1
  6
CONTINUOUS
 62
     7
100
AcDbLine
 10
153.505302
 20
62.029
 30
0.0
 11
153.505302
 21
137.029
 31
0.0
  0
INSERT
  5
15B
330
156
100
AcDbEntity
  8
LAYERGROUP-1
  6
CONTINUOUS
 62
     7
100
AcDbBlockReference
  2
FXTIP_ARROW_S
 10
153.505302
 20
62.029
 30
0.0
 41
4.0
 42
4.0
 50
270.0
  0
INSERT
  5
15C
330
156
100
AcDbEntity
  8
LAYERGROUP-1
  6
CONTINUOUS
 62
     7
100
AcDbBlockReference
  2
FXTIP_ARROW_E
 10
153.505302
 20
137.029
 30
0.0
 41
4.0
 42
4.0
 50
90.0
  0
LINE
  5
15D
330
156
100
AcDbEntity
  8
LAYERGROUP-1
  6
CONTINUOUS
 62
     7
100
AcDbLine
 10
124.451941
 20
62.029
 30
0.0
 11
154.505302
 21
62.029
 31
0.0
  0
LINE
  5
15E
330
156
100
AcDbEntity
  8
LAYERGROUP-1
  6
CONTINUOUS
 62
     7
100
AcDbLine
 10
124.451941
 20
137.029
 30
0.0
 11
154.505302
 21
137.029
 31
0.0
  0
ENDBLK
  5
158
330
156
100
AcDbEntity
  8
0
100
AcDbBlockEnd
  0
BLOCK
  5
161
330
160
100
AcDbEntity
  8
0
100
AcDbBlockBegin
  2
*D25
 70
     1
 71
     0
 10
0.0
 20
0.0
 30
0.0
  3
*D25
  1

  0
TEXT
  5
163
330
160
100
AcDbEntity
  8
LAYERGROUP-1
  6
CONTINUOUS
 62
     7
100
AcDbText
 10
120.451942
 20
43.028992
 30
0.0
 40
4.0
  1
23
 41
0.851351
  7
FX_VECTOR
 72
     5
 11
126.451942
 21
43.028992
 31
0.0
100
AcDbText
  0
LINE
  5
164
330
160
100
AcDbEntity
  8
LAYERGROUP-1
  6
CONTINUOUS
 62
     7
100
AcDbLine
 10
111.951941
 20
42.029
 30
0.0
 11
134.951941
 21
42.029
 31
0.0
  0
INSERT
  5
165
330
160
100
AcDbEntity
  8
LAYERGROUP-1
  6
CONTINUOUS
 62
     7
100
AcDbBlockReference
  2
FXTIP_ARROW_S
 10
111.951941
 20
42.029
 30
0.0
 41
4.0
 42
4.0
 50
180.0
  0
INSERT
  5
166
330
160
100
AcDbEntity
  8
LAYERGROUP-1
  6
CONTINUOUS
 62
     7
100
AcDbBlockReference
  2
FXTIP_ARROW_E
 10
134.951941
 20
42.029
 30
0.0
 41
4.0
 42
4.0
 50
360.0
  0
LINE
  5
167
330
160
100
AcDbEntity
  8
LAYERGROUP-1
  6
CONTINUOUS
 62
     7
100
AcDbLine
 10
111.951941
 20
89.529
 30
0.0
 11
111.951941
 21
41.029
 31
0.0
  0
LINE
  5
168
330
160
100
AcDbEntity
  8
LAYERGROUP-1
  6
CONTINUOUS
 62
     7
100
AcDbLine
 10
134.951941
 20
89.529
 30
0.0
 11
134.951941
 21
41.029
 31
0.0
  0
ENDBLK
  5
162
330
160
100
AcDbEntity
  8
0
100
AcDbBlockEnd
  0
BLOCK
  5
16B
330
16A
100
AcDbEntity
  8
0
100
AcDbBlockBegin
  2
*D26
 70
     1
 71
     0
 10
0.0
 20
0.0
 30
0.0
  3
*D26
  1

  0
TEXT
  5
16D
330
16A
100
AcDbEntity
  8
LAYERGROUP-1
  6
CONTINUOUS
 62
     7
100
AcDbText
 10
120.451942
 20
53.028992
 30
0.0
 40
4.0
  1
20
 41
0.851351
  7
FX_VECTOR
 72
     5
 11
126.451942
 21
53.028992
 31
0.0
100
AcDbText
  0
LINE
  5
16E
330
16A
100
AcDbEntity
  8
LAYERGROUP-1
  6
CONTINUOUS
 62
     7
100
AcDbLine
 10
113.451941
 20
52.029
 30
0.0
 11
133.451941
 21
52.029
 31
0.0
  0
INSERT
  5
16F
330
16A
100
AcDbEntity
  8
LAYERGROUP-1
  6
CONTINUOUS
 62
     7
100
AcDbBlockReference
  2
FXTIP_ARROW_S
 10
113.451941
 20
52.029
 30
0.0
 41
4.0
 42
4.0
 50
180.0
  0
INSERT
  5
170
330
16A
100
AcDbEntity
  8
LAYERGROUP-1
  6
CONTINUOUS
 62
     7
100
AcDbBlockReference
  2
FXTIP_ARROW_E
 10
133.451941
 20
52.029
 30
0.0
 41
4.0
 42
4.0
 50
360.0
  0
LINE
  5
171
330
16A
100
AcDbEntity
  8
LAYERGROUP-1
  6
CONTINUOUS
 62
     7
100
AcDbLine
 10
113.451941
 20
63.826059
 30
0.0
 11
113.451941
 21
51.029
 31
0.0
  0
LINE
  5
172
330
16A
100
AcDbEntity
  8
LAYERGROUP-1
  6
CONTINUOUS
 62
     7
100
AcDbLine
 10
133.451941
 20
63.826059
 30
0.0
 11
133.451941
 21
51.029
 31
0.0
  0
ENDBLK
  5
16C
330
16A
100
AcDbEntity
  8
0
100
AcDbBlockEnd
  0
BLOCK
  5
175
330
174
100
AcDbEntity
  8
0
100
AcDbBlockBegin
  2
*D27
 70
     1
 71
     0
 10
0.0
 20
0.0
 30
0.0
  3
*D27
  1

  0
TEXT
  5
177
330
174
100
AcDbEntity
  8
LAYERGROUP-1
  6
CONTINUOUS
 62
     7
100
AcDbText
 10
299.660919
 20
105.028992
 30
0.0
 40
4.0
  1
92
 50
90.0
 41
0.851351
  7
FX_VECTOR
 72
     5
 11
299.660919
 21
111.028992
 31
0.0
100
AcDbText
  0
LINE
  5
178
330
174
100
AcDbEntity
  8
LAYERGROUP-1
  6
CONTINUOUS
 62
     7
100
AcDbLine
 10
300.66092
 20
62.028981
 30
0.0
 11
300.66092
 21
154.029
 31
0.0
  0
INSERT
  5
179
330
174
100
AcDbEntity
  8
LAYERGROUP-1
  6
CONTINUOUS
 62
     7
100
AcDbBlockReference
  2
FXTIP_ARROW_S
 10
300.66092
 20
62.028981
 30
0.0
 41
4.0
 42
4.0
 50
270.0
  0
INSERT
  5
17A
330
174
100
AcDbEntity
  8
LAYERGROUP-1
  6
CONTINUOUS
 62
     7
100
AcDbBlockReference
  2
FXTIP_ARROW_E
 10
300.66092
 20
154.029
 30
0.0
 41
4.0
 42
4.0
 50
90.0
  0
LINE
  5
17B
330
174
100
AcDbEntity
  8
LAYERGROUP-1
  6
CONTINUOUS
 62
     7
100
AcDbLine
 10
218.66092
 20
62.028981
 30
0.0
 11
301.66092
 21
62.028981
 31
0.0
  0
LINE
  5
17C
330
174
100
AcDbEntity
  8
LAYERGROUP-1
  6
CONTINUOUS
 62
     7
100
AcDbLine
 10
281.66092
 20
154.029
 30
0.0
 11
301.66092
 21
154.029
 31
0.0
  0
ENDBLK
  5
176
330
174
100
AcDbEntity
  8
0
100
AcDbBlockEnd
  0
BLOCK
  5
1AC
330
1AB
100
AcDbEntity
  8
0
100
AcDbBlockBegin
  2
*D28
 70
     1
 71
     0
 10
0.0
 20
0.0
 30
0.0
  3
*D28
  1

  0
TEXT
  5
1AE
330
1AB
100
AcDbEntity
  8
GR1-1
  6
CONTINUOUS
 62
     7
100
AcDbText
 10
242.660919
 20
188.717422
 30
0.0
 40
4.0
  1
70
 41
0.851351
  7
FX_VECTOR
 72
     5
 11
248.660919
 21
188.717422
 31
0.0
100
AcDbText
  0
LINE
  5
1AF
330
1AB
100
AcDbEntity
  8
GR1-1
  6
CONTINUOUS
 62
     7
100
AcDbLine
 10
210.66092
 20
187.717418
 30
0.0
 11
280.66092
 21
187.717418
 31
0.0
  0
INSERT
  5
1B0
330
1AB
100
AcDbEntity
  8
GR1-1
  6
CONTINUOUS
 62
     7
100
AcDbBlockReference
  2
FXTIP_ARROW_S
 10
210.66092
 20
187.717418
 30
0.0
 41
4.0
 42
4.0
 50
180.0
  0
INSERT
  5
1B1
330
1AB
100
AcDbEntity
  8
GR1-1
  6
CONTINUOUS
 62
     7
100
AcDbBlockReference
  2
FXTIP_ARROW_E
 10
280.66092
 20
187.717418
 30
0.0
 41
4.0
 42
4.0
 50
360.0
  0
LINE
  5
1B2
330
1AB
100
AcDbEntity
  8
GR1-1
  6
CONTINUOUS
 62
     7
100
AcDbLine
 10
210.66092
 20
213.0
 30
0.0
 11
210.66092
 21
186.717418
 31
0.0
  0
LINE
  5
1B3
330
1AB
100
AcDbEntity
  8
GR1-1
  6
CONTINUOUS
 62
     7
100
AcDbLine
 10
280.66092
 20
213.0
 30
0.0
 11
280.66092
 21
186.717418
 31
0.0
  0
ENDBLK
  5
1AD
330
1AB
100
AcDbEntity
  8
0
100
AcDbBlockEnd
  0
BLOCK
  5
1B6
330
1B5
100
AcDbEntity
  8
0
100
AcDbBlockBegin
  2
*D29
 70
     1
 71
     0
 10
0.0
 20
0.0
 30
0.0
  3
*D29
  1

  0
TEXT
  5
1B8
330
1B5
100
AcDbEntity
  8
GR1-1
  6
CONTINUOUS
 62
     7
100
AcDbText
 10
242.660919
 20
198.717422
 30
0.0
 40
4.0
  1
56
 41
0.851351
  7
FX_VECTOR
 72
     5
 11
248.660919
 21
198.717422
 31
0.0
100
AcDbText
  0
LINE
  5
1B9
330
1B5
100
AcDbEntity
  8
GR1-1
  6
CONTINUOUS
 62
     7
100
AcDbLine
 10
217.66092
 20
197.717418
 30
0.0
 11
273.66092
 21
197.717418
 31
0.0
  0
INSERT
  5
1BA
330
1B5
100
AcDbEntity
  8
GR1-1
  6
CONTINUOUS
 62
     7
100
AcDbBlockReference
  2
FXTIP_ARROW_S
 10
217.66092
 20
197.717418
 30
0.0
 41
4.0
 42
4.0
 50
180.0
  0
INSERT
  5
1BB
330
1B5
100
AcDbEntity
  8
GR1-1
  6
CONTINUOUS
 62
     7
100
AcDbBlockReference
  2
FXTIP_ARROW_E
 10
273.66092
 20
197.717418
 30
0.0
 41
4.0
 42
4.0
 50
360.0
  0
LINE
  5
1BC
330
1B5
100
AcDbEntity
  8
GR1-1
  6
CONTINUOUS
 62
     7
100
AcDbLine
 10
217.66092
 20
208.0
 30
0.0
 11
217.66092
 21
196.717418
 31
0.0
  0
LINE
  5
1BD
330
1B5
100
AcDbEntity
  8
GR1-1
  6
CONTINUOUS
 62
     7
100
AcDbLine
 10
273.66092
 20
208.0
 30
0.0
 11
273.66092
 21
196.717418
 31
0.0
  0
ENDBLK
  5
1B7
330
1B5
100
AcDbEntity
  8
0
100
AcDbBlockEnd
  0
BLOCK
  5
1C0
330
1BF
100
AcDbEntity
  8
0
100
AcDbBlockBegin
  2
*D30
 70
     1
 71
     0
 10
0.0
 20
0.0
 30
0.0
  3
*D30
  1

  0
TEXT
  5
1C2
330
1BF
100
AcDbEntity
  8
GR1-1
  6
CONTINUOUS
 62
     7
100
AcDbText
 10
299.666626
 20
225.5
 30
0.0
 40
4.0
  1
42
 50
90.0
 41
0.851351
  7
FX_VECTOR
 72
     5
 11
299.666626
 21
231.5
 31
0.0
100
AcDbText
  0
LINE
  5
1C3
330
1BF
100
AcDbEntity
  8
GR1-1
  6
CONTINUOUS
 62
     7
100
AcDbLine
 10
300.666627
 20
207.5
 30
0.0
 11
300.666627
 21
249.5
 31
0.0
  0
INSERT
  5
1C4
330
1BF
100
AcDbEntity
  8
GR1-1
  6
CONTINUOUS
 62
     7
100
AcDbBlockReference
  2
FXTIP_ARROW_S
 10
300.666627
 20
207.5
 30
0.0
 41
4.0
 42
4.0
 50
270.0
  0
INSERT
  5
1C5
330
1BF
100
AcDbEntity
  8
GR1-1
  6
CONTINUOUS
 62
     7
100
AcDbBlockReference
  2
FXTIP_ARROW_E
 10
300.666627
 20
249.5
 30
0.0
 41
4.0
 42
4.0
 50
90.0
  0
LINE
  5
1C6
330
1BF
100
AcDbEntity
  8
GR1-1
  6
CONTINUOUS
 62
     7
100
AcDbLine
 10
274.66092
 20
207.5
 30
0.0
 11
301.666627
 21
207.5
 31
0.0
  0
LINE
  5
1C7
330
1BF
100
AcDbEntity
  8
GR1-1
  6
CONTINUOUS
 62
     7
100
AcDbLine
 10
275.16092
 20
249.5
 30
0.0
 11
301.666627
 21
249.5
 31
0.0
  0
ENDBLK
  5
1C1
330
1BF
100
AcDbEntity
  8
0
100
AcDbBlockEnd
  0
BLOCK
  5
1CA
330
1C9
100
AcDbEntity
  8
0
100
AcDbBlockBegin
  2
*D31
 70
     1
 71
     0
 10
0.0
 20
0.0
 30
0.0
  3
*D31
  1

  0
TEXT
  5
1CC
330
1C9
100
AcDbEntity
  8
GR1-1
  6
CONTINUOUS
 62
     7
100
AcDbText
 10
289.666626
 20
225.5
 30
0.0
 40
4.0
  1
28
 50
90.0
 41
0.851351
  7
FX_VECTOR
 72
     5
 11
289.666626
 21
231.5
 31
0.0
100
AcDbText
  0
LINE
  5
1CD
330
1C9
100
AcDbEntity
  8
GR1-1
  6
CONTINUOUS
 62
     7
100
AcDbLine
 10
290.666627
 20
214.5
 30
0.0
 11
290.666627
 21
242.5
 31
0.0
  0
INSERT
  5
1CE
330
1C9
100
AcDbEntity
  8
GR1-1
  6
CONTINUOUS
 62
     7
100
AcDbBlockReference
  2
FXTIP_ARROW_S
 10
290.666627
 20
214.5
 30
0.0
 41
4.0
 42
4.0
 50
270.0
  0
INSERT
  5
1CF
330
1C9
100
AcDbEntity
  8
GR1-1
  6
CONTINUOUS
 62
     7
100
AcDbBlockReference
  2
FXTIP_ARROW_E
 10
290.666627
 20
242.5
 30
0.0
 41
4.0
 42
4.0
 50
90.0
  0
LINE
  5
1D0
330
1C9
100
AcDbEntity
  8
GR1-1
  6
CONTINUOUS
 62
     7
100
AcDbLine
 10
280.16092
 20
214.5
 30
0.0
 11
291.666627
 21
214.5
 31
0.0
  0
LINE
  5
1D1
330
1C9
100
AcDbEntity
  8
GR1-1
  6
CONTINUOUS
 62
     7
100
AcDbLine
 10
280.16092
 20
242.5
 30
0.0
 11
291.666627
 21
242.5
 31
0.0
  0
ENDBLK
  5
1CB
330
1C9
100
AcDbEntity
  8
0
100
AcDbBlockEnd
  0
BLOCK
  5
1D4
330
1D3
100
AcDbEntity
  8
0
100
AcDbBlockBegin
  2
*D32
 70
     1
 71
     0
 10
0.0
 20
0.0
 30
0.0
  3
*D32
  1

  0
TEXT
  5
1D6
330
1D3
100
AcDbEntity
  8
GR1-1
  6
CONTINUOUS
 62
     7
100
AcDbText
 10
194.890409
 20
259.214737
 30
0.0
 40
4.0
  1
4-%%c6.5
 50
325.748219
 41
0.84375
  7
FX_VECTOR
 72
     5
 11
209.76871
 21
249.083786
 31
0.0
100
AcDbText
  0
LINE
  5
1D7
330
1D3
100
AcDbEntity
  8
GR1-1
  6
CONTINUOUS
 62
     7
100
AcDbLine
 10
214.97456
 20
244.3292
 30
0.0
 11
220.347279
 21
240.6708
 31
0.0
  0
LINE
  5
1D8
330
1D3
100
AcDbEntity
  8
GR1-1
  6
CONTINUOUS
 62
     7
100
AcDbLine
 10
214.97456
 20
244.3292
 30
0.0
 11
188.558911
 21
262.316178
 31
0.0
  0
INSERT
  5
1D9
330
1D3
100
AcDbEntity
  8
GR1-1
  6
CONTINUOUS
 62
     7
100
AcDbBlockReference
  2
FXTIP_ARROW_S
 10
214.97456
 20
244.3292
 30
0.0
 41
4.0
 42
4.0
 50
325.748218
  0
LINE
  5
1DA
330
1D3
100
AcDbEntity
  8
GR1-1
  6
CONTINUOUS
 62
     7
100
AcDbLine
 10
220.347279
 20
240.6708
 30
0.0
 11
225.306713
 21
237.293817
 31
0.0
  0
INSERT
  5
1DB
330
1D3
100
AcDbEntity
  8
GR1-1
  6
CONTINUOUS
 62
     7
100
AcDbBlockReference
  2
FXTIP_ARROW_S
 10
220.347279
 20
240.6708
 30
0.0
 41
4.0
 42
4.0
 50
145.748218
  0
ENDBLK
  5
1D5
330
1D3
100
AcDbEntity
  8
0
100
AcDbBlockEnd
  0
BLOCK
  5
1E1
330
1E0
100
AcDbEntity
  8
0
100
AcDbBlockBegin
  2
BLKF035
 70
     0
 71
     0
 10
0.0
 20
0.0
 30
0.0
  3
BLKF035
  1

  0
LINE
  5
1E4
330
1E0
100
AcDbEntity
  8
GR1-1
  6
CONTINUOUS
 62
     3
100
AcDbLine
 10
111.951941
 20
106.529
 30
0.0
 11
111.951941
 21
104.029
 31
0.0
  0
LINE
  5
1E5
330
1E0
100
AcDbEntity
  8
GR1-1
  6
CONTINUOUS
 62
     3
100
AcDbLine
 10
134.951941
 20
104.029
 30
0.0
 11
134.951941
 21
106.529
 31
0.0
  0
ARC
  5
1E6
330
1E0
100
AcDbEntity
  8
GR1-1
  6
CONTINUOUS
 62
     3
100
AcDbCircle
 10
134.451941
 20
106.529
 30
0.0
 40
0.5
100
AcDbArc
 50
0.0
 51
90.0
  0
LINE
  5
1E7
330
1E0
100
AcDbEntity
  8
GR1-1
  6
CONTINUOUS
 62
     3
100
AcDbLine
 10
134.451941
 20
107.029
 30
0.0
 11
133.451941
 21
107.029
 31
0.0
  0
LINE
  5
1E8
330
1E0
100
AcDbEntity
  8
GR1-1
  6
CONTINUOUS
 62
     3
100
AcDbLine
 10
113.451941
 20
107.029
 30
0.0
 11
112.451941
 21
107.029
 31
0.0
  0
ARC
  5
1E9
330
1E0
100
AcDbEntity
  8
GR1-1
  6
CONTINUOUS
 62
     3
100
AcDbCircle
 10
112.451941
 20
106.529
 30
0.0
 40
0.5
100
AcDbArc
 50
90.0
 51
180.0
  0
LINE
  5
1EA
330
1E0
100
AcDbEntity
  8
GR1-1
  6
CONTINUOUS
 62
     3
100
AcDbLine
 10
134.951941
 20
95.029
 30
0.0
 11
134.951941
 21
92.529
 31
0.0
  0
LINE
  5
1EB
330
1E0
100
AcDbEntity
  8
GR1-1
  6
CONTINUOUS
 62
     3
100
AcDbLine
 10
134.451941
 20
92.029
 30
0.0
 11
133.451941
 21
92.029
 31
0.0
  0
LINE
  5
1EC
330
1E0
100
AcDbEntity
  8
GR1-1
  6
CONTINUOUS
 62
     3
100
AcDbLine
 10
133.451941
 20
66.529
 30
0.0
 11
133.451941
 21
63.990548
 31
0.0
  0
ARC
  5
1ED
330
1E0
100
AcDbEntity
  8
GR1-1
  6
CONTINUOUS
 62
     3
100
AcDbCircle
 10
131.951941
 20
63.990548
 30
0.0
 40
1.5
100
AcDbArc
 50
276.216189
 51
360.0
  0
LINE
  5
1EE
330
1E0
100
AcDbEntity
  8
GR1-1
  6
CONTINUOUS
 62
     3
100
AcDbLine
 10
113.451941
 20
92.029
 30
0.0
 11
112.451941
 21
92.029
 31
0.0
  0
ARC
  5
1EF
330
1E0
100
AcDbEntity
  8
GR1-1
  6
CONTINUOUS
 62
     3
100
AcDbCircle
 10
112.451941
 20
92.529
 30
0.0
 40
0.5
100
AcDbArc
 50
180.0
 51
270.0
  0
LINE
  5
1F0
330
1E0
100
AcDbEntity
  8
GR1-1
  6
CONTINUOUS
 62
     3
100
AcDbLine
 10
111.951941
 20
92.529
 30
0.0
 11
111.951941
 21
95.029
 31
0.0
  0
ARC
  5
1F1
330
1E0
100
AcDbEntity
  8
GR1-1
  6
CONTINUOUS
 62
     3
100
AcDbCircle
 10
134.451941
 20
92.529
 30
0.0
 40
0.5
100
AcDbArc
 50
270.0
 51
360.0
  0
LINE
  5
1F2
330
1E0
100
AcDbEntity
  8
GR1-1
  6
CONTINUOUS
 62
     3
100
AcDbLine
 10
113.451941
 20
66.529
 30
0.0
 11
113.451941
 21
63.990548
 31
0.0
  0
ARC
  5
1F3
330
1E0
100
AcDbEntity
  8
GR1-1
  6
CONTINUOUS
 62
     3
100
AcDbCircle
 10
114.951941
 20
63.990548
 30
0.0
 40
1.5
100
AcDbArc
 50
180.0
 51
263.783811
  0
ARC
  5
1F4
330
1E0
100
AcDbEntity
  8
GR1-1
  6
CONTINUOUS
 62
     3
100
AcDbCircle
 10
123.451941
 20
142.029
 30
0.0
 40
80.0
100
AcDbArc
 50
263.783811
 51
276.216189
  0
LINE
  5
1F5
330
1E0
100
AcDbEntity
  8
GR1-1
  6
CONTINUOUS
 62
     3
100
AcDbLine
 10
113.451941
 20
132.529
 30
0.0
 11
113.451941
 21
135.067452
 31
0.0
  0
ARC
  5
1F6
330
1E0
100
AcDbEntity
  8
GR1-1
  6
CONTINUOUS
 62
     3
100
AcDbCircle
 10
114.951941
 20
135.067452
 30
0.0
 40
1.5
100
AcDbArc
 50
96.216189
 51
180.0
  0
LINE
  5
1F7
330
1E0
100
AcDbEntity
  8
GR1-1
  6
CONTINUOUS
 62
     3
100
AcDbLine
 10
133.451941
 20
132.529
 30
0.0
 11
133.451941
 21
135.067452
 31
0.0
  0
ARC
  5
1F8
330
1E0
100
AcDbEntity
  8
GR1-1
  6
CONTINUOUS
 62
     3
100
AcDbCircle
 10
131.951941
 20
135.067452
 30
0.0
 40
1.5
100
AcDbArc
 50
0.0
 51
83.783811
  0
ARC
  5
1F9
330
1E0
100
AcDbEntity
  8
GR1-1
  6
CONTINUOUS
 62
     3
100
AcDbCircle
 10
123.451941
 20
57.029
 30
0.0
 40
80.0
100
AcDbArc
 50
83.783811
 51
96.216189
  0
LINE
  5
1FA
330
1E0
100
AcDbEntity
  8
GR1-1
  6
CONTINUOUS
 62
     3
100
AcDbLine
 10
111.951941
 20
104.029
 30
0.0
 11
111.951941
 21
94.940688
 31
0.0
  0
LINE
  5
1FB
330
1E0
100
AcDbEntity
  8
GR1-1
  6
CONTINUOUS
 62
     3
100
AcDbLine
 10
134.951941
 20
95.029
 30
0.0
 11
134.951941
 21
104.029
 31
0.0
  0
LINE
  5
1FC
330
1E0
100
AcDbEntity
  8
LAYERGROUP-1
  6
CONTINUOUS
 62
     3
100
AcDbLine
 10
113.451941
 20
99.529
 30
0.0
 11
113.451941
 21
132.529
 31
0.0
  0
LINE
  5
1FD
330
1E0
100
AcDbEntity
  8
LAYERGROUP-1
  6
CONTINUOUS
 62
     3
100
AcDbLine
 10
133.451941
 20
99.529
 30
0.0
 11
133.451941
 21
132.529
 31
0.0
  0
LINE
  5
1FE
330
1E0
100
AcDbEntity
  8
LAYERGROUP-1
  6
CONTINUOUS
 62
     3
100
AcDbLine
 10
133.451941
 20
99.529
 30
0.0
 11
133.451941
 21
66.529
 31
0.0
  0
LINE
  5
1FF
330
1E0
100
AcDbEntity
  8
LAYERGROUP-1
  6
CONTINUOUS
 62
     3
100
AcDbLine
 10
113.451941
 20
99.529
 30
0.0
 11
113.451941
 21
66.529
 31
0.0
  0
ENDBLK
  5
1E2
330
1E0
100
AcDbEntity
  8
0
100
AcDbBlockEnd
  0
BLOCK
  5
20C
330
20B
100
AcDbEntity
  8
0
100
AcDbBlockBegin
  2
BLKF036
 70
     0
 71
     0
 10
0.0
 20
0.0
 30
0.0
  3
BLKF036
  1

  0
INSERT
  5
212
330
20B
100
AcDbEntity
  8
0
100
AcDbBlockReference
  2
BLKF037
 10
0.0
 20
0.0
 30
0.0
  0
ARC
  5
26A
330
20B
100
AcDbEntity
  8
GR1-1
  6
CONTINUOUS
 62
     3
100
AcDbCircle
 10
217.66092
 20
99.528981
 30
0.0
 40
37.5
100
AcDbArc
 50
-260.69454
 51
45.369155
  0
TEXT
  5
26B
330
20B
100
AcDbEntity
  8
GR1-1
  6
CONTINUOUS
 62
     7
100
AcDbText
 10
238.65033
 20
101.076927
 30
0.0
 40
4.225127
  1
X
 50
268.860809
 41
1.238659
  7
FX_VECTOR
 72
     5
 11
238.5661
 21
96.841128
 31
0.0
100
AcDbText
  0
TEXT
  5
26C
330
20B
100
AcDbEntity
  8
GR1-1
  6
CONTINUOUS
 62
     7
100
AcDbText
 10
203.062439
 20
84.663719
 30
0.0
 40
4.9
  1
G
 50
128.860809
 41
1.166667
  7
FX_VECTOR
 72
     5
 11
199.988029
 21
88.479214
 31
0.0
100
AcDbText
  0
TEXT
  5
26D
330
20B
100
AcDbEntity
  8
GR1-1
  6
CONTINUOUS
 62
     7
100
AcDbText
 10
200.702881
 20
87.424553
 30
0.0
 40
4.9
  1
O
 50
118.860817
 41
1.105263
  7
FX_VECTOR
 72
     5
 11
198.337731
 21
91.715948
 31
0.0
100
AcDbText
  0
TEXT
  5
26E
330
20B
100
AcDbEntity
  8
GR1-1
  6
CONTINUOUS
 62
     7
100
AcDbText
 10
198.858627
 20
90.553177
 30
0.0
 40
4.9
  1
L
 50
108.860817
 41
1.3125
  7
FX_VECTOR
 72
     5
 11
197.274603
 21
95.19008
 31
0.0
100
AcDbText
  0
TEXT
  5
26F
330
20B
100
AcDbEntity
  8
GR1-1
  6
CONTINUOUS
 62
     7
100
AcDbText
 10
197.585632
 20
93.954529
 30
0.0
 40
4.9
  1
D
 50
98.860817
 41
1.166667
  7
FX_VECTOR
 72
     5
 11
196.830862
 21
98.79605
 31
0.0
100
AcDbText
  0
TEXT
  5
270
330
20B
100
AcDbEntity
  8
GR1-1
  6
CONTINUOUS
 62
     7
100
AcDbText
 10
196.889725
 20
101.15686
 30
0.0
 40
4.9
  1
C
 50
78.860809
 41
1.166667
  7
FX_VECTOR
 72
     5
 11
197.836371
 21
105.964548
 31
0.0
100
AcDbText
  0
TEXT
  5
271
330
20B
100
AcDbEntity
  8
GR1-1
  6
CONTINUOUS
 62
     7
100
AcDbText
 10
197.487976
 20
104.738998
 30
0.0
 40
4.9
  1
A
 50
68.860809
 41
1.235294
  7
FX_VECTOR
 72
     5
 11
199.255087
 21
109.309263
 31
0.0
100
AcDbText
  0
TEXT
  5
272
330
20B
100
AcDbEntity
  8
GR1-1
  6
CONTINUOUS
 62
     7
100
AcDbText
 10
198.699142
 20
108.162827
 30
0.0
 40
4.9
  1
S
 50
58.860809
 41
1.235294
  7
FX_VECTOR
 72
     5
 11
201.233025
 21
112.356803
 31
0.0
100
AcDbText
  0
TEXT
  5
273
330
20B
100
AcDbEntity
  8
GR1-1
  6
CONTINUOUS
 62
     7
100
AcDbText
 10
200.486465
 20
111.324333
 30
0.0
 40
4.9
  1
T
 50
48.860809
 41
1.4
  7
FX_VECTOR
 72
     5
 11
203.710129
 21
115.01459
 31
0.0
100
AcDbText
  0
TEXT
  5
274
330
20B
100
AcDbEntity
  8
GR1-1
  6
CONTINUOUS
 62
     7
100
AcDbText
 10
202.795654
 20
114.127457
 30
0.0
 40
4.9
  1
E
 50
38.860809
 41
1.235294
  7
FX_VECTOR
 72
     5
 11
206.61115
 21
117.201867
 31
0.0
100
AcDbText
  0
TEXT
  5
275
330
20B
100
AcDbEntity
  8
GR1-1
  6
CONTINUOUS
 62
     7
100
AcDbText
 10
205.556458
 20
116.487007
 30
0.0
 40
4.9
  1
R
 50
28.860809
 41
1.166667
  7
FX_VECTOR
 72
     5
 11
209.847853
 21
118.852156
 31
0.0
100
AcDbText
  0
TEXT
  5
276
330
20B
100
AcDbEntity
  8
GR1-1
  6
CONTINUOUS
 62
     7
100
AcDbText
 10
236.126724
 20
109.119781
 30
0.0
 40
4.9
  1
7
 50
290.860809
 41
1.235294
  7
FX_VECTOR
 72
     5
 11
237.871609
 21
104.540985
 31
0.0
100
AcDbText
  0
TEXT
  5
277
330
20B
100
AcDbEntity
  8
GR1-1
  6
CONTINUOUS
 62
     7
100
AcDbText
 10
237.64209
 20
105.389145
 30
0.0
 40
4.9
  1
5
 50
279.860809
 41
1.235294
  7
FX_VECTOR
 72
     5
 11
238.481241
 21
100.561534
 31
0.0
100
AcDbText
  0
TEXT
  5
278
330
20B
100
AcDbEntity
  8
GR1-1
  6
CONTINUOUS
 62
     7
100
AcDbText
 10
238.376663
 20
97.437607
 30
0.0
 40
4.9
  1
2
 50
257.860809
 41
1.235294
  7
FX_VECTOR
 72
     5
 11
237.346255
 21
92.647173
 31
0.0
100
AcDbText
  0
TEXT
  5
279
330
20B
100
AcDbEntity
  8
GR1-1
  6
CONTINUOUS
 62
     7
100
AcDbText
 10
237.586288
 20
93.501923
 30
0.0
 40
4.9
  1
0
 50
246.860809
 41
1.235294
  7
FX_VECTOR
 72
     5
 11
235.660754
 21
88.996113
 31
0.0
100
AcDbText
  0
LINE
  5
27A
330
20B
100
AcDbEntity
  8
GR1-1
  6
CONTINUOUS
 62
     7
100
AcDbLine
 10
208.518843
 20
80.510475
 30
0.0
 11
206.440026
 21
77.069702
 31
0.0
  0
LINE
  5
27B
330
20B
100
AcDbEntity
  8
GR1-1
  6
CONTINUOUS
 62
     7
100
AcDbLine
 10
206.440026
 20
77.069702
 30
0.0
 11
202.999253
 21
79.14852
 31
0.0
  0
LINE
  5
27C
330
20B
100
AcDbEntity
  8
GR1-1
  6
CONTINUOUS
 62
     7
100
AcDbLine
 10
202.999253
 20
79.14852
 30
0.0
 11
205.078071
 21
82.589292
 31
0.0
  0
LINE
  5
27D
330
20B
100
AcDbEntity
  8
GR1-1
  6
CONTINUOUS
 62
     7
100
AcDbLine
 10
205.078071
 20
82.589292
 30
0.0
 11
208.518843
 21
80.510475
 31
0.0
  0
LINE
  5
27E
330
20B
100
AcDbEntity
  8
GR1-1
  6
CONTINUOUS
 62
     7
100
AcDbLine
 10
206.739012
 20
81.451493
 30
0.0
 11
205.214026
 21
81.075204
 31
0.0
  0
LINE
  5
27F
330
20B
100
AcDbEntity
  8
GR1-1
  6
CONTINUOUS
 62
     7
100
AcDbLine
 10
205.140629
 20
81.1749
 30
0.0
 11
205.41188
 21
81.623863
 31
0.0
  0
LINE
  5
280
330
20B
100
AcDbEntity
  8
GR1-1
  6
CONTINUOUS
 62
     7
100
AcDbLine
 10
205.41188
 20
81.623863
 30
0.0
 11
204.838418
 21
81.970332
 31
0.0
  0
LINE
  5
281
330
20B
100
AcDbEntity
  8
GR1-1
  6
CONTINUOUS
 62
     7
100
AcDbLine
 10
204.838418
 20
81.970332
 30
0.0
 11
204.137052
 21
80.809461
 31
0.0
  0
LINE
  5
282
330
20B
100
AcDbEntity
  8
GR1-1
  6
CONTINUOUS
 62
     7
100
AcDbLine
 10
204.137052
 20
80.809461
 30
0.0
 11
205.759048
 21
79.829497
 31
0.0
  0
LINE
  5
283
330
20B
100
AcDbEntity
  8
GR1-1
  6
CONTINUOUS
 62
     7
100
AcDbLine
 10
205.759048
 20
79.829497
 30
0.0
 11
205.932283
 21
80.116228
 31
0.0
  0
LINE
  5
284
330
20B
100
AcDbEntity
  8
GR1-1
  6
CONTINUOUS
 62
     7
100
AcDbLine
 10
205.932283
 20
80.116228
 30
0.0
 11
205.546462
 21
80.34933
 31
0.0
  0
LINE
  5
285
330
20B
100
AcDbEntity
  8
GR1-1
  6
CONTINUOUS
 62
     7
100
AcDbLine
 10
205.565058
 20
80.471725
 30
0.0
 11
206.24903
 21
80.640495
 31
0.0
  0
LINE
  5
286
330
20B
100
AcDbEntity
  8
GR1-1
  6
CONTINUOUS
 62
     7
100
AcDbLine
 10
206.24903
 20
80.640495
 30
0.0
 11
206.570046
 21
79.339515
 31
0.0
  0
LINE
  5
287
330
20B
100
AcDbEntity
  8
GR1-1
  6
CONTINUOUS
 62
     7
100
AcDbLine
 10
206.570046
 20
79.339515
 30
0.0
 11
205.269066
 21
79.018499
 31
0.0
  0
LINE
  5
288
330
20B
100
AcDbEntity
  8
GR1-1
  6
CONTINUOUS
 62
     7
100
AcDbLine
 10
205.269066
 20
79.018499
 30
0.0
 11
205.016148
 21
80.0435
 31
0.0
  0
LINE
  5
289
330
20B
100
AcDbEntity
  8
GR1-1
  6
CONTINUOUS
 62
     7
100
AcDbLine
 10
205.016148
 20
80.0435
 30
0.0
 11
204.20515
 21
80.533482
 31
0.0
  0
LINE
  5
28A
330
20B
100
AcDbEntity
  8
GR1-1
  6
CONTINUOUS
 62
     7
100
AcDbLine
 10
204.20515
 20
80.533482
 30
0.0
 11
204.779084
 21
78.207501
 31
0.0
  0
LINE
  5
28B
330
20B
100
AcDbEntity
  8
GR1-1
  6
CONTINUOUS
 62
     7
100
AcDbLine
 10
204.779084
 20
78.207501
 30
0.0
 11
207.381044
 21
78.849533
 31
0.0
  0
LINE
  5
28C
330
20B
100
AcDbEntity
  8
GR1-1
  6
CONTINUOUS
 62
     7
100
AcDbLine
 10
207.381044
 20
78.849533
 30
0.0
 11
206.739012
 21
81.451493
 31
0.0
  0
ARC
  5
28D
330
20B
100
AcDbEntity
  8
GR1-1
  6
CONTINUOUS
 62
     7
100
AcDbCircle
 10
205.581109
 20
80.406676
 30
0.0
 40
0.067
100
AcDbArc
 50
103.860815
 51
238.860815
  0
ARC
  5
28E
330
20B
100
AcDbEntity
  8
GR1-1
  6
CONTINUOUS
 62
     7
100
AcDbCircle
 10
205.197975
 20
81.140253
 30
0.0
 40
0.067
100
AcDbArc
 50
148.860815
 51
283.860815
  0
ARC
  5
28F
330
20B
100
AcDbEntity
  8
GR1-1
  6
CONTINUOUS
 62
     6
100
AcDbCircle
 10
217.66092
 20
99.528981
 30
0.0
 40
31.5
100
AcDbArc
 50
-258.098814
 51
43.477569
  0
ARC
  5
290
330
20B
100
AcDbEntity
  8
GR1-1
  6
CONTINUOUS
 62
     6
100
AcDbCircle
 10
217.66092
 20
99.528981
 30
0.0
 40
10.5
100
AcDbArc
 50
-218.720794
 51
14.078124
  0
ARC
  5
291
330
20B
100
AcDbEntity
  8
GR1-1
  6
CONTINUOUS
 62
     6
100
AcDbCircle
 10
217.66092
 20
99.528981
 30
0.0
 40
7.5
100
AcDbArc
 50
223.405621
 51
348.502727
  0
ENDBLK
  5
20D
330
20B
100
AcDbEntity
  8
0
100
AcDbBlockEnd
  0
BLOCK
  5
210
330
20F
100
AcDbEntity
  8
0
100
AcDbBlockBegin
  2
BLKF037
 70
     0
 71
     0
 10
0.0
 20
0.0
 30
0.0
  3
BLKF037
  1

  0
LINE
  5
213
330
20F
100
AcDbEntity
  8
GR1-1
  6
CONTINUOUS
 62
     7
100
AcDbLine
 10
205.24027
 20
82.491296
 30
0.0
 11
204.980074
 21
82.427093
 31
0.0
  0
LINE
  5
214
330
20F
100
AcDbEntity
  8
GR1-1
  6
CONTINUOUS
 62
     7
100
AcDbLine
 10
205.40247
 20
82.393299
 30
0.0
 11
204.882078
 21
82.264893
 31
0.0
  0
LINE
  5
215
330
20F
100
AcDbEntity
  8
GR1-1
  6
CONTINUOUS
 62
     7
100
AcDbLine
 10
205.564669
 20
82.295303
 30
0.0
 11
204.784081
 21
82.102694
 31
0.0
  0
LINE
  5
216
330
20F
100
AcDbEntity
  8
GR1-1
  6
CONTINUOUS
 62
     7
100
AcDbLine
 10
205.726869
 20
82.197307
 30
0.0
 11
204.686085
 21
81.940494
 31
0.0
  0
LINE
  5
217
330
20F
100
AcDbEntity
  8
GR1-1
  6
CONTINUOUS
 62
     7
100
AcDbLine
 10
205.889068
 20
82.09931
 30
0.0
 11
204.99151
 21
81.877838
 31
0.0
  0
LINE
  5
218
330
20F
100
AcDbEntity
  8
GR1-1
  6
CONTINUOUS
 62
     7
100
AcDbLine
 10
204.745924
 20
81.81724
 30
0.0
 11
204.588089
 21
81.778294
 31
0.0
  0
LINE
  5
219
330
20F
100
AcDbEntity
  8
GR1-1
  6
CONTINUOUS
 62
     7
100
AcDbLine
 10
206.051268
 20
82.001314
 30
0.0
 11
205.15371
 21
81.779842
 31
0.0
  0
LINE
  5
21A
330
20F
100
AcDbEntity
  8
GR1-1
  6
CONTINUOUS
 62
     7
100
AcDbLine
 10
204.647927
 20
81.655041
 30
0.0
 11
204.490092
 21
81.616095
 31
0.0
  0
LINE
  5
21B
330
20F
100
AcDbEntity
  8
GR1-1
  6
CONTINUOUS
 62
     7
100
AcDbLine
 10
206.213468
 20
81.903317
 30
0.0
 11
205.315909
 21
81.681846
 31
0.0
  0
LINE
  5
21C
330
20F
100
AcDbEntity
  8
GR1-1
  6
CONTINUOUS
 62
     7
100
AcDbLine
 10
204.549931
 20
81.492841
 30
0.0
 11
204.392096
 21
81.453895
 31
0.0
  0
LINE
  5
21D
330
20F
100
AcDbEntity
  8
GR1-1
  6
CONTINUOUS
 62
     7
100
AcDbLine
 10
206.375667
 20
81.805321
 30
0.0
 11
205.371866
 21
81.557634
 31
0.0
  0
LINE
  5
21E
330
20F
100
AcDbEntity
  8
GR1-1
  6
CONTINUOUS
 62
     7
100
AcDbLine
 10
204.451935
 20
81.330641
 30
0.0
 11
204.294099
 21
81.291696
 31
0.0
  0
LINE
  5
21F
330
20F
100
AcDbEntity
  8
GR1-1
  6
CONTINUOUS
 62
     7
100
AcDbLine
 10
206.537867
 20
81.707325
 30
0.0
 11
205.27387
 21
81.395434
 31
0.0
  0
LINE
  5
220
330
20F
100
AcDbEntity
  8
GR1-1
  6
CONTINUOUS
 62
     7
100
AcDbLine
 10
204.353938
 20
81.168442
 30
0.0
 11
204.196103
 21
81.129496
 31
0.0
  0
LINE
  5
221
330
20F
100
AcDbEntity
  8
GR1-1
  6
CONTINUOUS
 62
     7
100
AcDbLine
 10
206.700066
 20
81.609328
 30
0.0
 11
205.175874
 21
81.233235
 31
0.0
  0
LINE
  5
222
330
20F
100
AcDbEntity
  8
GR1-1
  6
CONTINUOUS
 62
     7
100
AcDbLine
 10
204.255942
 20
81.006242
 30
0.0
 11
204.098107
 21
80.967296
 31
0.0
  0
LINE
  5
223
330
20F
100
AcDbEntity
  8
GR1-1
  6
CONTINUOUS
 62
     7
100
AcDbLine
 10
206.862266
 20
81.511332
 30
0.0
 11
205.153898
 21
81.089793
 31
0.0
  0
LINE
  5
224
330
20F
100
AcDbEntity
  8
GR1-1
  6
CONTINUOUS
 62
     7
100
AcDbLine
 10
204.157945
 20
80.844043
 30
0.0
 11
204.00011
 21
80.805097
 31
0.0
  0
LINE
  5
225
330
20F
100
AcDbEntity
  8
GR1-1
  6
CONTINUOUS
 62
     7
100
AcDbLine
 10
207.024466
 20
81.413335
 30
0.0
 11
206.76427
 21
81.349132
 31
0.0
  0
LINE
  5
226
330
20F
100
AcDbEntity
  8
GR1-1
  6
CONTINUOUS
 62
     7
100
AcDbLine
 10
204.26467
 20
80.732358
 30
0.0
 11
203.902114
 21
80.642897
 31
0.0
  0
LINE
  5
227
330
20F
100
AcDbEntity
  8
GR1-1
  6
CONTINUOUS
 62
     7
100
AcDbLine
 10
207.186665
 20
81.315339
 30
0.0
 11
206.796371
 21
81.219034
 31
0.0
  0
LINE
  5
228
330
20F
100
AcDbEntity
  8
GR1-1
  6
CONTINUOUS
 62
     7
100
AcDbLine
 10
204.42687
 20
80.634361
 30
0.0
 11
203.804117
 21
80.480698
 31
0.0
  0
LINE
  5
229
330
20F
100
AcDbEntity
  8
GR1-1
  6
CONTINUOUS
 62
     7
100
AcDbLine
 10
207.348865
 20
81.217343
 30
0.0
 11
206.828473
 21
81.088936
 31
0.0
  0
LINE
  5
22A
330
20F
100
AcDbEntity
  8
GR1-1
  6
CONTINUOUS
 62
     7
100
AcDbLine
 10
204.58907
 20
80.536365
 30
0.0
 11
204.31309
 21
80.468267
 31
0.0
  0
LINE
  5
22B
330
20F
100
AcDbEntity
  8
GR1-1
  6
CONTINUOUS
 62
     7
100
AcDbLine
 10
204.226513
 20
80.446904
 30
0.0
 11
203.706121
 21
80.318498
 31
0.0
  0
LINE
  5
22C
330
20F
100
AcDbEntity
  8
GR1-1
  6
CONTINUOUS
 62
     7
100
AcDbLine
 10
207.511064
 20
81.119346
 30
0.0
 11
206.860574
 21
80.958838
 31
0.0
  0
LINE
  5
22D
330
20F
100
AcDbEntity
  8
GR1-1
  6
CONTINUOUS
 62
     7
100
AcDbLine
 10
204.751269
 20
80.438369
 30
0.0
 11
204.47529
 21
80.370271
 31
0.0
  0
LINE
  5
22E
330
20F
100
AcDbEntity
  8
GR1-1
  6
CONTINUOUS
 62
     7
100
AcDbLine
 10
204.258614
 20
80.316806
 30
0.0
 11
203.608125
 21
80.156299
 31
0.0
  0
LINE
  5
22F
330
20F
100
AcDbEntity
  8
GR1-1
  6
CONTINUOUS
 62
     7
100
AcDbLine
 10
207.673264
 20
81.02135
 30
0.0
 11
206.892676
 21
80.82874
 31
0.0
  0
LINE
  5
230
330
20F
100
AcDbEntity
  8
GR1-1
  6
CONTINUOUS
 62
     7
100
AcDbLine
 10
204.913469
 20
80.340372
 30
0.0
 11
204.637489
 21
80.272275
 31
0.0
  0
LINE
  5
231
330
20F
100
AcDbEntity
  8
GR1-1
  6
CONTINUOUS
 62
     7
100
AcDbLine
 10
204.290716
 20
80.186708
 30
0.0
 11
203.510128
 21
79.994099
 31
0.0
  0
LINE
  5
232
330
20F
100
AcDbEntity
  8
GR1-1
  6
CONTINUOUS
 62
     7
100
AcDbLine
 10
207.835463
 20
80.923353
 30
0.0
 11
206.924778
 21
80.698642
 31
0.0
  0
LINE
  5
233
330
20F
100
AcDbEntity
  8
GR1-1
  6
CONTINUOUS
 62
     7
100
AcDbLine
 10
206.274288
 20
80.538134
 30
0.0
 11
205.537031
 21
80.356217
 31
0.0
  0
LINE
  5
234
330
20F
100
AcDbEntity
  8
GR1-1
  6
CONTINUOUS
 62
     7
100
AcDbLine
 10
205.075668
 20
80.242376
 30
0.0
 11
204.799689
 21
80.174278
 31
0.0
  0
LINE
  5
235
330
20F
100
AcDbEntity
  8
GR1-1
  6
CONTINUOUS
 62
     7
100
AcDbLine
 10
204.322818
 20
80.056611
 30
0.0
 11
203.412132
 21
79.831899
 31
0.0
  0
LINE
  5
236
330
20F
100
AcDbEntity
  8
GR1-1
  6
CONTINUOUS
 62
     7
100
AcDbLine
 10
207.997663
 20
80.825357
 30
0.0
 11
206.956879
 21
80.568544
 31
0.0
  0
LINE
  5
237
330
20F
100
AcDbEntity
  8
GR1-1
  6
CONTINUOUS
 62
     7
100
AcDbLine
 10
206.306389
 20
80.408036
 30
0.0
 11
205.697834
 21
80.257876
 31
0.0
  0
LINE
  5
238
330
20F
100
AcDbEntity
  8
GR1-1
  6
CONTINUOUS
 62
     7
100
AcDbLine
 10
205.237868
 20
80.144379
 30
0.0
 11
204.961888
 21
80.076282
 31
0.0
  0
LINE
  5
239
330
20F
100
AcDbEntity
  8
GR1-1
  6
CONTINUOUS
 62
     7
100
AcDbLine
 10
204.354919
 20
79.926513
 30
0.0
 11
203.314135
 21
79.6697
 31
0.0
  0
LINE
  5
23A
330
20F
100
AcDbEntity
  8
GR1-1
  6
CONTINUOUS
 62
     7
100
AcDbLine
 10
208.159863
 20
80.727361
 30
0.0
 11
206.988981
 21
80.438446
 31
0.0
  0
LINE
  5
23B
330
20F
100
AcDbEntity
  8
GR1-1
  6
CONTINUOUS
 62
     7
100
AcDbLine
 10
206.338491
 20
80.277938
 30
0.0
 11
205.860033
 21
80.159879
 31
0.0
  0
LINE
  5
23C
330
20F
100
AcDbEntity
  8
GR1-1
  6
CONTINUOUS
 62
     7
100
AcDbLine
 10
205.400067
 20
80.046383
 30
0.0
 11
205.037511
 21
79.956922
 31
0.0
  0
LINE
  5
23D
330
20F
100
AcDbEntity
  8
GR1-1
  6
CONTINUOUS
 62
     7
100
AcDbLine
 10
204.387021
 20
79.796415
 30
0.0
 11
203.216139
 21
79.5075
 31
0.0
  0
LINE
  5
23E
330
20F
100
AcDbEntity
  8
GR1-1
  6
CONTINUOUS
 62
     7
100
AcDbLine
 10
208.322062
 20
80.629364
 30
0.0
 11
207.021082
 21
80.308348
 31
0.0
  0
LINE
  5
23F
330
20F
100
AcDbEntity
  8
GR1-1
  6
CONTINUOUS
 62
     7
100
AcDbLine
 10
206.370592
 20
80.14784
 30
0.0
 11
205.877938
 21
80.026278
 31
0.0
  0
LINE
  5
240
330
20F
100
AcDbEntity
  8
GR1-1
  6
CONTINUOUS
 62
     7
100
AcDbLine
 10
205.562267
 20
79.948387
 30
0.0
 11
205.069612
 21
79.826824
 31
0.0
  0
LINE
  5
241
330
20F
100
AcDbEntity
  8
GR1-1
  6
CONTINUOUS
 62
     7
100
AcDbLine
 10
204.419122
 20
79.666317
 30
0.0
 11
203.118142
 21
79.345301
 31
0.0
  0
LINE
  5
242
330
20F
100
AcDbEntity
  8
GR1-1
  6
CONTINUOUS
 62
     7
100
AcDbLine
 10
208.484262
 20
80.531368
 30
0.0
 11
207.053184
 21
80.17825
 31
0.0
  0
LINE
  5
243
330
20F
100
AcDbEntity
  8
GR1-1
  6
CONTINUOUS
 62
     7
100
AcDbLine
 10
206.402694
 20
80.017742
 30
0.0
 11
205.779941
 21
79.864079
 31
0.0
  0
LINE
  5
244
330
20F
100
AcDbEntity
  8
GR1-1
  6
CONTINUOUS
 62
     7
100
AcDbLine
 10
205.724467
 20
79.85039
 30
0.0
 11
205.101714
 21
79.696726
 31
0.0
  0
LINE
  5
245
330
20F
100
AcDbEntity
  8
GR1-1
  6
CONTINUOUS
 62
     7
100
AcDbLine
 10
204.451224
 20
79.536219
 30
0.0
 11
203.020146
 21
79.183101
 31
0.0
  0
LINE
  5
246
330
20F
100
AcDbEntity
  8
GR1-1
  6
CONTINUOUS
 62
     7
100
AcDbLine
 10
208.44174
 20
80.382857
 30
0.0
 11
207.085285
 21
80.048152
 31
0.0
  0
LINE
  5
247
330
20F
100
AcDbEntity
  8
GR1-1
  6
CONTINUOUS
 62
     7
100
AcDbLine
 10
206.434796
 20
79.887644
 30
0.0
 11
205.133816
 21
79.566628
 31
0.0
  0
LINE
  5
248
330
20F
100
AcDbEntity
  8
GR1-1
  6
CONTINUOUS
 62
     7
100
AcDbLine
 10
204.483326
 20
79.406121
 30
0.0
 11
203.126871
 21
79.071416
 31
0.0
  0
LINE
  5
249
330
20F
100
AcDbEntity
  8
GR1-1
  6
CONTINUOUS
 62
     7
100
AcDbLine
 10
208.343744
 20
80.220657
 30
0.0
 11
207.117387
 21
79.918054
 31
0.0
  0
LINE
  5
24A
330
20F
100
AcDbEntity
  8
GR1-1
  6
CONTINUOUS
 62
     7
100
AcDbLine
 10
206.466897
 20
79.757546
 30
0.0
 11
205.165917
 21
79.43653
 31
0.0
  0
LINE
  5
24B
330
20F
100
AcDbEntity
  8
GR1-1
  6
CONTINUOUS
 62
     7
100
AcDbLine
 10
204.515427
 20
79.276023
 30
0.0
 11
203.289071
 21
78.97342
 31
0.0
  0
LINE
  5
24C
330
20F
100
AcDbEntity
  8
GR1-1
  6
CONTINUOUS
 62
     7
100
AcDbLine
 10
208.245747
 20
80.058457
 30
0.0
 11
207.149489
 21
79.787956
 31
0.0
  0
LINE
  5
24D
330
20F
100
AcDbEntity
  8
GR1-1
  6
CONTINUOUS
 62
     7
100
AcDbLine
 10
206.498999
 20
79.627448
 30
0.0
 11
205.198019
 21
79.306432
 31
0.0
  0
LINE
  5
24E
330
20F
100
AcDbEntity
  8
GR1-1
  6
CONTINUOUS
 62
     7
100
AcDbLine
 10
204.547529
 20
79.145925
 30
0.0
 11
203.45127
 21
78.875423
 31
0.0
  0
LINE
  5
24F
330
20F
100
AcDbEntity
  8
GR1-1
  6
CONTINUOUS
 62
     7
100
AcDbLine
 10
208.147751
 20
79.896258
 30
0.0
 11
207.18159
 21
79.657858
 31
0.0
  0
LINE
  5
250
330
20F
100
AcDbEntity
  8
GR1-1
  6
CONTINUOUS
 62
     7
100
AcDbLine
 10
206.5311
 20
79.49735
 30
0.0
 11
205.23012
 21
79.176335
 31
0.0
  0
LINE
  5
251
330
20F
100
AcDbEntity
  8
GR1-1
  6
CONTINUOUS
 62
     7
100
AcDbLine
 10
204.57963
 20
79.015827
 30
0.0
 11
203.61347
 21
78.777427
 31
0.0
  0
LINE
  5
252
330
20F
100
AcDbEntity
  8
GR1-1
  6
CONTINUOUS
 62
     7
100
AcDbLine
 10
208.049754
 20
79.734058
 30
0.0
 11
207.213692
 21
79.52776
 31
0.0
  0
LINE
  5
253
330
20F
100
AcDbEntity
  8
GR1-1
  6
CONTINUOUS
 62
     7
100
AcDbLine
 10
206.563202
 20
79.367252
 30
0.0
 11
205.262222
 21
79.046237
 31
0.0
  0
LINE
  5
254
330
20F
100
AcDbEntity
  8
GR1-1
  6
CONTINUOUS
 62
     7
100
AcDbLine
 10
204.611732
 20
78.885729
 30
0.0
 11
203.775669
 21
78.679431
 31
0.0
  0
LINE
  5
255
330
20F
100
AcDbEntity
  8
GR1-1
  6
CONTINUOUS
 62
     7
100
AcDbLine
 10
207.951758
 20
79.571859
 30
0.0
 11
207.245793
 21
79.397662
 31
0.0
  0
LINE
  5
256
330
20F
100
AcDbEntity
  8
GR1-1
  6
CONTINUOUS
 62
     7
100
AcDbLine
 10
204.643834
 20
78.755631
 30
0.0
 11
203.937869
 21
78.581434
 31
0.0
  0
LINE
  5
257
330
20F
100
AcDbEntity
  8
GR1-1
  6
CONTINUOUS
 62
     7
100
AcDbLine
 10
207.853762
 20
79.409659
 30
0.0
 11
207.277895
 21
79.267564
 31
0.0
  0
LINE
  5
258
330
20F
100
AcDbEntity
  8
GR1-1
  6
CONTINUOUS
 62
     7
100
AcDbLine
 10
204.675935
 20
78.625533
 30
0.0
 11
204.100068
 21
78.483438
 31
0.0
  0
LINE
  5
259
330
20F
100
AcDbEntity
  8
GR1-1
  6
CONTINUOUS
 62
     7
100
AcDbLine
 10
207.755765
 20
79.247459
 30
0.0
 11
207.309997
 21
79.137466
 31
0.0
  0
LINE
  5
25A
330
20F
100
AcDbEntity
  8
GR1-1
  6
CONTINUOUS
 62
     7
100
AcDbLine
 10
204.708037
 20
78.495435
 30
0.0
 11
204.262268
 21
78.385441
 31
0.0
  0
LINE
  5
25B
330
20F
100
AcDbEntity
  8
GR1-1
  6
CONTINUOUS
 62
     7
100
AcDbLine
 10
207.657769
 20
79.08526
 30
0.0
 11
207.342098
 21
79.007368
 31
0.0
  0
LINE
  5
25C
330
20F
100
AcDbEntity
  8
GR1-1
  6
CONTINUOUS
 62
     7
100
AcDbLine
 10
204.740138
 20
78.365337
 30
0.0
 11
204.424468
 21
78.287445
 31
0.0
  0
LINE
  5
25D
330
20F
100
AcDbEntity
  8
GR1-1
  6
CONTINUOUS
 62
     7
100
AcDbLine
 10
207.559772
 20
78.92306
 30
0.0
 11
207.3742
 21
78.87727
 31
0.0
  0
LINE
  5
25E
330
20F
100
AcDbEntity
  8
GR1-1
  6
CONTINUOUS
 62
     7
100
AcDbLine
 10
204.77224
 20
78.235239
 30
0.0
 11
204.586667
 21
78.189449
 31
0.0
  0
LINE
  5
25F
330
20F
100
AcDbEntity
  8
GR1-1
  6
CONTINUOUS
 62
     7
100
AcDbLine
 10
207.461776
 20
78.760861
 30
0.0
 11
204.748867
 21
78.091452
 31
0.0
  0
LINE
  5
260
330
20F
100
AcDbEntity
  8
GR1-1
  6
CONTINUOUS
 62
     7
100
AcDbLine
 10
207.36378
 20
78.598661
 30
0.0
 11
204.911066
 21
77.993456
 31
0.0
  0
LINE
  5
261
330
20F
100
AcDbEntity
  8
GR1-1
  6
CONTINUOUS
 62
     7
100
AcDbLine
 10
207.265783
 20
78.436462
 30
0.0
 11
205.073266
 21
77.895459
 31
0.0
  0
LINE
  5
262
330
20F
100
AcDbEntity
  8
GR1-1
  6
CONTINUOUS
 62
     7
100
AcDbLine
 10
207.167787
 20
78.274262
 30
0.0
 11
205.235466
 21
77.797463
 31
0.0
  0
LINE
  5
263
330
20F
100
AcDbEntity
  8
GR1-1
  6
CONTINUOUS
 62
     7
100
AcDbLine
 10
207.06979
 20
78.112062
 30
0.0
 11
205.397665
 21
77.699467
 31
0.0
  0
LINE
  5
264
330
20F
100
AcDbEntity
  8
GR1-1
  6
CONTINUOUS
 62
     7
100
AcDbLine
 10
206.971794
 20
77.949863
 30
0.0
 11
205.559865
 21
77.60147
 31
0.0
  0
LINE
  5
265
330
20F
100
AcDbEntity
  8
GR1-1
  6
CONTINUOUS
 62
     7
100
AcDbLine
 10
206.873798
 20
77.787663
 30
0.0
 11
205.722064
 21
77.503474
 31
0.0
  0
LINE
  5
266
330
20F
100
AcDbEntity
  8
GR1-1
  6
CONTINUOUS
 62
     7
100
AcDbLine
 10
206.775801
 20
77.625464
 30
0.0
 11
205.884264
 21
77.405477
 31
0.0
  0
LINE
  5
267
330
20F
100
AcDbEntity
  8
GR1-1
  6
CONTINUOUS
 62
     7
100
AcDbLine
 10
206.677805
 20
77.463264
 30
0.0
 11
206.046463
 21
77.307481
 31
0.0
  0
LINE
  5
268
330
20F
100
AcDbEntity
  8
GR1-1
  6
CONTINUOUS
 62
     7
100
AcDbLine
 10
206.579808
 20
77.301064
 30
0.0
 11
206.208663
 21
77.209485
 31
0.0
  0
LINE
  5
269
330
20F
100
AcDbEntity
  8
GR1-1
  6
CONTINUOUS
 62
     7
100
AcDbLine
 10
206.481812
 20
77.138865
 30
0.0
 11
206.370863
 21
77.111488
 31
0.0
  0
ENDBLK
  5
211
330
20F
100
AcDbEntity
  8
0
100
AcDbBlockEnd
  0
ENDSEC
  0
SECTION
  2
ENTITIES
  0
INSERT
  5
AB
330
1F
100
AcDbEntity
  8
0
100
AcDbBlockReference
  2
BLKF021
 10
0.0
 20
0.0
 30
0.0
  0
TEXT
  5
D7
330
1F
100
AcDbEntity
  8
}}ﾊﾊGG血CCТ
  6
CONTINUOUS
 62
     7
100
AcDbText
 10
155.0
 20
12.0
 30
0.0
 40
6.0
  1
ＥＪ－　７５　Ｎ
 41
0.794326
  7
FX_VECTOR
 72
     5
 11
187.0
 21
12.0
 31
0.0
100
AcDbText
  0
TEXT
  5
D8
330
1F
100
AcDbEntity
  8
LAYERGROUP-1
  6
CONTINUOUS
 62
     7
100
AcDbText
 10
255.0
 20
12.0
 30
0.0
 40
6.0
  1
E25A0UAA-C01
 41
0.72103
  7
FX_VECTOR
 72
     5
 11
303.0
 21
12.0
 31
0.0
100
AcDbText
  0
ARC
  5
D9
330
1F
100
AcDbEntity
  8
GR1-1
  6
CONTINUOUS
 62
     3
100
AcDbCircle
 10
274.16092
 20
243.0
 30
0.0
 40
6.5
100
AcDbArc
 50
-19.564814
 51
90.0
  0
LINE
  5
DA
330
1F
100
AcDbEntity
  8
GR1-1
  6
CONTINUOUS
 62
     3
100
AcDbLine
 10
274.16092
 20
249.5
 30
0.0
 11
217.16092
 21
249.5
 31
0.0
  0
ARC
  5
DB
330
1F
100
AcDbEntity
  8
GR1-1
  6
CONTINUOUS
 62
     3
100
AcDbCircle
 10
217.16092
 20
243.0
 30
0.0
 40
6.5
100
AcDbArc
 50
90.0
 51
199.564814
  0
CIRCLE
  5
DC
330
1F
100
AcDbEntity
  8
GR1-1
  6
CONTINUOUS
 62
     3
100
AcDbCircle
 10
217.66092
 20
242.5
 30
0.0
 40
3.25
  0
ARC
  5
DD
330
1F
100
AcDbEntity
  8
GR1-1
  6
CONTINUOUS
 62
     3
100
AcDbCircle
 10
217.16092
 20
214.0
 30
0.0
 40
6.5
100
AcDbArc
 50
160.435186
 51
270.0
  0
LINE
  5
DE
330
1F
100
AcDbEntity
  8
GR1-1
  6
CONTINUOUS
 62
     3
100
AcDbLine
 10
217.16092
 20
207.5
 30
0.0
 11
274.16092
 21
207.5
 31
0.0
  0
ARC
  5
DF
330
1F
100
AcDbEntity
  8
GR1-1
  6
CONTINUOUS
 62
     3
100
AcDbCircle
 10
274.16092
 20
214.0
 30
0.0
 40
6.5
100
AcDbArc
 50
-90.0
 51
19.564814
  0
CIRCLE
  5
E0
330
1F
100
AcDbEntity
  8
GR1-1
  6
CONTINUOUS
 62
     3
100
AcDbCircle
 10
273.66092
 20
214.5
 30
0.0
 40
3.25
  0
ARC
  5
E1
330
1F
100
AcDbEntity
  8
GR1-1
  6
CONTINUOUS
 62
     3
100
AcDbCircle
 10
314.96092
 20
228.5
 30
0.0
 40
36.8
100
AcDbArc
 50
160.435186
 51
199.564814
  0
CIRCLE
  5
E2
330
1F
100
AcDbEntity
  8
GR1-1
  6
CONTINUOUS
 62
     3
100
AcDbCircle
 10
273.66092
 20
242.5
 30
0.0
 40
3.25
  0
CIRCLE
  5
E3
330
1F
100
AcDbEntity
  8
GR1-1
  6
CONTINUOUS
 62
     3
100
AcDbCircle
 10
245.66092
 20
228.5
 30
0.0
 40
5.399999999999977
  0
CIRCLE
  5
E4
330
1F
100
AcDbEntity
  8
GR1-1
  6
CONTINUOUS
 62
     3
100
AcDbCircle
 10
217.66092
 20
214.5
 30
0.0
 40
3.25
  0
ARC
  5
E5
330
1F
100
AcDbEntity
  8
GR1-1
  6
CONTINUOUS
 62
     3
100
AcDbCircle
 10
176.36092
 20
228.5
 30
0.0
 40
36.8
100
AcDbArc
 50
-19.564814
 51
19.564814
  0
LINE
  5
E6
330
1F
100
AcDbEntity
  8
GR1-1
  6
CONTINUOUS
 62
     3
100
AcDbLine
 10
280.66092
 20
154.029
 30
0.0
 11
280.66092
 21
152.029
 31
0.0
  0
LINE
  5
E7
330
1F
100
AcDbEntity
  8
GR1-1
  6
CONTINUOUS
 62
     3
100
AcDbLine
 10
280.66092
 20
152.029
 30
0.0
 11
210.66092
 21
152.029
 31
0.0
  0
ARC
  5
E8
330
1F
100
AcDbEntity
  8
GR1-1
  6
CONTINUOUS
 62
     3
100
AcDbCircle
 10
262.31092
 20
151.779
 30
0.0
 40
2.5
100
AcDbArc
 50
270.0
 51
312.110461
  0
ARC
  5
E9
330
1F
100
AcDbEntity
  8
GR1-1
  6
CONTINUOUS
 62
     3
100
AcDbCircle
 10
261.305076
 20
152.89178
 30
0.0
 40
4.0
100
AcDbArc
 50
312.110461
 51
347.543693
  0
LINE
  5
EA
330
1F
100
AcDbEntity
  8
GR1-1
  6
CONTINUOUS
 62
     3
100
AcDbLine
 10
262.31092
 20
149.279
 30
0.0
 11
229.01092
 21
149.279
 31
0.0
  0
LINE
  5
EB
330
1F
100
AcDbEntity
  8
GR1-1
  6
CONTINUOUS
 62
     3
100
AcDbLine
 10
280.66092
 20
154.029
 30
0.0
 11
210.66092
 21
154.029
 31
0.0
  0
LINE
  5
EC
330
1F
100
AcDbEntity
  8
GR1-1
  6
CONTINUOUS
 62
     3
100
AcDbLine
 10
144.451941
 20
154.029
 30
0.0
 11
102.451941
 21
154.029
 31
0.0
  0
LINE
  5
ED
330
1F
100
AcDbEntity
  8
GR1-1
  6
CONTINUOUS
 62
     3
100
AcDbLine
 10
102.451941
 20
154.029
 30
0.0
 11
102.451941
 21
152.029
 31
0.0
  0
LINE
  5
EE
330
1F
100
AcDbEntity
  8
GR1-1
  6
CONTINUOUS
 62
     3
100
AcDbLine
 10
102.451941
 20
152.029
 30
0.0
 11
144.451941
 21
152.029
 31
0.0
  0
LINE
  5
EF
330
1F
100
AcDbEntity
  8
GR1-1
  6
CONTINUOUS
 62
     3
100
AcDbLine
 10
144.451941
 20
152.029
 30
0.0
 11
144.451941
 21
154.029
 31
0.0
  0
ARC
  5
F0
330
1F
100
AcDbEntity
  8
GR1-1
  6
CONTINUOUS
 62
     3
100
AcDbCircle
 10
139.096098
 20
152.89178
 30
0.0
 40
4.0
100
AcDbArc
 50
312.110461
 51
347.543693
  0
LINE
  5
F1
330
1F
100
AcDbEntity
  8
GR1-1
  6
CONTINUOUS
 62
     3
100
AcDbLine
 10
140.101941
 20
149.279
 30
0.0
 11
106.801941
 21
149.279
 31
0.0
  0
ARC
  5
F2
330
1F
100
AcDbEntity
  8
GR1-1
  6
CONTINUOUS
 62
     3
100
AcDbCircle
 10
140.101941
 20
151.779
 30
0.0
 40
2.5
100
AcDbArc
 50
270.0
 51
312.110461
  0
ARC
  5
F3
330
1F
100
AcDbEntity
  8
GR1-1
  6
CONTINUOUS
 62
     3
100
AcDbCircle
 10
106.801941
 20
151.779
 30
0.0
 40
2.5
100
AcDbArc
 50
227.889539
 51
270.0
  0
ARC
  5
F4
330
1F
100
AcDbEntity
  8
GR1-1
  6
CONTINUOUS
 62
     3
100
AcDbCircle
 10
107.807784
 20
152.89178
 30
0.0
 40
4.0
100
AcDbArc
 50
192.456307
 51
227.889539
  0
LINE
  5
F5
330
1F
100
AcDbEntity
  8
GR1-1
  6
CENTER
 62
     6
100
AcDbLine
 10
123.451941
 20
58.77351
 30
0.0
 11
123.451941
 21
156.198085
 31
0.0
  0
LINE
  5
F6
330
1F
100
AcDbEntity
  8
GR1-1
  6
CENTER
 62
     6
100
AcDbLine
 10
245.66092
 20
157.662122
 30
0.0
 11
245.66092
 21
118.234817
 31
0.0
  0
LINE
  5
F7
330
1F
100
AcDbEntity
  8
GR1-1
  6
CENTER
 62
     6
100
AcDbLine
 10
178.436907
 20
228.5
 30
0.0
 11
281.881655
 21
228.5
 31
0.0
  0
CIRCLE
  5
F8
330
1F
100
AcDbEntity
  8
GR1-1
  6
CONTINUOUS
 62
     6
100
AcDbCircle
 10
245.66092
 20
228.5
 30
0.0
 40
17.34999999999999
  0
CIRCLE
  5
F9
330
1F
100
AcDbEntity
  8
GR1-1
  6
CONTINUOUS
 62
     6
100
AcDbCircle
 10
245.66092
 20
228.5
 30
0.0
 40
15.95
  0
CIRCLE
  5
FA
330
1F
100
AcDbEntity
  8
GR1-1
  6
CONTINUOUS
 62
     6
100
AcDbCircle
 10
245.66092
 20
228.5
 30
0.0
 40
13.60000000000001
  0
CIRCLE
  5
FB
330
1F
100
AcDbEntity
  8
GR1-1
  6
CONTINUOUS
 62
     6
100
AcDbCircle
 10
245.66092
 20
228.5
 30
0.0
 40
12.20000000000002
  0
CIRCLE
  5
FC
330
1F
100
AcDbEntity
  8
GR1-1
  6
CONTINUOUS
 62
     6
100
AcDbCircle
 10
245.66092
 20
228.5
 30
0.0
 40
8.40000000000002
  0
CIRCLE
  5
FD
330
1F
100
AcDbEntity
  8
GR1-1
  6
CONTINUOUS
 62
     6
100
AcDbCircle
 10
245.66092
 20
228.5
 30
0.0
 40
4.400000000000006
  0
LINE
  5
FE
330
1F
100
AcDbEntity
  8
GR1-1
  6
CENTER
 62
     6
100
AcDbLine
 10
245.66092
 20
206.996722
 30
0.0
 11
245.66092
 21
250.41556
 31
0.0
  0
LINE
  5
FF
330
1F
100
AcDbEntity
  8
GR1-1
  6
CENTER
 62
     6
100
AcDbLine
 10
269.159165
 20
242.5
 30
0.0
 11
278.439746
 21
242.5
 31
0.0
  0
LINE
  5
100
330
1F
100
AcDbEntity
  8
GR1-1
  6
CENTER
 62
     6
100
AcDbLine
 10
273.66092
 20
238.08784
 30
0.0
 11
273.66092
 21
246.661329
 31
0.0
  0
LINE
  5
101
330
1F
100
AcDbEntity
  8
GR1-1
  6
CONTINUOUS
 62
     3
100
AcDbLine
 10
210.11092
 20
142.546504
 30
0.0
 11
210.458263
 21
140.576623
 31
0.0
  0
LINE
  5
102
330
1F
100
AcDbEntity
  8
GR1-1
  6
CONTINUOUS
 62
     3
100
AcDbLine
 10
210.458216
 20
140.576889
 30
0.0
 11
211.897599
 21
140.830691
 31
0.0
  0
LINE
  5
103
330
1F
100
AcDbEntity
  8
GR1-1
  6
CONTINUOUS
 62
     3
100
AcDbLine
 10
264.46092
 20
139.999981
 30
0.0
 11
258.008651
 21
139.999981
 31
0.0
  0
ARC
  5
104
330
1F
100
AcDbEntity
  8
GR1-1
  6
CONTINUOUS
 62
     3
100
AcDbCircle
 10
258.008651
 20
131.999981
 30
0.0
 40
8.0
100
AcDbArc
 50
90.0
 51
125.659088
  0
ARC
  5
105
330
1F
100
AcDbEntity
  8
GR1-1
  6
CONTINUOUS
 62
     3
100
AcDbCircle
 10
451.860305
 20
-22.111173
 30
0.0
 40
255.3512963944253
100
AcDbArc
 50
141.025006
 51
148.974994
  0
LINE
  5
106
330
1F
100
AcDbEntity
  8
GR1-1
  6
CONTINUOUS
 62
     3
100
AcDbLine
 10
233.038942
 20
109.499981
 30
0.0
 11
223.664136
 21
96.11137
 31
0.0
  0
LINE
  5
107
330
1F
100
AcDbEntity
  8
GR1-1
  6
CONTINUOUS
 62
     3
100
AcDbLine
 10
209.130852
 20
101.264357
 30
0.0
 11
212.041383
 21
142.886897
 31
0.0
  0
LINE
  5
108
330
1F
100
AcDbEntity
  8
GR1-1
  6
CONTINUOUS
 62
     3
100
AcDbLine
 10
210.11092
 20
142.546504
 30
0.0
 11
230.482644
 21
146.138589
 31
0.0
  0
LINE
  5
109
330
1F
100
AcDbEntity
  8
GR1-1
  6
CONTINUOUS
 62
     3
100
AcDbLine
 10
226.86092
 20
145.499981
 30
0.0
 11
226.86092
 21
145.999981
 31
0.0
  0
ARC
  5
10A
330
1F
100
AcDbEntity
  8
GR1-1
  6
CONTINUOUS
 62
     3
100
AcDbCircle
 10
229.858242
 20
145.453215
 30
0.0
 40
3.046784742691989
100
AcDbArc
 50
90.0
 51
169.661885
  0
LINE
  5
10B
330
1F
100
AcDbEntity
  8
GR1-1
  6
CONTINUOUS
 62
     3
100
AcDbLine
 10
264.46092
 20
139.999981
 30
0.0
 11
264.46092
 21
145.999981
 31
0.0
  0
ARC
  5
10C
330
1F
100
AcDbEntity
  8
GR1-1
  6
CONTINUOUS
 62
     3
100
AcDbCircle
 10
261.463597
 20
145.453215
 30
0.0
 40
3.046784742691989
100
AcDbArc
 50
10.338115
 51
90.0
  0
ARC
  5
10D
330
1F
100
AcDbEntity
  8
GR1-1
  6
CONTINUOUS
 62
     3
100
AcDbCircle
 10
217.11092
 20
100.699981
 30
0.0
 40
8.0
100
AcDbArc
 50
172.058849
 51
326.93068
  0
LINE
  5
10E
330
1F
100
AcDbEntity
  8
GR1-1
  6
CONTINUOUS
 62
     6
100
AcDbLine
 10
233.456412
 20
112.893543
 30
0.0
 11
233.456412
 21
143.081955
 31
0.0
  0
LINE
  5
10F
330
1F
100
AcDbEntity
  8
GR1-1
  6
CONTINUOUS
 62
     3
100
AcDbLine
 10
229.858242
 20
148.5
 30
0.0
 11
261.463597
 21
148.5
 31
0.0
  0
CIRCLE
  5
110
330
1F
100
AcDbEntity
  8
GR1-1
  6
CONTINUOUS
 62
     3
100
AcDbCircle
 10
217.66092
 20
99.528981
 30
0.0
 40
4.5
  0
CIRCLE
  5
111
330
1F
100
AcDbEntity
  8
GR1-1
  6
CONTINUOUS
 62
     7
100
AcDbCircle
 10
217.66092
 20
99.528981
 30
0.0
 40
1.25
  0
LINE
  5
112
330
1F
100
AcDbEntity
  8
GR1-1
  6
CENTER
 62
     6
100
AcDbLine
 10
177.127874
 20
99.528981
 30
0.0
 11
257.55546
 21
99.528981
 31
0.0
  0
LINE
  5
113
330
1F
100
AcDbEntity
  8
GR1-1
  6
CENTER
 62
     6
100
AcDbLine
 10
217.66092
 20
111.925848
 30
0.0
 11
217.66092
 21
57.814641
 31
0.0
  0
LINE
  5
114
330
1F
100
AcDbEntity
  8
GR1-1
  6
CONTINUOUS
 62
     3
100
AcDbLine
 10
111.151941
 20
92.7
 30
0.0
 11
109.151941
 21
92.7
 31
0.0
  0
LINE
  5
115
330
1F
100
AcDbEntity
  8
GR1-1
  6
CONTINUOUS
 62
     3
100
AcDbLine
 10
109.151941
 20
92.7
 30
0.0
 11
109.151941
 21
140.046523
 31
0.0
  0
LINE
  5
116
330
1F
100
AcDbEntity
  8
GR1-1
  6
CONTINUOUS
 62
     3
100
AcDbLine
 10
111.151941
 20
140.076642
 30
0.0
 11
111.151941
 21
92.7
 31
0.0
  0
ARC
  5
117
330
1F
100
AcDbEntity
  8
GR1-1
  6
CONTINUOUS
 62
     3
100
AcDbCircle
 10
97.665547
 20
107.953581
 30
0.0
 40
11.59002427735587
100
AcDbArc
 50
7.667656
 51
19.678211
  0
ARC
  5
118
330
1F
100
AcDbEntity
  8
GR1-1
  6
CONTINUOUS
 62
     3
100
AcDbCircle
 10
148.981825
 20
130.172992
 30
0.0
 40
44.3611441618762
100
AcDbArc
 50
182.151103
 51
204.387
  0
LINE
  5
119
330
1F
100
AcDbEntity
  8
GR1-1
  6
CONTINUOUS
 62
     3
100
AcDbLine
 10
104.651941
 20
128.507895
 30
0.0
 11
104.651941
 21
145.5
 31
0.0
  0
LINE
  5
11A
330
1F
100
AcDbEntity
  8
GR1-1
  6
CONTINUOUS
 62
     3
100
AcDbLine
 10
107.651941
 20
148.5
 30
0.0
 11
139.251941
 21
148.5
 31
0.0
  0
ARC
  5
11B
330
1F
100
AcDbEntity
  8
GR1-1
  6
CONTINUOUS
 62
     3
100
AcDbCircle
 10
107.651941
 20
145.5
 30
0.0
 40
3.0
100
AcDbArc
 50
90.0
 51
180.0
  0
LINE
  5
11C
330
1F
100
AcDbEntity
  8
GR1-1
  6
CONTINUOUS
 62
     3
100
AcDbLine
 10
111.651941
 20
142.546523
 30
0.0
 11
135.251941
 21
142.546523
 31
0.0
  0
LINE
  5
11D
330
1F
100
AcDbEntity
  8
GR1-1
  6
CONTINUOUS
 62
     3
100
AcDbLine
 10
135.251941
 20
140.576642
 30
0.0
 11
111.651941
 21
140.576642
 31
0.0
  0
ARC
  5
11E
330
1F
100
AcDbEntity
  8
GR1-1
  6
CONTINUOUS
 62
     3
100
AcDbCircle
 10
111.651941
 20
140.076642
 30
0.0
 40
0.5
100
AcDbArc
 50
90.0
 51
180.0
  0
ARC
  5
11F
330
1F
100
AcDbEntity
  8
GR1-1
  6
CONTINUOUS
 62
     3
100
AcDbCircle
 10
111.651941
 20
140.046523
 30
0.0
 40
2.5
100
AcDbArc
 50
90.0
 51
180.0
  0
LINE
  5
120
330
1F
100
AcDbEntity
  8
GR1-1
  6
CONTINUOUS
 62
     3
100
AcDbLine
 10
142.251941
 20
145.5
 30
0.0
 11
142.251941
 21
128.507895
 31
0.0
  0
LINE
  5
121
330
1F
100
AcDbEntity
  8
GR1-1
  6
CONTINUOUS
 62
     3
100
AcDbLine
 10
137.751941
 20
140.046523
 30
0.0
 11
137.751941
 21
92.7
 31
0.0
  0
LINE
  5
122
330
1F
100
AcDbEntity
  8
GR1-1
  6
CONTINUOUS
 62
     3
100
AcDbLine
 10
137.751941
 20
92.7
 30
0.0
 11
135.751941
 21
92.7
 31
0.0
  0
LINE
  5
123
330
1F
100
AcDbEntity
  8
GR1-1
  6
CONTINUOUS
 62
     3
100
AcDbLine
 10
135.751941
 20
92.7
 30
0.0
 11
135.751941
 21
140.076642
 31
0.0
  0
ARC
  5
124
330
1F
100
AcDbEntity
  8
GR1-1
  6
CONTINUOUS
 62
     3
100
AcDbCircle
 10
135.251941
 20
140.076642
 30
0.0
 40
0.5
100
AcDbArc
 50
0.0
 51
90.0
  0
ARC
  5
125
330
1F
100
AcDbEntity
  8
GR1-1
  6
CONTINUOUS
 62
     3
100
AcDbCircle
 10
135.251941
 20
140.046523
 30
0.0
 40
2.5
100
AcDbArc
 50
0.0
 51
90.0
  0
ARC
  5
126
330
1F
100
AcDbEntity
  8
GR1-1
  6
CONTINUOUS
 62
     3
100
AcDbCircle
 10
139.251941
 20
145.5
 30
0.0
 40
3.0
100
AcDbArc
 50
0.0
 51
90.0
  0
ARC
  5
127
330
1F
100
AcDbEntity
  8
GR1-1
  6
CONTINUOUS
 62
     3
100
AcDbCircle
 10
149.238335
 20
107.953581
 30
0.0
 40
11.59002427735587
100
AcDbArc
 50
160.321789
 51
172.332344
  0
ARC
  5
128
330
1F
100
AcDbEntity
  8
GR1-1
  6
CONTINUOUS
 62
     3
100
AcDbCircle
 10
97.922058
 20
130.172992
 30
0.0
 40
44.3611441618762
100
AcDbArc
 50
335.613
 51
357.848897
  0
LINE
  5
129
330
1F
100
AcDbEntity
  8
GR1-1
  6
CENTER
 62
     6
100
AcDbLine
 10
105.490286
 20
99.529
 30
0.0
 11
141.231403
 21
99.529
 31
0.0
  0
ARC
  5
12A
330
1F
100
AcDbEntity
  8
GR1-1
  6
CONTINUOUS
 62
     6
100
AcDbCircle
 10
123.451941
 20
240.53125
 30
0.0
 40
95.03125000000009
100
AcDbArc
 50
261.680715
 51
278.319285
  0
ARC
  5
12B
330
1F
100
AcDbEntity
  8
GR1-1
  6
CONTINUOUS
 62
     3
100
AcDbCircle
 10
131.251941
 20
99.905894
 30
0.0
 40
9.0
100
AcDbArc
 50
0.0
 51
27.266044
  0
LINE
  5
12C
330
1F
100
AcDbEntity
  8
GR1-1
  6
CONTINUOUS
 62
     3
100
AcDbLine
 10
139.251941
 20
104.029
 30
0.0
 11
137.751941
 21
104.029
 31
0.0
  0
LINE
  5
12D
330
1F
100
AcDbEntity
  8
GR1-1
  6
CONTINUOUS
 62
     3
100
AcDbLine
 10
135.751941
 20
102.529
 30
0.0
 11
134.951941
 21
102.529
 31
0.0
  0
LINE
  5
12E
330
1F
100
AcDbEntity
  8
GR1-1
  6
CONTINUOUS
 62
     3
100
AcDbLine
 10
111.151941
 20
96.529
 30
0.0
 11
111.951941
 21
96.529
 31
0.0
  0
LINE
  5
12F
330
1F
100
AcDbEntity
  8
GR1-1
  6
CONTINUOUS
 62
     3
100
AcDbLine
 10
137.751941
 20
95.029
 30
0.0
 11
139.251941
 21
95.029
 31
0.0
  0
ARC
  5
130
330
1F
100
AcDbEntity
  8
GR1-1
  6
CONTINUOUS
 62
     3
100
AcDbCircle
 10
131.251941
 20
99.152106
 30
0.0
 40
9.0
100
AcDbArc
 50
332.733956
 51
360.0
  0
LINE
  5
131
330
1F
100
AcDbEntity
  8
GR1-1
  6
CONTINUOUS
 62
     3
100
AcDbLine
 10
140.251941
 20
99.152106
 30
0.0
 11
140.251941
 21
99.905894
 31
0.0
  0
LINE
  5
132
330
1F
100
AcDbEntity
  8
GR1-1
  6
CONTINUOUS
 62
     6
100
AcDbLine
 10
139.251941
 20
104.029
 30
0.0
 11
139.251941
 21
95.029
 31
0.0
  0
ARC
  5
133
330
1F
100
AcDbEntity
  8
GR1-1
  6
CONTINUOUS
 62
     3
100
AcDbCircle
 10
108.851941
 20
102.529
 30
0.0
 40
1.5
100
AcDbArc
 50
90.0
 51
180.0
  0
LINE
  5
134
330
1F
100
AcDbEntity
  8
GR1-1
  6
CONTINUOUS
 62
     3
100
AcDbLine
 10
108.851941
 20
104.029
 30
0.0
 11
109.151941
 21
104.029
 31
0.0
  0
LINE
  5
135
330
1F
100
AcDbEntity
  8
GR1-1
  6
CONTINUOUS
 62
     3
100
AcDbLine
 10
107.351941
 20
102.529
 30
0.0
 11
107.351941
 21
96.529
 31
0.0
  0
ARC
  5
136
330
1F
100
AcDbEntity
  8
GR1-1
  6
CONTINUOUS
 62
     3
100
AcDbCircle
 10
108.851941
 20
96.529
 30
0.0
 40
1.5
100
AcDbArc
 50
180.0
 51
270.0
  0
LINE
  5
137
330
1F
100
AcDbEntity
  8
GR1-1
  6
CONTINUOUS
 62
     3
100
AcDbLine
 10
108.851941
 20
95.029
 30
0.0
 11
109.151941
 21
95.029
 31
0.0
  0
LINE
  5
138
330
1F
100
AcDbEntity
  8
GR1-1
  6
CONTINUOUS
 62
     3
100
AcDbLine
 10
210.66092
 20
242.8
 30
0.0
 11
209.11092
 21
242.8
 31
0.0
  0
LINE
  5
139
330
1F
100
AcDbEntity
  8
GR1-1
  6
CONTINUOUS
 62
     3
100
AcDbLine
 10
209.11092
 20
242.8
 30
0.0
 11
209.11092
 21
240.8
 31
0.0
  0
LINE
  5
13A
330
1F
100
AcDbEntity
  8
GR1-1
  6
CONTINUOUS
 62
     3
100
AcDbLine
 10
209.11092
 20
240.8
 30
0.0
 11
211.044489
 21
240.8
 31
0.0
  0
ARC
  5
13B
330
1F
100
AcDbEntity
  8
GR1-1
  6
CONTINUOUS
 62
     3
100
AcDbCircle
 10
240.11092
 20
228.5
 30
0.0
 40
30.0
100
AcDbArc
 50
160.690207
 51
199.309793
  0
LINE
  5
13C
330
1F
100
AcDbEntity
  8
GR1-1
  6
CONTINUOUS
 62
     3
100
AcDbLine
 10
211.036208
 20
216.2
 30
0.0
 11
209.11092
 21
216.2
 31
0.0
  0
LINE
  5
13D
330
1F
100
AcDbEntity
  8
GR1-1
  6
CONTINUOUS
 62
     3
100
AcDbLine
 10
209.11092
 20
216.2
 30
0.0
 11
209.11092
 21
214.2
 31
0.0
  0
LINE
  5
13E
330
1F
100
AcDbEntity
  8
GR1-1
  6
CONTINUOUS
 62
     3
100
AcDbLine
 10
209.11092
 20
214.2
 30
0.0
 11
210.663997
 21
214.2
 31
0.0
  0
DIMENSION
  5
13F
330
1F
100
AcDbEntity
  8
GR1-1
100
AcDbDimension
  2
*D22
 10
290.66092
 20
154.029
 30
0.0
 11
289.660919
 21
126.778992
 31
0.0
 70
    32
  3
FXDIMINFO
100
AcDbAlignedDimension
 13
257.55546
 23
99.528981
 33
0.0
 14
281.66092
 24
154.029
 34
0.0
 50
270.0
100
AcDbRotatedDimension
1001
ACAD
1000
DSTYLE
1002
{
1070
     7
1000
FXTIP_ARROW_E
1070
     6
1000
FXTIP_ARROW_S
1070
   173
1070
     1
1002
}
  0
DIMENSION
  5
149
330
1F
100
AcDbEntity
  8
GR1-1
100
AcDbDimension
  2
*D23
 10
245.66092
 20
52.028981
 30
0.0
 11
231.660919
 21
53.028992
 31
0.0
 70
    32
  3
FXDIMINFO
100
AcDbAlignedDimension
 13
217.66092
 23
57.814641
 33
0.0
 14
245.66092
 24
118.234817
 34
0.0
 50
180.0
100
AcDbRotatedDimension
1001
ACAD
1000
DSTYLE
1002
{
1070
     7
1000
FXTIP_ARROW_E
1070
     6
1000
FXTIP_ARROW_S
1070
   173
1070
     1
1002
}
  0
LINE
  5
153
330
1F
100
AcDbEntity
  8
GR1-1
  6
CONTINUOUS
 62
     3
100
AcDbLine
 10
134.951941
 20
96.529
 30
0.0
 11
135.751941
 21
96.529
 31
0.0
  0
LINE
  5
154
330
1F
100
AcDbEntity
  8
GR1-1
  6
CONTINUOUS
 62
     3
100
AcDbLine
 10
111.951941
 20
102.529
 30
0.0
 11
111.151941
 21
102.529
 31
0.0
  0
DIMENSION
  5
155
330
1F
100
AcDbEntity
  8
LAYERGROUP-1
100
AcDbDimension
  2
*D24
 10
153.505302
 20
137.029
 30
0.0
 11
152.50531
 21
99.528992
 31
0.0
 70
    33
  3
FXDIMINFO
100
AcDbAlignedDimension
 13
123.451941
 23
62.029
 33
0.0
 14
123.451941
 24
137.029
 34
0.0
1001
ACAD
1000
DSTYLE
1002
{
1070
     7
1000
FXTIP_ARROW_E
1070
     6
1000
FXTIP_ARROW_S
1070
   173
1070
     1
1002
}
  0
DIMENSION
  5
15F
330
1F
100
AcDbEntity
  8
LAYERGROUP-1
100
AcDbDimension
  2
*D25
 10
134.951941
 20
42.029
 30
0.0
 11
123.451942
 21
43.028992
 31
0.0
 70
    33
  3
FXDIMINFO
100
AcDbAlignedDimension
 13
111.951941
 23
90.529
 33
0.0
 14
134.951941
 24
90.529
 34
0.0
1001
ACAD
1000
DSTYLE
1002
{
1070
     7
1000
FXTIP_ARROW_E
1070
     6
1000
FXTIP_ARROW_S
1070
   173
1070
     1
1002
}
  0
DIMENSION
  5
169
330
1F
100
AcDbEntity
  8
LAYERGROUP-1
100
AcDbDimension
  2
*D26
 10
133.451941
 20
52.029
 30
0.0
 11
123.451942
 21
53.028992
 31
0.0
 70
    33
  3
FXDIMINFO
100
AcDbAlignedDimension
 13
113.451941
 23
64.826059
 33
0.0
 14
133.451941
 24
64.826059
 34
0.0
1001
ACAD
1000
DSTYLE
1002
{
1070
     7
1000
FXTIP_ARROW_E
1070
     6
1000
FXTIP_ARROW_S
1070
   173
1070
     1
1002
}
  0
DIMENSION
  5
173
330
1F
100
AcDbEntity
  8
LAYERGROUP-1
100
AcDbDimension
  2
*D27
 10
300.66092
 20
154.029
 30
0.0
 11
299.660919
 21
108.028992
 31
0.0
 70
    32
  3
FXDIMINFO
100
AcDbAlignedDimension
 13
217.66092
 23
62.028981
 33
0.0
 14
280.66092
 24
154.029
 34
0.0
 50
270.0
100
AcDbRotatedDimension
1001
ACAD
1000
DSTYLE
1002
{
1070
     7
1000
FXTIP_ARROW_E
1070
     6
1000
FXTIP_ARROW_S
1070
   173
1070
     1
1002
}
  0
ARC
  5
17D
330
1F
100
AcDbEntity
  8
GR1-1
  6
CONTINUOUS
 62
     3
100
AcDbCircle
 10
127.37257
 20
149.4845
 30
0.0
 40
1.9845
100
AcDbArc
 50
188.954325
 51
209.741964
  0
ARC
  5
17E
330
1F
100
AcDbEntity
  8
GR1-1
  6
CONTINUOUS
 62
     3
100
AcDbCircle
 10
130.913274
 20
149.4845
 30
0.0
 40
1.9845
100
AcDbArc
 50
206.862976
 51
209.741964
  0
ARC
  5
17F
330
1F
100
AcDbEntity
  8
GR1-1
  6
CONTINUOUS
 62
     3
100
AcDbCircle
 10
133.730945
 20
149.4845
 30
0.0
 40
1.9845
100
AcDbArc
 50
330.258036
 51
354.056222
  0
ARC
  5
180
330
1F
100
AcDbEntity
  8
GR1-1
  6
CONTINUOUS
 62
     3
100
AcDbCircle
 10
135.552539
 20
149.4845
 30
0.0
 40
1.9845
100
AcDbArc
 50
330.258036
 51
354.087949
  0
ARC
  5
181
330
1F
100
AcDbEntity
  8
GR1-1
  6
CONTINUOUS
 62
     3
100
AcDbCircle
 10
136.201536
 20
149.4845
 30
0.0
 40
1.9845
100
AcDbArc
 50
330.258036
 51
354.056222
  0
ARC
  5
182
330
1F
100
AcDbEntity
  8
GR1-1
  6
CONTINUOUS
 62
     3
100
AcDbCircle
 10
123.451941
 20
149.4845
 30
0.0
 40
1.9845
100
AcDbArc
 50
330.258036
 51
354.056222
  0
ARC
  5
183
330
1F
100
AcDbEntity
  8
GR1-1
  6
CONTINUOUS
 62
     3
100
AcDbCircle
 10
127.37257
 20
149.4845
 30
0.0
 40
1.9845
100
AcDbArc
 50
330.258036
 51
354.056222
  0
ARC
  5
184
330
1F
100
AcDbEntity
  8
GR1-1
  6
CONTINUOUS
 62
     3
100
AcDbCircle
 10
130.913274
 20
149.4845
 30
0.0
 40
1.9845
100
AcDbArc
 50
330.258036
 51
354.056222
  0
ARC
  5
185
330
1F
100
AcDbEntity
  8
GR1-1
  6
CONTINUOUS
 62
     3
100
AcDbCircle
 10
119.531312
 20
149.4845
 30
0.0
 40
1.9845
100
AcDbArc
 50
330.258036
 51
351.045675
  0
ARC
  5
186
330
1F
100
AcDbEntity
  8
GR1-1
  6
CONTINUOUS
 62
     3
100
AcDbCircle
 10
115.990608
 20
149.4845
 30
0.0
 40
1.9845
100
AcDbArc
 50
330.258036
 51
333.137024
  0
ARC
  5
187
330
1F
100
AcDbEntity
  8
GR1-1
  6
CONTINUOUS
 62
     3
100
AcDbCircle
 10
113.172938
 20
149.4845
 30
0.0
 40
1.9845
100
AcDbArc
 50
185.943778
 51
209.741964
  0
ARC
  5
188
330
1F
100
AcDbEntity
  8
GR1-1
  6
CONTINUOUS
 62
     3
100
AcDbCircle
 10
111.351344
 20
149.4845
 30
0.0
 40
1.9845
100
AcDbArc
 50
185.912051
 51
209.741964
  0
ARC
  5
189
330
1F
100
AcDbEntity
  8
GR1-1
  6
CONTINUOUS
 62
     3
100
AcDbCircle
 10
110.702346
 20
149.4845
 30
0.0
 40
1.9845
100
AcDbArc
 50
185.943778
 51
209.741964
  0
ARC
  5
18A
330
1F
100
AcDbEntity
  8
GR1-1
  6
CONTINUOUS
 62
     3
100
AcDbCircle
 10
123.451941
 20
149.4845
 30
0.0
 40
1.9845
100
AcDbArc
 50
185.943778
 51
209.741964
  0
ARC
  5
18B
330
1F
100
AcDbEntity
  8
GR1-1
  6
CONTINUOUS
 62
     3
100
AcDbCircle
 10
119.531312
 20
149.4845
 30
0.0
 40
1.9845
100
AcDbArc
 50
185.943778
 51
209.741964
  0
ARC
  5
18C
330
1F
100
AcDbEntity
  8
GR1-1
  6
CONTINUOUS
 62
     3
100
AcDbCircle
 10
115.990608
 20
149.4845
 30
0.0
 40
1.9845
100
AcDbArc
 50
185.943778
 51
209.741964
  0
ARC
  5
18D
330
1F
100
AcDbEntity
  8
GR1-1
  6
CONTINUOUS
 62
     3
100
AcDbCircle
 10
249.581548
 20
149.4845
 30
0.0
 40
1.9845
100
AcDbArc
 50
188.954325
 51
209.741964
  0
ARC
  5
18E
330
1F
100
AcDbEntity
  8
GR1-1
  6
CONTINUOUS
 62
     3
100
AcDbCircle
 10
253.122252
 20
149.4845
 30
0.0
 40
1.9845
100
AcDbArc
 50
206.862976
 51
209.741964
  0
ARC
  5
18F
330
1F
100
AcDbEntity
  8
GR1-1
  6
CONTINUOUS
 62
     3
100
AcDbCircle
 10
255.939923
 20
149.4845
 30
0.0
 40
1.9845
100
AcDbArc
 50
330.258036
 51
354.056222
  0
ARC
  5
190
330
1F
100
AcDbEntity
  8
GR1-1
  6
CONTINUOUS
 62
     3
100
AcDbCircle
 10
257.761517
 20
149.4845
 30
0.0
 40
1.9845
100
AcDbArc
 50
330.258036
 51
354.087949
  0
ARC
  5
191
330
1F
100
AcDbEntity
  8
GR1-1
  6
CONTINUOUS
 62
     3
100
AcDbCircle
 10
258.410514
 20
149.4845
 30
0.0
 40
1.9845
100
AcDbArc
 50
330.258036
 51
354.056222
  0
ARC
  5
192
330
1F
100
AcDbEntity
  8
GR1-1
  6
CONTINUOUS
 62
     3
100
AcDbCircle
 10
245.66092
 20
149.4845
 30
0.0
 40
1.9845
100
AcDbArc
 50
330.258036
 51
354.056222
  0
ARC
  5
193
330
1F
100
AcDbEntity
  8
GR1-1
  6
CONTINUOUS
 62
     3
100
AcDbCircle
 10
249.581548
 20
149.4845
 30
0.0
 40
1.9845
100
AcDbArc
 50
330.258036
 51
354.056222
  0
ARC
  5
194
330
1F
100
AcDbEntity
  8
GR1-1
  6
CONTINUOUS
 62
     3
100
AcDbCircle
 10
253.122252
 20
149.4845
 30
0.0
 40
1.9845
100
AcDbArc
 50
330.258036
 51
354.056222
  0
LINE
  5
195
330
1F
100
AcDbEntity
  8
GR1-1
  6
CONTINUOUS
 62
     3
100
AcDbLine
 10
210.66092
 20
154.029
 30
0.0
 11
210.66092
 21
152.029
 31
0.0
  0
ARC
  5
196
330
1F
100
AcDbEntity
  8
GR1-1
  6
CONTINUOUS
 62
     3
100
AcDbCircle
 10
229.01092
 20
151.779
 30
0.0
 40
2.5
100
AcDbArc
 50
227.889539
 51
270.0
  0
ARC
  5
197
330
1F
100
AcDbEntity
  8
GR1-1
  6
CONTINUOUS
 62
     3
100
AcDbCircle
 10
230.016763
 20
152.89178
 30
0.0
 40
4.0
100
AcDbArc
 50
192.456307
 51
227.889539
  0
ARC
  5
198
330
1F
100
AcDbEntity
  8
GR1-1
  6
CONTINUOUS
 62
     3
100
AcDbCircle
 10
241.740291
 20
149.4845
 30
0.0
 40
1.9845
100
AcDbArc
 50
330.258036
 51
351.045675
  0
ARC
  5
199
330
1F
100
AcDbEntity
  8
GR1-1
  6
CONTINUOUS
 62
     3
100
AcDbCircle
 10
238.199587
 20
149.4845
 30
0.0
 40
1.9845
100
AcDbArc
 50
330.258036
 51
333.137024
  0
ARC
  5
19A
330
1F
100
AcDbEntity
  8
GR1-1
  6
CONTINUOUS
 62
     3
100
AcDbCircle
 10
235.381916
 20
149.4845
 30
0.0
 40
1.9845
100
AcDbArc
 50
185.943778
 51
209.741964
  0
ARC
  5
19B
330
1F
100
AcDbEntity
  8
GR1-1
  6
CONTINUOUS
 62
     3
100
AcDbCircle
 10
233.560322
 20
149.4845
 30
0.0
 40
1.9845
100
AcDbArc
 50
185.912051
 51
209.741964
  0
ARC
  5
19C
330
1F
100
AcDbEntity
  8
GR1-1
  6
CONTINUOUS
 62
     3
100
AcDbCircle
 10
232.911325
 20
149.4845
 30
0.0
 40
1.9845
100
AcDbArc
 50
185.943778
 51
209.741964
  0
ARC
  5
19D
330
1F
100
AcDbEntity
  8
GR1-1
  6
CONTINUOUS
 62
     3
100
AcDbCircle
 10
245.66092
 20
149.4845
 30
0.0
 40
1.9845
100
AcDbArc
 50
185.943778
 51
209.741964
  0
ARC
  5
19E
330
1F
100
AcDbEntity
  8
GR1-1
  6
CONTINUOUS
 62
     3
100
AcDbCircle
 10
241.740291
 20
149.4845
 30
0.0
 40
1.9845
100
AcDbArc
 50
185.943778
 51
209.741964
  0
ARC
  5
19F
330
1F
100
AcDbEntity
  8
GR1-1
  6
CONTINUOUS
 62
     3
100
AcDbCircle
 10
238.199587
 20
149.4845
 30
0.0
 40
1.9845
100
AcDbArc
 50
185.943778
 51
209.741964
  0
LINE
  5
1A0
330
1F
100
AcDbEntity
  8
GR1-1
  6
CENTER
 62
     6
100
AcDbLine
 10
269.159165
 20
214.5
 30
0.0
 11
278.439746
 21
214.5
 31
0.0
  0
LINE
  5
1A1
330
1F
100
AcDbEntity
  8
GR1-1
  6
CENTER
 62
     6
100
AcDbLine
 10
273.66092
 20
210.08784
 30
0.0
 11
273.66092
 21
218.661329
 31
0.0
  0
LINE
  5
1A2
330
1F
100
AcDbEntity
  8
GR1-1
  6
CENTER
 62
     6
100
AcDbLine
 10
213.159165
 20
242.5
 30
0.0
 11
222.439746
 21
242.5
 31
0.0
  0
LINE
  5
1A3
330
1F
100
AcDbEntity
  8
GR1-1
  6
CENTER
 62
     6
100
AcDbLine
 10
217.66092
 20
238.08784
 30
0.0
 11
217.66092
 21
246.661329
 31
0.0
  0
LINE
  5
1A4
330
1F
100
AcDbEntity
  8
GR1-1
  6
CENTER
 62
     6
100
AcDbLine
 10
213.159165
 20
214.5
 30
0.0
 11
222.439746
 21
214.5
 31
0.0
  0
LINE
  5
1A5
330
1F
100
AcDbEntity
  8
GR1-1
  6
CENTER
 62
     6
100
AcDbLine
 10
217.66092
 20
210.08784
 30
0.0
 11
217.66092
 21
218.661329
 31
0.0
  0
LINE
  5
1A6
330
1F
100
AcDbEntity
  8
LAYERGROUP-1
  6
CENTER
 62
     6
100
AcDbLine
 10
273.66092
 20
156.697381
 30
0.0
 11
273.66092
 21
149.747412
 31
0.0
  0
LINE
  5
1A7
330
1F
100
AcDbEntity
  8
LAYERGROUP-1
  6
CENTER
 62
     6
100
AcDbLine
 10
217.66092
 20
156.697381
 30
0.0
 11
217.66092
 21
149.747412
 31
0.0
  0
LINE
  5
1A8
330
1F
100
AcDbEntity
  8
GR1-1
  6
CENTER
 62
     6
100
AcDbLine
 10
109.451941
 20
149.747412
 30
0.0
 11
109.451941
 21
156.198085
 31
0.0
  0
LINE
  5
1A9
330
1F
100
AcDbEntity
  8
GR1-1
  6
CENTER
 62
     6
100
AcDbLine
 10
137.451941
 20
149.747412
 30
0.0
 11
137.451941
 21
156.198085
 31
0.0
  0
DIMENSION
  5
1AA
330
1F
100
AcDbEntity
  8
GR1-1
100
AcDbDimension
  2
*D28
 10
280.66092
 20
187.717418
 30
0.0
 11
245.660919
 21
188.717422
 31
0.0
 70
    33
  3
FXDIMINFO
100
AcDbAlignedDimension
 13
210.66092
 23
214.0
 33
0.0
 14
280.66092
 24
214.0
 34
0.0
1001
ACAD
1000
DSTYLE
1002
{
1070
     7
1000
FXTIP_ARROW_E
1070
     6
1000
FXTIP_ARROW_S
1070
   173
1070
     1
1002
}
  0
DIMENSION
  5
1B4
330
1F
100
AcDbEntity
  8
GR1-1
100
AcDbDimension
  2
*D29
 10
273.66092
 20
197.717418
 30
0.0
 11
245.660919
 21
198.717422
 31
0.0
 70
    33
  3
FXDIMINFO
100
AcDbAlignedDimension
 13
217.66092
 23
209.0
 33
0.0
 14
273.66092
 24
209.0
 34
0.0
1001
ACAD
1000
DSTYLE
1002
{
1070
     7
1000
FXTIP_ARROW_E
1070
     6
1000
FXTIP_ARROW_S
1070
   173
1070
     1
1002
}
  0
DIMENSION
  5
1BE
330
1F
100
AcDbEntity
  8
GR1-1
100
AcDbDimension
  2
*D30
 10
300.666627
 20
249.5
 30
0.0
 11
299.666626
 21
228.5
 31
0.0
 70
    32
  3
FXDIMINFO
100
AcDbAlignedDimension
 13
273.66092
 23
207.5
 33
0.0
 14
274.16092
 24
249.5
 34
0.0
 50
270.0
100
AcDbRotatedDimension
1001
ACAD
1000
DSTYLE
1002
{
1070
     7
1000
FXTIP_ARROW_E
1070
     6
1000
FXTIP_ARROW_S
1070
   173
1070
     1
1002
}
  0
DIMENSION
  5
1C8
330
1F
100
AcDbEntity
  8
GR1-1
100
AcDbDimension
  2
*D31
 10
290.666627
 20
242.5
 30
0.0
 11
289.666626
 21
228.5
 31
0.0
 70
    33
  3
FXDIMINFO
100
AcDbAlignedDimension
 13
279.16092
 23
214.5
 33
0.0
 14
279.16092
 24
242.5
 34
0.0
1001
ACAD
1000
DSTYLE
1002
{
1070
     7
1000
FXTIP_ARROW_E
1070
     6
1000
FXTIP_ARROW_S
1070
   173
1070
     1
1002
}
  0
DIMENSION
  5
1D2
330
1F
100
AcDbEntity
  8
GR1-1
100
AcDbDimension
  2
*D32
 10
220.347279
 20
240.6708
 30
0.0
 11
202.329559
 21
254.149261
 31
0.0
 70
   163
  3
FXDIMINFO
100
AcDbDiametricDimension
 15
214.97456
 25
244.3292
 35
0.0
 40
0.0
  0
LINE
  5
1DC
330
1F
100
AcDbEntity
  8
GR1-1
  6
CENTER
 62
     6
100
AcDbLine
 10
217.66092
 20
138.702585
 30
0.0
 11
217.66092
 21
59.487221
 31
0.0
  0
LINE
  5
1DD
330
1F
100
AcDbEntity
  8
GR1-1
  6
CENTER
 62
     6
100
AcDbLine
 10
178.460121
 20
99.528981
 30
0.0
 11
257.42716
 21
99.528981
 31
0.0
  0
LINE
  5
1DE
330
1F
100
AcDbEntity
  8
GR1-1
  6
CENTER
 62
     6
100
AcDbLine
 10
177.472976
 20
99.528981
 30
0.0
 11
256.948922
 21
99.528981
 31
0.0
  0
LINE
  5
1DF
330
1F
100
AcDbEntity
  8
GR1-1
  6
CENTER
 62
     6
100
AcDbLine
 10
217.66092
 20
144.132073
 30
0.0
 11
217.66092
 21
54.45902
 31
0.0
  0
INSERT
  5
1E3
330
1F
100
AcDbEntity
  8
0
100
AcDbBlockReference
  2
BLKF035
 10
0.0
 20
0.0
 30
0.0
  0
LINE
  5
200
330
1F
100
AcDbEntity
  8
GR1-1
  6
CONTINUOUS
 62
     3
100
AcDbLine
 10
211.317893
 20
217.0
 30
0.0
 11
210.66092
 21
217.0
 31
0.0
  0
LINE
  5
201
330
1F
100
AcDbEntity
  8
GR1-1
  6
CONTINUOUS
 62
     3
100
AcDbLine
 10
210.16092
 20
217.5
 30
0.0
 11
210.16092
 21
218.5
 31
0.0
  0
LINE
  5
202
330
1F
100
AcDbEntity
  8
GR1-1
  6
CONTINUOUS
 62
     3
100
AcDbLine
 10
211.77617
 20
218.5
 30
0.0
 11
182.122467
 21
218.5
 31
0.0
  0
ARC
  5
203
330
1F
100
AcDbEntity
  8
GR1-1
  6
CONTINUOUS
 62
     3
100
AcDbCircle
 10
182.122467
 20
220.0
 30
0.0
 40
1.5
100
AcDbArc
 50
186.216189
 51
270.0
  0
LINE
  5
204
330
1F
100
AcDbEntity
  8
GR1-1
  6
CONTINUOUS
 62
     3
100
AcDbLine
 10
210.16092
 20
238.5
 30
0.0
 11
210.16092
 21
239.5
 31
0.0
  0
ARC
  5
205
330
1F
100
AcDbEntity
  8
GR1-1
  6
CONTINUOUS
 62
     3
100
AcDbCircle
 10
210.66092
 20
239.5
 30
0.0
 40
0.5
100
AcDbArc
 50
90.0
 51
180.0
  0
LINE
  5
206
330
1F
100
AcDbEntity
  8
GR1-1
  6
CONTINUOUS
 62
     3
100
AcDbLine
 10
210.66092
 20
240.0
 30
0.0
 11
211.317893
 21
240.0
 31
0.0
  0
ARC
  5
207
330
1F
100
AcDbEntity
  8
GR1-1
  6
CONTINUOUS
 62
     3
100
AcDbCircle
 10
210.66092
 20
217.5
 30
0.0
 40
0.5
100
AcDbArc
 50
180.0
 51
270.0
  0
LINE
  5
208
330
1F
100
AcDbEntity
  8
GR1-1
  6
CONTINUOUS
 62
     3
100
AcDbLine
 10
211.77617
 20
238.5
 30
0.0
 11
182.122467
 21
238.5
 31
0.0
  0
ARC
  5
209
330
1F
100
AcDbEntity
  8
GR1-1
  6
CONTINUOUS
 62
     3
100
AcDbCircle
 10
182.122467
 20
237.0
 30
0.0
 40
1.5
100
AcDbArc
 50
90.0
 51
173.783811
  0
ARC
  5
20A
330
1F
100
AcDbEntity
  8
GR1-1
  6
CONTINUOUS
 62
     3
100
AcDbCircle
 10
260.16092
 20
228.5
 30
0.0
 40
80.0
100
AcDbArc
 50
173.783811
 51
186.216189
  0
INSERT
  5
20E
330
1F
100
AcDbEntity
  8
0
100
AcDbBlockReference
  2
BLKF036
 10
0.0
 20
0.0
 30
0.0
  0
ENDSEC
  0
SECTION
  2
OBJECTS
  0
DICTIONARY
  5
C
330
0
100
AcDbDictionary
  3
ACAD_GROUP
350
D
  3
ACAD_LAYOUT
350
1A
  3
ACAD_MLINESTYLE
350
17
  3
ACAD_PLOTSETTINGS
350
19
  3
ACDBHEADERROUNDTRIPXREC
350
292
  0
DICTIONARY
  5
D
102
{ACAD_REACTORS
330
C
102
}
330
C
100
AcDbDictionary
  0
DICTIONARY
  5
1A
102
{ACAD_REACTORS
330
C
102
}
330
C
100
AcDbDictionary
  0
DICTIONARY
  5
17
102
{ACAD_REACTORS
330
C
102
}
330
C
100
AcDbDictionary
  3
STANDARD
350
18
  0
DICTIONARY
  5
19
102
{ACAD_REACTORS
330
C
102
}
330
C
100
AcDbDictionary
  0
DICTIONARY
  5
292
102
{ACAD_REACTORS
330
C
102
}
330
C
100
AcDbDictionary
  3
CEPSNTYPE
350
29B
  3
DIMSTYLEDATA
350
2B1
  3
FINGERPRINTGUID
350
29C
  3
HYPERLINKBASE
350
295
  3
INSUNITS
350
29A
  3
LAYOUTDICT
350
297
  3
LWETCUNION
350
299
  3
PLOTSETDICT
350
298
  3
PSVPSCALE
350
29E
  3
PUCSBASE
350
2A1
  3
PUCSORGBACK
350
2A7
  3
PUCSORGBOTTOM
350
2A3
  3
PUCSORGFRONT
350
2A6
  3
PUCSORGLEFT
350
2A4
  3
PUCSORGRIGHT
350
2A5
  3
PUCSORGTOP
350
2A2
  3
PUCSORTHOREF
350
29F
  3
PUCSORTHOVIEW
350
2A0
  3
STYLESHEET
350
296
  3
TSTACKALIGN
350
293
  3
TSTACKSIZE
350
294
  3
UCSBASE
350
2AA
  3
UCSORGBACK
350
2B0
  3
UCSORGBOTTOM
350
2AC
  3
UCSORGFRONT
350
2AF
  3
UCSORGLEFT
350
2AD
  3
UCSORGRIGHT
350
2AE
  3
UCSORGTOP
350
2AB
  3
UCSORTHOREF
350
2A8
  3
UCSORTHOVIEW
350
2A9
  3
VERSIONGUID
350
29D
  0
MLINESTYLE
  5
18
102
{ACAD_REACTORS
330
17
102
}
330
17
100
AcDbMlineStyle
  2
Standard
 70
     0
  3

 62
   256
 51
90.0
 52
90.0
 71
     2
 49
0.5
 62
   256
  6
BYLAYER
 49
-0.5
 62
   256
  6
BYLAYER
  0
XRECORD
  5
29B
102
{ACAD_REACTORS
330
292
102
}
330
292
100
AcDbXrecord
 90
        0
  0
XRECORD
  5
2B1
102
{ACAD_REACTORS
330
292
102
}
330
292
100
AcDbXrecord
1000
DSTYLE
1002
{
1070
   179
 70
     2
1070
   171
 70
     3
1070
   143
 40
0.03937
1070
   274
 70
     3
1070
    41
 40
4.0
1070
   343
340
41
1070
   344
340
47
1070
   141
 40
2.5
1070
   176
 70
     7
1070
   177
 70
     7
1070
   178
 70
     7
1070
   271
 70
     2
1070
    46
 40
6.0
1070
    43
 40
10.0
1070
    44
 40
1.0
1070
    42
 40
1.0
1070
   147
 40
1.0
1070
   341
340
41
1070
   173
 70
     1
1070
    77
 70
     1
1070
   272
 70
     2
1070
    73
 70
     0
1070
   172
 70
     1
1070
    74
 70
     0
1070
   283
 70
     0
1070
   340
340
3F
1070
   140
 40
4.0
1070
   284
 70
     8
1070
    78
 70
     8
1002
}
  0
XRECORD
  5
29C
102
{ACAD_REACTORS
330
292
102
}
330
292
100
AcDbXrecord
  1
{593F16E0-AACE-4418-9D2B-5C33FFF3E2EE}
  0
XRECORD
  5
295
102
{ACAD_REACTORS
330
292
102
}
330
292
100
AcDbXrecord
  1

  0
XRECORD
  5
29A
102
{ACAD_REACTORS
330
292
102
}
330
292
100
AcDbXrecord
 90
        1
  0
XRECORD
  5
297
102
{ACAD_REACTORS
330
292
102
}
330
292
100
AcDbXrecord
340
1A
  0
XRECORD
  5
299
102
{ACAD_REACTORS
330
292
102
}
330
292
100
AcDbXrecord
 90
    10781
  0
XRECORD
  5
298
102
{ACAD_REACTORS
330
292
102
}
330
292
100
AcDbXrecord
340
19
  0
XRECORD
  5
29E
102
{ACAD_REACTORS
330
292
102
}
330
292
100
AcDbXrecord
 40
0.0
  0
XRECORD
  5
2A1
102
{ACAD_REACTORS
330
292
102
}
330
292
100
AcDbXrecord
340
0
  0
XRECORD
  5
2A7
102
{ACAD_REACTORS
330
292
102
}
330
292
100
AcDbXrecord
 10
0.0
 20
0.0
 30
0.0
  0
XRECORD
  5
2A3
102
{ACAD_REACTORS
330
292
102
}
330
292
100
AcDbXrecord
 10
0.0
 20
0.0
 30
0.0
  0
XRECORD
  5
2A6
102
{ACAD_REACTORS
330
292
102
}
330
292
100
AcDbXrecord
 10
0.0
 20
0.0
 30
0.0
  0
XRECORD
  5
2A4
102
{ACAD_REACTORS
330
292
102
}
330
292
100
AcDbXrecord
 10
0.0
 20
0.0
 30
0.0
  0
XRECORD
  5
2A5
102
{ACAD_REACTORS
330
292
102
}
330
292
100
AcDbXrecord
 10
0.0
 20
0.0
 30
0.0
  0
XRECORD
  5
2A2
102
{ACAD_REACTORS
330
292
102
}
330
292
100
AcDbXrecord
 10
0.0
 20
0.0
 30
0.0
  0
XRECORD
  5
29F
102
{ACAD_REACTORS
330
292
102
}
330
292
100
AcDbXrecord
340
0
  0
XRECORD
  5
2A0
102
{ACAD_REACTORS
330
292
102
}
330
292
100
AcDbXrecord
 70
     0
  0
XRECORD
  5
296
102
{ACAD_REACTORS
330
292
102
}
330
292
100
AcDbXrecord
  1

  0
XRECORD
  5
293
102
{ACAD_REACTORS
330
292
102
}
330
292
100
AcDbXrecord
 90
        1
  0
XRECORD
  5
294
102
{ACAD_REACTORS
330
292
102
}
330
292
100
AcDbXrecord
 90
       70
  0
XRECORD
  5
2AA
102
{ACAD_REACTORS
330
292
102
}
330
292
100
AcDbXrecord
340
0
  0
XRECORD
  5
2B0
102
{ACAD_REACTORS
330
292
102
}
330
292
100
AcDbXrecord
 10
0.0
 20
0.0
 30
0.0
  0
XRECORD
  5
2AC
102
{ACAD_REACTORS
330
292
102
}
330
292
100
AcDbXrecord
 10
0.0
 20
0.0
 30
0.0
  0
XRECORD
  5
2AF
102
{ACAD_REACTORS
330
292
102
}
330
292
100
AcDbXrecord
 10
0.0
 20
0.0
 30
0.0
  0
XRECORD
  5
2AD
102
{ACAD_REACTORS
330
292
102
}
330
292
100
AcDbXrecord
 10
0.0
 20
0.0
 30
0.0
  0
XRECORD
  5
2AE
102
{ACAD_REACTORS
330
292
102
}
330
292
100
AcDbXrecord
 10
0.0
 20
0.0
 30
0.0
  0
XRECORD
  5
2AB
102
{ACAD_REACTORS
330
292
102
}
330
292
100
AcDbXrecord
 10
0.0
 20
0.0
 30
0.0
  0
XRECORD
  5
2A8
102
{ACAD_REACTORS
330
292
102
}
330
292
100
AcDbXrecord
340
0
  0
XRECORD
  5
2A9
102
{ACAD_REACTORS
330
292
102
}
330
292
100
AcDbXrecord
 70
     0
  0
XRECORD
  5
29D
102
{ACAD_REACTORS
330
292
102
}
330
292
100
AcDbXrecord
  1
{FAEB1C32-E019-11D5-929B-00C0DF256EC4}
  0
ENDSEC
  0
EOF
