  0
SECTION
  2
HEADER
  9
$ACADVER
  1
AC1014
  9
$ACADMAINTVER
 70
     9
  9
$DWGCODEPAGE
  3
ANSI_932
  9
$INSBASE
 10
0.0
 20
0.0
 30
0.0
  9
$EXTMIN
 10
0.0
 20
0.0
 30
0.0
  9
$EXTMAX
 10
594.0
 20
420.0
 30
0.0
  9
$LIMMIN
 10
0.0
 20
0.0
  9
$LIMMAX
 10
594.0
 20
420.0
  9
$ORTHOMODE
 70
     0
  9
$REGENMODE
 70
     1
  9
$FILLMODE
 70
     1
  9
$QTEXTMODE
 70
     0
  9
$MIRRTEXT
 70
     1
  9
$DRAGMODE
 70
     2
  9
$LTSCALE
 40
1.0
  9
$OSMODE
 70
    37
  9
$ATTMODE
 70
     1
  9
$TEXTSIZE
 40
0.2
  9
$TRACEWID
 40
0.05
  9
$TEXTSTYLE
  7
STYLE1
  9
$CLAYER
  8
0
  9
$CELTYPE
  6
BYLAYER
  9
$CECOLOR
 62
   256
  9
$CELTSCALE
 40
1.0
  9
$DELOBJ
 70
     1
  9
$DISPSILH
 70
     0
  9
$DIMSCALE
 40
1.0
  9
$DIMASZ
 40
4.0
  9
$DIMEXO
 40
1.0
  9
$DIMDLI
 40
10.0
  9
$DIMRND
 40
0.0
  9
$DIMDLE
 40
6.0
  9
$DIMEXE
 40
1.0
  9
$DIMTP
 40
0.0
  9
$DIMTM
 40
0.0
  9
$DIMTXT
 40
4.0
  9
$DIMCEN
 40
2.5
  9
$DIMTSZ
 40
0.0
  9
$DIMTOL
 70
     0
  9
$DIMLIM
 70
     0
  9
$DIMTIH
 70
     0
  9
$DIMTOH
 70
     0
  9
$DIMSE1
 70
     0
  9
$DIMSE2
 70
     0
  9
$DIMTAD
 70
     1
  9
$DIMZIN
 70
     8
  9
$DIMBLK
  1

  9
$DIMASO
 70
     1
  9
$DIMSHO
 70
     1
  9
$DIMPOST
  1

  9
$DIMAPOST
  1

  9
$DIMALT
 70
     0
  9
$DIMALTD
 70
     3
  9
$DIMALTF
 40
0.03937
  9
$DIMLFAC
 40
1.0
  9
$DIMTOFL
 70
     1
  9
$DIMTVP
 40
0.0
  9
$DIMTIX
 70
     0
  9
$DIMSOXD
 70
     0
  9
$DIMSAH
 70
     1
  9
$DIMBLK1
  1

  9
$DIMBLK2
  1
FXTIP_ARROW_E
  9
$DIMSTYLE
  2
FXDIMINFO
  9
$DIMCLRD
 70
     7
  9
$DIMCLRE
 70
     7
  9
$DIMCLRT
 70
     7
  9
$DIMTFAC
 40
1.0
  9
$DIMGAP
 40
1.0
  9
$DIMJUST
 70
     0
  9
$DIMSD1
 70
     0
  9
$DIMSD2
 70
     0
  9
$DIMTOLJ
 70
     0
  9
$DIMTZIN
 70
     8
  9
$DIMALTZ
 70
     0
  9
$DIMALTTZ
 70
     0
  9
$DIMFIT
 70
     3
  9
$DIMUPT
 70
     0
  9
$DIMUNIT
 70
     2
  9
$DIMDEC
 70
     2
  9
$DIMTDEC
 70
     2
  9
$DIMALTU
 70
     2
  9
$DIMALTTD
 70
     3
  9
$DIMTXSTY
  7
STYLE1
  9
$DIMAUNIT
 70
     0
  9
$LUNITS
 70
     2
  9
$LUPREC
 70
     4
  9
$SKETCHINC
 40
0.1
  9
$FILLETRAD
 40
0.5
  9
$AUNITS
 70
     0
  9
$AUPREC
 70
     0
  9
$MENU
  1
.
  9
$ELEVATION
 40
0.0
  9
$PELEVATION
 40
0.0
  9
$THICKNESS
 40
0.0
  9
$LIMCHECK
 70
     0
  9
$CHAMFERA
 40
0.5
  9
$CHAMFERB
 40
0.5
  9
$CHAMFERC
 40
1.0
  9
$CHAMFERD
 40
0.0
  9
$SKPOLY
 70
     0
  9
$TDCREATE
 40
2455307.352106505
  9
$TDUPDATE
 40
2455307.352106516
  9
$TDINDWG
 40
0.0000000116
  9
$TDUSRTIMER
 40
0.0000000116
  9
$USRTIMER
 70
     1
  9
$ANGBASE
 50
0.0
  9
$ANGDIR
 70
     0
  9
$PDMODE
 70
     0
  9
$PDSIZE
 40
0.0
  9
$PLINEWID
 40
0.0
  9
$COORDS
 70
     1
  9
$SPLFRAME
 70
     0
  9
$SPLINETYPE
 70
     6
  9
$SPLINESEGS
 70
     8
  9
$ATTDIA
 70
     0
  9
$ATTREQ
 70
     1
  9
$HANDLING
 70
     1
  9
$HANDSEED
  5
37E
  9
$SURFTAB1
 70
     6
  9
$SURFTAB2
 70
     6
  9
$SURFTYPE
 70
     6
  9
$SURFU
 70
     6
  9
$SURFV
 70
     6
  9
$UCSNAME
  2

  9
$UCSORG
 10
0.0
 20
0.0
 30
0.0
  9
$UCSXDIR
 10
1.0
 20
0.0
 30
0.0
  9
$UCSYDIR
 10
0.0
 20
1.0
 30
0.0
  9
$PUCSNAME
  2

  9
$PUCSORG
 10
0.0
 20
0.0
 30
0.0
  9
$PUCSXDIR
 10
1.0
 20
0.0
 30
0.0
  9
$PUCSYDIR
 10
0.0
 20
1.0
 30
0.0
  9
$USERI1
 70
     0
  9
$USERI2
 70
     0
  9
$USERI3
 70
     0
  9
$USERI4
 70
     0
  9
$USERI5
 70
     0
  9
$USERR1
 40
0.0
  9
$USERR2
 40
0.0
  9
$USERR3
 40
0.0
  9
$USERR4
 40
0.0
  9
$USERR5
 40
0.0
  9
$WORLDVIEW
 70
     1
  9
$SHADEDGE
 70
     3
  9
$SHADEDIF
 70
    70
  9
$TILEMODE
 70
     1
  9
$MAXACTVP
 70
    64
  9
$PINSBASE
 10
0.0
 20
0.0
 30
0.0
  9
$PLIMCHECK
 70
     0
  9
$PEXTMIN
 10
1.000000E+20
 20
1.000000E+20
 30
1.000000E+20
  9
$PEXTMAX
 10
-1.000000E+20
 20
-1.000000E+20
 30
-1.000000E+20
  9
$PLIMMIN
 10
0.0
 20
0.0
  9
$PLIMMAX
 10
12.0
 20
9.0
  9
$UNITMODE
 70
     0
  9
$VISRETAIN
 70
     1
  9
$PLINEGEN
 70
     0
  9
$PSLTSCALE
 70
     1
  9
$TREEDEPTH
 70
  3020
  9
$PICKSTYLE
 70
     1
  9
$CMLSTYLE
  2
STANDARD
  9
$CMLJUST
 70
     0
  9
$CMLSCALE
 40
1.0
  9
$PROXYGRAPHICS
 70
     1
  9
$MEASUREMENT
 70
     0
  0
ENDSEC
  0
SECTION
  2
CLASSES
  0
CLASS
  1
ACDBDICTIONARYWDFLT
  2
AcDbDictionaryWithDefault
  3
ObjectDBX Classes
 90
        0
280
     0
281
     0
  0
CLASS
  1
XRECORD
  2
AcDbXrecord
  3
AutoCAD 2000
 90
        0
280
     0
281
     0
  0
CLASS
  1
LWPOLYLINE
  2
AcDbPolyline
  3
AutoCAD 2000
 90
        0
280
     0
281
     1
  0
CLASS
  1
HATCH
  2
AcDbHatch
  3
AutoCAD 2000
 90
        0
280
     0
281
     1
  0
CLASS
  1
ACDBPLACEHOLDER
  2
AcDbPlaceHolder
  3
ObjectDBX Classes
 90
        0
280
     0
281
     0
  0
CLASS
  1
LAYOUT
  2
AcDbLayout
  3
ObjectDBX Classes
 90
        0
280
     0
281
     0
  0
ENDSEC
  0
SECTION
  2
TABLES
  0
TABLE
  2
VPORT
  5
8
330
0
100
AcDbSymbolTable
 70
     1
  0
VPORT
  5
29
330
8
100
AcDbSymbolTableRecord
100
AcDbViewportTableRecord
  2
*ACTIVE
 70
     0
 10
0.0
 20
0.0
 11
1.0
 21
1.0
 12
297.0
 22
210.0
 13
0.0
 23
0.0
 14
0.5
 24
0.5
 15
0.5
 25
0.5
 16
0.0
 26
0.0
 36
1.0
 17
0.0
 27
0.0
 37
0.0
 40
420.0
 41
1.414286
 42
50.0
 43
0.0
 44
0.0
 50
0.0
 51
0.0
 71
     0
 72
   100
 73
     1
 74
     3
 75
     0
 76
     0
 77
     0
 78
     0
  0
ENDTAB
  0
TABLE
  2
LTYPE
  5
5
330
0
100
AcDbSymbolTable
 70
     4
  0
LTYPE
  5
14
330
5
100
AcDbSymbolTableRecord
100
AcDbLinetypeTableRecord
  2
BYBLOCK
 70
     0
  3

 72
    65
 73
     0
 40
0.0
  0
LTYPE
  5
15
330
5
100
AcDbSymbolTableRecord
100
AcDbLinetypeTableRecord
  2
BYLAYER
 70
     0
  3

 72
    65
 73
     0
 40
0.0
  0
LTYPE
  5
16
330
5
100
AcDbSymbolTableRecord
100
AcDbLinetypeTableRecord
  2
CONTINUOUS
 70
     0
  3
--------------------
 72
    65
 73
     0
 40
0.0
  0
LTYPE
  5
2A
330
5
100
AcDbSymbolTableRecord
100
AcDbLinetypeTableRecord
  2
CENTER
 70
     0
  3
Center ____ _ ____ _ ____ _ ____ _ ____ _ ____
 72
    65
 73
     4
 40
13.0
 49
10.0
 74
     0
 49
-1.0
 74
     0
 49
1.0
 74
     0
 49
-1.0
 74
     0
  0
LTYPE
  5
2C
330
5
100
AcDbSymbolTableRecord
100
AcDbLinetypeTableRecord
  2
DASHED
 70
     0
  3
Dashed __ __ __ __ __ __ __ __ __ __ __ __ __ _
 72
    65
 73
     2
 40
4.0
 49
3.0
 74
     0
 49
-1.0
 74
     0
  0
ENDTAB
  0
TABLE
  2
LAYER
  5
2
330
0
100
AcDbSymbolTable
 70
    20
  0
LAYER
  5
10
330
2
100
AcDbSymbolTableRecord
100
AcDbLayerTableRecord
  2
0
 70
     0
 62
     7
  6
CONTINUOUS
  0
LAYER
  5
2D
330
2
100
AcDbSymbolTableRecord
100
AcDbLayerTableRecord
  2
LAYERGROUP-1
 70
     0
 62
     3
  6
CONTINUOUS
  0
LAYER
  5
3D
330
2
100
AcDbSymbolTableRecord
100
AcDbLayerTableRecord
  2
}}ﾊﾊGG血CCТ
 70
     0
 62
     3
  6
CONTINUOUS
  0
LAYER
  5
B8
330
2
100
AcDbSymbolTableRecord
100
AcDbLayerTableRecord
  2
0-1
 70
     0
 62
     7
  6
CONTINUOUS
  0
LAYER
  5
D0
330
2
100
AcDbSymbolTableRecord
100
AcDbLayerTableRecord
  2
GR1-1
 70
     0
 62
     7
  6
CONTINUOUS
  0
ENDTAB
  0
TABLE
  2
STYLE
  5
3
330
0
100
AcDbSymbolTable
 70
     4
  0
STYLE
  5
11
330
3
100
AcDbSymbolTableRecord
100
AcDbTextStyleTableRecord
  2
STANDARD
 70
     0
 40
0.0
 41
1.0
 50
0.0
 71
     0
 42
0.2
  3
txt
  4

  0
STYLE
  5
3F
330
3
100
AcDbSymbolTableRecord
100
AcDbTextStyleTableRecord
  2
STYLE1
 70
     0
 40
0.0
 41
1.0
 50
0.0
 71
     0
 42
0.2
  3
MONOTXT.SHX
  4
extfont.shx
  0
STYLE
  5
40
330
3
100
AcDbSymbolTableRecord
100
AcDbTextStyleTableRecord
  2
FX_VECTOR
 70
     0
 40
0.0
 41
1.0
 50
0.0
 71
     0
 42
0.2
  3
MONOTXT.SHX
  4
BIGFONT.SHX
  0
ENDTAB
  0
TABLE
  2
VIEW
  5
6
330
0
100
AcDbSymbolTable
 70
     0
  0
ENDTAB
  0
TABLE
  2
UCS
  5
7
330
0
100
AcDbSymbolTable
 70
     0
  0
ENDTAB
  0
TABLE
  2
APPID
  5
9
330
0
100
AcDbSymbolTable
 70
     1
  0
APPID
  5
12
330
9
100
AcDbSymbolTableRecord
100
AcDbRegAppTableRecord
  2
ACAD
 70
     0
  0
ENDTAB
  0
TABLE
  2
DIMSTYLE
  5
A
330
0
100
AcDbSymbolTable
 70
     2
  0
DIMSTYLE
105
27
330
A
100
AcDbSymbolTableRecord
100
AcDbDimStyleTableRecord
  2
STANDARD
 70
     0
  3

  4

  5

  6

  7

 40
1.0
 41
0.18
 42
0.0625
 43
0.38
 44
0.18
 45
0.0
 46
0.0
 47
0.0
 48
0.0
140
0.18
141
0.09
142
0.0
143
25.4
144
1.0
145
0.0
146
1.0
147
0.09
 71
     0
 72
     0
 73
     1
 74
     1
 75
     0
 76
     0
 77
     0
 78
     0
170
     0
171
     2
172
     0
173
     0
174
     0
175
     0
176
     0
177
     0
178
     0
270
     2
271
     4
272
     4
273
     2
274
     2
340
11
275
     0
280
     0
281
     0
282
     0
283
     1
284
     0
285
     0
286
     0
287
     3
288
     0
  0
DIMSTYLE
105
A7
102
{ACAD_REACTORS
330
11D
330
127
330
131
330
13B
330
145
330
163
330
186
330
19E
330
1A9
330
302
330
316
102
}
330
A
100
AcDbSymbolTableRecord
100
AcDbDimStyleTableRecord
  2
FXDIMINFO
 70
     0
  3

  4

  5

  6

  7
FXTIP_ARROW_E
 40
1.0
 41
4.0
 42
1.0
 43
10.0
 44
1.0
 45
0.0
 46
6.0
 47
0.0
 48
0.0
140
4.0
141
2.5
142
0.0
143
0.03937
144
1.0
145
0.0
146
1.0
147
1.0
 71
     0
 72
     0
 73
     0
 74
     0
 75
     0
 76
     0
 77
     1
 78
     8
170
     0
171
     3
172
     1
173
     1
174
     0
175
     0
176
     7
177
     7
178
     7
179
     2
270
     2
271
     2
272
     2
273
     2
274
     3
340
3F
275
     0
280
     0
281
     0
282
     0
283
     0
284
     8
285
     0
286
     0
287
     3
288
     0
  0
ENDTAB
  0
TABLE
  2
BLOCK_RECORD
  5
1
330
0
100
AcDbSymbolTable
 70
    35
  0
BLOCK_RECORD
  5
1F
330
1
100
AcDbSymbolTableRecord
100
AcDbBlockTableRecord
  2
*MODEL_SPACE
  0
BLOCK_RECORD
  5
1B
330
1
100
AcDbSymbolTableRecord
100
AcDbBlockTableRecord
  2
*PAPER_SPACE
  0
BLOCK_RECORD
  5
41
330
1
100
AcDbSymbolTableRecord
100
AcDbBlockTableRecord
  2
FXTIP_ARROW_S
  0
BLOCK_RECORD
  5
47
330
1
100
AcDbSymbolTableRecord
100
AcDbBlockTableRecord
  2
FXTIP_ARROW_E
  0
BLOCK_RECORD
  5
4D
330
1
100
AcDbSymbolTableRecord
100
AcDbBlockTableRecord
  2
FXTIP_BLACKDOT_S
  0
BLOCK_RECORD
  5
53
330
1
100
AcDbSymbolTableRecord
100
AcDbBlockTableRecord
  2
FXTIP_BLACKDOT_E
  0
BLOCK_RECORD
  5
59
330
1
100
AcDbSymbolTableRecord
100
AcDbBlockTableRecord
  2
FXTIP_TRIANGLE_S
  0
BLOCK_RECORD
  5
60
330
1
100
AcDbSymbolTableRecord
100
AcDbBlockTableRecord
  2
FXTIP_TRIANGLE_E
  0
BLOCK_RECORD
  5
67
330
1
100
AcDbSymbolTableRecord
100
AcDbBlockTableRecord
  2
FXTIP_ARCHITECT_S
  0
BLOCK_RECORD
  5
6D
330
1
100
AcDbSymbolTableRecord
100
AcDbBlockTableRecord
  2
FXTIP_ARCHITECT_E
  0
BLOCK_RECORD
  5
73
330
1
100
AcDbSymbolTableRecord
100
AcDbBlockTableRecord
  2
FXTIP_CIVIL_S
  0
BLOCK_RECORD
  5
79
330
1
100
AcDbSymbolTableRecord
100
AcDbBlockTableRecord
  2
FXTIP_CIVIL_E
  0
BLOCK_RECORD
  5
7F
330
1
100
AcDbSymbolTableRecord
100
AcDbBlockTableRecord
  2
FXTIP_WHITEDOT_S
  0
BLOCK_RECORD
  5
84
330
1
100
AcDbSymbolTableRecord
100
AcDbBlockTableRecord
  2
FXTIP_WHITEDOT_E
  0
BLOCK_RECORD
  5
89
330
1
100
AcDbSymbolTableRecord
100
AcDbBlockTableRecord
  2
FXTIP_UPARROW_S
  0
BLOCK_RECORD
  5
8E
330
1
100
AcDbSymbolTableRecord
100
AcDbBlockTableRecord
  2
FXTIP_UPARROW_E
  0
BLOCK_RECORD
  5
93
330
1
100
AcDbSymbolTableRecord
100
AcDbBlockTableRecord
  2
FXTIP_DOWNARROW_S
  0
BLOCK_RECORD
  5
98
330
1
100
AcDbSymbolTableRecord
100
AcDbBlockTableRecord
  2
FXTIP_DOWNARROW_E
  0
BLOCK_RECORD
  5
9D
330
1
100
AcDbSymbolTableRecord
100
AcDbBlockTableRecord
  2
FXTIP_BLACKTRIANGLE_S
  0
BLOCK_RECORD
  5
A2
330
1
100
AcDbSymbolTableRecord
100
AcDbBlockTableRecord
  2
FXTIP_BLACKTRIANGLE_E
  0
BLOCK_RECORD
  5
A8
330
1
100
AcDbSymbolTableRecord
100
AcDbBlockTableRecord
  2
BLKF021
  0
BLOCK_RECORD
  5
B4
330
1
100
AcDbSymbolTableRecord
100
AcDbBlockTableRecord
  2
BLKF022
  0
BLOCK_RECORD
  5
BD
330
1
100
AcDbSymbolTableRecord
100
AcDbBlockTableRecord
  2
BLKF023
  0
BLOCK_RECORD
  5
11E
330
1
100
AcDbSymbolTableRecord
100
AcDbBlockTableRecord
  2
*D22
  0
BLOCK_RECORD
  5
128
330
1
100
AcDbSymbolTableRecord
100
AcDbBlockTableRecord
  2
*D23
  0
BLOCK_RECORD
  5
132
330
1
100
AcDbSymbolTableRecord
100
AcDbBlockTableRecord
  2
*D24
  0
BLOCK_RECORD
  5
13C
330
1
100
AcDbSymbolTableRecord
100
AcDbBlockTableRecord
  2
*D25
  0
BLOCK_RECORD
  5
146
330
1
100
AcDbSymbolTableRecord
100
AcDbBlockTableRecord
  2
*D26
  0
BLOCK_RECORD
  5
164
330
1
100
AcDbSymbolTableRecord
100
AcDbBlockTableRecord
  2
*D27
  0
BLOCK_RECORD
  5
187
330
1
100
AcDbSymbolTableRecord
100
AcDbBlockTableRecord
  2
*D28
  0
BLOCK_RECORD
  5
19F
330
1
100
AcDbSymbolTableRecord
100
AcDbBlockTableRecord
  2
*D29
  0
BLOCK_RECORD
  5
1AA
330
1
100
AcDbSymbolTableRecord
100
AcDbBlockTableRecord
  2
*D30
  0
BLOCK_RECORD
  5
1C4
330
1
100
AcDbSymbolTableRecord
100
AcDbBlockTableRecord
  2
BLKF033
  0
BLOCK_RECORD
  5
290
330
1
100
AcDbSymbolTableRecord
100
AcDbBlockTableRecord
  2
BLKF034
  0
BLOCK_RECORD
  5
303
330
1
100
AcDbSymbolTableRecord
100
AcDbBlockTableRecord
  2
*D33
  0
BLOCK_RECORD
  5
317
330
1
100
AcDbSymbolTableRecord
100
AcDbBlockTableRecord
  2
*D34
  0
ENDTAB
  0
ENDSEC
  0
SECTION
  2
BLOCKS
  0
BLOCK
  5
20
330
1F
100
AcDbEntity
  8
0
100
AcDbBlockBegin
  2
*MODEL_SPACE
 70
     0
 71
     0
 10
0.0
 20
0.0
 30
0.0
  3
*MODEL_SPACE
  1

  0
ENDBLK
  5
21
330
1F
100
AcDbEntity
  8
0
100
AcDbBlockEnd
  0
BLOCK
  5
1C
330
1B
100
AcDbEntity
 67
     1
  8
0
100
AcDbBlockBegin
  2
*PAPER_SPACE
 70
     0
 71
     0
 10
0.0
 20
0.0
 30
0.0
  3
*PAPER_SPACE
  1

  0
ENDBLK
  5
1D
330
1B
100
AcDbEntity
 67
     1
  8
0
100
AcDbBlockEnd
  0
BLOCK
  5
42
330
41
100
AcDbEntity
  8
0
100
AcDbBlockBegin
  2
FXTIP_ARROW_S
 70
     0
 71
     0
 10
0.0
 20
0.0
 30
0.0
  3
FXTIP_ARROW_S
  1

  0
LINE
  5
44
330
41
100
AcDbEntity
  8
0
  6
CONTINUOUS
 62
     0
100
AcDbLine
 10
0.0
 20
0.0
 30
0.0
 11
-1.0
 21
0.0
 31
0.0
  0
LINE
  5
45
330
41
100
AcDbEntity
  8
0
  6
CONTINUOUS
 62
     0
100
AcDbLine
 10
0.0
 20
0.0
 30
0.0
 11
-0.965926
 21
-0.258819
 31
0.0
  0
LINE
  5
46
330
41
100
AcDbEntity
  8
0
  6
CONTINUOUS
 62
     0
100
AcDbLine
 10
0.0
 20
0.0
 30
0.0
 11
-0.965926
 21
0.258819
 31
0.0
  0
ENDBLK
  5
43
330
41
100
AcDbEntity
  8
0
100
AcDbBlockEnd
  0
BLOCK
  5
48
330
47
100
AcDbEntity
  8
0
100
AcDbBlockBegin
  2
FXTIP_ARROW_E
 70
     0
 71
     0
 10
0.0
 20
0.0
 30
0.0
  3
FXTIP_ARROW_E
  1

  0
LINE
  5
4A
330
47
100
AcDbEntity
  8
0
  6
CONTINUOUS
 62
     0
100
AcDbLine
 10
0.0
 20
0.0
 30
0.0
 11
-1.0
 21
0.0
 31
0.0
  0
LINE
  5
4B
330
47
100
AcDbEntity
  8
0
  6
CONTINUOUS
 62
     0
100
AcDbLine
 10
0.0
 20
0.0
 30
0.0
 11
-0.965926
 21
0.258819
 31
0.0
  0
LINE
  5
4C
330
47
100
AcDbEntity
  8
0
  6
CONTINUOUS
 62
     0
100
AcDbLine
 10
0.0
 20
0.0
 30
0.0
 11
-0.965926
 21
-0.258819
 31
0.0
  0
ENDBLK
  5
49
330
47
100
AcDbEntity
  8
0
100
AcDbBlockEnd
  0
BLOCK
  5
4E
330
4D
100
AcDbEntity
  8
0
100
AcDbBlockBegin
  2
FXTIP_BLACKDOT_S
 70
     0
 71
     0
 10
0.0
 20
0.0
 30
0.0
  3
FXTIP_BLACKDOT_S
  1

  0
LINE
  5
50
330
4D
100
AcDbEntity
  8
0
  6
CONTINUOUS
 62
     0
100
AcDbLine
 10
0.0
 20
0.0
 30
0.0
 11
-1.0
 21
0.0
 31
0.0
  0
LWPOLYLINE
  5
51
330
4D
100
AcDbEntity
  8
0
  6
CONTINUOUS
 62
     0
100
AcDbPolyline
 90
        2
 70
     1
 10
-0.25
 20
0.0
 40
0.5
 41
0.5
 42
1.0
 10
0.25
 20
0.0
 40
0.5
 41
0.5
 42
1.0
  0
CIRCLE
  5
52
330
4D
100
AcDbEntity
  8
0
  6
CONTINUOUS
 62
     0
100
AcDbCircle
 10
0.0
 20
0.0
 30
0.0
 40
0.5
  0
ENDBLK
  5
4F
330
4D
100
AcDbEntity
  8
0
100
AcDbBlockEnd
  0
BLOCK
  5
54
330
53
100
AcDbEntity
  8
0
100
AcDbBlockBegin
  2
FXTIP_BLACKDOT_E
 70
     0
 71
     0
 10
0.0
 20
0.0
 30
0.0
  3
FXTIP_BLACKDOT_E
  1

  0
LINE
  5
56
330
53
100
AcDbEntity
  8
0
  6
CONTINUOUS
 62
     0
100
AcDbLine
 10
0.0
 20
0.0
 30
0.0
 11
-1.0
 21
0.0
 31
0.0
  0
LWPOLYLINE
  5
57
330
53
100
AcDbEntity
  8
0
  6
CONTINUOUS
 62
     0
100
AcDbPolyline
 90
        2
 70
     1
 10
-0.25
 20
0.0
 40
0.5
 41
0.5
 42
1.0
 10
0.25
 20
0.0
 40
0.5
 41
0.5
 42
1.0
  0
CIRCLE
  5
58
330
53
100
AcDbEntity
  8
0
  6
CONTINUOUS
 62
     0
100
AcDbCircle
 10
0.0
 20
0.0
 30
0.0
 40
0.5
  0
ENDBLK
  5
55
330
53
100
AcDbEntity
  8
0
100
AcDbBlockEnd
  0
BLOCK
  5
5A
330
59
100
AcDbEntity
  8
0
100
AcDbBlockBegin
  2
FXTIP_TRIANGLE_S
 70
     0
 71
     0
 10
0.0
 20
0.0
 30
0.0
  3
FXTIP_TRIANGLE_S
  1

  0
LINE
  5
5C
330
59
100
AcDbEntity
  8
0
  6
CONTINUOUS
 62
     0
100
AcDbLine
 10
0.0
 20
0.0
 30
0.0
 11
-1.0
 21
0.0
 31
0.0
  0
LINE
  5
5D
330
59
100
AcDbEntity
  8
0
  6
CONTINUOUS
 62
     0
100
AcDbLine
 10
0.0
 20
0.0
 30
0.0
 11
-0.965926
 21
-0.258819
 31
0.0
  0
LINE
  5
5E
330
59
100
AcDbEntity
  8
0
  6
CONTINUOUS
 62
     0
100
AcDbLine
 10
0.0
 20
0.0
 30
0.0
 11
-0.965926
 21
0.258819
 31
0.0
  0
LINE
  5
5F
330
59
100
AcDbEntity
  8
0
  6
CONTINUOUS
 62
     0
100
AcDbLine
 10
-0.965926
 20
-0.258819
 30
0.0
 11
-0.965926
 21
0.258819
 31
0.0
  0
ENDBLK
  5
5B
330
59
100
AcDbEntity
  8
0
100
AcDbBlockEnd
  0
BLOCK
  5
61
330
60
100
AcDbEntity
  8
0
100
AcDbBlockBegin
  2
FXTIP_TRIANGLE_E
 70
     0
 71
     0
 10
0.0
 20
0.0
 30
0.0
  3
FXTIP_TRIANGLE_E
  1

  0
LINE
  5
63
330
60
100
AcDbEntity
  8
0
  6
CONTINUOUS
 62
     0
100
AcDbLine
 10
0.0
 20
0.0
 30
0.0
 11
-1.0
 21
0.0
 31
0.0
  0
LINE
  5
64
330
60
100
AcDbEntity
  8
0
  6
CONTINUOUS
 62
     0
100
AcDbLine
 10
0.0
 20
0.0
 30
0.0
 11
-0.965926
 21
0.258819
 31
0.0
  0
LINE
  5
65
330
60
100
AcDbEntity
  8
0
  6
CONTINUOUS
 62
     0
100
AcDbLine
 10
0.0
 20
0.0
 30
0.0
 11
-0.965926
 21
-0.258819
 31
0.0
  0
LINE
  5
66
330
60
100
AcDbEntity
  8
0
  6
CONTINUOUS
 62
     0
100
AcDbLine
 10
-0.965926
 20
0.258819
 30
0.0
 11
-0.965926
 21
-0.258819
 31
0.0
  0
ENDBLK
  5
62
330
60
100
AcDbEntity
  8
0
100
AcDbBlockEnd
  0
BLOCK
  5
68
330
67
100
AcDbEntity
  8
0
100
AcDbBlockBegin
  2
FXTIP_ARCHITECT_S
 70
     0
 71
     0
 10
0.0
 20
0.0
 30
0.0
  3
FXTIP_ARCHITECT_S
  1

  0
LINE
  5
6A
330
67
100
AcDbEntity
  8
0
  6
CONTINUOUS
 62
     0
100
AcDbLine
 10
0.0
 20
0.0
 30
0.0
 11
-1.0
 21
0.0
 31
0.0
  0
LINE
  5
6B
330
67
100
AcDbEntity
  8
0
  6
CONTINUOUS
 62
     0
100
AcDbLine
 10
0.0
 20
0.0
 30
0.0
 11
-0.707107
 21
-0.707107
 31
0.0
  0
LINE
  5
6C
330
67
100
AcDbEntity
  8
0
  6
CONTINUOUS
 62
     0
100
AcDbLine
 10
0.0
 20
0.0
 30
0.0
 11
0.707107
 21
0.707107
 31
0.0
  0
ENDBLK
  5
69
330
67
100
AcDbEntity
  8
0
100
AcDbBlockEnd
  0
BLOCK
  5
6E
330
6D
100
AcDbEntity
  8
0
100
AcDbBlockBegin
  2
FXTIP_ARCHITECT_E
 70
     0
 71
     0
 10
0.0
 20
0.0
 30
0.0
  3
FXTIP_ARCHITECT_E
  1

  0
LINE
  5
70
330
6D
100
AcDbEntity
  8
0
  6
CONTINUOUS
 62
     0
100
AcDbLine
 10
0.0
 20
0.0
 30
0.0
 11
-1.0
 21
0.0
 31
0.0
  0
LINE
  5
71
330
6D
100
AcDbEntity
  8
0
  6
CONTINUOUS
 62
     0
100
AcDbLine
 10
0.0
 20
0.0
 30
0.0
 11
0.707107
 21
0.707107
 31
0.0
  0
LINE
  5
72
330
6D
100
AcDbEntity
  8
0
  6
CONTINUOUS
 62
     0
100
AcDbLine
 10
0.0
 20
0.0
 30
0.0
 11
-0.707107
 21
-0.707107
 31
0.0
  0
ENDBLK
  5
6F
330
6D
100
AcDbEntity
  8
0
100
AcDbBlockEnd
  0
BLOCK
  5
74
330
73
100
AcDbEntity
  8
0
100
AcDbBlockBegin
  2
FXTIP_CIVIL_S
 70
     0
 71
     0
 10
0.0
 20
0.0
 30
0.0
  3
FXTIP_CIVIL_S
  1

  0
LINE
  5
76
330
73
100
AcDbEntity
  8
0
  6
CONTINUOUS
 62
     0
100
AcDbLine
 10
0.0
 20
0.0
 30
0.0
 11
-1.0
 21
0.0
 31
0.0
  0
LINE
  5
77
330
73
100
AcDbEntity
  8
0
  6
CONTINUOUS
 62
     0
100
AcDbLine
 10
0.0
 20
-0.0625
 30
0.0
 11
-1.0
 21
-0.0625
 31
0.0
  0
LINE
  5
78
330
73
100
AcDbEntity
  8
0
  6
CONTINUOUS
 62
     0
100
AcDbLine
 10
0.0
 20
-0.125
 30
0.0
 11
-1.0
 21
-0.125
 31
0.0
  0
ENDBLK
  5
75
330
73
100
AcDbEntity
  8
0
100
AcDbBlockEnd
  0
BLOCK
  5
7A
330
79
100
AcDbEntity
  8
0
100
AcDbBlockBegin
  2
FXTIP_CIVIL_E
 70
     0
 71
     0
 10
0.0
 20
0.0
 30
0.0
  3
FXTIP_CIVIL_E
  1

  0
LINE
  5
7C
330
79
100
AcDbEntity
  8
0
  6
CONTINUOUS
 62
     0
100
AcDbLine
 10
0.0
 20
0.0
 30
0.0
 11
-1.0
 21
0.0
 31
0.0
  0
LINE
  5
7D
330
79
100
AcDbEntity
  8
0
  6
CONTINUOUS
 62
     0
100
AcDbLine
 10
0.0
 20
0.0625
 30
0.0
 11
-1.0
 21
0.0625
 31
0.0
  0
LINE
  5
7E
330
79
100
AcDbEntity
  8
0
  6
CONTINUOUS
 62
     0
100
AcDbLine
 10
0.0
 20
0.125
 30
0.0
 11
-1.0
 21
0.125
 31
0.0
  0
ENDBLK
  5
7B
330
79
100
AcDbEntity
  8
0
100
AcDbBlockEnd
  0
BLOCK
  5
80
330
7F
100
AcDbEntity
  8
0
100
AcDbBlockBegin
  2
FXTIP_WHITEDOT_S
 70
     0
 71
     0
 10
0.0
 20
0.0
 30
0.0
  3
FXTIP_WHITEDOT_S
  1

  0
LINE
  5
82
330
7F
100
AcDbEntity
  8
0
  6
CONTINUOUS
 62
     0
100
AcDbLine
 10
0.0
 20
0.0
 30
0.0
 11
-1.0
 21
0.0
 31
0.0
  0
CIRCLE
  5
83
330
7F
100
AcDbEntity
  8
0
  6
CONTINUOUS
 62
     0
100
AcDbCircle
 10
0.0
 20
0.0
 30
0.0
 40
0.5
  0
ENDBLK
  5
81
330
7F
100
AcDbEntity
  8
0
100
AcDbBlockEnd
  0
BLOCK
  5
85
330
84
100
AcDbEntity
  8
0
100
AcDbBlockBegin
  2
FXTIP_WHITEDOT_E
 70
     0
 71
     0
 10
0.0
 20
0.0
 30
0.0
  3
FXTIP_WHITEDOT_E
  1

  0
LINE
  5
87
330
84
100
AcDbEntity
  8
0
  6
CONTINUOUS
 62
     0
100
AcDbLine
 10
0.0
 20
0.0
 30
0.0
 11
-1.0
 21
0.0
 31
0.0
  0
CIRCLE
  5
88
330
84
100
AcDbEntity
  8
0
  6
CONTINUOUS
 62
     0
100
AcDbCircle
 10
0.0
 20
0.0
 30
0.0
 40
0.5
  0
ENDBLK
  5
86
330
84
100
AcDbEntity
  8
0
100
AcDbBlockEnd
  0
BLOCK
  5
8A
330
89
100
AcDbEntity
  8
0
100
AcDbBlockBegin
  2
FXTIP_UPARROW_S
 70
     0
 71
     0
 10
0.0
 20
0.0
 30
0.0
  3
FXTIP_UPARROW_S
  1

  0
LINE
  5
8C
330
89
100
AcDbEntity
  8
0
  6
CONTINUOUS
 62
     0
100
AcDbLine
 10
0.0
 20
0.0
 30
0.0
 11
-1.0
 21
0.0
 31
0.0
  0
LINE
  5
8D
330
89
100
AcDbEntity
  8
0
  6
CONTINUOUS
 62
     0
100
AcDbLine
 10
0.0
 20
0.0
 30
0.0
 11
-0.965926
 21
-0.258819
 31
0.0
  0
ENDBLK
  5
8B
330
89
100
AcDbEntity
  8
0
100
AcDbBlockEnd
  0
BLOCK
  5
8F
330
8E
100
AcDbEntity
  8
0
100
AcDbBlockBegin
  2
FXTIP_UPARROW_E
 70
     0
 71
     0
 10
0.0
 20
0.0
 30
0.0
  3
FXTIP_UPARROW_E
  1

  0
LINE
  5
91
330
8E
100
AcDbEntity
  8
0
  6
CONTINUOUS
 62
     0
100
AcDbLine
 10
0.0
 20
0.0
 30
0.0
 11
-1.0
 21
0.0
 31
0.0
  0
LINE
  5
92
330
8E
100
AcDbEntity
  8
0
  6
CONTINUOUS
 62
     0
100
AcDbLine
 10
0.0
 20
0.0
 30
0.0
 11
-0.965926
 21
0.258819
 31
0.0
  0
ENDBLK
  5
90
330
8E
100
AcDbEntity
  8
0
100
AcDbBlockEnd
  0
BLOCK
  5
94
330
93
100
AcDbEntity
  8
0
100
AcDbBlockBegin
  2
FXTIP_DOWNARROW_S
 70
     0
 71
     0
 10
0.0
 20
0.0
 30
0.0
  3
FXTIP_DOWNARROW_S
  1

  0
LINE
  5
96
330
93
100
AcDbEntity
  8
0
  6
CONTINUOUS
 62
     0
100
AcDbLine
 10
0.0
 20
0.0
 30
0.0
 11
-1.0
 21
0.0
 31
0.0
  0
LINE
  5
97
330
93
100
AcDbEntity
  8
0
  6
CONTINUOUS
 62
     0
100
AcDbLine
 10
0.0
 20
0.0
 30
0.0
 11
-0.965926
 21
0.258819
 31
0.0
  0
ENDBLK
  5
95
330
93
100
AcDbEntity
  8
0
100
AcDbBlockEnd
  0
BLOCK
  5
99
330
98
100
AcDbEntity
  8
0
100
AcDbBlockBegin
  2
FXTIP_DOWNARROW_E
 70
     0
 71
     0
 10
0.0
 20
0.0
 30
0.0
  3
FXTIP_DOWNARROW_E
  1

  0
LINE
  5
9B
330
98
100
AcDbEntity
  8
0
  6
CONTINUOUS
 62
     0
100
AcDbLine
 10
0.0
 20
0.0
 30
0.0
 11
-1.0
 21
0.0
 31
0.0
  0
LINE
  5
9C
330
98
100
AcDbEntity
  8
0
  6
CONTINUOUS
 62
     0
100
AcDbLine
 10
0.0
 20
0.0
 30
0.0
 11
-0.965926
 21
-0.258819
 31
0.0
  0
ENDBLK
  5
9A
330
98
100
AcDbEntity
  8
0
100
AcDbBlockEnd
  0
BLOCK
  5
9E
330
9D
100
AcDbEntity
  8
0
100
AcDbBlockBegin
  2
FXTIP_BLACKTRIANGLE_S
 70
     0
 71
     0
 10
0.0
 20
0.0
 30
0.0
  3
FXTIP_BLACKTRIANGLE_S
  1

  0
LINE
  5
A0
330
9D
100
AcDbEntity
  8
0
  6
CONTINUOUS
 62
     0
100
AcDbLine
 10
0.0
 20
0.0
 30
0.0
 11
-1.0
 21
0.0
 31
0.0
  0
SOLID
  5
A1
330
9D
100
AcDbEntity
  8
0
  6
CONTINUOUS
 62
     0
100
AcDbTrace
 10
0.0
 20
0.0
 30
0.0
 11
-0.965926
 21
-0.258819
 31
0.0
 12
-0.965926
 22
0.258819
 32
0.0
 13
-0.965926
 23
0.258819
 33
0.0
  0
ENDBLK
  5
9F
330
9D
100
AcDbEntity
  8
0
100
AcDbBlockEnd
  0
BLOCK
  5
A3
330
A2
100
AcDbEntity
  8
0
100
AcDbBlockBegin
  2
FXTIP_BLACKTRIANGLE_E
 70
     0
 71
     0
 10
0.0
 20
0.0
 30
0.0
  3
FXTIP_BLACKTRIANGLE_E
  1

  0
LINE
  5
A5
330
A2
100
AcDbEntity
  8
0
  6
CONTINUOUS
 62
     0
100
AcDbLine
 10
0.0
 20
0.0
 30
0.0
 11
-1.0
 21
0.0
 31
0.0
  0
SOLID
  5
A6
330
A2
100
AcDbEntity
  8
0
  6
CONTINUOUS
 62
     0
100
AcDbTrace
 10
0.0
 20
0.0
 30
0.0
 11
-0.965926
 21
0.258819
 31
0.0
 12
-0.965926
 22
-0.258819
 32
0.0
 13
-0.965926
 23
-0.258819
 33
0.0
  0
ENDBLK
  5
A4
330
A2
100
AcDbEntity
  8
0
100
AcDbBlockEnd
  0
BLOCK
  5
A9
330
A8
100
AcDbEntity
  8
0
100
AcDbBlockBegin
  2
BLKF021
 70
     0
 71
     0
 10
0.0
 20
0.0
 30
0.0
  3
BLKF021
  1

  0
LINE
  5
AC
330
A8
100
AcDbEntity
  8
}}ﾊﾊGG血CCТ
  6
CONTINUOUS
 62
     7
100
AcDbLine
 10
10.0
 20
10.0
 30
0.0
 11
584.0
 21
10.0
 31
0.0
  0
LINE
  5
AD
330
A8
100
AcDbEntity
  8
}}ﾊﾊGG血CCТ
  6
CONTINUOUS
 62
     7
100
AcDbLine
 10
10.0
 20
10.0
 30
0.0
 11
10.0
 21
410.0
 31
0.0
  0
LINE
  5
AE
330
A8
100
AcDbEntity
  8
}}ﾊﾊGG血CCТ
  6
CONTINUOUS
 62
     7
100
AcDbLine
 10
10.0
 20
410.0
 30
0.0
 11
584.0
 21
410.0
 31
0.0
  0
LINE
  5
AF
330
A8
100
AcDbEntity
  8
}}ﾊﾊGG血CCТ
  6
CONTINUOUS
 62
     7
100
AcDbLine
 10
584.0
 20
410.0
 30
0.0
 11
584.0
 21
10.0
 31
0.0
  0
LINE
  5
B0
330
A8
100
AcDbEntity
  8
}}ﾊﾊGG血CCТ
  6
CONTINUOUS
 62
     7
100
AcDbLine
 10
327.0
 20
10.0
 30
0.0
 11
327.0
 21
20.0
 31
0.0
  0
TEXT
  5
B1
330
A8
100
AcDbEntity
  8
}}ﾊﾊGG血CCТ
  6
CONTINUOUS
 62
     7
100
AcDbText
 10
311.738831
 20
11.596879
 30
0.0
 40
6.648749
  1
品名
 41
1.083413
  7
FX_VECTOR
 72
     5
 11
323.058371
 21
11.596879
 31
0.0
100
AcDbText
  0
LINE
  5
B2
330
A8
100
AcDbEntity
  8
}}ﾊﾊGG血CCТ
  6
CONTINUOUS
 62
     7
100
AcDbLine
 10
407.0
 20
20.0
 30
0.0
 11
407.0
 21
10.0
 31
0.0
  0
LINE
  5
B3
330
A8
100
AcDbEntity
  8
}}ﾊﾊGG血CCТ
  6
CONTINUOUS
 62
     7
100
AcDbLine
 10
307.0
 20
20.0
 30
0.0
 11
584.0
 21
20.0
 31
0.0
  0
INSERT
  5
B7
330
A8
100
AcDbEntity
  8
0
100
AcDbBlockReference
  2
BLKF022
 10
0.0
 20
0.0
 30
0.0
  0
INSERT
  5
C0
330
A8
100
AcDbEntity
  8
0
100
AcDbBlockReference
  2
BLKF023
 10
0.0
 20
0.0
 30
0.0
  0
HATCH
  5
D1
330
A8
100
AcDbEntity
  8
GR1-1
  6
CONTINUOUS
 62
     7
100
AcDbHatch
 10
0.0
 20
0.0
 30
0.0
210
0.0
220
0.0
230
1.0
  2

 70
     0
 71
     1
 91
        2
 92
        0
 93
        4
 72
     1
 10
512.8018997861325
 20
17.91346152
 11
518.8018997861325
 21
17.91346152
 72
     1
 10
518.8018997861325
 20
17.91346152
 11
518.8018997861325
 21
11.91346152
 72
     1
 10
518.8018997861325
 20
11.91346152
 11
512.8018997861325
 21
11.91346152
 72
     1
 10
512.8018997861325
 20
11.91346152
 11
512.8018997861325
 21
17.91346152
 97
        0
 92
        0
 93
       15
 72
     1
 10
515.8018997861325
 20
17.76923076000002
 11
512.9461305461325
 21
14.91346152
 72
     1
 10
512.9461305461325
 20
14.91346152
 11
515.8018997861325
 21
12.05769228000001
 72
     1
 10
515.8018997861325
 20
12.05769228000001
 11
517.3595920661326
 21
13.61538462
 72
     1
 10
517.3595920661326
 20
13.61538462
 11
517.3595920661326
 21
12.98076924
 72
     1
 10
517.3595920661326
 20
12.98076924
 11
518.2249766861326
 21
12.98076924
 72
     1
 10
518.2249766861326
 20
12.98076924
 11
518.2249766861326
 21
15.00000000000001
 72
     1
 10
518.2249766861326
 20
15.00000000000001
 11
515.8018997861325
 21
15.00000000000001
 72
     1
 10
515.8018997861325
 20
15.00000000000001
 11
515.8018997861325
 21
14.13461538000001
 72
     1
 10
515.8018997861325
 20
14.13461538000001
 11
516.2461305461325
 21
14.13461538000001
 72
     1
 10
516.2461305461325
 20
14.13461538000001
 11
515.8018997861325
 21
13.69038462
 72
     1
 10
515.8018997861325
 20
13.69038462
 11
514.5788228861325
 21
14.91346152
 72
     1
 10
514.5788228861325
 20
14.91346152
 11
515.8018997861325
 21
16.13653842000003
 72
     1
 10
515.8018997861325
 20
16.13653842000003
 11
516.5922844061325
 21
15.3461538
 72
     1
 10
516.5922844061325
 20
15.3461538
 11
518.2249766861326
 21
15.3461538
 72
     1
 10
518.2249766861326
 20
15.3461538
 11
515.8018997861325
 21
17.76923076000002
 97
        0
 75
     0
 76
     0
 52
45.0
 41
0.05
 77
     0
 78
     1
 53
45.0
 43
0.0
 44
0.0
 45
-0.0353553390593274
 46
0.0353553390593274
 79
     0
 98
        0
  0
TEXT
  5
D2
330
A8
100
AcDbEntity
  8
}}ﾊﾊGG血CCТ
  6
CONTINUOUS
 62
     7
100
AcDbText
 10
523.225769
 20
11.461285
 30
0.0
 40
7.170908
  1
GOLD CASTER
 41
0.63978
  7
FX_VECTOR
 72
     5
 11
569.977636
 21
11.461285
 31
0.0
100
AcDbText
  0
LINE
  5
D3
330
A8
100
AcDbEntity
  8
}}ﾊﾊGG血CCТ
  6
CONTINUOUS
 62
     7
100
AcDbLine
 10
427.0
 20
10.0
 30
0.0
 11
427.0
 21
20.0
 31
0.0
  0
TEXT
  5
D4
330
A8
100
AcDbEntity
  8
}}ﾊﾊGG血CCТ
  6
CONTINUOUS
 62
     7
100
AcDbText
 10
411.738831
 20
11.596879
 30
0.0
 40
6.648749
  1
図番
 41
1.083413
  7
FX_VECTOR
 72
     5
 11
423.058371
 21
11.596879
 31
0.0
100
AcDbText
  0
LINE
  5
D5
330
A8
100
AcDbEntity
  8
}}ﾊﾊGG血CCТ
  6
CONTINUOUS
 62
     7
100
AcDbLine
 10
507.0
 20
20.0
 30
0.0
 11
507.0
 21
10.0
 31
0.0
  0
LINE
  5
D6
330
A8
100
AcDbEntity
  8
}}ﾊﾊGG血CCТ
  6
CONTINUOUS
 62
     7
100
AcDbLine
 10
307.0
 20
20.0
 30
0.0
 11
307.0
 21
10.0
 31
0.0
  0
ENDBLK
  5
AA
330
A8
100
AcDbEntity
  8
0
100
AcDbBlockEnd
  0
BLOCK
  5
B5
330
B4
100
AcDbEntity
  8
0
100
AcDbBlockBegin
  2
BLKF022
 70
     0
 71
     0
 10
0.0
 20
0.0
 30
0.0
  3
BLKF022
  1

  0
LINE
  5
B9
330
B4
100
AcDbEntity
  8
0-1
  6
CONTINUOUS
 62
     7
100
AcDbLine
 10
518.8019
 20
17.913462
 30
0.0
 11
512.8019
 21
17.913462
 31
0.0
  0
LINE
  5
BA
330
B4
100
AcDbEntity
  8
0-1
  6
CONTINUOUS
 62
     7
100
AcDbLine
 10
512.8019
 20
17.913462
 30
0.0
 11
512.8019
 21
11.913462
 31
0.0
  0
LINE
  5
BB
330
B4
100
AcDbEntity
  8
0-1
  6
CONTINUOUS
 62
     7
100
AcDbLine
 10
512.8019
 20
11.913462
 30
0.0
 11
518.8019
 21
11.913462
 31
0.0
  0
LINE
  5
BC
330
B4
100
AcDbEntity
  8
0-1
  6
CONTINUOUS
 62
     7
100
AcDbLine
 10
518.8019
 20
11.913462
 30
0.0
 11
518.8019
 21
17.913462
 31
0.0
  0
ENDBLK
  5
B6
330
B4
100
AcDbEntity
  8
0
100
AcDbBlockEnd
  0
BLOCK
  5
BE
330
BD
100
AcDbEntity
  8
0
100
AcDbBlockBegin
  2
BLKF023
 70
     0
 71
     0
 10
0.0
 20
0.0
 30
0.0
  3
BLKF023
  1

  0
LINE
  5
C1
330
BD
100
AcDbEntity
  8
0-1
  6
CONTINUOUS
 62
     7
100
AcDbLine
 10
518.224977
 20
15.346154
 30
0.0
 11
515.8019
 21
17.769231
 31
0.0
  0
LINE
  5
C2
330
BD
100
AcDbEntity
  8
0-1
  6
CONTINUOUS
 62
     7
100
AcDbLine
 10
515.8019
 20
17.769231
 30
0.0
 11
512.946131
 21
14.913462
 31
0.0
  0
LINE
  5
C3
330
BD
100
AcDbEntity
  8
0-1
  6
CONTINUOUS
 62
     7
100
AcDbLine
 10
512.946131
 20
14.913462
 30
0.0
 11
515.8019
 21
12.057692
 31
0.0
  0
LINE
  5
C4
330
BD
100
AcDbEntity
  8
0-1
  6
CONTINUOUS
 62
     7
100
AcDbLine
 10
515.8019
 20
12.057692
 30
0.0
 11
517.359592
 21
13.615385
 31
0.0
  0
LINE
  5
C5
330
BD
100
AcDbEntity
  8
0-1
  6
CONTINUOUS
 62
     7
100
AcDbLine
 10
517.359592
 20
13.615385
 30
0.0
 11
517.359592
 21
12.980769
 31
0.0
  0
LINE
  5
C6
330
BD
100
AcDbEntity
  8
0-1
  6
CONTINUOUS
 62
     7
100
AcDbLine
 10
517.359592
 20
12.980769
 30
0.0
 11
518.224977
 21
12.980769
 31
0.0
  0
LINE
  5
C7
330
BD
100
AcDbEntity
  8
0-1
  6
CONTINUOUS
 62
     7
100
AcDbLine
 10
518.224977
 20
12.980769
 30
0.0
 11
518.224977
 21
15.0
 31
0.0
  0
LINE
  5
C8
330
BD
100
AcDbEntity
  8
0-1
  6
CONTINUOUS
 62
     7
100
AcDbLine
 10
518.224977
 20
15.0
 30
0.0
 11
515.8019
 21
15.0
 31
0.0
  0
LINE
  5
C9
330
BD
100
AcDbEntity
  8
0-1
  6
CONTINUOUS
 62
     7
100
AcDbLine
 10
515.8019
 20
15.0
 30
0.0
 11
515.8019
 21
14.134615
 31
0.0
  0
LINE
  5
CA
330
BD
100
AcDbEntity
  8
0-1
  6
CONTINUOUS
 62
     7
100
AcDbLine
 10
515.8019
 20
14.134615
 30
0.0
 11
516.246131
 21
14.134615
 31
0.0
  0
LINE
  5
CB
330
BD
100
AcDbEntity
  8
0-1
  6
CONTINUOUS
 62
     7
100
AcDbLine
 10
516.246131
 20
14.134615
 30
0.0
 11
515.8019
 21
13.690385
 31
0.0
  0
LINE
  5
CC
330
BD
100
AcDbEntity
  8
0-1
  6
CONTINUOUS
 62
     7
100
AcDbLine
 10
515.8019
 20
13.690385
 30
0.0
 11
514.578823
 21
14.913462
 31
0.0
  0
LINE
  5
CD
330
BD
100
AcDbEntity
  8
0-1
  6
CONTINUOUS
 62
     7
100
AcDbLine
 10
514.578823
 20
14.913462
 30
0.0
 11
515.8019
 21
16.136538
 31
0.0
  0
LINE
  5
CE
330
BD
100
AcDbEntity
  8
0-1
  6
CONTINUOUS
 62
     7
100
AcDbLine
 10
515.8019
 20
16.136538
 30
0.0
 11
516.592284
 21
15.346154
 31
0.0
  0
LINE
  5
CF
330
BD
100
AcDbEntity
  8
0-1
  6
CONTINUOUS
 62
     7
100
AcDbLine
 10
516.592284
 20
15.346154
 30
0.0
 11
518.224977
 21
15.346154
 31
0.0
  0
ENDBLK
  5
BF
330
BD
100
AcDbEntity
  8
0
100
AcDbBlockEnd
  0
BLOCK
  5
11F
330
11E
100
AcDbEntity
  8
0
100
AcDbBlockBegin
  2
*D22
 70
     1
 71
     0
 10
0.0
 20
0.0
 30
0.0
  3
*D22
  1

  0
TEXT
  5
121
330
11E
100
AcDbEntity
  8
LAYERGROUP-1
  6
CONTINUOUS
 62
     7
100
AcDbText
 10
489.193481
 20
329.917084
 30
0.0
 40
4.0
  1
80
 50
90.0
 41
0.851351
  7
FX_VECTOR
 72
     5
 11
489.193481
 21
335.917084
 31
0.0
100
AcDbText
  0
LINE
  5
122
330
11E
100
AcDbEntity
  8
LAYERGROUP-1
  6
CONTINUOUS
 62
     7
100
AcDbLine
 10
490.19349
 20
292.917086
 30
0.0
 11
490.19349
 21
372.917086
 31
0.0
  0
INSERT
  5
123
330
11E
100
AcDbEntity
  8
LAYERGROUP-1
  6
CONTINUOUS
 62
     7
100
AcDbBlockReference
  2
FXTIP_ARROW_S
 10
490.19349
 20
292.917086
 30
0.0
 41
4.0
 42
4.0
 50
270.0
  0
INSERT
  5
124
330
11E
100
AcDbEntity
  8
LAYERGROUP-1
  6
CONTINUOUS
 62
     7
100
AcDbBlockReference
  2
FXTIP_ARROW_E
 10
490.19349
 20
372.917086
 30
0.0
 41
4.0
 42
4.0
 50
90.0
  0
LINE
  5
125
330
11E
100
AcDbEntity
  8
LAYERGROUP-1
  6
CONTINUOUS
 62
     7
100
AcDbLine
 10
471.284127
 20
292.917086
 30
0.0
 11
491.19349
 21
292.917086
 31
0.0
  0
LINE
  5
126
330
11E
100
AcDbEntity
  8
LAYERGROUP-1
  6
CONTINUOUS
 62
     7
100
AcDbLine
 10
471.284127
 20
372.917086
 30
0.0
 11
491.19349
 21
372.917086
 31
0.0
  0
ENDBLK
  5
120
330
11E
100
AcDbEntity
  8
0
100
AcDbBlockEnd
  0
BLOCK
  5
129
330
128
100
AcDbEntity
  8
0
100
AcDbBlockBegin
  2
*D23
 70
     1
 71
     0
 10
0.0
 20
0.0
 30
0.0
  3
*D23
  1

  0
TEXT
  5
12B
330
128
100
AcDbEntity
  8
LAYERGROUP-1
  6
CONTINUOUS
 62
     7
100
AcDbText
 10
500.67041
 20
328.417084
 30
0.0
 40
4.0
  1
108
 50
90.0
 41
0.828947
  7
FX_VECTOR
 72
     5
 11
500.67041
 21
337.417084
 31
0.0
100
AcDbText
  0
LINE
  5
12C
330
128
100
AcDbEntity
  8
LAYERGROUP-1
  6
CONTINUOUS
 62
     7
100
AcDbLine
 10
501.670413
 20
278.917086
 30
0.0
 11
501.670413
 21
386.917086
 31
0.0
  0
INSERT
  5
12D
330
128
100
AcDbEntity
  8
LAYERGROUP-1
  6
CONTINUOUS
 62
     7
100
AcDbBlockReference
  2
FXTIP_ARROW_S
 10
501.670413
 20
278.917086
 30
0.0
 41
4.0
 42
4.0
 50
270.0
  0
INSERT
  5
12E
330
128
100
AcDbEntity
  8
LAYERGROUP-1
  6
CONTINUOUS
 62
     7
100
AcDbBlockReference
  2
FXTIP_ARROW_E
 10
501.670413
 20
386.917086
 30
0.0
 41
4.0
 42
4.0
 50
90.0
  0
LINE
  5
12F
330
128
100
AcDbEntity
  8
LAYERGROUP-1
  6
CONTINUOUS
 62
     7
100
AcDbLine
 10
466.784127
 20
278.917086
 30
0.0
 11
502.670413
 21
278.917086
 31
0.0
  0
LINE
  5
130
330
128
100
AcDbEntity
  8
LAYERGROUP-1
  6
CONTINUOUS
 62
     7
100
AcDbLine
 10
466.784127
 20
386.917086
 30
0.0
 11
502.670413
 21
386.917086
 31
0.0
  0
ENDBLK
  5
12A
330
128
100
AcDbEntity
  8
0
100
AcDbBlockEnd
  0
BLOCK
  5
133
330
132
100
AcDbEntity
  8
0
100
AcDbBlockBegin
  2
*D24
 70
     1
 71
     0
 10
0.0
 20
0.0
 30
0.0
  3
*D24
  1

  0
TEXT
  5
135
330
132
100
AcDbEntity
  8
LAYERGROUP-1
  6
CONTINUOUS
 62
     7
100
AcDbText
 10
421.784119
 20
255.624847
 30
0.0
 40
4.0
  1
80
 41
0.851351
  7
FX_VECTOR
 72
     5
 11
427.784119
 21
255.624847
 31
0.0
100
AcDbText
  0
LINE
  5
136
330
132
100
AcDbEntity
  8
LAYERGROUP-1
  6
CONTINUOUS
 62
     7
100
AcDbLine
 10
384.784127
 20
254.62483
 30
0.0
 11
464.784127
 21
254.62483
 31
0.0
  0
INSERT
  5
137
330
132
100
AcDbEntity
  8
LAYERGROUP-1
  6
CONTINUOUS
 62
     7
100
AcDbBlockReference
  2
FXTIP_ARROW_S
 10
384.784127
 20
254.62483
 30
0.0
 41
4.0
 42
4.0
 50
180.0
  0
INSERT
  5
138
330
132
100
AcDbEntity
  8
LAYERGROUP-1
  6
CONTINUOUS
 62
     7
100
AcDbBlockReference
  2
FXTIP_ARROW_E
 10
464.784127
 20
254.62483
 30
0.0
 41
4.0
 42
4.0
 50
360.0
  0
LINE
  5
139
330
132
100
AcDbEntity
  8
LAYERGROUP-1
  6
CONTINUOUS
 62
     7
100
AcDbLine
 10
384.784127
 20
286.417086
 30
0.0
 11
384.784127
 21
253.62483
 31
0.0
  0
LINE
  5
13A
330
132
100
AcDbEntity
  8
LAYERGROUP-1
  6
CONTINUOUS
 62
     7
100
AcDbLine
 10
464.784127
 20
286.417086
 30
0.0
 11
464.784127
 21
253.62483
 31
0.0
  0
ENDBLK
  5
134
330
132
100
AcDbEntity
  8
0
100
AcDbBlockEnd
  0
BLOCK
  5
13D
330
13C
100
AcDbEntity
  8
0
100
AcDbBlockBegin
  2
*D25
 70
     1
 71
     0
 10
0.0
 20
0.0
 30
0.0
  3
*D25
  1

  0
TEXT
  5
13F
330
13C
100
AcDbEntity
  8
LAYERGROUP-1
  6
CONTINUOUS
 62
     7
100
AcDbText
 10
420.284119
 20
249.219254
 30
0.0
 40
4.0
  1
108
 41
0.828947
  7
FX_VECTOR
 72
     5
 11
429.284119
 21
249.219254
 31
0.0
100
AcDbText
  0
LINE
  5
140
330
13C
100
AcDbEntity
  8
LAYERGROUP-1
  6
CONTINUOUS
 62
     7
100
AcDbLine
 10
370.784127
 20
248.219251
 30
0.0
 11
478.784127
 21
248.219251
 31
0.0
  0
INSERT
  5
141
330
13C
100
AcDbEntity
  8
LAYERGROUP-1
  6
CONTINUOUS
 62
     7
100
AcDbBlockReference
  2
FXTIP_ARROW_S
 10
370.784127
 20
248.219251
 30
0.0
 41
4.0
 42
4.0
 50
180.0
  0
INSERT
  5
142
330
13C
100
AcDbEntity
  8
LAYERGROUP-1
  6
CONTINUOUS
 62
     7
100
AcDbBlockReference
  2
FXTIP_ARROW_E
 10
478.784127
 20
248.219251
 30
0.0
 41
4.0
 42
4.0
 50
360.0
  0
LINE
  5
143
330
13C
100
AcDbEntity
  8
LAYERGROUP-1
  6
CONTINUOUS
 62
     7
100
AcDbLine
 10
370.784127
 20
290.917086
 30
0.0
 11
370.784127
 21
247.219251
 31
0.0
  0
LINE
  5
144
330
13C
100
AcDbEntity
  8
LAYERGROUP-1
  6
CONTINUOUS
 62
     7
100
AcDbLine
 10
478.784127
 20
290.917086
 30
0.0
 11
478.784127
 21
247.219251
 31
0.0
  0
ENDBLK
  5
13E
330
13C
100
AcDbEntity
  8
0
100
AcDbBlockEnd
  0
BLOCK
  5
147
330
146
100
AcDbEntity
  8
0
100
AcDbBlockBegin
  2
*D26
 70
     1
 71
     0
 10
0.0
 20
0.0
 30
0.0
  3
*D26
  1

  0
TEXT
  5
149
330
146
100
AcDbEntity
  8
LAYERGROUP-1
  6
CONTINUOUS
 62
     7
100
AcDbText
 10
335.125061
 20
385.909546
 30
0.0
 40
4.0
  1
4-%%c11
 41
0.820313
  7
FX_VECTOR
 72
     5
 11
350.125061
 21
385.909546
 31
0.0
100
AcDbText
  0
LINE
  5
14A
330
146
100
AcDbEntity
  8
LAYERGROUP-1
  6
CONTINUOUS
 62
     7
100
AcDbLine
 10
379.576151
 20
374.685412
 30
0.0
 11
389.992104
 21
371.14876
 31
0.0
  0
LINE
  5
14B
330
146
100
AcDbEntity
  8
LAYERGROUP-1
  6
CONTINUOUS
 62
     7
100
AcDbLine
 10
379.576151
 20
374.685412
 30
0.0
 11
349.712475
 21
384.825381
 31
0.0
  0
INSERT
  5
14C
330
146
100
AcDbEntity
  8
LAYERGROUP-1
  6
CONTINUOUS
 62
     7
100
AcDbBlockReference
  2
FXTIP_ARROW_S
 10
379.576151
 20
374.685412
 30
0.0
 41
4.0
 42
4.0
 50
341.245499
  0
LINE
  5
14D
330
146
100
AcDbEntity
  8
LAYERGROUP-1
  6
CONTINUOUS
 62
     7
100
AcDbLine
 10
349.712475
 20
384.825381
 30
0.0
 11
338.712475
 21
384.825381
 31
0.0
  0
LINE
  5
14E
330
146
100
AcDbEntity
  8
LAYERGROUP-1
  6
CONTINUOUS
 62
     7
100
AcDbLine
 10
389.992104
 20
371.14876
 30
0.0
 11
395.673533
 21
369.219677
 31
0.0
  0
INSERT
  5
14F
330
146
100
AcDbEntity
  8
LAYERGROUP-1
  6
CONTINUOUS
 62
     7
100
AcDbBlockReference
  2
FXTIP_ARROW_S
 10
389.992104
 20
371.14876
 30
0.0
 41
4.0
 42
4.0
 50
161.245499
  0
ENDBLK
  5
148
330
146
100
AcDbEntity
  8
0
100
AcDbBlockEnd
  0
BLOCK
  5
165
330
164
100
AcDbEntity
  8
0
100
AcDbBlockBegin
  2
*D27
 70
     1
 71
     0
 10
0.0
 20
0.0
 30
0.0
  3
*D27
  1

  0
TEXT
  5
167
330
164
100
AcDbEntity
  8
LAYERGROUP-1
  6
CONTINUOUS
 62
     7
100
AcDbText
 10
487.58374
 20
166.938019
 30
0.0
 40
4.0
  1
112
 50
90.0
 41
0.828947
  7
FX_VECTOR
 72
     5
 11
487.58374
 21
175.938019
 31
0.0
100
AcDbText
  0
LINE
  5
168
330
164
100
AcDbEntity
  8
LAYERGROUP-1
  6
CONTINUOUS
 62
     7
100
AcDbLine
 10
488.583754
 20
115.438024
 30
0.0
 11
488.583754
 21
227.438024
 31
0.0
  0
INSERT
  5
169
330
164
100
AcDbEntity
  8
LAYERGROUP-1
  6
CONTINUOUS
 62
     7
100
AcDbBlockReference
  2
FXTIP_ARROW_S
 10
488.583754
 20
115.438024
 30
0.0
 41
4.0
 42
4.0
 50
270.0
  0
INSERT
  5
16A
330
164
100
AcDbEntity
  8
LAYERGROUP-1
  6
CONTINUOUS
 62
     7
100
AcDbBlockReference
  2
FXTIP_ARROW_E
 10
488.583754
 20
227.438024
 30
0.0
 41
4.0
 42
4.0
 50
90.0
  0
LINE
  5
16B
330
164
100
AcDbEntity
  8
LAYERGROUP-1
  6
CONTINUOUS
 62
     7
100
AcDbLine
 10
400.141846
 20
115.438024
 30
0.0
 11
489.583754
 21
115.438024
 31
0.0
  0
LINE
  5
16C
330
164
100
AcDbEntity
  8
LAYERGROUP-1
  6
CONTINUOUS
 62
     7
100
AcDbLine
 10
479.784127
 20
227.438024
 30
0.0
 11
489.583754
 21
227.438024
 31
0.0
  0
ENDBLK
  5
166
330
164
100
AcDbEntity
  8
0
100
AcDbBlockEnd
  0
BLOCK
  5
188
330
187
100
AcDbEntity
  8
0
100
AcDbBlockBegin
  2
*D28
 70
     1
 71
     0
 10
0.0
 20
0.0
 30
0.0
  3
*D28
  1

  0
TEXT
  5
18A
330
187
100
AcDbEntity
  8
LAYERGROUP-1
  6
CONTINUOUS
 62
     7
100
AcDbText
 10
182.909271
 20
31.513153
 30
0.0
 40
4.0
  1
６０
 41
0.954545
  7
FX_VECTOR
 72
     5
 11
188.909271
 21
31.513153
 31
0.0
100
AcDbText
  0
LINE
  5
18B
330
187
100
AcDbEntity
  8
LAYERGROUP-1
  6
CONTINUOUS
 62
     7
100
AcDbLine
 10
155.909271
 20
30.513157
 30
0.0
 11
215.909271
 21
30.513157
 31
0.0
  0
INSERT
  5
18C
330
187
100
AcDbEntity
  8
LAYERGROUP-1
  6
CONTINUOUS
 62
     7
100
AcDbBlockReference
  2
FXTIP_ARROW_S
 10
155.909271
 20
30.513157
 30
0.0
 41
4.0
 42
4.0
 50
180.0
  0
INSERT
  5
18D
330
187
100
AcDbEntity
  8
LAYERGROUP-1
  6
CONTINUOUS
 62
     7
100
AcDbBlockReference
  2
FXTIP_ARROW_E
 10
215.909271
 20
30.513157
 30
0.0
 41
4.0
 42
4.0
 50
360.0
  0
LINE
  5
18E
330
187
100
AcDbEntity
  8
LAYERGROUP-1
  6
CONTINUOUS
 62
     7
100
AcDbLine
 10
155.909271
 20
93.438024
 30
0.0
 11
155.909271
 21
29.513157
 31
0.0
  0
LINE
  5
18F
330
187
100
AcDbEntity
  8
LAYERGROUP-1
  6
CONTINUOUS
 62
     7
100
AcDbLine
 10
215.909271
 20
93.438024
 30
0.0
 11
215.909271
 21
29.513157
 31
0.0
  0
ENDBLK
  5
189
330
187
100
AcDbEntity
  8
0
100
AcDbBlockEnd
  0
BLOCK
  5
1A0
330
19F
100
AcDbEntity
  8
0
100
AcDbBlockBegin
  2
*D29
 70
     1
 71
     0
 10
0.0
 20
0.0
 30
0.0
  3
*D29
  1

  0
TEXT
  5
1A2
330
19F
100
AcDbEntity
  8
LAYERGROUP-1
  6
CONTINUOUS
 62
     7
100
AcDbText
 10
501.43634
 20
134.438019
 30
0.0
 40
4.0
  1
177
 50
90.0
 41
0.828947
  7
FX_VECTOR
 72
     5
 11
501.43634
 21
143.438019
 31
0.0
100
AcDbText
  0
LINE
  5
1A3
330
19F
100
AcDbEntity
  8
LAYERGROUP-1
  6
CONTINUOUS
 62
     7
100
AcDbLine
 10
502.436366
 20
50.438024
 30
0.0
 11
502.436366
 21
227.438024
 31
0.0
  0
INSERT
  5
1A4
330
19F
100
AcDbEntity
  8
LAYERGROUP-1
  6
CONTINUOUS
 62
     7
100
AcDbBlockReference
  2
FXTIP_ARROW_S
 10
502.436366
 20
50.438024
 30
0.0
 41
4.0
 42
4.0
 50
270.0
  0
INSERT
  5
1A5
330
19F
100
AcDbEntity
  8
LAYERGROUP-1
  6
CONTINUOUS
 62
     7
100
AcDbBlockReference
  2
FXTIP_ARROW_E
 10
502.436366
 20
227.438024
 30
0.0
 41
4.0
 42
4.0
 50
90.0
  0
LINE
  5
1A6
330
19F
100
AcDbEntity
  8
LAYERGROUP-1
  6
CONTINUOUS
 62
     7
100
AcDbLine
 10
385.784127
 20
50.438024
 30
0.0
 11
503.436366
 21
50.438024
 31
0.0
  0
LINE
  5
1A7
330
19F
100
AcDbEntity
  8
LAYERGROUP-1
  6
CONTINUOUS
 62
     7
100
AcDbLine
 10
479.784127
 20
227.438024
 30
0.0
 11
503.436366
 21
227.438024
 31
0.0
  0
ENDBLK
  5
1A1
330
19F
100
AcDbEntity
  8
0
100
AcDbBlockEnd
  0
BLOCK
  5
1AB
330
1AA
100
AcDbEntity
  8
0
100
AcDbBlockBegin
  2
*D30
 70
     1
 71
     0
 10
0.0
 20
0.0
 30
0.0
  3
*D30
  1

  0
TEXT
  5
1AD
330
1AA
100
AcDbEntity
  8
LAYERGROUP-1
  6
CONTINUOUS
 62
     7
100
AcDbText
 10
182.909271
 20
41.438019
 30
0.0
 40
4.0
  1
50
 41
0.851351
  7
FX_VECTOR
 72
     5
 11
188.909271
 21
41.438019
 31
0.0
100
AcDbText
  0
LINE
  5
1AE
330
1AA
100
AcDbEntity
  8
LAYERGROUP-1
  6
CONTINUOUS
 62
     7
100
AcDbLine
 10
160.909271
 20
40.438024
 30
0.0
 11
210.909271
 21
40.438024
 31
0.0
  0
INSERT
  5
1AF
330
1AA
100
AcDbEntity
  8
LAYERGROUP-1
  6
CONTINUOUS
 62
     7
100
AcDbBlockReference
  2
FXTIP_ARROW_S
 10
160.909271
 20
40.438024
 30
0.0
 41
4.0
 42
4.0
 50
180.0
  0
INSERT
  5
1B0
330
1AA
100
AcDbEntity
  8
LAYERGROUP-1
  6
CONTINUOUS
 62
     7
100
AcDbBlockReference
  2
FXTIP_ARROW_E
 10
210.909271
 20
40.438024
 30
0.0
 41
4.0
 42
4.0
 50
360.0
  0
LINE
  5
1B1
330
1AA
100
AcDbEntity
  8
LAYERGROUP-1
  6
CONTINUOUS
 62
     7
100
AcDbLine
 10
160.909271
 20
64.438024
 30
0.0
 11
160.909271
 21
39.438024
 31
0.0
  0
LINE
  5
1B2
330
1AA
100
AcDbEntity
  8
LAYERGROUP-1
  6
CONTINUOUS
 62
     7
100
AcDbLine
 10
210.909271
 20
64.438024
 30
0.0
 11
210.909271
 21
39.438024
 31
0.0
  0
ENDBLK
  5
1AC
330
1AA
100
AcDbEntity
  8
0
100
AcDbBlockEnd
  0
BLOCK
  5
1C5
330
1C4
100
AcDbEntity
  8
0
100
AcDbBlockBegin
  2
BLKF033
 70
     0
 71
     0
 10
0.0
 20
0.0
 30
0.0
  3
BLKF033
  1

  0
LINE
  5
1C8
330
1C4
100
AcDbEntity
  8
LAYERGROUP-1
  6
CONTINUOUS
 62
     3
100
AcDbLine
 10
137.981068
 20
101.581618
 30
0.0
 11
136.909271
 21
103.438024
 31
0.0
  0
LINE
  5
1C9
330
1C4
100
AcDbEntity
  8
LAYERGROUP-1
  6
CONTINUOUS
 62
     3
100
AcDbLine
 10
136.909271
 20
103.438024
 30
0.0
 11
136.909271
 21
127.438024
 31
0.0
  0
LINE
  5
1CA
330
1C4
100
AcDbEntity
  8
LAYERGROUP-1
  6
CONTINUOUS
 62
     3
100
AcDbLine
 10
136.909271
 20
127.438024
 30
0.0
 11
137.981068
 21
129.294431
 31
0.0
  0
ARC
  5
1CB
330
1C4
100
AcDbEntity
  8
LAYERGROUP-1
  6
CONTINUOUS
 62
     3
100
AcDbCircle
 10
143.043246
 20
105.045719
 30
0.0
 40
6.133974596215595
100
AcDbArc
 50
145.615753
 51
214.384247
  0
ARC
  5
1CC
330
1C4
100
AcDbEntity
  8
LAYERGROUP-1
  6
CONTINUOUS
 62
     3
100
AcDbCircle
 10
159.837474
 20
115.438024
 30
0.0
 40
22.92820323027558
100
AcDbArc
 50
162.412046
 51
197.587954
  0
ARC
  5
1CD
330
1C4
100
AcDbEntity
  8
LAYERGROUP-1
  6
CONTINUOUS
 62
     3
100
AcDbCircle
 10
143.043246
 20
125.830329
 30
0.0
 40
6.133974596215595
100
AcDbArc
 50
145.615753
 51
214.384247
  0
LINE
  5
1CE
330
1C4
100
AcDbEntity
  8
LAYERGROUP-1
  6
CONTINUOUS
 62
     3
100
AcDbLine
 10
137.981068
 20
129.294431
 30
0.0
 11
145.837474
 21
129.294431
 31
0.0
  0
LINE
  5
1CF
330
1C4
100
AcDbEntity
  8
LAYERGROUP-1
  6
CONTINUOUS
 62
     3
100
AcDbLine
 10
145.837474
 20
129.294431
 30
0.0
 11
146.909271
 21
127.438024
 31
0.0
  0
LINE
  5
1D0
330
1C4
100
AcDbEntity
  8
LAYERGROUP-1
  6
CONTINUOUS
 62
     3
100
AcDbLine
 10
146.909271
 20
127.438024
 30
0.0
 11
146.909271
 21
103.438024
 31
0.0
  0
LINE
  5
1D1
330
1C4
100
AcDbEntity
  8
LAYERGROUP-1
  6
CONTINUOUS
 62
     3
100
AcDbLine
 10
146.909271
 20
103.438024
 30
0.0
 11
145.837474
 21
101.581618
 31
0.0
  0
LINE
  5
1D2
330
1C4
100
AcDbEntity
  8
LAYERGROUP-1
  6
CONTINUOUS
 62
     3
100
AcDbLine
 10
145.837474
 20
101.581618
 30
0.0
 11
137.981068
 21
101.581618
 31
0.0
  0
ARC
  5
1D3
330
1C4
100
AcDbEntity
  8
LAYERGROUP-1
  6
CONTINUOUS
 62
     3
100
AcDbCircle
 10
140.775296
 20
105.045719
 30
0.0
 40
6.133974596215595
100
AcDbArc
 50
-34.384247
 51
34.384247
  0
ARC
  5
1D4
330
1C4
100
AcDbEntity
  8
LAYERGROUP-1
  6
CONTINUOUS
 62
     3
100
AcDbCircle
 10
123.981068
 20
115.438024
 30
0.0
 40
22.92820323027558
100
AcDbArc
 50
-17.587954
 51
17.587954
  0
ARC
  5
1D5
330
1C4
100
AcDbEntity
  8
LAYERGROUP-1
  6
CONTINUOUS
 62
     3
100
AcDbCircle
 10
140.775296
 20
125.830329
 30
0.0
 40
6.133974596215595
100
AcDbArc
 50
-34.384247
 51
34.384247
  0
LINE
  5
1D6
330
1C4
100
AcDbEntity
  8
LAYERGROUP-1
  6
CONTINUOUS
 62
     3
100
AcDbLine
 10
137.981068
 20
108.509821
 30
0.0
 11
145.837474
 21
108.509821
 31
0.0
  0
LINE
  5
1D7
330
1C4
100
AcDbEntity
  8
LAYERGROUP-1
  6
CONTINUOUS
 62
     3
100
AcDbLine
 10
137.981068
 20
122.366227
 30
0.0
 11
145.837474
 21
122.366227
 31
0.0
  0
ENDBLK
  5
1C6
330
1C4
100
AcDbEntity
  8
0
100
AcDbBlockEnd
  0
BLOCK
  5
291
330
290
100
AcDbEntity
  8
0
100
AcDbBlockBegin
  2
BLKF034
 70
     0
 71
     0
 10
0.0
 20
0.0
 30
0.0
  3
BLKF034
  1

  0
ARC
  5
294
330
290
100
AcDbEntity
  8
GR1-1
  6
CONTINUOUS
 62
     3
100
AcDbCircle
 10
381.988008
 20
134.140482
 30
0.0
 40
8.0
100
AcDbArc
 50
53.969477
 51
99.563334
  0
ARC
  5
295
330
290
100
AcDbEntity
  8
GR1-1
  6
CONTINUOUS
 62
     3
100
AcDbCircle
 10
379.828855
 20
146.959922
 30
0.0
 40
5.0
100
AcDbArc
 50
219.523877
 51
279.560486
  0
ARC
  5
296
330
290
100
AcDbEntity
  8
GR1-1
  6
CONTINUOUS
 62
     3
100
AcDbCircle
 10
374.815019
 20
142.823324
 30
0.0
 40
1.5
100
AcDbArc
 50
38.153877
 51
145.77
  0
LINE
  5
297
330
290
100
AcDbEntity
  8
GR1-1
  6
CONTINUOUS
 62
     3
100
AcDbLine
 10
373.574839
 20
143.667098
 30
0.0
 11
372.952625
 21
142.597905
 31
0.0
  0
ARC
  5
298
330
290
100
AcDbEntity
  8
GR1-1
  6
CONTINUOUS
 62
     3
100
AcDbCircle
 10
370.885659
 20
144.004196
 30
0.0
 40
2.5
100
AcDbArc
 50
226.496042
 51
325.77
  0
LINE
  5
299
330
290
100
AcDbEntity
  8
GR1-1
  6
CONTINUOUS
 62
     3
100
AcDbLine
 10
369.615261
 20
143.232186
 30
0.0
 11
368.582677
 21
140.846024
 31
0.0
  0
LINE
  5
29A
330
290
100
AcDbEntity
  8
GR1-1
  6
CONTINUOUS
 62
     3
100
AcDbLine
 10
369.615261
 20
143.232186
 30
0.0
 11
338.698055
 21
156.611256
 31
0.0
  0
LINE
  5
29B
330
290
100
AcDbEntity
  8
GR1-1
  6
CONTINUOUS
 62
     3
100
AcDbLine
 10
368.582677
 20
140.846024
 30
0.0
 11
337.370551
 21
154.352717
 31
0.0
  0
LINE
  5
29C
330
290
100
AcDbEntity
  8
GR1-1
  6
CONTINUOUS
 62
     6
100
AcDbLine
 10
366.676367
 20
136.440802
 30
0.0
 11
345.46731
 21
145.61878
 31
0.0
  0
ARC
  5
29D
330
290
100
AcDbEntity
  8
GR1-1
  6
CONTINUOUS
 62
     6
100
AcDbCircle
 10
364.640722
 20
132.963241
 30
0.0
 40
4.0
100
AcDbArc
 50
-41.024003
 51
66.6
  0
ARC
  5
29E
330
290
100
AcDbEntity
  8
GR1-1
  6
CONTINUOUS
 62
     6
100
AcDbCircle
 10
384.784127
 20
115.438024
 30
0.0
 40
22.7
100
AcDbArc
 50
138.975997
 51
173.504691
  0
LINE
  5
29F
330
290
100
AcDbEntity
  8
GR1-1
  6
CONTINUOUS
 62
     3
100
AcDbLine
 10
448.105637
 20
88.03144
 30
0.0
 11
449.210163
 21
89.425004
 31
0.0
  0
LINE
  5
2A0
330
290
100
AcDbEntity
  8
GR1-1
  6
CONTINUOUS
 62
     3
100
AcDbLine
 10
449.210163
 20
89.425004
 30
0.0
 11
410.820239
 21
127.044763
 31
0.0
  0
LINE
  5
2A1
330
290
100
AcDbEntity
  8
GR1-1
  6
CONTINUOUS
 62
     3
100
AcDbLine
 10
408.699041
 20
125.457378
 30
0.0
 11
447.20898
 21
87.74566
 31
0.0
  0
ARC
  5
2A2
330
290
100
AcDbEntity
  8
GR1-1
  6
CONTINUOUS
 62
     3
100
AcDbCircle
 10
423.364435
 20
164.109511
 30
0.0
 40
80.0
100
AcDbArc
 50
246.220474
 51
288.014943
  0
LINE
  5
2A3
330
290
100
AcDbEntity
  8
GR1-1
  6
CONTINUOUS
 62
     6
100
AcDbLine
 10
399.63173
 20
87.710828
 30
0.0
 11
414.744169
 21
119.537551
 31
0.0
  0
LINE
  5
2A4
330
290
100
AcDbEntity
  8
GR1-1
  6
CONTINUOUS
 62
     6
100
AcDbLine
 10
408.699041
 20
125.457378
 30
0.0
 11
392.088843
 21
90.476384
 31
0.0
  0
LINE
  5
2A5
330
290
100
AcDbEntity
  8
GR1-1
  6
CONTINUOUS
 62
     3
100
AcDbLine
 10
410.805415
 20
127.033712
 30
0.0
 11
408.359616
 21
125.203365
 31
0.0
  0
ARC
  5
2A6
330
290
100
AcDbEntity
  8
GR1-1
  6
CONTINUOUS
 62
     3
100
AcDbCircle
 10
405.363811
 20
129.206508
 30
0.0
 40
5.0
100
AcDbArc
 50
217.066541
 51
306.809836
  0
ARC
  5
2A7
330
290
100
AcDbEntity
  8
GR1-1
  6
CONTINUOUS
 62
     3
100
AcDbCircle
 10
345.518607
 20
84.000849
 30
0.0
 40
70.0
100
AcDbArc
 50
37.066541
 51
53.969477
  0
ARC
  5
2A8
330
290
100
AcDbEntity
  8
GR1-1
  6
CONTINUOUS
 62
     6
100
AcDbCircle
 10
343.878719
 20
141.947761
 30
0.0
 40
4.0
100
AcDbArc
 50
66.6
 51
185.50586
  0
LINE
  5
2A9
330
290
100
AcDbEntity
  8
GR1-1
  6
CONTINUOUS
 62
     3
100
AcDbLine
 10
338.698055
 20
156.611256
 30
0.0
 11
337.390138
 21
154.468544
 31
0.0
  0
ARC
  5
2AA
330
290
100
AcDbEntity
  8
GR1-1
  6
CONTINUOUS
 62
     3
100
AcDbCircle
 10
386.680334
 20
146.073507
 30
0.0
 40
50.0
100
AcDbArc
 50
170.334213
 51
229.875564
  0
LINE
  5
2AB
330
290
100
AcDbEntity
  8
GR1-1
  6
CONTINUOUS
 62
     3
100
AcDbLine
 10
354.457844
 20
107.841175
 30
0.0
 11
357.92102
 21
109.198125
 31
0.0
  0
ARC
  5
2AC
330
290
100
AcDbEntity
  8
GR1-1
  6
CONTINUOUS
 62
     3
100
AcDbCircle
 10
324.619107
 20
87.039997
 30
0.0
 40
40.0
100
AcDbArc
 50
23.905622
 51
33.638643
  0
ARC
  5
2AD
330
290
100
AcDbEntity
  8
GR1-1
  6
CONTINUOUS
 62
     3
100
AcDbCircle
 10
373.072459
 20
108.517256
 30
0.0
 40
13.0
100
AcDbArc
 50
203.905622
 51
279.067825
  0
ARC
  5
2AE
330
290
100
AcDbEntity
  8
GR1-1
  6
CONTINUOUS
 62
     3
100
AcDbCircle
 10
381.425447
 20
56.179626
 30
0.0
 40
40.0
100
AcDbArc
 50
76.056515
 51
99.067825
  0
LINE
  5
2AF
330
290
100
AcDbEntity
  8
GR1-1
  6
CONTINUOUS
 62
     3
100
AcDbLine
 10
391.064035
 20
95.000981
 30
0.0
 11
391.106969
 21
90.901206
 31
0.0
  0
ARC
  5
2B0
330
290
100
AcDbEntity
  8
GR1-1
  6
CONTINUOUS
 62
     6
100
AcDbCircle
 10
358.255512
 20
118.458378
 30
0.0
 40
4.0
100
AcDbArc
 50
291.396347
 51
353.504691
  0
LINE
  5
2B1
330
290
100
AcDbEntity
  8
GR1-1
  6
CONTINUOUS
 62
     6
100
AcDbLine
 10
356.335252
 20
113.409888
 30
0.0
 11
359.714781
 21
114.734062
 31
0.0
  0
ARC
  5
2B2
330
290
100
AcDbEntity
  8
GR1-1
  6
CONTINUOUS
 62
     6
100
AcDbCircle
 10
354.875982
 20
117.134204
 30
0.0
 40
4.0
100
AcDbArc
 50
222.299576
 51
291.396347
  0
ARC
  5
2B3
330
290
100
AcDbEntity
  8
GR1-1
  6
CONTINUOUS
 62
     6
100
AcDbCircle
 10
386.680334
 20
146.073507
 30
0.0
 40
47.0
100
AcDbArc
 50
185.50586
 51
222.299576
  0
ENDBLK
  5
292
330
290
100
AcDbEntity
  8
0
100
AcDbBlockEnd
  0
BLOCK
  5
304
330
303
100
AcDbEntity
  8
0
100
AcDbBlockBegin
  2
*D33
 70
     1
 71
     0
 10
0.0
 20
0.0
 30
0.0
  3
*D33
  1

  0
TEXT
  5
306
330
303
100
AcDbEntity
  8
LAYERGROUP-1
  6
CONTINUOUS
 62
     7
100
AcDbText
 10
104.973831
 20
109.438019
 30
0.0
 40
4.0
  1
%%c130
 50
90.0
 41
0.828947
  7
FX_VECTOR
 72
     5
 11
104.973831
 21
121.438019
 31
0.0
100
AcDbText
  0
LINE
  5
307
330
303
100
AcDbEntity
  8
LAYERGROUP-1
  6
CONTINUOUS
 62
     7
100
AcDbLine
 10
105.973826
 20
50.438024
 30
0.0
 11
105.973826
 21
180.438024
 31
0.0
  0
INSERT
  5
308
330
303
100
AcDbEntity
  8
LAYERGROUP-1
  6
CONTINUOUS
 62
     7
100
AcDbBlockReference
  2
FXTIP_ARROW_S
 10
105.973826
 20
50.438024
 30
0.0
 41
4.0
 42
4.0
 50
270.0
  0
INSERT
  5
309
330
303
100
AcDbEntity
  8
LAYERGROUP-1
  6
CONTINUOUS
 62
     7
100
AcDbBlockReference
  2
FXTIP_ARROW_E
 10
105.973826
 20
180.438024
 30
0.0
 41
4.0
 42
4.0
 50
90.0
  0
LINE
  5
30A
330
303
100
AcDbEntity
  8
LAYERGROUP-1
  6
CONTINUOUS
 62
     7
100
AcDbLine
 10
184.909271
 20
50.438024
 30
0.0
 11
104.973826
 21
50.438024
 31
0.0
  0
LINE
  5
30B
330
303
100
AcDbEntity
  8
LAYERGROUP-1
  6
CONTINUOUS
 62
     7
100
AcDbLine
 10
184.909271
 20
180.438024
 30
0.0
 11
104.973826
 21
180.438024
 31
0.0
  0
ENDBLK
  5
305
330
303
100
AcDbEntity
  8
0
100
AcDbBlockEnd
  0
BLOCK
  5
318
330
317
100
AcDbEntity
  8
0
100
AcDbBlockBegin
  2
*D34
 70
     1
 71
     0
 10
0.0
 20
0.0
 30
0.0
  3
*D34
  1

  0
TEXT
  5
31A
330
317
100
AcDbEntity
  8
LAYERGROUP-1
  6
CONTINUOUS
 62
     7
100
AcDbText
 10
401.784119
 20
39.544006
 30
0.0
 40
4.0
  1
40
 41
0.851351
  7
FX_VECTOR
 72
     5
 11
407.784119
 21
39.544006
 31
0.0
100
AcDbText
  0
LINE
  5
31B
330
317
100
AcDbEntity
  8
LAYERGROUP-1
  6
CONTINUOUS
 62
     7
100
AcDbLine
 10
384.784127
 20
38.544009
 30
0.0
 11
424.784127
 21
38.544009
 31
0.0
  0
INSERT
  5
31C
330
317
100
AcDbEntity
  8
LAYERGROUP-1
  6
CONTINUOUS
 62
     7
100
AcDbBlockReference
  2
FXTIP_ARROW_E
 10
424.784127
 20
38.544009
 30
0.0
 41
4.0
 42
4.0
 50
360.0
  0
LINE
  5
31D
330
317
100
AcDbEntity
  8
LAYERGROUP-1
  6
CONTINUOUS
 62
     7
100
AcDbLine
 10
384.784127
 20
44.52966
 30
0.0
 11
384.784127
 21
37.544009
 31
0.0
  0
LINE
  5
31E
330
317
100
AcDbEntity
  8
LAYERGROUP-1
  6
CONTINUOUS
 62
     7
100
AcDbLine
 10
424.784127
 20
90.402101
 30
0.0
 11
424.784127
 21
37.544009
 31
0.0
  0
ENDBLK
  5
319
330
317
100
AcDbEntity
  8
0
100
AcDbBlockEnd
  0
ENDSEC
  0
SECTION
  2
ENTITIES
  0
INSERT
  5
AB
330
1F
100
AcDbEntity
  8
0
100
AcDbBlockReference
  2
BLKF021
 10
0.0
 20
0.0
 30
0.0
  0
LINE
  5
D7
330
1F
100
AcDbEntity
  8
LAYERGROUP-1
  6
CENTER
 62
     6
100
AcDbLine
 10
185.909271
 20
231.604175
 30
0.0
 11
185.909271
 21
47.900436
 31
0.0
  0
LINE
  5
D8
330
1F
100
AcDbEntity
  8
LAYERGROUP-1
  6
CONTINUOUS
 62
     3
100
AcDbLine
 10
151.409271
 20
202.713024
 30
0.0
 11
220.409271
 21
202.713024
 31
0.0
  0
ARC
  5
D9
330
1F
100
AcDbEntity
  8
LAYERGROUP-1
  6
CONTINUOUS
 62
     3
100
AcDbCircle
 10
220.609271
 20
208.713024
 30
0.0
 40
6.0
100
AcDbArc
 50
270.0
 51
360.0
  0
ARC
  5
DA
330
1F
100
AcDbEntity
  8
LAYERGROUP-1
  6
CONTINUOUS
 62
     3
100
AcDbCircle
 10
220.409271
 20
195.713024
 30
0.0
 40
7.0
100
AcDbArc
 50
0.0
 51
90.0
  0
LINE
  5
DB
330
1F
100
AcDbEntity
  8
LAYERGROUP-1
  6
CONTINUOUS
 62
     3
100
AcDbLine
 10
226.609271
 20
210.938024
 30
0.0
 11
226.609271
 21
208.713024
 31
0.0
  0
LINE
  5
DC
330
1F
100
AcDbEntity
  8
LAYERGROUP-1
  6
CONTINUOUS
 62
     3
100
AcDbLine
 10
424.784127
 20
202.713024
 30
0.0
 11
459.484127
 21
202.713024
 31
0.0
  0
LINE
  5
DD
330
1F
100
AcDbEntity
  8
LAYERGROUP-1
  6
CONTINUOUS
 62
     3
100
AcDbLine
 10
384.084127
 20
210.938024
 30
0.0
 11
384.084127
 21
208.713024
 31
0.0
  0
ARC
  5
DE
330
1F
100
AcDbEntity
  8
LAYERGROUP-1
  6
CONTINUOUS
 62
     3
100
AcDbCircle
 10
390.084127
 20
208.713024
 30
0.0
 40
6.0
100
AcDbArc
 50
180.0
 51
270.0
  0
LINE
  5
DF
330
1F
100
AcDbEntity
  8
LAYERGROUP-1
  6
CENTER
 62
     6
100
AcDbLine
 10
424.784127
 20
231.604175
 30
0.0
 11
424.784127
 21
91.402101
 31
0.0
  0
LINE
  5
E0
330
1F
100
AcDbEntity
  8
LAYERGROUP-1
  6
CONTINUOUS
 62
     3
100
AcDbLine
 10
465.484127
 20
210.938024
 30
0.0
 11
465.484127
 21
209.463024
 31
0.0
  0
LINE
  5
E1
330
1F
100
AcDbEntity
  8
LAYERGROUP-1
  6
CONTINUOUS
 62
     3
100
AcDbLine
 10
478.784127
 20
227.438024
 30
0.0
 11
478.784127
 21
222.438024
 31
0.0
  0
LINE
  5
E2
330
1F
100
AcDbEntity
  8
LAYERGROUP-1
  6
CONTINUOUS
 62
     3
100
AcDbLine
 10
478.784127
 20
222.438024
 30
0.0
 11
471.642394
 21
222.438024
 31
0.0
  0
ARC
  5
E3
330
1F
100
AcDbEntity
  8
LAYERGROUP-1
  6
CONTINUOUS
 62
     3
100
AcDbCircle
 10
464.804997
 20
222.938024
 30
0.0
 40
6.0
100
AcDbArc
 50
270.0
 51
347.626375
  0
ARC
  5
E4
330
1F
100
AcDbEntity
  8
LAYERGROUP-1
  6
CONTINUOUS
 62
     3
100
AcDbCircle
 10
471.642394
 20
221.438024
 30
0.0
 40
1.0
100
AcDbArc
 50
90.0
 51
167.626375
  0
LINE
  5
E5
330
1F
100
AcDbEntity
  8
LAYERGROUP-1
  6
CONTINUOUS
 62
     3
100
AcDbLine
 10
424.784127
 20
210.938024
 30
0.0
 11
468.534127
 21
210.938024
 31
0.0
  0
LINE
  5
E6
330
1F
100
AcDbEntity
  8
LAYERGROUP-1
  6
CONTINUOUS
 62
     3
100
AcDbLine
 10
468.534127
 20
210.938024
 30
0.0
 11
468.534127
 21
213.938024
 31
0.0
  0
LINE
  5
E7
330
1F
100
AcDbEntity
  8
LAYERGROUP-1
  6
CONTINUOUS
 62
     3
100
AcDbLine
 10
471.621525
 20
227.438024
 30
0.0
 11
478.784127
 21
227.438024
 31
0.0
  0
LINE
  5
E8
330
1F
100
AcDbEntity
  8
LAYERGROUP-1
  6
CONTINUOUS
 62
     3
100
AcDbLine
 10
424.784127
 20
227.438024
 30
0.0
 11
471.621525
 21
227.438024
 31
0.0
  0
LINE
  5
E9
330
1F
100
AcDbEntity
  8
LAYERGROUP-1
  6
CONTINUOUS
 62
     3
100
AcDbLine
 10
377.925861
 20
222.438024
 30
0.0
 11
471.642394
 21
222.438024
 31
0.0
  0
LINE
  5
EA
330
1F
100
AcDbEntity
  8
LAYERGROUP-1
  6
CONTINUOUS
 62
     3
100
AcDbLine
 10
424.784127
 20
216.938024
 30
0.0
 11
465.534127
 21
216.938024
 31
0.0
  0
LINE
  5
EB
330
1F
100
AcDbEntity
  8
LAYERGROUP-1
  6
CONTINUOUS
 62
     3
100
AcDbLine
 10
424.784127
 20
227.438024
 30
0.0
 11
370.784127
 21
227.438024
 31
0.0
  0
LINE
  5
EC
330
1F
100
AcDbEntity
  8
LAYERGROUP-1
  6
CONTINUOUS
 62
     3
100
AcDbLine
 10
370.784127
 20
227.438024
 30
0.0
 11
370.784127
 21
222.438024
 31
0.0
  0
LINE
  5
ED
330
1F
100
AcDbEntity
  8
LAYERGROUP-1
  6
CONTINUOUS
 62
     3
100
AcDbLine
 10
370.784127
 20
222.438024
 30
0.0
 11
377.925861
 21
222.438024
 31
0.0
  0
ARC
  5
EE
330
1F
100
AcDbEntity
  8
LAYERGROUP-1
  6
CONTINUOUS
 62
     3
100
AcDbCircle
 10
377.925861
 20
221.438024
 30
0.0
 40
1.0
100
AcDbArc
 50
12.373625
 51
90.0
  0
ARC
  5
EF
330
1F
100
AcDbEntity
  8
LAYERGROUP-1
  6
CONTINUOUS
 62
     3
100
AcDbCircle
 10
384.763258
 20
222.938024
 30
0.0
 40
6.0
100
AcDbArc
 50
192.373625
 51
270.0
  0
LINE
  5
F0
330
1F
100
AcDbEntity
  8
LAYERGROUP-1
  6
CONTINUOUS
 62
     3
100
AcDbLine
 10
424.784127
 20
216.938024
 30
0.0
 11
384.034127
 21
216.938024
 31
0.0
  0
LINE
  5
F1
330
1F
100
AcDbEntity
  8
LAYERGROUP-1
  6
CONTINUOUS
 62
     3
100
AcDbLine
 10
383.034127
 20
210.938024
 30
0.0
 11
381.034127
 21
210.938024
 31
0.0
  0
LINE
  5
F2
330
1F
100
AcDbEntity
  8
LAYERGROUP-1
  6
CONTINUOUS
 62
     3
100
AcDbLine
 10
381.034127
 20
210.938024
 30
0.0
 11
381.034127
 21
213.938024
 31
0.0
  0
ARC
  5
F3
330
1F
100
AcDbEntity
  8
LAYERGROUP-1
  6
CONTINUOUS
 62
     3
100
AcDbCircle
 10
384.034127
 20
213.938024
 30
0.0
 40
3.0
100
AcDbArc
 50
90.0
 51
180.0
  0
ARC
  5
F4
330
1F
100
AcDbEntity
  8
LAYERGROUP-1
  6
CONTINUOUS
 62
     3
100
AcDbCircle
 10
465.534127
 20
213.938024
 30
0.0
 40
3.0
100
AcDbArc
 50
0.0
 51
90.0
  0
CIRCLE
  5
F5
330
1F
100
AcDbEntity
  8
LAYERGROUP-1
  6
CONTINUOUS
 62
     6
100
AcDbCircle
 10
424.784127
 20
332.917086
 30
0.0
 40
35.89300751546466
  0
CIRCLE
  5
F6
330
1F
100
AcDbEntity
  8
LAYERGROUP-1
  6
CONTINUOUS
 62
     6
100
AcDbCircle
 10
424.784127
 20
332.917086
 30
0.0
 40
40.00000000000011
  0
LINE
  5
F7
330
1F
100
AcDbEntity
  8
LAYERGROUP-1
  6
CONTINUOUS
 62
     3
100
AcDbLine
 10
465.784127
 20
386.917086
 30
0.0
 11
383.784127
 21
386.917086
 31
0.0
  0
LINE
  5
F8
330
1F
100
AcDbEntity
  8
LAYERGROUP-1
  6
CONTINUOUS
 62
     3
100
AcDbLine
 10
370.784127
 20
373.917086
 30
0.0
 11
370.784127
 21
291.917086
 31
0.0
  0
LINE
  5
F9
330
1F
100
AcDbEntity
  8
LAYERGROUP-1
  6
CONTINUOUS
 62
     3
100
AcDbLine
 10
383.784127
 20
278.917086
 30
0.0
 11
465.784127
 21
278.917086
 31
0.0
  0
LINE
  5
FA
330
1F
100
AcDbEntity
  8
LAYERGROUP-1
  6
CONTINUOUS
 62
     3
100
AcDbLine
 10
478.784127
 20
291.917086
 30
0.0
 11
478.784127
 21
373.917086
 31
0.0
  0
CIRCLE
  5
FB
330
1F
100
AcDbEntity
  8
LAYERGROUP-1
  6
CONTINUOUS
 62
     3
100
AcDbCircle
 10
464.784127
 20
292.917086
 30
0.0
 40
5.5
  0
CIRCLE
  5
FC
330
1F
100
AcDbEntity
  8
LAYERGROUP-1
  6
CONTINUOUS
 62
     3
100
AcDbCircle
 10
384.784127
 20
292.917086
 30
0.0
 40
5.5
  0
LINE
  5
FD
330
1F
100
AcDbEntity
  8
LAYERGROUP-1
  6
CONTINUOUS
 62
     6
100
AcDbLine
 10
382.784127
 20
292.917086
 30
0.0
 11
386.784127
 21
292.917086
 31
0.0
  0
LINE
  5
FE
330
1F
100
AcDbEntity
  8
LAYERGROUP-1
  6
CONTINUOUS
 62
     6
100
AcDbLine
 10
387.784127
 20
292.917086
 30
0.0
 11
391.784127
 21
292.917086
 31
0.0
  0
LINE
  5
FF
330
1F
100
AcDbEntity
  8
LAYERGROUP-1
  6
CONTINUOUS
 62
     6
100
AcDbLine
 10
381.784127
 20
292.917086
 30
0.0
 11
377.784127
 21
292.917086
 31
0.0
  0
LINE
  5
100
330
1F
100
AcDbEntity
  8
LAYERGROUP-1
  6
CONTINUOUS
 62
     6
100
AcDbLine
 10
384.784127
 20
290.917086
 30
0.0
 11
384.784127
 21
294.917086
 31
0.0
  0
LINE
  5
101
330
1F
100
AcDbEntity
  8
LAYERGROUP-1
  6
CONTINUOUS
 62
     6
100
AcDbLine
 10
384.784127
 20
295.917086
 30
0.0
 11
384.784127
 21
299.917086
 31
0.0
  0
LINE
  5
102
330
1F
100
AcDbEntity
  8
LAYERGROUP-1
  6
CONTINUOUS
 62
     6
100
AcDbLine
 10
384.784127
 20
289.917086
 30
0.0
 11
384.784127
 21
285.917086
 31
0.0
  0
LINE
  5
103
330
1F
100
AcDbEntity
  8
LAYERGROUP-1
  6
CONTINUOUS
 62
     6
100
AcDbLine
 10
462.784127
 20
292.917086
 30
0.0
 11
466.784127
 21
292.917086
 31
0.0
  0
LINE
  5
104
330
1F
100
AcDbEntity
  8
LAYERGROUP-1
  6
CONTINUOUS
 62
     6
100
AcDbLine
 10
467.784127
 20
292.917086
 30
0.0
 11
471.784127
 21
292.917086
 31
0.0
  0
LINE
  5
105
330
1F
100
AcDbEntity
  8
LAYERGROUP-1
  6
CONTINUOUS
 62
     6
100
AcDbLine
 10
461.784127
 20
292.917086
 30
0.0
 11
457.784127
 21
292.917086
 31
0.0
  0
LINE
  5
106
330
1F
100
AcDbEntity
  8
LAYERGROUP-1
  6
CONTINUOUS
 62
     6
100
AcDbLine
 10
464.784127
 20
290.917086
 30
0.0
 11
464.784127
 21
294.917086
 31
0.0
  0
LINE
  5
107
330
1F
100
AcDbEntity
  8
LAYERGROUP-1
  6
CONTINUOUS
 62
     6
100
AcDbLine
 10
464.784127
 20
295.917086
 30
0.0
 11
464.784127
 21
299.917086
 31
0.0
  0
LINE
  5
108
330
1F
100
AcDbEntity
  8
LAYERGROUP-1
  6
CONTINUOUS
 62
     6
100
AcDbLine
 10
464.784127
 20
289.917086
 30
0.0
 11
464.784127
 21
285.917086
 31
0.0
  0
LINE
  5
109
330
1F
100
AcDbEntity
  8
LAYERGROUP-1
  6
CONTINUOUS
 62
     6
100
AcDbLine
 10
382.784127
 20
372.917086
 30
0.0
 11
386.784127
 21
372.917086
 31
0.0
  0
LINE
  5
10A
330
1F
100
AcDbEntity
  8
LAYERGROUP-1
  6
CONTINUOUS
 62
     6
100
AcDbLine
 10
387.784127
 20
372.917086
 30
0.0
 11
391.784127
 21
372.917086
 31
0.0
  0
LINE
  5
10B
330
1F
100
AcDbEntity
  8
LAYERGROUP-1
  6
CONTINUOUS
 62
     6
100
AcDbLine
 10
381.784127
 20
372.917086
 30
0.0
 11
377.784127
 21
372.917086
 31
0.0
  0
LINE
  5
10C
330
1F
100
AcDbEntity
  8
LAYERGROUP-1
  6
CONTINUOUS
 62
     6
100
AcDbLine
 10
384.784127
 20
374.917086
 30
0.0
 11
384.784127
 21
370.917086
 31
0.0
  0
LINE
  5
10D
330
1F
100
AcDbEntity
  8
LAYERGROUP-1
  6
CONTINUOUS
 62
     6
100
AcDbLine
 10
384.784127
 20
369.917086
 30
0.0
 11
384.784127
 21
365.917086
 31
0.0
  0
LINE
  5
10E
330
1F
100
AcDbEntity
  8
LAYERGROUP-1
  6
CONTINUOUS
 62
     6
100
AcDbLine
 10
384.784127
 20
375.917086
 30
0.0
 11
384.784127
 21
379.917086
 31
0.0
  0
LINE
  5
10F
330
1F
100
AcDbEntity
  8
LAYERGROUP-1
  6
CONTINUOUS
 62
     6
100
AcDbLine
 10
462.784127
 20
372.917086
 30
0.0
 11
466.784127
 21
372.917086
 31
0.0
  0
LINE
  5
110
330
1F
100
AcDbEntity
  8
LAYERGROUP-1
  6
CONTINUOUS
 62
     6
100
AcDbLine
 10
467.784127
 20
372.917086
 30
0.0
 11
471.784127
 21
372.917086
 31
0.0
  0
LINE
  5
111
330
1F
100
AcDbEntity
  8
LAYERGROUP-1
  6
CONTINUOUS
 62
     6
100
AcDbLine
 10
461.784127
 20
372.917086
 30
0.0
 11
457.784127
 21
372.917086
 31
0.0
  0
LINE
  5
112
330
1F
100
AcDbEntity
  8
LAYERGROUP-1
  6
CONTINUOUS
 62
     6
100
AcDbLine
 10
464.784127
 20
374.917086
 30
0.0
 11
464.784127
 21
370.917086
 31
0.0
  0
LINE
  5
113
330
1F
100
AcDbEntity
  8
LAYERGROUP-1
  6
CONTINUOUS
 62
     6
100
AcDbLine
 10
464.784127
 20
369.917086
 30
0.0
 11
464.784127
 21
365.917086
 31
0.0
  0
LINE
  5
114
330
1F
100
AcDbEntity
  8
LAYERGROUP-1
  6
CONTINUOUS
 62
     6
100
AcDbLine
 10
464.784127
 20
375.917086
 30
0.0
 11
464.784127
 21
379.917086
 31
0.0
  0
CIRCLE
  5
115
330
1F
100
AcDbEntity
  8
LAYERGROUP-1
  6
CONTINUOUS
 62
     3
100
AcDbCircle
 10
464.784127
 20
372.917086
 30
0.0
 40
5.5
  0
CIRCLE
  5
116
330
1F
100
AcDbEntity
  8
LAYERGROUP-1
  6
CONTINUOUS
 62
     3
100
AcDbCircle
 10
384.784127
 20
372.917086
 30
0.0
 40
5.5
  0
ARC
  5
117
330
1F
100
AcDbEntity
  8
LAYERGROUP-1
  6
CONTINUOUS
 62
     3
100
AcDbCircle
 10
465.784127
 20
373.917086
 30
0.0
 40
13.0
100
AcDbArc
 50
0.0
 51
90.0
  0
ARC
  5
118
330
1F
100
AcDbEntity
  8
LAYERGROUP-1
  6
CONTINUOUS
 62
     3
100
AcDbCircle
 10
383.784127
 20
373.917086
 30
0.0
 40
13.0
100
AcDbArc
 50
90.0
 51
180.0
  0
ARC
  5
119
330
1F
100
AcDbEntity
  8
LAYERGROUP-1
  6
CONTINUOUS
 62
     3
100
AcDbCircle
 10
383.784127
 20
291.917086
 30
0.0
 40
13.0
100
AcDbArc
 50
180.0
 51
270.0
  0
ARC
  5
11A
330
1F
100
AcDbEntity
  8
LAYERGROUP-1
  6
CONTINUOUS
 62
     3
100
AcDbCircle
 10
465.784127
 20
291.917086
 30
0.0
 40
13.0
100
AcDbArc
 50
270.0
 51
360.0
  0
LINE
  5
11B
330
1F
100
AcDbEntity
  8
LAYERGROUP-1
  6
CENTER
 62
     6
100
AcDbLine
 10
424.784127
 20
390.519493
 30
0.0
 11
424.784127
 21
276.561758
 31
0.0
  0
LINE
  5
11C
330
1F
100
AcDbEntity
  8
LAYERGROUP-1
  6
CENTER
 62
     6
100
AcDbLine
 10
311.824426
 20
332.917086
 30
0.0
 11
481.48072
 21
332.917086
 31
0.0
  0
DIMENSION
  5
11D
330
1F
100
AcDbEntity
  8
LAYERGROUP-1
100
AcDbDimension
  2
*D22
 10
490.19349
 20
372.917086
 30
0.0
 11
489.193481
 21
332.917084
 31
0.0
 70
    33
  3
FXDIMINFO
100
AcDbAlignedDimension
 13
470.284127
 23
292.917086
 33
0.0
 14
470.284127
 24
372.917086
 34
0.0
1001
ACAD
1000
DSTYLE
1002
{
1070
     7
1000
FXTIP_ARROW_E
1070
     6
1000
FXTIP_ARROW_S
1070
   173
1070
     1
1002
}
  0
DIMENSION
  5
127
330
1F
100
AcDbEntity
  8
LAYERGROUP-1
100
AcDbDimension
  2
*D23
 10
501.670413
 20
386.917086
 30
0.0
 11
500.67041
 21
332.917084
 31
0.0
 70
    33
  3
FXDIMINFO
100
AcDbAlignedDimension
 13
465.784127
 23
278.917086
 33
0.0
 14
465.784127
 24
386.917086
 34
0.0
1001
ACAD
1000
DSTYLE
1002
{
1070
     7
1000
FXTIP_ARROW_E
1070
     6
1000
FXTIP_ARROW_S
1070
   173
1070
     1
1002
}
  0
DIMENSION
  5
131
330
1F
100
AcDbEntity
  8
LAYERGROUP-1
100
AcDbDimension
  2
*D24
 10
464.784127
 20
254.62483
 30
0.0
 11
424.784119
 21
255.624847
 31
0.0
 70
    33
  3
FXDIMINFO
100
AcDbAlignedDimension
 13
384.784127
 23
287.417086
 33
0.0
 14
464.784127
 24
287.417086
 34
0.0
1001
ACAD
1000
DSTYLE
1002
{
1070
     7
1000
FXTIP_ARROW_E
1070
     6
1000
FXTIP_ARROW_S
1070
   173
1070
     1
1002
}
  0
DIMENSION
  5
13B
330
1F
100
AcDbEntity
  8
LAYERGROUP-1
100
AcDbDimension
  2
*D25
 10
478.784127
 20
248.219251
 30
0.0
 11
424.784119
 21
249.219254
 31
0.0
 70
    33
  3
FXDIMINFO
100
AcDbAlignedDimension
 13
370.784127
 23
291.917086
 33
0.0
 14
478.784127
 24
291.917086
 34
0.0
1001
ACAD
1000
DSTYLE
1002
{
1070
     7
1000
FXTIP_ARROW_E
1070
     6
1000
FXTIP_ARROW_S
1070
   173
1070
     1
1002
}
  0
DIMENSION
  5
145
330
1F
100
AcDbEntity
  8
LAYERGROUP-1
100
AcDbDimension
  2
*D26
 10
389.992104
 20
371.14876
 30
0.0
 11
342.625061
 21
385.909546
 31
0.0
 70
   163
  3
FXDIMINFO
100
AcDbDiametricDimension
 15
379.576151
 25
374.685412
 35
0.0
 40
0.0
  0
LINE
  5
150
330
1F
100
AcDbEntity
  8
LAYERGROUP-1
  6
CONTINUOUS
 62
     3
100
AcDbLine
 10
364.784127
 20
367.917086
 30
0.0
 11
364.784127
 21
362.917086
 31
0.0
  0
LINE
  5
151
330
1F
100
AcDbEntity
  8
LAYERGROUP-1
  6
CONTINUOUS
 62
     3
100
AcDbLine
 10
364.784127
 20
362.917086
 30
0.0
 11
370.784127
 21
362.917086
 31
0.0
  0
LINE
  5
152
330
1F
100
AcDbEntity
  8
LAYERGROUP-1
  6
CONTINUOUS
 62
     3
100
AcDbLine
 10
368.784127
 20
302.917086
 30
0.0
 11
370.784127
 21
302.917086
 31
0.0
  0
ARC
  5
153
330
1F
100
AcDbEntity
  8
LAYERGROUP-1
  6
CONTINUOUS
 62
     3
100
AcDbCircle
 10
458.284127
 20
332.917086
 30
0.0
 40
90.0
100
AcDbArc
 50
166.463797
 51
193.536203
  0
LINE
  5
154
330
1F
100
AcDbEntity
  8
LAYERGROUP-1
  6
CONTINUOUS
 62
     3
100
AcDbLine
 10
370.784127
 20
297.917086
 30
0.0
 11
369.784127
 21
297.917086
 31
0.0
  0
LINE
  5
155
330
1F
100
AcDbEntity
  8
LAYERGROUP-1
  6
CONTINUOUS
 62
     3
100
AcDbLine
 10
370.784127
 20
367.917086
 30
0.0
 11
364.784127
 21
367.917086
 31
0.0
  0
LINE
  5
156
330
1F
100
AcDbEntity
  8
LAYERGROUP-1
  6
CONTINUOUS
 62
     3
100
AcDbLine
 10
450.284127
 20
202.713024
 30
0.0
 11
459.284127
 21
202.713024
 31
0.0
  0
LINE
  5
157
330
1F
100
AcDbEntity
  8
LAYERGROUP-1
  6
CONTINUOUS
 62
     3
100
AcDbLine
 10
424.784127
 20
202.713024
 30
0.0
 11
390.084127
 21
202.713024
 31
0.0
  0
LINE
  5
158
330
1F
100
AcDbEntity
  8
LAYERGROUP-1
  6
CONTINUOUS
 62
     3
100
AcDbLine
 10
466.284127
 20
186.713024
 30
0.0
 11
466.284127
 21
195.713024
 31
0.0
  0
LINE
  5
159
330
1F
100
AcDbEntity
  8
LAYERGROUP-1
  6
CONTINUOUS
 62
     6
100
AcDbLine
 10
402.485024
 20
197.713024
 30
0.0
 11
402.485024
 21
125.118404
 31
0.0
  0
LINE
  5
15A
330
1F
100
AcDbEntity
  8
LAYERGROUP-1
  6
CONTINUOUS
 62
     3
100
AcDbLine
 10
374.43853
 20
185.713024
 30
0.0
 11
371.53339
 21
185.713024
 31
0.0
  0
LINE
  5
15B
330
1F
100
AcDbEntity
  8
LAYERGROUP-1
  6
CONTINUOUS
 62
     3
100
AcDbLine
 10
383.284127
 20
197.713024
 30
0.0
 11
375.284127
 21
197.713024
 31
0.0
  0
ARC
  5
15C
330
1F
100
AcDbEntity
  8
LAYERGROUP-1
  6
CONTINUOUS
 62
     3
100
AcDbCircle
 10
459.284127
 20
195.713024
 30
0.0
 40
7.0
100
AcDbArc
 50
0.0
 51
90.0
  0
LINE
  5
15D
330
1F
100
AcDbEntity
  8
LAYERGROUP-1
  6
CONTINUOUS
 62
     3
100
AcDbLine
 10
383.284127
 20
197.713024
 30
0.0
 11
383.895452
 21
198.75662
 31
0.0
  0
ARC
  5
15E
330
1F
100
AcDbEntity
  8
LAYERGROUP-1
  6
CONTINUOUS
 62
     3
100
AcDbCircle
 10
390.798301
 20
194.713024
 30
0.0
 40
8.0
100
AcDbArc
 50
90.0
 51
149.638807
  0
ARC
  5
15F
330
1F
100
AcDbEntity
  8
LAYERGROUP-1
  6
CONTINUOUS
 62
     3
100
AcDbCircle
 10
375.284127
 20
190.713024
 30
0.0
 40
7.0
100
AcDbArc
 50
90.0
 51
166.948411
  0
ARC
  5
160
330
1F
100
AcDbEntity
  8
LAYERGROUP-1
  6
CONTINUOUS
 62
     3
100
AcDbCircle
 10
374.43853
 20
180.713024
 30
0.0
 40
5.0
100
AcDbArc
 50
-14.160454
 51
90.0
  0
LINE
  5
161
330
1F
100
AcDbEntity
  8
LAYERGROUP-1
  6
CONTINUOUS
 62
     3
100
AcDbLine
 10
379.286602
 20
179.489833
 30
0.0
 11
378.760228
 21
177.403568
 31
0.0
  0
ARC
  5
162
330
1F
100
AcDbEntity
  8
LAYERGROUP-1
  6
CONTINUOUS
 62
     3
100
AcDbCircle
 10
467.568465
 20
176.795843
 30
0.0
 40
10.0
100
AcDbArc
 50
97.379092
 51
170.570298
  0
DIMENSION
  5
163
330
1F
100
AcDbEntity
  8
LAYERGROUP-1
100
AcDbDimension
  2
*D27
 10
488.583754
 20
227.438024
 30
0.0
 11
487.58374
 21
171.438019
 31
0.0
 70
    32
  3
FXDIMINFO
100
AcDbAlignedDimension
 13
399.141846
 23
115.438024
 33
0.0
 14
478.784127
 24
227.438024
 34
0.0
 50
270.0
100
AcDbRotatedDimension
1001
ACAD
1000
DSTYLE
1002
{
1070
     7
1000
FXTIP_ARROW_E
1070
     6
1000
FXTIP_ARROW_S
1070
   173
1070
     1
1002
}
  0
ARC
  5
16D
330
1F
100
AcDbEntity
  8
LAYERGROUP-1
  6
CONTINUOUS
 62
     3
100
AcDbCircle
 10
151.209271
 20
208.713024
 30
0.0
 40
6.0
100
AcDbArc
 50
180.0
 51
270.0
  0
ARC
  5
16E
330
1F
100
AcDbEntity
  8
LAYERGROUP-1
  6
CONTINUOUS
 62
     3
100
AcDbCircle
 10
151.409271
 20
195.713024
 30
0.0
 40
7.0
100
AcDbArc
 50
90.0
 51
180.0
  0
LINE
  5
16F
330
1F
100
AcDbEntity
  8
LAYERGROUP-1
  6
CONTINUOUS
 62
     3
100
AcDbLine
 10
145.209271
 20
210.938024
 30
0.0
 11
145.209271
 21
208.713024
 31
0.0
  0
LINE
  5
170
330
1F
100
AcDbEntity
  8
LAYERGROUP-1
  6
CONTINUOUS
 62
     3
100
AcDbLine
 10
239.909271
 20
227.438024
 30
0.0
 11
239.909271
 21
222.438024
 31
0.0
  0
LINE
  5
171
330
1F
100
AcDbEntity
  8
LAYERGROUP-1
  6
CONTINUOUS
 62
     3
100
AcDbLine
 10
239.909271
 20
222.438024
 30
0.0
 11
131.909271
 21
222.438024
 31
0.0
  0
LINE
  5
172
330
1F
100
AcDbEntity
  8
LAYERGROUP-1
  6
CONTINUOUS
 62
     3
100
AcDbLine
 10
131.909271
 20
227.438024
 30
0.0
 11
239.909271
 21
227.438024
 31
0.0
  0
ARC
  5
173
330
1F
100
AcDbEntity
  8
LAYERGROUP-1
  6
CONTINUOUS
 62
     3
100
AcDbCircle
 10
225.930141
 20
222.938024
 30
0.0
 40
6.0
100
AcDbArc
 50
270.0
 51
347.626375
  0
ARC
  5
174
330
1F
100
AcDbEntity
  8
LAYERGROUP-1
  6
CONTINUOUS
 62
     3
100
AcDbCircle
 10
232.767538
 20
221.438024
 30
0.0
 40
1.0
100
AcDbArc
 50
90.0
 51
167.626375
  0
ARC
  5
175
330
1F
100
AcDbEntity
  8
LAYERGROUP-1
  6
CONTINUOUS
 62
     3
100
AcDbCircle
 10
139.051004
 20
221.438024
 30
0.0
 40
1.0
100
AcDbArc
 50
12.373625
 51
90.0
  0
LINE
  5
176
330
1F
100
AcDbEntity
  8
LAYERGROUP-1
  6
CONTINUOUS
 62
     3
100
AcDbLine
 10
145.888401
 20
216.938024
 30
0.0
 11
225.930141
 21
216.938024
 31
0.0
  0
ARC
  5
177
330
1F
100
AcDbEntity
  8
LAYERGROUP-1
  6
CONTINUOUS
 62
     3
100
AcDbCircle
 10
145.888401
 20
222.938024
 30
0.0
 40
6.0
100
AcDbArc
 50
192.373625
 51
270.0
  0
ARC
  5
178
330
1F
100
AcDbEntity
  8
LAYERGROUP-1
  6
CONTINUOUS
 62
     3
100
AcDbCircle
 10
146.659271
 20
212.438024
 30
0.0
 40
4.5
100
AcDbArc
 50
90.0
 51
180.0
  0
LINE
  5
179
330
1F
100
AcDbEntity
  8
LAYERGROUP-1
  6
CONTINUOUS
 62
     3
100
AcDbLine
 10
142.159271
 20
210.938024
 30
0.0
 11
229.659271
 21
210.938024
 31
0.0
  0
ARC
  5
17A
330
1F
100
AcDbEntity
  8
LAYERGROUP-1
  6
CONTINUOUS
 62
     3
100
AcDbCircle
 10
225.159271
 20
212.438024
 30
0.0
 40
4.5
100
AcDbArc
 50
0.0
 51
90.0
  0
LINE
  5
17B
330
1F
100
AcDbEntity
  8
LAYERGROUP-1
  6
CONTINUOUS
 62
     3
100
AcDbLine
 10
229.659271
 20
210.938024
 30
0.0
 11
229.659271
 21
212.438024
 31
0.0
  0
LINE
  5
17C
330
1F
100
AcDbEntity
  8
LAYERGROUP-1
  6
CONTINUOUS
 62
     3
100
AcDbLine
 10
142.159271
 20
210.938024
 30
0.0
 11
142.159271
 21
212.438024
 31
0.0
  0
LINE
  5
17D
330
1F
100
AcDbEntity
  8
LAYERGROUP-1
  6
CONTINUOUS
 62
     3
100
AcDbLine
 10
131.909271
 20
227.438024
 30
0.0
 11
131.909271
 21
222.438024
 31
0.0
  0
LINE
  5
17E
330
1F
100
AcDbEntity
  8
LAYERGROUP-1
  6
CONTINUOUS
 62
     3
100
AcDbLine
 10
150.909271
 20
190.713024
 30
0.0
 11
150.909271
 21
123.438024
 31
0.0
  0
LINE
  5
17F
330
1F
100
AcDbEntity
  8
LAYERGROUP-1
  6
CONTINUOUS
 62
     3
100
AcDbLine
 10
155.909271
 20
185.713024
 30
0.0
 11
155.909271
 21
94.438024
 31
0.0
  0
ARC
  5
180
330
1F
100
AcDbEntity
  8
LAYERGROUP-1
  6
CONTINUOUS
 62
     3
100
AcDbCircle
 10
153.909271
 20
182.713024
 30
0.0
 40
3.0
100
AcDbArc
 50
90.0
 51
180.0
  0
ARC
  5
181
330
1F
100
AcDbEntity
  8
LAYERGROUP-1
  6
CONTINUOUS
 62
     3
100
AcDbCircle
 10
213.909271
 20
190.713024
 30
0.0
 40
7.0
100
AcDbArc
 50
33.110827
 51
90.0
  0
ARC
  5
182
330
1F
100
AcDbEntity
  8
LAYERGROUP-1
  6
CONTINUOUS
 62
     3
100
AcDbCircle
 10
157.909271
 20
190.713024
 30
0.0
 40
7.0
100
AcDbArc
 50
90.0
 51
180.0
  0
LINE
  5
183
330
1F
100
AcDbEntity
  8
LAYERGROUP-1
  6
CONTINUOUS
 62
     3
100
AcDbLine
 10
155.909271
 20
94.438024
 30
0.0
 11
150.909271
 21
94.438024
 31
0.0
  0
LINE
  5
184
330
1F
100
AcDbEntity
  8
LAYERGROUP-1
  6
CONTINUOUS
 62
     3
100
AcDbLine
 10
220.909271
 20
94.438024
 30
0.0
 11
215.909271
 21
94.438024
 31
0.0
  0
LINE
  5
185
330
1F
100
AcDbEntity
  8
LAYERGROUP-1
  6
CONTINUOUS
 62
     3
100
AcDbLine
 10
157.909271
 20
197.713024
 30
0.0
 11
213.909271
 21
197.713024
 31
0.0
  0
DIMENSION
  5
186
330
1F
100
AcDbEntity
  8
LAYERGROUP-1
100
AcDbDimension
  2
*D28
 10
215.909271
 20
30.513157
 30
0.0
 11
185.909271
 21
31.513153
 31
0.0
 70
    33
  3
FXDIMINFO
100
AcDbAlignedDimension
 13
155.909271
 23
94.438024
 33
0.0
 14
215.909271
 24
94.438024
 34
0.0
1001
ACAD
1000
DSTYLE
1002
{
1070
     7
1000
FXTIP_ARROW_E
1070
     6
1000
FXTIP_ARROW_S
1070
   173
1070
     1
1002
}
  0
ARC
  5
190
330
1F
100
AcDbEntity
  8
LAYERGROUP-1
  6
CONTINUOUS
 62
     3
100
AcDbCircle
 10
135.909271
 20
95.934083
 30
0.0
 40
15.0
100
AcDbArc
 50
0.0
 51
22.349958
  0
LINE
  5
191
330
1F
100
AcDbEntity
  8
LAYERGROUP-1
  6
CONTINUOUS
 62
     3
100
AcDbLine
 10
384.084127
 20
210.938024
 30
0.0
 11
384.084127
 21
208.713024
 31
0.0
  0
ARC
  5
192
330
1F
100
AcDbEntity
  8
LAYERGROUP-1
  6
CONTINUOUS
 62
     3
100
AcDbCircle
 10
390.084127
 20
208.713024
 30
0.0
 40
6.0
100
AcDbArc
 50
180.0
 51
270.0
  0
LINE
  5
193
330
1F
100
AcDbEntity
  8
LAYERGROUP-1
  6
CONTINUOUS
 62
     3
100
AcDbLine
 10
377.94673
 20
227.438024
 30
0.0
 11
370.784127
 21
227.438024
 31
0.0
  0
LINE
  5
194
330
1F
100
AcDbEntity
  8
LAYERGROUP-1
  6
CONTINUOUS
 62
     3
100
AcDbLine
 10
370.784127
 20
227.438024
 30
0.0
 11
370.784127
 21
222.438024
 31
0.0
  0
LINE
  5
195
330
1F
100
AcDbEntity
  8
LAYERGROUP-1
  6
CONTINUOUS
 62
     3
100
AcDbLine
 10
370.784127
 20
222.438024
 30
0.0
 11
377.925861
 21
222.438024
 31
0.0
  0
ARC
  5
196
330
1F
100
AcDbEntity
  8
LAYERGROUP-1
  6
CONTINUOUS
 62
     3
100
AcDbCircle
 10
377.925861
 20
221.438024
 30
0.0
 40
1.0
100
AcDbArc
 50
12.373625
 51
90.0
  0
ARC
  5
197
330
1F
100
AcDbEntity
  8
LAYERGROUP-1
  6
CONTINUOUS
 62
     3
100
AcDbCircle
 10
384.763258
 20
222.938024
 30
0.0
 40
6.0
100
AcDbArc
 50
192.373625
 51
270.0
  0
LINE
  5
198
330
1F
100
AcDbEntity
  8
LAYERGROUP-1
  6
CONTINUOUS
 62
     3
100
AcDbLine
 10
389.732167
 20
216.938024
 30
0.0
 11
384.034127
 21
216.938024
 31
0.0
  0
LINE
  5
199
330
1F
100
AcDbEntity
  8
LAYERGROUP-1
  6
CONTINUOUS
 62
     3
100
AcDbLine
 10
424.784127
 20
210.938024
 30
0.0
 11
381.034127
 21
210.938024
 31
0.0
  0
LINE
  5
19A
330
1F
100
AcDbEntity
  8
LAYERGROUP-1
  6
CONTINUOUS
 62
     3
100
AcDbLine
 10
381.034127
 20
210.938024
 30
0.0
 11
381.034127
 21
213.938024
 31
0.0
  0
ARC
  5
19B
330
1F
100
AcDbEntity
  8
LAYERGROUP-1
  6
CONTINUOUS
 62
     3
100
AcDbCircle
 10
384.034127
 20
213.938024
 30
0.0
 40
3.0
100
AcDbArc
 50
90.0
 51
180.0
  0
ARC
  5
19C
330
1F
100
AcDbEntity
  8
LAYERGROUP-1
  6
CONTINUOUS
 62
     3
100
AcDbCircle
 10
458.734127
 20
209.463024
 30
0.0
 40
6.75
100
AcDbArc
 50
270.0
 51
360.0
  0
ARC
  5
19D
330
1F
100
AcDbEntity
  8
LAYERGROUP-1
  6
CONTINUOUS
 62
     3
100
AcDbCircle
 10
384.784127
 20
115.438024
 30
0.0
 40
23.5
100
AcDbArc
 50
237.850327
 51
255.631931
  0
DIMENSION
  5
19E
330
1F
100
AcDbEntity
  8
LAYERGROUP-1
100
AcDbDimension
  2
*D29
 10
502.436366
 20
227.438024
 30
0.0
 11
501.43634
 21
138.938019
 31
0.0
 70
    32
  3
FXDIMINFO
100
AcDbAlignedDimension
 13
384.784127
 23
50.438024
 33
0.0
 14
478.784127
 24
227.438024
 34
0.0
 50
270.0
100
AcDbRotatedDimension
1001
ACAD
1000
DSTYLE
1002
{
1070
     7
1000
FXTIP_ARROW_E
1070
     6
1000
FXTIP_ARROW_S
1070
   173
1070
     1
1002
}
  0
LINE
  5
1A8
330
1F
100
AcDbEntity
  8
LAYERGROUP-1
  6
CONTINUOUS
 62
     3
100
AcDbLine
 10
210.909271
 20
70.006341
 30
0.0
 11
210.909271
 21
65.438024
 31
0.0
  0
DIMENSION
  5
1A9
330
1F
100
AcDbEntity
  8
LAYERGROUP-1
100
AcDbDimension
  2
*D30
 10
210.909271
 20
40.438024
 30
0.0
 11
185.909271
 21
41.438019
 31
0.0
 70
    33
  3
FXDIMINFO
100
AcDbAlignedDimension
 13
160.909271
 23
65.438024
 33
0.0
 14
210.909271
 24
65.438024
 34
0.0
1001
ACAD
1000
DSTYLE
1002
{
1070
     7
1000
FXTIP_ARROW_E
1070
     6
1000
FXTIP_ARROW_S
1070
   173
1070
     1
1002
}
  0
LINE
  5
1B3
330
1F
100
AcDbEntity
  8
LAYERGROUP-1
  6
CONTINUOUS
 62
     3
100
AcDbLine
 10
370.484127
 20
307.917086
 30
0.0
 11
366.380837
 21
307.917086
 31
0.0
  0
LINE
  5
1B4
330
1F
100
AcDbEntity
  8
LAYERGROUP-1
  6
CONTINUOUS
 62
     3
100
AcDbLine
 10
220.909271
 20
128.438024
 30
0.0
 11
220.909271
 21
102.438024
 31
0.0
  0
LINE
  5
1B5
330
1F
100
AcDbEntity
  8
LAYERGROUP-1
  6
CONTINUOUS
 62
     3
100
AcDbLine
 10
136.909271
 20
123.438024
 30
0.0
 11
135.909271
 21
122.626024
 31
0.0
  0
LINE
  5
1B6
330
1F
100
AcDbEntity
  8
LAYERGROUP-1
  6
CONTINUOUS
 62
     3
100
AcDbLine
 10
135.909271
 20
122.626024
 30
0.0
 11
135.909271
 21
108.250024
 31
0.0
  0
LINE
  5
1B7
330
1F
100
AcDbEntity
  8
LAYERGROUP-1
  6
CONTINUOUS
 62
     3
100
AcDbLine
 10
135.909271
 20
108.250024
 30
0.0
 11
136.909271
 21
107.438024
 31
0.0
  0
LINE
  5
1B8
330
1F
100
AcDbEntity
  8
LAYERGROUP-1
  6
CONTINUOUS
 62
     6
100
AcDbLine
 10
136.909271
 20
123.438024
 30
0.0
 11
136.909271
 21
107.438024
 31
0.0
  0
LINE
  5
1B9
330
1F
100
AcDbEntity
  8
LAYERGROUP-1
  6
CENTER
 62
     6
100
AcDbLine
 10
370.728283
 20
115.438024
 30
0.0
 11
399.042886
 21
115.438024
 31
0.0
  0
LINE
  5
1BA
330
1F
100
AcDbEntity
  8
LAYERGROUP-1
  6
CENTER
 62
     6
100
AcDbLine
 10
230.294746
 20
115.438024
 30
0.0
 11
134.096942
 21
115.438024
 31
0.0
  0
LINE
  5
1BB
330
1F
100
AcDbEntity
  8
LAYERGROUP-1
  6
CONTINUOUS
 62
     3
100
AcDbLine
 10
150.909271
 20
123.438024
 30
0.0
 11
150.909271
 21
107.438024
 31
0.0
  0
LINE
  5
1BC
330
1F
100
AcDbEntity
  8
LAYERGROUP-1
  6
CONTINUOUS
 62
     3
100
AcDbLine
 10
150.909271
 20
107.438024
 30
0.0
 11
150.909271
 21
94.438024
 31
0.0
  0
LINE
  5
1BD
330
1F
100
AcDbEntity
  8
LAYERGROUP-1
  6
CONTINUOUS
 62
     3
100
AcDbLine
 10
146.909271
 20
128.738024
 30
0.0
 11
146.909271
 21
102.138024
 31
0.0
  0
LINE
  5
1BE
330
1F
100
AcDbEntity
  8
LAYERGROUP-1
  6
CONTINUOUS
 62
     3
100
AcDbLine
 10
150.409271
 20
129.238024
 30
0.0
 11
147.409271
 21
129.238024
 31
0.0
  0
LINE
  5
1BF
330
1F
100
AcDbEntity
  8
LAYERGROUP-1
  6
CONTINUOUS
 62
     3
100
AcDbLine
 10
147.409271
 20
101.638024
 30
0.0
 11
150.409271
 21
101.638024
 31
0.0
  0
ARC
  5
1C0
330
1F
100
AcDbEntity
  8
LAYERGROUP-1
  6
CONTINUOUS
 62
     3
100
AcDbCircle
 10
150.409271
 20
128.738024
 30
0.0
 40
0.5
100
AcDbArc
 50
0.0
 51
90.0
  0
ARC
  5
1C1
330
1F
100
AcDbEntity
  8
LAYERGROUP-1
  6
CONTINUOUS
 62
     3
100
AcDbCircle
 10
147.409271
 20
128.738024
 30
0.0
 40
0.5
100
AcDbArc
 50
90.0
 51
180.0
  0
ARC
  5
1C2
330
1F
100
AcDbEntity
  8
LAYERGROUP-1
  6
CONTINUOUS
 62
     3
100
AcDbCircle
 10
147.409271
 20
102.138024
 30
0.0
 40
0.5
100
AcDbArc
 50
180.0
 51
270.0
  0
ARC
  5
1C3
330
1F
100
AcDbEntity
  8
LAYERGROUP-1
  6
CONTINUOUS
 62
     3
100
AcDbCircle
 10
150.409271
 20
102.138024
 30
0.0
 40
0.5
100
AcDbArc
 50
270.0
 51
360.0
  0
INSERT
  5
1C7
330
1F
100
AcDbEntity
  8
0
100
AcDbBlockReference
  2
BLKF033
 10
0.0
 20
0.0
 30
0.0
  0
LINE
  5
1D8
330
1F
100
AcDbEntity
  8
LAYERGROUP-1
  6
CONTINUOUS
 62
     3
100
AcDbLine
 10
144.409271
 20
129.294431
 30
0.0
 11
144.409271
 21
195.713024
 31
0.0
  0
LINE
  5
1D9
330
1F
100
AcDbEntity
  8
LAYERGROUP-1
  6
CONTINUOUS
 62
     3
100
AcDbLine
 10
146.909271
 20
111.380405
 30
0.0
 11
150.909271
 21
111.380405
 31
0.0
  0
ARC
  5
1DA
330
1F
100
AcDbEntity
  8
LAYERGROUP-1
  6
CONTINUOUS
 62
     3
100
AcDbCircle
 10
384.784127
 20
115.438024
 30
0.0
 40
65.0
100
AcDbArc
 50
94.739253
 51
101.060505
  0
LINE
  5
1DB
330
1F
100
AcDbEntity
  8
LAYERGROUP-1
  6
CENTER
 62
     6
100
AcDbLine
 10
384.784127
 20
186.439937
 30
0.0
 11
384.784127
 21
45.52966
 31
0.0
  0
LINE
  5
1DC
330
1F
100
AcDbEntity
  8
GR1-1
  6
CONTINUOUS
 62
     3
100
AcDbLine
 10
378.729092
 20
95.08261
 30
0.0
 11
379.029092
 21
91.84846
 31
0.0
  0
LINE
  5
1DD
330
1F
100
AcDbEntity
  8
GR1-1
  6
CONTINUOUS
 62
     3
100
AcDbLine
 10
390.429092
 20
91.84846
 30
0.0
 11
390.729092
 21
95.08261
 31
0.0
  0
ARC
  5
1DE
330
1F
100
AcDbEntity
  8
GR1-1
  6
CONTINUOUS
 62
     3
100
AcDbCircle
 10
384.729092
 20
71.84471
 30
0.0
 40
24.0
100
AcDbArc
 50
75.522488
 51
104.477512
  0
ARC
  5
1DF
330
1F
100
AcDbEntity
  8
GR1-1
  6
CONTINUOUS
 62
     3
100
AcDbCircle
 10
384.729092
 20
71.84471
 30
0.0
 40
20.8
100
AcDbArc
 50
74.095279
 51
105.904721
  0
LINE
  5
1E0
330
1F
100
AcDbEntity
  8
GR1-1
  6
CENTER
 62
     6
100
AcDbLine
 10
381.749406
 20
165.438024
 30
0.0
 11
391.914471
 21
165.438024
 31
0.0
  0
LINE
  5
1E1
330
1F
100
AcDbEntity
  8
LAYERGROUP-1
  6
CENTER
 62
     6
100
AcDbLine
 10
385.534127
 20
147.438024
 30
0.0
 11
375.534127
 21
147.438024
 31
0.0
  0
LINE
  5
1E2
330
1F
100
AcDbEntity
  8
LAYERGROUP-1
  6
CENTER
 62
     6
100
AcDbLine
 10
380.534127
 20
158.649469
 30
0.0
 11
380.534127
 21
139.319346
 31
0.0
  0
LINE
  5
1E3
330
1F
100
AcDbEntity
  8
LAYERGROUP-1
  6
CONTINUOUS
 62
     3
100
AcDbLine
 10
401.284127
 20
144.438024
 30
0.0
 11
401.284127
 21
126.192797
 31
0.0
  0
LINE
  5
1E4
330
1F
100
AcDbEntity
  8
LAYERGROUP-1
  6
CENTER
 62
     6
100
AcDbLine
 10
386.784127
 20
170.088024
 30
0.0
 11
386.784127
 21
159.924572
 31
0.0
  0
LINE
  5
1E5
330
1F
100
AcDbEntity
  8
LAYERGROUP-1
  6
CENTER
 62
     6
100
AcDbLine
 10
384.784127
 20
119.438024
 30
0.0
 11
351.419817
 21
190.98802
 31
0.0
  0
LINE
  5
1E6
330
1F
100
AcDbEntity
  8
LAYERGROUP-1
  6
CONTINUOUS
 62
     3
100
AcDbLine
 10
352.601482
 20
150.594706
 30
0.0
 11
339.933858
 21
177.760513
 31
0.0
  0
ARC
  5
1E7
330
1F
100
AcDbEntity
  8
LAYERGROUP-1
  6
CONTINUOUS
 62
     3
100
AcDbCircle
 10
343.559089
 20
179.450986
 30
0.0
 40
4.0
100
AcDbArc
 50
116.0
 51
205.0
  0
LINE
  5
1E8
330
1F
100
AcDbEntity
  8
GR1-1
  6
CONTINUOUS
 62
     3
100
AcDbLine
 10
378.553715
 20
177.438024
 30
0.0
 11
386.576611
 21
177.438024
 31
0.0
  0
ARC
  5
1E9
330
1F
100
AcDbEntity
  8
LAYERGROUP-1
  6
CONTINUOUS
 62
     3
100
AcDbCircle
 10
386.561685
 20
167.438024
 30
0.0
 40
10.0
100
AcDbArc
 50
11.14289
 51
90.0
  0
LINE
  5
1EA
330
1F
100
AcDbEntity
  8
LAYERGROUP-1
  6
CONTINUOUS
 62
     3
100
AcDbLine
 10
396.373168
 20
169.370589
 30
0.0
 11
401.284127
 21
144.438024
 31
0.0
  0
ARC
  5
1EB
330
1F
100
AcDbEntity
  8
LAYERGROUP-1
  6
CONTINUOUS
 62
     3
100
AcDbCircle
 10
380.534127
 20
147.438024
 30
0.0
 40
5.0
100
AcDbArc
 50
-225.572996
 51
45.572996
  0
LINE
  5
1EC
330
1F
100
AcDbEntity
  8
LAYERGROUP-1
  6
CONTINUOUS
 62
     3
100
AcDbLine
 10
377.034127
 20
157.438024
 30
0.0
 11
377.034127
 21
151.008738
 31
0.0
  0
LINE
  5
1ED
330
1F
100
AcDbEntity
  8
LAYERGROUP-1
  6
CONTINUOUS
 62
     3
100
AcDbLine
 10
384.034127
 20
157.438024
 30
0.0
 11
384.034127
 21
151.008738
 31
0.0
  0
LINE
  5
1EE
330
1F
100
AcDbEntity
  8
LAYERGROUP-1
  6
CONTINUOUS
 62
     3
100
AcDbLine
 10
384.034127
 20
157.438024
 30
0.0
 11
377.034127
 21
157.438024
 31
0.0
  0
TEXT
  5
1EF
330
1F
100
AcDbEntity
  8
LAYERGROUP-1
  6
CONTINUOUS
 62
     7
100
AcDbText
 10
355.565338
 20
162.829224
 30
0.0
 40
4.876588
  1
H-130
 50
26.0
 41
0.669031
  7
FX_VECTOR
 72
     5
 11
370.227326
 21
169.980353
 31
0.0
100
AcDbText
  0
ARC
  5
1F0
330
1F
100
AcDbEntity
  8
LAYERGROUP-1
  6
CONTINUOUS
 62
     3
100
AcDbCircle
 10
372.227421
 20
181.751145
 30
0.0
 40
2.0
100
AcDbArc
 50
128.804251
 51
230.236209
  0
ARC
  5
1F1
330
1F
100
AcDbEntity
  8
LAYERGROUP-1
  6
CONTINUOUS
 62
     3
100
AcDbCircle
 10
369.720774
 20
184.868311
 30
0.0
 40
2.0
100
AcDbArc
 50
-51.195749
 51
25.0
  0
LINE
  5
1F2
330
1F
100
AcDbEntity
  8
LAYERGROUP-1
  6
CONTINUOUS
 62
     3
100
AcDbLine
 10
371.53339
 20
185.713548
 30
0.0
 11
368.113574
 21
193.047367
 31
0.0
  0
ARC
  5
1F3
330
1F
100
AcDbEntity
  8
LAYERGROUP-1
  6
CONTINUOUS
 62
     3
100
AcDbCircle
 10
378.623661
 20
189.438024
 30
0.0
 40
12.0
100
AcDbArc
 50
230.236209
 51
270.0
  0
ARC
  5
1F4
330
1F
100
AcDbEntity
  8
LAYERGROUP-1
  6
CONTINUOUS
 62
     3
100
AcDbCircle
 10
365.847804
 20
191.990822
 30
0.0
 40
2.5
100
AcDbArc
 50
25.0
 51
116.0
  0
LINE
  5
1F5
330
1F
100
AcDbEntity
  8
LAYERGROUP-1
  6
CONTINUOUS
 62
     3
100
AcDbLine
 10
364.751876
 20
194.237807
 30
0.0
 11
341.805604
 21
183.046162
 31
0.0
  0
CIRCLE
  5
1F6
330
1F
100
AcDbEntity
  8
GR1-1
  6
CONTINUOUS
 62
     3
100
AcDbCircle
 10
386.784127
 20
165.438024
 30
0.0
 40
4.0
  0
LINE
  5
1F7
330
1F
100
AcDbEntity
  8
LAYERGROUP-1
  6
CONTINUOUS
 62
     3
100
AcDbLine
 10
210.137474
 20
193.599279
 30
0.0
 11
166.909271
 21
193.599279
 31
0.0
  0
LINE
  5
1F8
330
1F
100
AcDbEntity
  8
LAYERGROUP-1
  6
CONTINUOUS
 62
     3
100
AcDbLine
 10
166.409271
 20
183.046162
 30
0.0
 11
207.980579
 21
183.046162
 31
0.0
  0
LINE
  5
1F9
330
1F
100
AcDbEntity
  8
LAYERGROUP-1
  6
CONTINUOUS
 62
     3
100
AcDbLine
 10
208.455726
 20
179.005673
 30
0.0
 11
166.409271
 21
179.005673
 31
0.0
  0
LINE
  5
1FA
330
1F
100
AcDbEntity
  8
LAYERGROUP-1
  6
CONTINUOUS
 62
     3
100
AcDbLine
 10
201.909271
 20
174.964316
 30
0.0
 11
201.909271
 21
179.005673
 31
0.0
  0
LINE
  5
1FB
330
1F
100
AcDbEntity
  8
LAYERGROUP-1
  6
CONTINUOUS
 62
     3
100
AcDbLine
 10
169.909271
 20
174.964316
 30
0.0
 11
169.909271
 21
179.005673
 31
0.0
  0
LINE
  5
1FC
330
1F
100
AcDbEntity
  8
LAYERGROUP-1
  6
CONTINUOUS
 62
     3
100
AcDbLine
 10
201.909271
 20
176.514168
 30
0.0
 11
169.909271
 21
176.514168
 31
0.0
  0
LINE
  5
1FD
330
1F
100
AcDbEntity
  8
LAYERGROUP-1
  6
CONTINUOUS
 62
     3
100
AcDbLine
 10
201.409271
 20
174.464316
 30
0.0
 11
170.409271
 21
174.464316
 31
0.0
  0
LINE
  5
1FE
330
1F
100
AcDbEntity
  8
LAYERGROUP-1
  6
CONTINUOUS
 62
     3
100
AcDbLine
 10
224.909271
 20
188.599279
 30
0.0
 11
224.909271
 21
95.08261
 31
0.0
  0
LINE
  5
1FF
330
1F
100
AcDbEntity
  8
LAYERGROUP-1
  6
CONTINUOUS
 62
     3
100
AcDbLine
 10
164.909271
 20
191.599279
 30
0.0
 11
164.909271
 21
180.505673
 31
0.0
  0
ARC
  5
200
330
1F
100
AcDbEntity
  8
LAYERGROUP-1
  6
CONTINUOUS
 62
     3
100
AcDbCircle
 10
166.909271
 20
191.599279
 30
0.0
 40
2.0
100
AcDbArc
 50
90.0
 51
180.0
  0
ARC
  5
201
330
1F
100
AcDbEntity
  8
LAYERGROUP-1
  6
CONTINUOUS
 62
     3
100
AcDbCircle
 10
166.409271
 20
184.546162
 30
0.0
 40
1.5
100
AcDbArc
 50
180.0
 51
270.0
  0
ARC
  5
202
330
1F
100
AcDbEntity
  8
LAYERGROUP-1
  6
CONTINUOUS
 62
     3
100
AcDbCircle
 10
166.409271
 20
180.505673
 30
0.0
 40
1.5
100
AcDbArc
 50
180.0
 51
270.0
  0
LINE
  5
203
330
1F
100
AcDbEntity
  8
LAYERGROUP-1
  6
CONTINUOUS
 62
     3
100
AcDbLine
 10
164.909271
 20
185.713024
 30
0.0
 11
153.909271
 21
185.713024
 31
0.0
  0
LINE
  5
204
330
1F
100
AcDbEntity
  8
LAYERGROUP-1
  6
CONTINUOUS
 62
     3
100
AcDbLine
 10
220.909271
 20
128.438024
 30
0.0
 11
220.909271
 21
102.438024
 31
0.0
  0
LINE
  5
205
330
1F
100
AcDbEntity
  8
LAYERGROUP-1
  6
CONTINUOUS
 62
     3
100
AcDbLine
 10
232.909271
 20
91.84846
 30
0.0
 11
225.109271
 21
91.84846
 31
0.0
  0
LINE
  5
206
330
1F
100
AcDbEntity
  8
LAYERGROUP-1
  6
CONTINUOUS
 62
     3
100
AcDbLine
 10
232.909271
 20
95.08261
 30
0.0
 11
224.909271
 21
95.08261
 31
0.0
  0
LINE
  5
207
330
1F
100
AcDbEntity
  8
LAYERGROUP-1
  6
CONTINUOUS
 62
     3
100
AcDbLine
 10
232.909271
 20
95.84471
 30
0.0
 11
224.909271
 21
95.84471
 31
0.0
  0
ARC
  5
208
330
1F
100
AcDbEntity
  8
LAYERGROUP-1
  6
CONTINUOUS
 62
     3
100
AcDbCircle
 10
225.109271
 20
96.04846
 30
0.0
 40
4.2
100
AcDbArc
 50
180.0
 51
270.0
  0
ARC
  5
209
330
1F
100
AcDbEntity
  8
LAYERGROUP-1
  6
CONTINUOUS
 62
     3
100
AcDbCircle
 10
220.325938
 20
165.438024
 30
0.0
 40
6.083333333333279
100
AcDbArc
 50
-41.11209
 51
41.11209
  0
LINE
  5
20A
330
1F
100
AcDbEntity
  8
LAYERGROUP-1
  6
CONTINUOUS
 62
     3
100
AcDbLine
 10
227.409271
 20
156.088605
 30
0.0
 11
227.409271
 21
195.713024
 31
0.0
  0
LINE
  5
20B
330
1F
100
AcDbEntity
  8
LAYERGROUP-1
  6
CONTINUOUS
 62
     3
100
AcDbLine
 10
213.209271
 20
172.407589
 30
0.0
 11
213.209271
 21
140.427519
 31
0.0
  0
LINE
  5
20C
330
1F
100
AcDbEntity
  8
LAYERGROUP-1
  6
CONTINUOUS
 62
     3
100
AcDbLine
 10
219.209271
 20
134.427519
 30
0.0
 11
221.909271
 21
134.427519
 31
0.0
  0
LINE
  5
20D
330
1F
100
AcDbEntity
  8
LAYERGROUP-1
  6
CONTINUOUS
 62
     3
100
AcDbLine
 10
215.909271
 20
135.416531
 30
0.0
 11
215.909271
 21
94.438024
 31
0.0
  0
ARC
  5
20E
330
1F
100
AcDbEntity
  8
LAYERGROUP-1
  6
CONTINUOUS
 62
     3
100
AcDbCircle
 10
219.209271
 20
140.427519
 30
0.0
 40
6.0
100
AcDbArc
 50
180.0
 51
270.0
  0
ARC
  5
20F
330
1F
100
AcDbEntity
  8
LAYERGROUP-1
  6
CONTINUOUS
 62
     3
100
AcDbCircle
 10
221.909271
 20
131.427519
 30
0.0
 40
3.0
100
AcDbArc
 50
0.0
 51
90.0
  0
LINE
  5
210
330
1F
100
AcDbEntity
  8
LAYERGROUP-1
  6
CONTINUOUS
 62
     3
100
AcDbLine
 10
220.909271
 20
133.427519
 30
0.0
 11
220.909271
 21
94.438024
 31
0.0
  0
LINE
  5
211
330
1F
100
AcDbEntity
  8
LAYERGROUP-1
  6
CONTINUOUS
 62
     7
100
AcDbLine
 10
353.941205
 20
189.855171
 30
0.0
 11
350.668461
 21
188.258948
 31
0.0
  0
ARC
  5
212
330
1F
100
AcDbEntity
  8
LAYERGROUP-1
  6
CONTINUOUS
 62
     7
100
AcDbCircle
 10
351.106832
 20
187.360153
 30
0.0
 40
1.0
100
AcDbArc
 50
116.0
 51
194.463041
  0
ARC
  5
213
330
1F
100
AcDbEntity
  8
LAYERGROUP-1
  6
CONTINUOUS
 62
     7
100
AcDbCircle
 10
354.379576
 20
188.956377
 30
0.0
 40
1.0
100
AcDbArc
 50
37.536959
 51
116.0
  0
ARC
  5
214
330
1F
100
AcDbEntity
  8
LAYERGROUP-1
  6
CONTINUOUS
 62
     7
100
AcDbCircle
 10
194.909271
 20
183.646514
 30
0.0
 40
6.616666666666658
100
AcDbArc
 50
70.338227
 51
109.661773
  0
ARC
  5
215
330
1F
100
AcDbEntity
  8
LAYERGROUP-1
  6
CONTINUOUS
 62
     7
100
AcDbCircle
 10
194.909271
 20
194.479848
 30
0.0
 40
6.616666666666858
100
AcDbArc
 50
250.338227
 51
289.661773
  0
ARC
  5
216
330
1F
100
AcDbEntity
  8
LAYERGROUP-1
  6
CONTINUOUS
 62
     7
100
AcDbCircle
 10
192.9739
 20
189.063181
 30
0.0
 40
0.8646288209607385
100
AcDbArc
 50
109.661773
 51
250.338227
  0
ARC
  5
217
330
1F
100
AcDbEntity
  8
LAYERGROUP-1
  6
CONTINUOUS
 62
     7
100
AcDbCircle
 10
196.844642
 20
189.063181
 30
0.0
 40
0.8646288209605951
100
AcDbArc
 50
-70.338227
 51
70.338227
  0
ARC
  5
218
330
1F
100
AcDbEntity
  8
LAYERGROUP-1
  6
CONTINUOUS
 62
     7
100
AcDbCircle
 10
194.909271
 20
183.646514
 30
0.0
 40
6.316666666666658
100
AcDbArc
 50
70.338227
 51
109.661773
  0
ARC
  5
219
330
1F
100
AcDbEntity
  8
LAYERGROUP-1
  6
CONTINUOUS
 62
     7
100
AcDbCircle
 10
194.909271
 20
194.479848
 30
0.0
 40
6.316666666666858
100
AcDbArc
 50
250.338227
 51
289.661773
  0
ARC
  5
21A
330
1F
100
AcDbEntity
  8
LAYERGROUP-1
  6
CONTINUOUS
 62
     7
100
AcDbCircle
 10
196.844642
 20
189.063181
 30
0.0
 40
0.5646288209605952
100
AcDbArc
 50
-70.338227
 51
70.338227
  0
ARC
  5
21B
330
1F
100
AcDbEntity
  8
LAYERGROUP-1
  6
CONTINUOUS
 62
     7
100
AcDbCircle
 10
192.9739
 20
189.063181
 30
0.0
 40
0.5646288209607384
100
AcDbArc
 50
109.661773
 51
250.338227
  0
ARC
  5
21C
330
1F
100
AcDbEntity
  8
LAYERGROUP-1
  6
CONTINUOUS
 62
     7
100
AcDbCircle
 10
176.909271
 20
183.646514
 30
0.0
 40
6.616666666666658
100
AcDbArc
 50
70.338227
 51
109.661773
  0
ARC
  5
21D
330
1F
100
AcDbEntity
  8
LAYERGROUP-1
  6
CONTINUOUS
 62
     7
100
AcDbCircle
 10
176.909271
 20
194.479848
 30
0.0
 40
6.616666666666858
100
AcDbArc
 50
250.338227
 51
289.661773
  0
ARC
  5
21E
330
1F
100
AcDbEntity
  8
LAYERGROUP-1
  6
CONTINUOUS
 62
     7
100
AcDbCircle
 10
178.844642
 20
189.063181
 30
0.0
 40
0.8646288209607385
100
AcDbArc
 50
-70.338227
 51
70.338227
  0
ARC
  5
21F
330
1F
100
AcDbEntity
  8
LAYERGROUP-1
  6
CONTINUOUS
 62
     7
100
AcDbCircle
 10
174.9739
 20
189.063181
 30
0.0
 40
0.8646288209605951
100
AcDbArc
 50
109.661773
 51
250.338227
  0
ARC
  5
220
330
1F
100
AcDbEntity
  8
LAYERGROUP-1
  6
CONTINUOUS
 62
     7
100
AcDbCircle
 10
176.909271
 20
183.646514
 30
0.0
 40
6.316666666666658
100
AcDbArc
 50
70.338227
 51
109.661773
  0
ARC
  5
221
330
1F
100
AcDbEntity
  8
LAYERGROUP-1
  6
CONTINUOUS
 62
     7
100
AcDbCircle
 10
176.909271
 20
194.479848
 30
0.0
 40
6.316666666666858
100
AcDbArc
 50
250.338227
 51
289.661773
  0
ARC
  5
222
330
1F
100
AcDbEntity
  8
LAYERGROUP-1
  6
CONTINUOUS
 62
     7
100
AcDbCircle
 10
174.9739
 20
189.063181
 30
0.0
 40
0.5646288209605952
100
AcDbArc
 50
109.661773
 51
250.338227
  0
ARC
  5
223
330
1F
100
AcDbEntity
  8
LAYERGROUP-1
  6
CONTINUOUS
 62
     7
100
AcDbCircle
 10
178.844642
 20
189.063181
 30
0.0
 40
0.5646288209607384
100
AcDbArc
 50
-70.338227
 51
70.338227
  0
LINE
  5
224
330
1F
100
AcDbEntity
  8
LAYERGROUP-1
  6
CENTER
 62
     6
100
AcDbLine
 10
198.559814
 20
189.063181
 30
0.0
 11
190.651154
 21
189.063181
 31
0.0
  0
LINE
  5
225
330
1F
100
AcDbEntity
  8
LAYERGROUP-1
  6
CENTER
 62
     6
100
AcDbLine
 10
194.909271
 20
191.403082
 30
0.0
 11
194.909271
 21
186.697433
 31
0.0
  0
LINE
  5
226
330
1F
100
AcDbEntity
  8
LAYERGROUP-1
  6
CENTER
 62
     6
100
AcDbLine
 10
176.909271
 20
191.403082
 30
0.0
 11
176.909271
 21
186.697433
 31
0.0
  0
ARC
  5
227
330
1F
100
AcDbEntity
  8
LAYERGROUP-1
  6
CONTINUOUS
 62
     3
100
AcDbCircle
 10
212.893702
 20
182.118142
 30
0.0
 40
5.0
100
AcDbArc
 50
175.536629
 51
215.415135
  0
LINE
  5
228
330
1F
100
AcDbEntity
  8
LAYERGROUP-1
  6
CONTINUOUS
 62
     3
100
AcDbLine
 10
212.83922
 20
173.566582
 30
0.0
 11
208.818828
 21
179.22066
 31
0.0
  0
ARC
  5
229
330
1F
100
AcDbEntity
  8
LAYERGROUP-1
  6
CONTINUOUS
 62
     3
100
AcDbCircle
 10
211.209271
 20
172.407589
 30
0.0
 40
2.0
100
AcDbArc
 50
0.0
 51
35.415135
  0
ARC
  5
22A
330
1F
100
AcDbEntity
  8
LAYERGROUP-1
  6
CONTINUOUS
 62
     3
100
AcDbCircle
 10
208.455726
 20
178.005673
 30
0.0
 40
1.0
100
AcDbArc
 50
35.415135
 51
90.0
  0
ARC
  5
22B
330
1F
100
AcDbEntity
  8
LAYERGROUP-1
  6
CONTINUOUS
 62
     3
100
AcDbCircle
 10
218.909271
 20
188.599279
 30
0.0
 40
6.0
100
AcDbArc
 50
0.0
 51
90.0
  0
LINE
  5
22C
330
1F
100
AcDbEntity
  8
LAYERGROUP-1
  6
CONTINUOUS
 62
     3
100
AcDbLine
 10
216.909271
 20
194.599279
 30
0.0
 11
210.137474
 21
193.599279
 31
0.0
  0
LINE
  5
22D
330
1F
100
AcDbEntity
  8
LAYERGROUP-1
  6
CONTINUOUS
 62
     3
100
AcDbLine
 10
218.909271
 20
194.599279
 30
0.0
 11
216.909271
 21
194.599279
 31
0.0
  0
ARC
  5
22E
330
1F
100
AcDbEntity
  8
LAYERGROUP-1
  6
CONTINUOUS
 62
     7
100
AcDbCircle
 10
219.909271
 20
133.427519
 30
0.0
 40
1.0
100
AcDbArc
 50
0.0
 51
90.0
  0
ARC
  5
22F
330
1F
100
AcDbEntity
  8
LAYERGROUP-1
  6
CONTINUOUS
 62
     3
100
AcDbCircle
 10
218.909271
 20
177.046162
 30
0.0
 40
6.0
100
AcDbArc
 50
0.0
 51
90.0
  0
LINE
  5
230
330
1F
100
AcDbEntity
  8
LAYERGROUP-1
  6
CONTINUOUS
 62
     3
100
AcDbLine
 10
207.980579
 20
183.046162
 30
0.0
 11
218.909271
 21
183.046162
 31
0.0
  0
ARC
  5
231
330
1F
100
AcDbEntity
  8
LAYERGROUP-1
  6
CONTINUOUS
 62
     3
100
AcDbCircle
 10
343.805604
 20
351.917086
 30
0.0
 40
2.0
100
AcDbArc
 50
90.0
 51
180.0
  0
ARC
  5
232
330
1F
100
AcDbEntity
  8
LAYERGROUP-1
  6
CONTINUOUS
 62
     3
100
AcDbCircle
 10
361.102912
 20
351.917086
 30
0.0
 40
2.0
100
AcDbArc
 50
0.0
 51
90.0
  0
ARC
  5
233
330
1F
100
AcDbEntity
  8
LAYERGROUP-1
  6
CONTINUOUS
 62
     3
100
AcDbCircle
 10
362.856397
 20
351.917086
 30
0.0
 40
2.0
100
AcDbArc
 50
0.0
 51
90.0
  0
LINE
  5
234
330
1F
100
AcDbEntity
  8
LAYERGROUP-1
  6
CONTINUOUS
 62
     3
100
AcDbLine
 10
362.856397
 20
353.917086
 30
0.0
 11
343.805604
 21
353.917086
 31
0.0
  0
LINE
  5
235
330
1F
100
AcDbEntity
  8
LAYERGROUP-1
  6
CONTINUOUS
 62
     3
100
AcDbLine
 10
341.805604
 20
310.845778
 30
0.0
 11
341.805604
 21
351.917086
 31
0.0
  0
LINE
  5
236
330
1F
100
AcDbEntity
  8
LAYERGROUP-1
  6
CONTINUOUS
 62
     3
100
AcDbLine
 10
370.784127
 20
293.917086
 30
0.0
 11
346.476248
 21
293.917086
 31
0.0
  0
LINE
  5
237
330
1F
100
AcDbEntity
  8
LAYERGROUP-1
  6
CONTINUOUS
 62
     3
100
AcDbLine
 10
339.476248
 20
307.932006
 30
0.0
 11
339.476248
 21
300.917086
 31
0.0
  0
ARC
  5
238
330
1F
100
AcDbEntity
  8
LAYERGROUP-1
  6
CONTINUOUS
 62
     3
100
AcDbCircle
 10
346.476248
 20
300.917086
 30
0.0
 40
7.0
100
AcDbArc
 50
180.0
 51
270.0
  0
TEXT
  5
239
330
1F
100
AcDbEntity
  8
LAYERGROUP-1
  6
CONTINUOUS
 62
     7
100
AcDbText
 10
375.684143
 20
113.332336
 30
0.0
 40
4.692841
  1
H-130S
 41
0.660493
  7
FX_VECTOR
 72
     5
 11
394.134083
 21
113.332336
 31
0.0
100
AcDbText
  0
LINE
  5
23A
330
1F
100
AcDbEntity
  8
GR1-1
  6
CONTINUOUS
 62
     3
100
AcDbLine
 10
398.284127
 20
123.232253
 30
0.0
 11
384.784127
 21
131.026481
 31
0.0
  0
LINE
  5
23B
330
1F
100
AcDbEntity
  8
GR1-1
  6
CONTINUOUS
 62
     3
100
AcDbLine
 10
384.784127
 20
131.026481
 30
0.0
 11
371.284127
 21
123.232253
 31
0.0
  0
LINE
  5
23C
330
1F
100
AcDbEntity
  8
GR1-1
  6
CONTINUOUS
 62
     3
100
AcDbLine
 10
371.284127
 20
123.232253
 30
0.0
 11
371.284127
 21
107.643796
 31
0.0
  0
LINE
  5
23D
330
1F
100
AcDbEntity
  8
GR1-1
  6
CONTINUOUS
 62
     3
100
AcDbLine
 10
371.284127
 20
107.643796
 30
0.0
 11
384.784127
 21
99.849567
 31
0.0
  0
LINE
  5
23E
330
1F
100
AcDbEntity
  8
GR1-1
  6
CONTINUOUS
 62
     3
100
AcDbLine
 10
384.784127
 20
99.849567
 30
0.0
 11
398.284127
 21
107.643796
 31
0.0
  0
LINE
  5
23F
330
1F
100
AcDbEntity
  8
GR1-1
  6
CONTINUOUS
 62
     3
100
AcDbLine
 10
398.284127
 20
107.643796
 30
0.0
 11
398.284127
 21
123.232253
 31
0.0
  0
CIRCLE
  5
240
330
1F
100
AcDbEntity
  8
GR1-1
  6
CONTINUOUS
 62
     3
100
AcDbCircle
 10
384.784127
 20
115.438024
 30
0.0
 40
15.5
  0
CIRCLE
  5
241
330
1F
100
AcDbEntity
  8
GR1-1
  6
CONTINUOUS
 62
     6
100
AcDbCircle
 10
384.784127
 20
115.438024
 30
0.0
 40
13.5
  0
LINE
  5
242
330
1F
100
AcDbEntity
  8
LAYERGROUP-1
  6
CONTINUOUS
 62
     7
100
AcDbLine
 10
232.909271
 20
91.84846
 30
0.0
 11
232.909271
 21
92.438024
 31
0.0
  0
LINE
  5
243
330
1F
100
AcDbEntity
  8
GR1-1
  6
CONTINUOUS
 62
     3
100
AcDbLine
 10
229.709271
 20
131.02829
 30
0.0
 11
231.909271
 21
131.02829
 31
0.0
  0
LINE
  5
244
330
1F
100
AcDbEntity
  8
GR1-1
  6
CONTINUOUS
 62
     3
100
AcDbLine
 10
233.409271
 20
127.131176
 30
0.0
 11
233.409271
 21
103.74849
 31
0.0
  0
LINE
  5
245
330
1F
100
AcDbEntity
  8
GR1-1
  6
CONTINUOUS
 62
     3
100
AcDbLine
 10
231.909271
 20
99.851376
 30
0.0
 11
228.409271
 21
99.851376
 31
0.0
  0
LINE
  5
246
330
1F
100
AcDbEntity
  8
GR1-1
  6
CONTINUOUS
 62
     3
100
AcDbLine
 10
228.409271
 20
99.739833
 30
0.0
 11
228.409271
 21
113.889904
 31
0.0
  0
LINE
  5
247
330
1F
100
AcDbEntity
  8
GR1-1
  6
CONTINUOUS
 62
     3
100
AcDbLine
 10
228.109271
 20
113.139904
 30
0.0
 11
229.280131
 21
116.067054
 31
0.0
  0
ARC
  5
248
330
1F
100
AcDbEntity
  8
GR1-1
  6
CONTINUOUS
 62
     3
100
AcDbCircle
 10
223.709271
 20
118.295398
 30
0.0
 40
6.0
100
AcDbArc
 50
338.198591
 51
360.0
  0
LINE
  5
249
330
1F
100
AcDbEntity
  8
GR1-1
  6
CONTINUOUS
 62
     3
100
AcDbLine
 10
228.109271
 20
99.739833
 30
0.0
 11
228.409271
 21
99.739833
 31
0.0
  0
ARC
  5
24A
330
1F
100
AcDbEntity
  8
GR1-1
  6
CONTINUOUS
 62
     3
100
AcDbCircle
 10
227.596771
 20
103.74849
 30
0.0
 40
5.812499999999853
100
AcDbArc
 50
-42.103449
 51
42.103449
  0
LINE
  5
24B
330
1F
100
AcDbEntity
  8
GR1-1
  6
CONTINUOUS
 62
     3
100
AcDbLine
 10
231.909271
 20
107.645604
 30
0.0
 11
228.409271
 21
107.645604
 31
0.0
  0
ARC
  5
24C
330
1F
100
AcDbEntity
  8
GR1-1
  6
CONTINUOUS
 62
     3
100
AcDbCircle
 10
212.409271
 20
115.439833
 30
0.0
 40
20.99999999999982
100
AcDbArc
 50
-21.786789
 51
21.786789
  0
LINE
  5
24D
330
1F
100
AcDbEntity
  8
GR1-1
  6
CONTINUOUS
 62
     3
100
AcDbLine
 10
231.909271
 20
123.234062
 30
0.0
 11
229.709271
 21
123.234062
 31
0.0
  0
ARC
  5
24E
330
1F
100
AcDbEntity
  8
GR1-1
  6
CONTINUOUS
 62
     3
100
AcDbCircle
 10
227.596771
 20
127.131176
 30
0.0
 40
5.812499999999853
100
AcDbArc
 50
-42.103449
 51
42.103449
  0
ARC
  5
24F
330
1F
100
AcDbEntity
  8
GR1-1
  6
CONTINUOUS
 62
     3
100
AcDbCircle
 10
234.402019
 20
113.856624
 30
0.0
 40
13.19917200032713
100
AcDbArc
 50
92.13945
 51
94.318227
  0
LINE
  5
250
330
1F
100
AcDbEntity
  8
GR1-1
  6
CONTINUOUS
 62
     3
100
AcDbLine
 10
233.409271
 20
125.306797
 30
0.0
 11
234.001785
 21
125.22254
 31
0.0
  0
ARC
  5
251
330
1F
100
AcDbEntity
  8
GR1-1
  6
CONTINUOUS
 62
     3
100
AcDbCircle
 10
233.297862
 20
120.272339
 30
0.0
 40
5.0
100
AcDbArc
 50
29.337846
 51
81.906745
  0
ARC
  5
252
330
1F
100
AcDbEntity
  8
GR1-1
  6
CONTINUOUS
 62
     3
100
AcDbCircle
 10
248.117541
 20
128.601632
 30
0.0
 40
12.0
100
AcDbArc
 50
209.337846
 51
270.0
  0
LINE
  5
253
330
1F
100
AcDbEntity
  8
GR1-1
  6
CONTINUOUS
 62
     3
100
AcDbLine
 10
248.117541
 20
116.601632
 30
0.0
 11
252.409271
 21
116.601632
 31
0.0
  0
LINE
  5
254
330
1F
100
AcDbEntity
  8
GR1-1
  6
CONTINUOUS
 62
     3
100
AcDbLine
 10
252.409271
 20
116.601632
 30
0.0
 11
253.528012
 21
116.576569
 31
0.0
  0
LINE
  5
255
330
1F
100
AcDbEntity
  8
GR1-1
  6
CONTINUOUS
 62
     3
100
AcDbLine
 10
252.409271
 20
118.443643
 30
0.0
 11
248.017541
 21
118.443643
 31
0.0
  0
ARC
  5
256
330
1F
100
AcDbEntity
  8
GR1-1
  6
CONTINUOUS
 62
     3
100
AcDbCircle
 10
248.117541
 20
128.32247
 30
0.0
 40
9.878830000000001
100
AcDbArc
 50
209.337846
 51
270.0
  0
ARC
  5
257
330
1F
100
AcDbEntity
  8
GR1-1
  6
CONTINUOUS
 62
     3
100
AcDbCircle
 10
233.297862
 20
119.993177
 30
0.0
 40
7.12117
100
AcDbArc
 50
29.337846
 51
85.074635
  0
LINE
  5
258
330
1F
100
AcDbEntity
  8
GR1-1
  6
CONTINUOUS
 62
     3
100
AcDbLine
 10
233.909271
 20
118.697188
 30
0.0
 11
233.909271
 21
84.120253
 31
0.0
  0
LINE
  5
259
330
1F
100
AcDbEntity
  8
GR1-1
  6
CONTINUOUS
 62
     3
100
AcDbLine
 10
233.909271
 20
84.120253
 30
0.0
 11
230.709271
 21
84.120253
 31
0.0
  0
LINE
  5
25A
330
1F
100
AcDbEntity
  8
GR1-1
  6
CONTINUOUS
 62
     3
100
AcDbLine
 10
230.709271
 20
84.120253
 30
0.0
 11
230.709271
 21
87.712637
 31
0.0
  0
LINE
  5
25B
330
1F
100
AcDbEntity
  8
GR1-1
  6
CONTINUOUS
 62
     3
100
AcDbLine
 10
230.709271
 20
87.712637
 30
0.0
 11
230.559303
 21
87.783323
 31
0.0
  0
LINE
  5
25C
330
1F
100
AcDbEntity
  8
GR1-1
  6
CONTINUOUS
 62
     3
100
AcDbLine
 10
232.912216
 20
88.639181
 30
0.0
 11
232.761982
 21
88.709992
 31
0.0
  0
LINE
  5
25D
330
1F
100
AcDbEntity
  8
GR1-1
  6
CONTINUOUS
 62
     3
100
AcDbLine
 10
233.909271
 20
87.747468
 30
0.0
 11
252.931913
 21
89.746829
 31
0.0
  0
ARC
  5
25E
330
1F
100
AcDbEntity
  8
GR1-1
  6
CONTINUOUS
 62
     3
100
AcDbCircle
 10
252.409271
 20
94.719438
 30
0.0
 40
5.0
100
AcDbArc
 50
276.0
 51
360.0
  0
LINE
  5
25F
330
1F
100
AcDbEntity
  8
GR1-1
  6
CONTINUOUS
 62
     3
100
AcDbLine
 10
257.409271
 20
94.719438
 30
0.0
 11
257.409271
 21
113.722806
 31
0.0
  0
ARC
  5
260
330
1F
100
AcDbEntity
  8
GR1-1
  6
CONTINUOUS
 62
     3
100
AcDbCircle
 10
253.528012
 20
112.576569
 30
0.0
 40
4.0
100
AcDbArc
 50
13.995498
 51
90.0
  0
ARC
  5
261
330
1F
100
AcDbEntity
  8
GR1-1
  6
CONTINUOUS
 62
     3
100
AcDbCircle
 10
252.409271
 20
113.443643
 30
0.0
 40
5.0
100
AcDbArc
 50
0.0
 51
90.0
  0
ARC
  5
262
330
1F
100
AcDbEntity
  8
GR1-1
  6
CONTINUOUS
 62
     3
100
AcDbCircle
 10
231.909271
 20
118.697188
 30
0.0
 40
2.0
100
AcDbArc
 50
0.0
 51
41.409622
  0
ARC
  5
263
330
1F
100
AcDbEntity
  8
GR1-1
  6
CONTINUOUS
 62
     3
100
AcDbCircle
 10
231.909271
 20
86.900881
 30
0.0
 40
2.0
100
AcDbArc
 50
0.0
 51
64.763491
  0
ARC
  5
264
330
1F
100
AcDbEntity
  8
GR1-1
  6
CONTINUOUS
 62
     6
100
AcDbCircle
 10
240.959131
 20
109.965221
 30
0.0
 40
1.05011791589153
100
AcDbArc
 50
91.273899
 51
268.730109
  0
LINE
  5
265
330
1F
100
AcDbEntity
  8
GR1-1
  6
CONTINUOUS
 62
     6
100
AcDbLine
 10
240.959131
 20
108.915361
 30
0.0
 11
251.859411
 21
108.915361
 31
0.0
  0
ARC
  5
266
330
1F
100
AcDbEntity
  8
GR1-1
  6
CONTINUOUS
 62
     6
100
AcDbCircle
 10
251.859411
 20
109.965221
 30
0.0
 40
1.05011791589153
100
AcDbArc
 50
-88.730109
 51
88.726101
  0
LINE
  5
267
330
1F
100
AcDbEntity
  8
GR1-1
  6
CONTINUOUS
 62
     6
100
AcDbLine
 10
251.859411
 20
111.015079
 30
0.0
 11
240.959131
 21
111.015079
 31
0.0
  0
LINE
  5
268
330
1F
100
AcDbEntity
  8
GR1-1
  6
CONTINUOUS
 62
     6
100
AcDbLine
 10
240.959131
 20
105.41583
 30
0.0
 11
251.859411
 21
105.41583
 31
0.0
  0
LINE
  5
269
330
1F
100
AcDbEntity
  8
GR1-1
  6
CONTINUOUS
 62
     6
100
AcDbLine
 10
251.859411
 20
103.316112
 30
0.0
 11
240.959131
 21
103.316112
 31
0.0
  0
ARC
  5
26A
330
1F
100
AcDbEntity
  8
GR1-1
  6
CONTINUOUS
 62
     6
100
AcDbCircle
 10
240.959131
 20
104.365972
 30
0.0
 40
1.05011791589153
100
AcDbArc
 50
91.273899
 51
268.730109
  0
ARC
  5
26B
330
1F
100
AcDbEntity
  8
GR1-1
  6
CONTINUOUS
 62
     6
100
AcDbCircle
 10
240.959131
 20
98.766723
 30
0.0
 40
1.05011791589153
100
AcDbArc
 50
91.273899
 51
268.730109
  0
LINE
  5
26C
330
1F
100
AcDbEntity
  8
GR1-1
  6
CONTINUOUS
 62
     6
100
AcDbLine
 10
240.959131
 20
97.716863
 30
0.0
 11
251.859411
 21
97.716863
 31
0.0
  0
ARC
  5
26D
330
1F
100
AcDbEntity
  8
GR1-1
  6
CONTINUOUS
 62
     6
100
AcDbCircle
 10
251.859411
 20
98.766723
 30
0.0
 40
1.05011791589153
100
AcDbArc
 50
-88.730109
 51
88.726101
  0
LINE
  5
26E
330
1F
100
AcDbEntity
  8
GR1-1
  6
CONTINUOUS
 62
     6
100
AcDbLine
 10
251.859411
 20
99.816581
 30
0.0
 11
240.959131
 21
99.816581
 31
0.0
  0
LINE
  5
26F
330
1F
100
AcDbEntity
  8
GR1-1
  6
CONTINUOUS
 62
     6
100
AcDbLine
 10
240.959131
 20
94.217332
 30
0.0
 11
251.859411
 21
94.217332
 31
0.0
  0
LINE
  5
270
330
1F
100
AcDbEntity
  8
GR1-1
  6
CONTINUOUS
 62
     6
100
AcDbLine
 10
251.859411
 20
92.117614
 30
0.0
 11
240.959131
 21
92.117614
 31
0.0
  0
ARC
  5
271
330
1F
100
AcDbEntity
  8
GR1-1
  6
CONTINUOUS
 62
     6
100
AcDbCircle
 10
240.959131
 20
93.167474
 30
0.0
 40
1.05011791589153
100
AcDbArc
 50
91.273899
 51
268.730109
  0
ARC
  5
272
330
1F
100
AcDbEntity
  8
GR1-1
  6
CONTINUOUS
 62
     6
100
AcDbCircle
 10
251.859411
 20
93.167474
 30
0.0
 40
1.05011791589153
100
AcDbArc
 50
-88.730109
 51
88.726101
  0
ARC
  5
273
330
1F
100
AcDbEntity
  8
GR1-1
  6
CONTINUOUS
 62
     6
100
AcDbCircle
 10
251.859411
 20
104.365972
 30
0.0
 40
1.05011791589153
100
AcDbArc
 50
-88.730109
 51
88.726101
  0
ARC
  5
274
330
1F
100
AcDbEntity
  8
GR1-1
  6
CONTINUOUS
 62
     3
100
AcDbCircle
 10
223.709271
 20
140.788558
 30
0.0
 40
6.0
100
AcDbArc
 50
0.0
 51
21.801409
  0
LINE
  5
275
330
1F
100
AcDbEntity
  8
GR1-1
  6
CONTINUOUS
 62
     3
100
AcDbLine
 10
229.280131
 20
143.016902
 30
0.0
 11
228.109271
 21
145.944053
 31
0.0
  0
LINE
  5
276
330
1F
100
AcDbEntity
  8
GR1-1
  6
CONTINUOUS
 62
     3
100
AcDbLine
 10
229.14883
 20
143.345156
 30
0.0
 11
250.14795
 21
141.138059
 31
0.0
  0
ARC
  5
277
330
1F
100
AcDbEntity
  8
GR1-1
  6
CONTINUOUS
 62
     3
100
AcDbCircle
 10
250.409271
 20
143.624364
 30
0.0
 40
2.5
100
AcDbArc
 50
-96.0
 51
0.0
  0
LINE
  5
278
330
1F
100
AcDbEntity
  8
GR1-1
  6
CONTINUOUS
 62
     3
100
AcDbLine
 10
252.909271
 20
143.624364
 30
0.0
 11
252.909271
 21
150.438975
 31
0.0
  0
ARC
  5
279
330
1F
100
AcDbEntity
  8
GR1-1
  6
CONTINUOUS
 62
     3
100
AcDbCircle
 10
249.909271
 20
150.438975
 30
0.0
 40
3.0
100
AcDbArc
 50
0.0
 51
82.0
  0
LINE
  5
27A
330
1F
100
AcDbEntity
  8
GR1-1
  6
CONTINUOUS
 62
     3
100
AcDbLine
 10
250.32679
 20
153.40978
 30
0.0
 11
229.465963
 21
156.341578
 31
0.0
  0
ARC
  5
27B
330
1F
100
AcDbEntity
  8
GR1-1
  6
CONTINUOUS
 62
     3
100
AcDbCircle
 10
228.909271
 20
152.380505
 30
0.0
 40
4.0
100
AcDbArc
 50
82.0
 51
180.0
  0
ARC
  5
27C
330
1F
100
AcDbEntity
  8
GR1-1
  6
CONTINUOUS
 62
     3
100
AcDbCircle
 10
249.909271
 20
148.261253
 30
0.0
 40
3.0
100
AcDbArc
 50
0.0
 51
82.0
  0
LINE
  5
27D
330
1F
100
AcDbEntity
  8
GR1-1
  6
CONTINUOUS
 62
     3
100
AcDbLine
 10
250.32679
 20
151.232057
 30
0.0
 11
228.678858
 21
154.274476
 31
0.0
  0
ARC
  5
27E
330
1F
100
AcDbEntity
  8
GR1-1
  6
CONTINUOUS
 62
     3
100
AcDbCircle
 10
228.609271
 20
153.779342
 30
0.0
 40
0.5
100
AcDbArc
 50
82.0
 51
180.0
  0
LINE
  5
27F
330
1F
100
AcDbEntity
  8
GR1-1
  6
CONTINUOUS
 62
     6
100
AcDbLine
 10
234.80459
 20
151.248293
 30
0.0
 11
249.013952
 21
151.248293
 31
0.0
  0
ARC
  5
280
330
1F
100
AcDbEntity
  8
GR1-1
  6
CONTINUOUS
 62
     6
100
AcDbCircle
 10
249.012121
 20
150.851148
 30
0.0
 40
0.3971499999999821
100
AcDbArc
 50
-90.0
 51
89.73591
  0
LINE
  5
281
330
1F
100
AcDbEntity
  8
GR1-1
  6
CONTINUOUS
 62
     6
100
AcDbLine
 10
249.012121
 20
150.453998
 30
0.0
 11
243.409271
 21
150.453998
 31
0.0
  0
LINE
  5
282
330
1F
100
AcDbEntity
  8
GR1-1
  6
CONTINUOUS
 62
     6
100
AcDbLine
 10
243.409271
 20
150.453998
 30
0.0
 11
243.409271
 21
147.276815
 31
0.0
  0
LINE
  5
283
330
1F
100
AcDbEntity
  8
GR1-1
  6
CONTINUOUS
 62
     6
100
AcDbLine
 10
243.409271
 20
147.276815
 30
0.0
 11
247.013952
 21
147.276815
 31
0.0
  0
ARC
  5
284
330
1F
100
AcDbEntity
  8
GR1-1
  6
CONTINUOUS
 62
     6
100
AcDbCircle
 10
247.012121
 20
146.879669
 30
0.0
 40
0.3971499999999821
100
AcDbArc
 50
-90.0
 51
89.73591
  0
LINE
  5
285
330
1F
100
AcDbEntity
  8
GR1-1
  6
CONTINUOUS
 62
     6
100
AcDbLine
 10
247.012121
 20
146.482519
 30
0.0
 11
243.409271
 21
146.482519
 31
0.0
  0
LINE
  5
286
330
1F
100
AcDbEntity
  8
GR1-1
  6
CONTINUOUS
 62
     6
100
AcDbLine
 10
241.409271
 20
146.688223
 30
0.0
 11
241.409271
 21
150.453998
 31
0.0
  0
LINE
  5
287
330
1F
100
AcDbEntity
  8
GR1-1
  6
CONTINUOUS
 62
     6
100
AcDbLine
 10
241.409271
 20
150.453998
 30
0.0
 11
238.409271
 21
150.453998
 31
0.0
  0
LINE
  5
288
330
1F
100
AcDbEntity
  8
GR1-1
  6
CONTINUOUS
 62
     6
100
AcDbLine
 10
238.409271
 20
150.453998
 30
0.0
 11
238.409271
 21
148.872536
 31
0.0
  0
LINE
  5
289
330
1F
100
AcDbEntity
  8
GR1-1
  6
CONTINUOUS
 62
     6
100
AcDbLine
 10
236.409271
 20
148.872536
 30
0.0
 11
236.409271
 21
150.453998
 31
0.0
  0
LINE
  5
28A
330
1F
100
AcDbEntity
  8
GR1-1
  6
CONTINUOUS
 62
     6
100
AcDbLine
 10
236.409271
 20
150.453998
 30
0.0
 11
234.806421
 21
150.453998
 31
0.0
  0
ARC
  5
28B
330
1F
100
AcDbEntity
  8
GR1-1
  6
CONTINUOUS
 62
     6
100
AcDbCircle
 10
234.806421
 20
150.851148
 30
0.0
 40
0.3971499999999821
100
AcDbArc
 50
90.26409
 51
270.0
  0
ARC
  5
28C
330
1F
100
AcDbEntity
  8
GR1-1
  6
CONTINUOUS
 62
     6
100
AcDbCircle
 10
237.409271
 20
148.872536
 30
0.0
 40
1.000000000000028
100
AcDbArc
 50
180.0
 51
360.0
  0
ARC
  5
28D
330
1F
100
AcDbEntity
  8
GR1-1
  6
CONTINUOUS
 62
     6
100
AcDbCircle
 10
242.409271
 20
146.688223
 30
0.0
 40
1.000000000000028
100
AcDbArc
 50
180.0
 51
348.376158
  0
LINE
  5
28E
330
1F
100
AcDbEntity
  8
GR1-1
  6
CONTINUOUS
 62
     3
100
AcDbLine
 10
229.709271
 20
118.295398
 30
0.0
 11
229.709271
 21
140.788558
 31
0.0
  0
LINE
  5
28F
330
1F
100
AcDbEntity
  8
GR1-1
  6
CONTINUOUS
 62
     3
100
AcDbLine
 10
228.109271
 20
153.779342
 30
0.0
 11
228.109271
 21
95.84471
 31
0.0
  0
INSERT
  5
293
330
1F
100
AcDbEntity
  8
0
100
AcDbBlockReference
  2
BLKF034
 10
0.0
 20
0.0
 30
0.0
  0
ARC
  5
2B4
330
1F
100
AcDbEntity
  8
LAYERGROUP-1
  6
CONTINUOUS
 62
     3
100
AcDbCircle
 10
384.784127
 20
115.438024
 30
0.0
 40
23.5
100
AcDbArc
 50
260.293387
 51
279.561943
  0
ARC
  5
2B5
330
1F
100
AcDbEntity
  8
LAYERGROUP-1
  6
CONTINUOUS
 62
     3
100
AcDbCircle
 10
384.784127
 20
115.438024
 30
0.0
 40
23.5
100
AcDbArc
 50
284.084543
 51
285.55786
  0
ARC
  5
2B6
330
1F
100
AcDbEntity
  8
LAYERGROUP-1
  6
CONTINUOUS
 62
     3
100
AcDbCircle
 10
339.325108
 20
198.094702
 30
0.0
 40
120.0
100
AcDbArc
 50
315.243214
 51
350.533295
  0
LINE
  5
2B7
330
1F
100
AcDbEntity
  8
LAYERGROUP-1
  6
CONTINUOUS
 62
     3
100
AcDbLine
 10
232.909271
 20
95.84471
 30
0.0
 11
232.909271
 21
91.84846
 31
0.0
  0
LINE
  5
2B8
330
1F
100
AcDbEntity
  8
LAYERGROUP-1
  6
CONTINUOUS
 62
     3
100
AcDbLine
 10
228.109271
 20
91.84846
 30
0.0
 11
232.761982
 21
88.709992
 31
0.0
  0
LINE
  5
2B9
330
1F
100
AcDbEntity
  8
LAYERGROUP-1
  6
CONTINUOUS
 62
     3
100
AcDbLine
 10
224.457363
 20
91.899361
 30
0.0
 11
230.709271
 21
87.682163
 31
0.0
  0
LINE
  5
2BA
330
1F
100
AcDbEntity
  8
LAYERGROUP-1
  6
CONTINUOUS
 62
     3
100
AcDbLine
 10
363.102912
 20
351.917086
 30
0.0
 11
363.102912
 21
312.464187
 31
0.0
  0
LINE
  5
2BB
330
1F
100
AcDbEntity
  8
LAYERGROUP-1
  6
CONTINUOUS
 62
     3
100
AcDbLine
 10
364.856397
 20
351.917086
 30
0.0
 11
364.856397
 21
312.368374
 31
0.0
  0
ARC
  5
2BC
330
1F
100
AcDbEntity
  8
LAYERGROUP-1
  6
CONTINUOUS
 62
     3
100
AcDbCircle
 10
378.843215
 20
316.265087
 30
0.0
 40
15.0
100
AcDbArc
 50
209.14943
 51
226.27538
  0
ARC
  5
2BD
330
1F
100
AcDbEntity
  8
LAYERGROUP-1
  6
CONTINUOUS
 62
     3
100
AcDbCircle
 10
369.102912
 20
312.464187
 30
0.0
 40
6.0
100
AcDbArc
 50
180.0
 51
220.627874
  0
ARC
  5
2BE
330
1F
100
AcDbEntity
  8
LAYERGROUP-1
  6
CONTINUOUS
 62
     3
100
AcDbCircle
 10
371.856397
 20
312.368374
 30
0.0
 40
7.0
100
AcDbArc
 50
180.0
 51
209.14943
  0
ARC
  5
2BF
330
1F
100
AcDbEntity
  8
LAYERGROUP-1
  6
CONTINUOUS
 62
     7
100
AcDbCircle
 10
352.293779
 20
324.187897
 30
0.0
 40
2.529298799881457
100
AcDbArc
 50
-6.146426
 51
186.146426
  0
ARC
  5
2C0
330
1F
100
AcDbEntity
  8
LAYERGROUP-1
  6
CONTINUOUS
 62
     7
100
AcDbCircle
 10
352.293779
 20
323.646275
 30
0.0
 40
2.529298799881514
100
AcDbArc
 50
-186.146426
 51
6.146426
  0
ARC
  5
2C1
330
1F
100
AcDbEntity
  8
LAYERGROUP-1
  6
CONTINUOUS
 62
     7
100
AcDbCircle
 10
352.293779
 20
342.187897
 30
0.0
 40
2.529298799881457
100
AcDbArc
 50
-6.146426
 51
186.146426
  0
ARC
  5
2C2
330
1F
100
AcDbEntity
  8
LAYERGROUP-1
  6
CONTINUOUS
 62
     7
100
AcDbCircle
 10
352.293779
 20
341.646275
 30
0.0
 40
2.529298799881514
100
AcDbArc
 50
-186.146426
 51
6.146426
  0
ARC
  5
2C3
330
1F
100
AcDbEntity
  8
LAYERGROUP-1
  6
CONTINUOUS
 62
     7
100
AcDbCircle
 10
352.293779
 20
324.187897
 30
0.0
 40
2.229298799881458
100
AcDbArc
 50
-6.146426
 51
186.146426
  0
ARC
  5
2C4
330
1F
100
AcDbEntity
  8
LAYERGROUP-1
  6
CONTINUOUS
 62
     7
100
AcDbCircle
 10
352.293779
 20
323.646275
 30
0.0
 40
2.229298799881514
100
AcDbArc
 50
-186.146426
 51
6.146426
  0
ARC
  5
2C5
330
1F
100
AcDbEntity
  8
LAYERGROUP-1
  6
CONTINUOUS
 62
     7
100
AcDbCircle
 10
352.293779
 20
341.646275
 30
0.0
 40
2.229298799881514
100
AcDbArc
 50
-186.146426
 51
6.146426
  0
ARC
  5
2C6
330
1F
100
AcDbEntity
  8
LAYERGROUP-1
  6
CONTINUOUS
 62
     7
100
AcDbCircle
 10
352.293779
 20
342.187897
 30
0.0
 40
2.229298799881458
100
AcDbArc
 50
-6.146426
 51
186.146426
  0
LINE
  5
2C7
330
1F
100
AcDbEntity
  8
LAYERGROUP-1
  6
CENTER
 62
     6
100
AcDbLine
 10
352.317384
 20
319.94039
 30
0.0
 11
352.317384
 21
346.101015
 31
0.0
  0
LINE
  5
2C8
330
1F
100
AcDbEntity
  8
LAYERGROUP-1
  6
CENTER
 62
     6
100
AcDbLine
 10
348.634634
 20
341.917086
 30
0.0
 11
355.619477
 21
341.917086
 31
0.0
  0
LINE
  5
2C9
330
1F
100
AcDbEntity
  8
LAYERGROUP-1
  6
CENTER
 62
     6
100
AcDbLine
 10
348.634634
 20
323.917086
 30
0.0
 11
355.619477
 21
323.917086
 31
0.0
  0
ARC
  5
2CA
330
1F
100
AcDbEntity
  8
LAYERGROUP-1
  6
CONTINUOUS
 62
     3
100
AcDbCircle
 10
336.68702
 20
312.081729
 30
0.0
 40
5.0
100
AcDbArc
 50
303.599233
 51
345.688693
  0
LINE
  5
2CB
330
1F
100
AcDbEntity
  8
LAYERGROUP-1
  6
CONTINUOUS
 62
     3
100
AcDbLine
 10
368.784127
 20
304.702363
 30
0.0
 11
368.784127
 21
298.917086
 31
0.0
  0
ARC
  5
2CC
330
1F
100
AcDbEntity
  8
LAYERGROUP-1
  6
CONTINUOUS
 62
     3
100
AcDbCircle
 10
369.784127
 20
298.917086
 30
0.0
 40
1.0
100
AcDbArc
 50
180.0
 51
270.0
  0
ARC
  5
2CD
330
1F
100
AcDbEntity
  8
LAYERGROUP-1
  6
CONTINUOUS
 62
     3
100
AcDbCircle
 10
375.933504
 20
318.324479
 30
0.0
 40
15.0
100
AcDbArc
 50
220.627874
 51
240.916564
  0
ARC
  5
2CE
330
1F
100
AcDbEntity
  8
LAYERGROUP-1
  6
CONTINUOUS
 62
     3
100
AcDbCircle
 10
367.784127
 20
304.702363
 30
0.0
 40
1.0
100
AcDbArc
 50
0.0
 51
46.27538
  0
LINE
  5
2CF
330
1F
100
AcDbEntity
  8
LAYERGROUP-1
  6
CONTINUOUS
 62
     3
100
AcDbLine
 10
414.943923
 20
261.417086
 30
0.0
 11
441.7716
 21
261.417086
 31
0.0
  0
ARC
  5
2D0
330
1F
100
AcDbEntity
  8
LAYERGROUP-1
  6
CONTINUOUS
 62
     3
100
AcDbCircle
 10
441.7716
 20
265.417086
 30
0.0
 40
4.0
100
AcDbArc
 50
270.0
 51
351.573031
  0
LINE
  5
2D1
330
1F
100
AcDbEntity
  8
LAYERGROUP-1
  6
CONTINUOUS
 62
     3
100
AcDbLine
 10
447.815257
 20
278.917086
 30
0.0
 11
445.728414
 21
264.830891
 31
0.0
  0
LINE
  5
2D2
330
1F
100
AcDbEntity
  8
LAYERGROUP-1
  6
CONTINUOUS
 62
     3
100
AcDbLine
 10
410.432741
 20
278.917086
 30
0.0
 11
411.464639
 21
266.01836
 31
0.0
  0
LINE
  5
2D3
330
1F
100
AcDbEntity
  8
LAYERGROUP-1
  6
CONTINUOUS
 62
     3
100
AcDbLine
 10
408.927948
 20
278.917086
 30
0.0
 11
409.959847
 21
266.01836
 31
0.0
  0
ARC
  5
2D4
330
1F
100
AcDbEntity
  8
LAYERGROUP-1
  6
CONTINUOUS
 62
     3
100
AcDbCircle
 10
416.448715
 20
266.417086
 30
0.0
 40
5.0
100
AcDbArc
 50
184.573921
 51
270.0
  0
ARC
  5
2D5
330
1F
100
AcDbEntity
  8
LAYERGROUP-1
  6
CONTINUOUS
 62
     3
100
AcDbCircle
 10
414.943923
 20
266.417086
 30
0.0
 40
5.0
100
AcDbArc
 50
184.573921
 51
270.0
  0
LINE
  5
2D6
330
1F
100
AcDbEntity
  8
LAYERGROUP-1
  6
CONTINUOUS
 62
     6
100
AcDbLine
 10
419.448715
 20
266.917086
 30
0.0
 11
419.448715
 21
278.917086
 31
0.0
  0
LINE
  5
2D7
330
1F
100
AcDbEntity
  8
LAYERGROUP-1
  6
CONTINUOUS
 62
     6
100
AcDbLine
 10
416.448715
 20
266.917086
 30
0.0
 11
416.448715
 21
278.917086
 31
0.0
  0
ARC
  5
2D8
330
1F
100
AcDbEntity
  8
LAYERGROUP-1
  6
CONTINUOUS
 62
     6
100
AcDbCircle
 10
417.948715
 20
266.917086
 30
0.0
 40
1.5
100
AcDbArc
 50
180.0
 51
360.0
  0
LINE
  5
2D9
330
1F
100
AcDbEntity
  8
LAYERGROUP-1
  6
CONTINUOUS
 62
     6
100
AcDbLine
 10
441.7716
 20
266.917086
 30
0.0
 11
441.7716
 21
278.917086
 31
0.0
  0
LINE
  5
2DA
330
1F
100
AcDbEntity
  8
LAYERGROUP-1
  6
CONTINUOUS
 62
     6
100
AcDbLine
 10
438.7716
 20
266.917086
 30
0.0
 11
438.7716
 21
278.917086
 31
0.0
  0
ARC
  5
2DB
330
1F
100
AcDbEntity
  8
LAYERGROUP-1
  6
CONTINUOUS
 62
     6
100
AcDbCircle
 10
440.2716
 20
266.917086
 30
0.0
 40
1.5
100
AcDbArc
 50
180.0
 51
360.0
  0
LINE
  5
2DC
330
1F
100
AcDbEntity
  8
LAYERGROUP-1
  6
CONTINUOUS
 62
     6
100
AcDbLine
 10
434.3316
 20
266.917086
 30
0.0
 11
434.3316
 21
278.917086
 31
0.0
  0
LINE
  5
2DD
330
1F
100
AcDbEntity
  8
LAYERGROUP-1
  6
CONTINUOUS
 62
     6
100
AcDbLine
 10
431.3316
 20
266.917086
 30
0.0
 11
431.3316
 21
278.917086
 31
0.0
  0
ARC
  5
2DE
330
1F
100
AcDbEntity
  8
LAYERGROUP-1
  6
CONTINUOUS
 62
     6
100
AcDbCircle
 10
432.8316
 20
266.917086
 30
0.0
 40
1.5
100
AcDbArc
 50
180.0
 51
360.0
  0
LINE
  5
2DF
330
1F
100
AcDbEntity
  8
LAYERGROUP-1
  6
CONTINUOUS
 62
     6
100
AcDbLine
 10
426.888715
 20
266.917086
 30
0.0
 11
426.888715
 21
278.917086
 31
0.0
  0
LINE
  5
2E0
330
1F
100
AcDbEntity
  8
LAYERGROUP-1
  6
CONTINUOUS
 62
     6
100
AcDbLine
 10
423.888715
 20
266.917086
 30
0.0
 11
423.888715
 21
278.917086
 31
0.0
  0
ARC
  5
2E1
330
1F
100
AcDbEntity
  8
LAYERGROUP-1
  6
CONTINUOUS
 62
     6
100
AcDbCircle
 10
425.388715
 20
266.917086
 30
0.0
 40
1.5
100
AcDbArc
 50
180.0
 51
360.0
  0
LINE
  5
2E2
330
1F
100
AcDbEntity
  8
GR1-1
  6
CONTINUOUS
 62
     3
100
AcDbLine
 10
338.710557
 20
290.717086
 30
0.0
 11
341.591063
 21
270.221221
 31
0.0
  0
ARC
  5
2E3
330
1F
100
AcDbEntity
  8
GR1-1
  6
CONTINUOUS
 62
     3
100
AcDbCircle
 10
346.542404
 20
270.917086
 30
0.0
 40
5.0
100
AcDbArc
 50
188.0
 51
270.0
  0
LINE
  5
2E4
330
1F
100
AcDbEntity
  8
GR1-1
  6
CONTINUOUS
 62
     3
100
AcDbLine
 10
345.214899
 20
265.917086
 30
0.0
 11
364.074701
 21
265.917086
 31
0.0
  0
ARC
  5
2E5
330
1F
100
AcDbEntity
  8
GR1-1
  6
CONTINUOUS
 62
     3
100
AcDbCircle
 10
364.074701
 20
270.917086
 30
0.0
 40
5.0
100
AcDbArc
 50
-90.0
 51
6.0
  0
LINE
  5
2E6
330
1F
100
AcDbEntity
  8
GR1-1
  6
CONTINUOUS
 62
     3
100
AcDbLine
 10
369.04731
 20
271.439728
 30
0.0
 11
367.36945
 21
287.403501
 31
0.0
  0
ARC
  5
2E7
330
1F
100
AcDbEntity
  8
GR1-1
  6
CONTINUOUS
 62
     3
100
AcDbCircle
 10
370.353016
 20
287.717086
 30
0.0
 40
3.0
100
AcDbArc
 50
100.688079
 51
186.0
  0
LINE
  5
2E8
330
1F
100
AcDbEntity
  8
GR1-1
  6
CONTINUOUS
 62
     6
100
AcDbLine
 10
357.401159
 20
275.917086
 30
0.0
 11
357.06565
 21
275.917086
 31
0.0
  0
LINE
  5
2E9
330
1F
100
AcDbEntity
  8
GR1-1
  6
CONTINUOUS
 62
     3
100
AcDbLine
 10
340.263559
 20
270.221221
 30
0.0
 11
337.383053
 21
290.717086
 31
0.0
  0
ARC
  5
2EA
330
1F
100
AcDbEntity
  8
GR1-1
  6
CONTINUOUS
 62
     3
100
AcDbCircle
 10
345.214899
 20
270.917086
 30
0.0
 40
5.0
100
AcDbArc
 50
188.0
 51
270.0
  0
ARC
  5
2EB
330
1F
100
AcDbEntity
  8
GR1-1
  6
CONTINUOUS
 62
     3
100
AcDbCircle
 10
373.34852
 20
287.917086
 30
0.0
 40
6.0
100
AcDbArc
 50
115.30259
 51
186.0
  0
LINE
  5
2EC
330
1F
100
AcDbEntity
  8
GR1-1
  6
CONTINUOUS
 62
     6
100
AcDbLine
 10
345.13484
 20
271.293716
 30
0.0
 11
345.13484
 21
284.540456
 31
0.0
  0
LINE
  5
2ED
330
1F
100
AcDbEntity
  8
GR1-1
  6
CONTINUOUS
 62
     6
100
AcDbLine
 10
347.888103
 20
284.540456
 30
0.0
 11
347.888103
 21
283.917086
 31
0.0
  0
LINE
  5
2EE
330
1F
100
AcDbEntity
  8
GR1-1
  6
CONTINUOUS
 62
     6
100
AcDbLine
 10
347.888103
 20
283.917086
 30
0.0
 11
351.894631
 21
283.917086
 31
0.0
  0
ARC
  5
2EF
330
1F
100
AcDbEntity
  8
GR1-1
  6
CONTINUOUS
 62
     6
100
AcDbCircle
 10
351.894631
 20
282.417086
 30
0.0
 40
1.499999999999972
100
AcDbArc
 50
-90.0
 51
90.0
  0
LINE
  5
2F0
330
1F
100
AcDbEntity
  8
GR1-1
  6
CONTINUOUS
 62
     6
100
AcDbLine
 10
351.894631
 20
280.917086
 30
0.0
 11
347.888103
 21
280.917086
 31
0.0
  0
LINE
  5
2F1
330
1F
100
AcDbEntity
  8
GR1-1
  6
CONTINUOUS
 62
     6
100
AcDbLine
 10
347.888103
 20
280.917086
 30
0.0
 11
347.888103
 21
278.917086
 31
0.0
  0
LINE
  5
2F2
330
1F
100
AcDbEntity
  8
GR1-1
  6
CONTINUOUS
 62
     6
100
AcDbLine
 10
347.888103
 20
278.917086
 30
0.0
 11
357.401159
 21
278.917086
 31
0.0
  0
ARC
  5
2F3
330
1F
100
AcDbEntity
  8
GR1-1
  6
CONTINUOUS
 62
     6
100
AcDbCircle
 10
357.401159
 20
277.417086
 30
0.0
 40
1.499999999999972
100
AcDbArc
 50
-90.0
 51
90.0
  0
LINE
  5
2F4
330
1F
100
AcDbEntity
  8
GR1-1
  6
CONTINUOUS
 62
     6
100
AcDbLine
 10
357.06565
 20
275.917086
 30
0.0
 11
357.06565
 21
273.293716
 31
0.0
  0
ARC
  5
2F5
330
1F
100
AcDbEntity
  8
GR1-1
  6
CONTINUOUS
 62
     6
100
AcDbCircle
 10
355.68902
 20
273.293716
 30
0.0
 40
1.376630000000034
100
AcDbArc
 50
180.0
 51
360.0
  0
LINE
  5
2F6
330
1F
100
AcDbEntity
  8
GR1-1
  6
CONTINUOUS
 62
     6
100
AcDbLine
 10
354.312386
 20
273.293716
 30
0.0
 11
354.312386
 21
275.917086
 31
0.0
  0
LINE
  5
2F7
330
1F
100
AcDbEntity
  8
GR1-1
  6
CONTINUOUS
 62
     6
100
AcDbLine
 10
354.312386
 20
275.917086
 30
0.0
 11
347.888103
 21
275.917086
 31
0.0
  0
LINE
  5
2F8
330
1F
100
AcDbEntity
  8
GR1-1
  6
CONTINUOUS
 62
     6
100
AcDbLine
 10
347.888103
 20
275.917086
 30
0.0
 11
347.888103
 21
271.293716
 31
0.0
  0
ARC
  5
2F9
330
1F
100
AcDbEntity
  8
GR1-1
  6
CONTINUOUS
 62
     6
100
AcDbCircle
 10
346.511473
 20
271.293716
 30
0.0
 40
1.376630000000034
100
AcDbArc
 50
180.0
 51
360.0
  0
ARC
  5
2FA
330
1F
100
AcDbEntity
  8
GR1-1
  6
CONTINUOUS
 62
     6
100
AcDbCircle
 10
346.511473
 20
284.540456
 30
0.0
 40
1.376630000000034
100
AcDbArc
 50
0.0
 51
180.0
  0
ARC
  5
2FB
330
1F
100
AcDbEntity
  8
GR1-1
  6
CONTINUOUS
 62
     3
100
AcDbCircle
 10
342.581948
 20
291.427884
 30
0.0
 40
3.936102064724309
100
AcDbArc
 50
140.772379
 51
190.403792
  0
ARC
  5
2FC
330
1F
100
AcDbEntity
  8
GR1-1
  6
CONTINUOUS
 62
     3
100
AcDbCircle
 10
341.450678
 20
290.306516
 30
0.0
 40
4.088293079563504
100
AcDbArc
 50
117.97546
 51
174.236307
  0
LINE
  5
2FD
330
1F
100
AcDbEntity
  8
LAYERGROUP-1
  6
CONTINUOUS
 62
     3
100
AcDbLine
 10
339.532887
 20
293.917086
 30
0.0
 11
346.476248
 21
293.917086
 31
0.0
  0
LINE
  5
2FE
330
1F
100
AcDbEntity
  8
LAYERGROUP-1
  6
CONTINUOUS
 62
     3
100
AcDbLine
 10
370.844561
 20
290.66504
 30
0.0
 11
369.796629
 21
290.66504
 31
0.0
  0
ARC
  5
2FF
330
1F
100
AcDbEntity
  8
LAYERGROUP-1
  6
CONTINUOUS
 62
     3
100
AcDbCircle
 10
207.410382
 20
182.546162
 30
0.0
 40
0.5
100
AcDbArc
 50
-4.463371
 51
90.0
  0
LINE
  5
300
330
1F
100
AcDbEntity
  8
LAYERGROUP-1
  6
CONTINUOUS
 62
     3
100
AcDbLine
 10
378.729092
 20
95.434361
 30
0.0
 11
378.729092
 21
95.08261
 31
0.0
  0
ARC
  5
301
330
1F
100
AcDbEntity
  8
LAYERGROUP-1
  6
CONTINUOUS
 62
     3
100
AcDbCircle
 10
384.784127
 20
115.438024
 30
0.0
 40
20.9
100
AcDbArc
 50
248.763479
 51
253.159128
  0
DIMENSION
  5
302
330
1F
100
AcDbEntity
  8
LAYERGROUP-1
100
AcDbDimension
  2
*D33
 10
105.973826
 20
180.438024
 30
0.0
 11
104.973831
 21
115.438019
 31
0.0
 70
    33
  3
FXDIMINFO
100
AcDbAlignedDimension
 13
185.909271
 23
50.438024
 33
0.0
 14
185.909271
 24
180.438024
 34
0.0
1001
ACAD
1000
DSTYLE
1002
{
1070
     7
1000
FXTIP_ARROW_E
1070
     6
1000
FXTIP_ARROW_S
1070
   173
1070
     1
1002
}
  0
ARC
  5
30C
330
1F
100
AcDbEntity
  8
LAYERGROUP-1
  6
CONTINUOUS
 62
     3
100
AcDbCircle
 10
170.409271
 20
174.964316
 30
0.0
 40
0.5
100
AcDbArc
 50
180.0
 51
270.0
  0
ARC
  5
30D
330
1F
100
AcDbEntity
  8
LAYERGROUP-1
  6
CONTINUOUS
 62
     3
100
AcDbCircle
 10
201.409271
 20
174.964316
 30
0.0
 40
0.5
100
AcDbArc
 50
270.0
 51
360.0
  0
LINE
  5
30E
330
1F
100
AcDbEntity
  8
LAYERGROUP-1
  6
CENTER
 62
     6
100
AcDbLine
 10
181.227115
 20
189.063181
 30
0.0
 11
172.806214
 21
189.063181
 31
0.0
  0
CIRCLE
  5
30F
330
1F
100
AcDbEntity
  8
LAYERGROUP-1
  6
CONTINUOUS
 62
     6
100
AcDbCircle
 10
424.784127
 20
332.917086
 30
0.0
 40
21.5
  0
CIRCLE
  5
310
330
1F
100
AcDbEntity
  8
LAYERGROUP-1
  6
CONTINUOUS
 62
     3
100
AcDbCircle
 10
424.784127
 20
332.917086
 30
0.0
 40
13.0
  0
CIRCLE
  5
311
330
1F
100
AcDbEntity
  8
LAYERGROUP-1
  6
CONTINUOUS
 62
     3
100
AcDbCircle
 10
424.784127
 20
332.917086
 30
0.0
 40
18.9
  0
LINE
  5
312
330
1F
100
AcDbEntity
  8
LAYERGROUP-1
  6
CENTER
 62
     6
100
AcDbLine
 10
384.784127
 20
231.604175
 30
0.0
 11
384.784127
 21
218.104175
 31
0.0
  0
LINE
  5
313
330
1F
100
AcDbEntity
  8
LAYERGROUP-1
  6
CENTER
 62
     6
100
AcDbLine
 10
464.784127
 20
231.604175
 30
0.0
 11
464.784127
 21
218.104175
 31
0.0
  0
LINE
  5
314
330
1F
100
AcDbEntity
  8
LAYERGROUP-1
  6
CENTER
 62
     6
100
AcDbLine
 10
145.909271
 20
231.604175
 30
0.0
 11
145.909271
 21
218.104175
 31
0.0
  0
LINE
  5
315
330
1F
100
AcDbEntity
  8
LAYERGROUP-1
  6
CENTER
 62
     6
100
AcDbLine
 10
225.909271
 20
231.604175
 30
0.0
 11
225.909271
 21
218.104175
 31
0.0
  0
DIMENSION
  5
316
330
1F
100
AcDbEntity
  8
LAYERGROUP-1
100
AcDbDimension
  2
*D34
 10
424.784127
 20
38.544009
 30
0.0
 11
404.784119
 21
39.544006
 31
0.0
 70
    32
  3
FXDIMINFO
100
AcDbAlignedDimension
 13
384.784127
 23
45.52966
 33
0.0
 14
424.784127
 24
91.402101
 34
0.0
 50
180.0
100
AcDbRotatedDimension
1001
ACAD
1000
DSTYLE
1002
{
1070
     7
1000
FXTIP_ARROW_E
1070
     6
1000

1070
   173
1070
     1
1002
}
  0
ARC
  5
31F
330
1F
100
AcDbEntity
  8
LAYERGROUP-1
  6
CONTINUOUS
 62
     3
100
AcDbCircle
 10
384.784127
 20
115.438024
 30
0.0
 40
65.0
100
AcDbArc
 50
127.717642
 51
333.623959
  0
ARC
  5
320
330
1F
100
AcDbEntity
  8
LAYERGROUP-1
  6
CONTINUOUS
 62
     3
100
AcDbCircle
 10
384.784127
 20
115.438024
 30
0.0
 40
23.5
100
AcDbArc
 50
237.850327
 51
255.631931
  0
ARC
  5
321
330
1F
100
AcDbEntity
  8
LAYERGROUP-1
  6
CONTINUOUS
 62
     6
100
AcDbCircle
 10
384.784127
 20
115.438024
 30
0.0
 40
38.0
100
AcDbArc
 50
179.256117
 51
308.137938
  0
ARC
  5
322
330
1F
100
AcDbEntity
  8
LAYERGROUP-1
  6
CONTINUOUS
 62
     3
100
AcDbCircle
 10
384.784127
 20
115.438024
 30
0.0
 40
46.00000000000003
100
AcDbArc
 50
165.058731
 51
317.315124
  0
ARC
  5
323
330
1F
100
AcDbEntity
  8
LAYERGROUP-1
  6
CONTINUOUS
 62
     6
100
AcDbCircle
 10
384.784127
 20
115.438024
 30
0.0
 40
49.99999999999955
100
AcDbArc
 50
131.630026
 51
133.665489
  0
ARC
  5
324
330
1F
100
AcDbEntity
  8
LAYERGROUP-1
  6
CONTINUOUS
 62
     6
100
AcDbCircle
 10
384.784127
 20
115.438024
 30
0.0
 40
49.99999999999955
100
AcDbArc
 50
158.58317
 51
321.203854
  0
ARC
  5
325
330
1F
100
AcDbEntity
  8
LAYERGROUP-1
  6
CONTINUOUS
 62
     6
100
AcDbCircle
 10
384.784127
 20
115.438024
 30
0.0
 40
28.5
100
AcDbArc
 50
193.347913
 51
292.335925
  0
ARC
  5
326
330
1F
100
AcDbEntity
  8
LAYERGROUP-1
  6
CONTINUOUS
 62
     6
100
AcDbCircle
 10
384.784127
 20
115.438024
 30
0.0
 40
26.82036232355105
100
AcDbArc
 50
198.741595
 51
288.415581
  0
ARC
  5
327
330
1F
100
AcDbEntity
  8
LAYERGROUP-1
  6
CONTINUOUS
 62
     3
100
AcDbCircle
 10
384.784127
 20
115.438024
 30
0.0
 40
23.5
100
AcDbArc
 50
260.293387
 51
279.561943
  0
ARC
  5
328
330
1F
100
AcDbEntity
  8
LAYERGROUP-1
  6
CONTINUOUS
 62
     3
100
AcDbCircle
 10
384.784127
 20
115.438024
 30
0.0
 40
23.5
100
AcDbArc
 50
284.084543
 51
285.55786
  0
LINE
  5
329
330
1F
100
AcDbEntity
  8
LAYERGROUP-1
  6
CONTINUOUS
 62
     3
100
AcDbLine
 10
160.909271
 20
165.438024
 30
0.0
 11
160.909271
 21
115.438024
 31
0.0
  0
LINE
  5
32A
330
1F
100
AcDbEntity
  8
LAYERGROUP-1
  6
DASHED
 62
     6
100
AcDbLine
 10
206.101354
 20
180.438024
 30
0.0
 11
165.717187
 21
180.438024
 31
0.0
  0
LINE
  5
32B
330
1F
100
AcDbEntity
  8
LAYERGROUP-1
  6
CONTINUOUS
 62
     3
100
AcDbLine
 10
160.909271
 20
165.438024
 30
0.0
 11
163.760892
 21
178.853848
 31
0.0
  0
ARC
  5
32C
330
1F
100
AcDbEntity
  8
LAYERGROUP-1
  6
DASHED
 62
     6
100
AcDbCircle
 10
165.717187
 20
178.438024
 30
0.0
 40
2.0
100
AcDbArc
 50
90.0
 51
113.269886
  0
LINE
  5
32D
330
1F
100
AcDbEntity
  8
LAYERGROUP-1
  6
CONTINUOUS
 62
     3
100
AcDbLine
 10
210.909271
 20
165.438024
 30
0.0
 11
208.05765
 21
178.853848
 31
0.0
  0
LINE
  5
32E
330
1F
100
AcDbEntity
  8
LAYERGROUP-1
  6
CONTINUOUS
 62
     3
100
AcDbLine
 10
155.909271
 20
129.938024
 30
0.0
 11
155.909271
 21
115.438024
 31
0.0
  0
LINE
  5
32F
330
1F
100
AcDbEntity
  8
LAYERGROUP-1
  6
CONTINUOUS
 62
     3
100
AcDbLine
 10
155.909271
 20
129.938024
 30
0.0
 11
160.909271
 21
129.938024
 31
0.0
  0
LINE
  5
330
330
1F
100
AcDbEntity
  8
LAYERGROUP-1
  6
CONTINUOUS
 62
     3
100
AcDbLine
 10
210.909271
 20
165.438024
 30
0.0
 11
210.909271
 21
115.438024
 31
0.0
  0
LINE
  5
331
330
1F
100
AcDbEntity
  8
LAYERGROUP-1
  6
CONTINUOUS
 62
     3
100
AcDbLine
 10
210.909271
 20
165.438024
 30
0.0
 11
208.05765
 21
178.853848
 31
0.0
  0
ARC
  5
332
330
1F
100
AcDbEntity
  8
LAYERGROUP-1
  6
CONTINUOUS
 62
     3
100
AcDbCircle
 10
206.101354
 20
178.438024
 30
0.0
 40
2.0
100
AcDbArc
 50
12.0
 51
16.48858
  0
LINE
  5
333
330
1F
100
AcDbEntity
  8
LAYERGROUP-1
  6
CONTINUOUS
 62
     3
100
AcDbLine
 10
215.909271
 20
129.938024
 30
0.0
 11
215.909271
 21
115.438024
 31
0.0
  0
LINE
  5
334
330
1F
100
AcDbEntity
  8
LAYERGROUP-1
  6
CONTINUOUS
 62
     3
100
AcDbLine
 10
215.909271
 20
129.938024
 30
0.0
 11
210.909271
 21
129.938024
 31
0.0
  0
LINE
  5
335
330
1F
100
AcDbEntity
  8
LAYERGROUP-1
  6
CONTINUOUS
 62
     3
100
AcDbLine
 10
160.909271
 20
65.438024
 30
0.0
 11
160.909271
 21
115.438024
 31
0.0
  0
LINE
  5
336
330
1F
100
AcDbEntity
  8
LAYERGROUP-1
  6
CONTINUOUS
 62
     3
100
AcDbLine
 10
206.101354
 20
50.438024
 30
0.0
 11
165.717187
 21
50.438024
 31
0.0
  0
LINE
  5
337
330
1F
100
AcDbEntity
  8
LAYERGROUP-1
  6
CONTINUOUS
 62
     3
100
AcDbLine
 10
160.909271
 20
65.438024
 30
0.0
 11
163.760892
 21
52.022201
 31
0.0
  0
ARC
  5
338
330
1F
100
AcDbEntity
  8
LAYERGROUP-1
  6
CONTINUOUS
 62
     3
100
AcDbCircle
 10
165.717187
 20
52.438024
 30
0.0
 40
2.0
100
AcDbArc
 50
192.0
 51
270.0
  0
LINE
  5
339
330
1F
100
AcDbEntity
  8
LAYERGROUP-1
  6
CONTINUOUS
 62
     3
100
AcDbLine
 10
210.909271
 20
65.438024
 30
0.0
 11
208.05765
 21
52.022201
 31
0.0
  0
ARC
  5
33A
330
1F
100
AcDbEntity
  8
LAYERGROUP-1
  6
CONTINUOUS
 62
     3
100
AcDbCircle
 10
206.101354
 20
52.438024
 30
0.0
 40
2.0
100
AcDbArc
 50
270.0
 51
348.0
  0
LINE
  5
33B
330
1F
100
AcDbEntity
  8
LAYERGROUP-1
  6
CONTINUOUS
 62
     3
100
AcDbLine
 10
155.909271
 20
100.938024
 30
0.0
 11
155.909271
 21
115.438024
 31
0.0
  0
LINE
  5
33C
330
1F
100
AcDbEntity
  8
LAYERGROUP-1
  6
CONTINUOUS
 62
     3
100
AcDbLine
 10
155.909271
 20
100.938024
 30
0.0
 11
160.909271
 21
100.938024
 31
0.0
  0
LINE
  5
33D
330
1F
100
AcDbEntity
  8
LAYERGROUP-1
  6
CONTINUOUS
 62
     3
100
AcDbLine
 10
210.909271
 20
65.438024
 30
0.0
 11
210.909271
 21
115.438024
 31
0.0
  0
LINE
  5
33E
330
1F
100
AcDbEntity
  8
LAYERGROUP-1
  6
CONTINUOUS
 62
     3
100
AcDbLine
 10
210.909271
 20
65.438024
 30
0.0
 11
208.05765
 21
52.022201
 31
0.0
  0
ARC
  5
33F
330
1F
100
AcDbEntity
  8
LAYERGROUP-1
  6
CONTINUOUS
 62
     3
100
AcDbCircle
 10
206.101354
 20
52.438024
 30
0.0
 40
2.0
100
AcDbArc
 50
270.0
 51
348.0
  0
LINE
  5
340
330
1F
100
AcDbEntity
  8
LAYERGROUP-1
  6
CONTINUOUS
 62
     3
100
AcDbLine
 10
215.909271
 20
100.938024
 30
0.0
 11
215.909271
 21
115.438024
 31
0.0
  0
LINE
  5
341
330
1F
100
AcDbEntity
  8
LAYERGROUP-1
  6
CONTINUOUS
 62
     3
100
AcDbLine
 10
215.909271
 20
100.938024
 30
0.0
 11
210.909271
 21
100.938024
 31
0.0
  0
LINE
  5
342
330
1F
100
AcDbEntity
  8
LAYERGROUP-1
  6
CONTINUOUS
 62
     6
100
AcDbLine
 10
163.837963
 20
54.0348
 30
0.0
 11
163.837963
 21
177.71873
 31
0.0
  0
LINE
  5
343
330
1F
100
AcDbEntity
  8
LAYERGROUP-1
  6
CONTINUOUS
 62
     6
100
AcDbLine
 10
207.980579
 20
147.340695
 30
0.0
 11
207.980579
 21
177.425379
 31
0.0
  0
LINE
  5
344
330
1F
100
AcDbEntity
  8
LAYERGROUP-1
  6
CONTINUOUS
 62
     6
100
AcDbLine
 10
207.980579
 20
54.0348
 30
0.0
 11
207.980579
 21
177.425379
 31
0.0
  0
ARC
  5
345
330
1F
100
AcDbEntity
  8
LAYERGROUP-1
  6
DASHED
 62
     6
100
AcDbCircle
 10
206.101354
 20
178.438024
 30
0.0
 40
2.0
100
AcDbArc
 50
16.48858
 51
90.0
  0
ARC
  5
346
330
1F
100
AcDbEntity
  8
LAYERGROUP-1
  6
CONTINUOUS
 62
     3
100
AcDbCircle
 10
165.717187
 20
178.438024
 30
0.0
 40
2.0
100
AcDbArc
 50
113.269886
 51
168.0
  0
LINE
  5
347
330
1F
100
AcDbEntity
  8
LAYERGROUP-1
  6
CONTINUOUS
 62
     3
100
AcDbLine
 10
334.784127
 20
307.917086
 30
0.0
 11
339.476248
 21
307.917086
 31
0.0
  0
LINE
  5
348
330
1F
100
AcDbEntity
  8
LAYERGROUP-1
  6
CONTINUOUS
 62
     3
100
AcDbLine
 10
319.784127
 20
353.10917
 30
0.0
 11
319.784127
 21
312.725003
 31
0.0
  0
LINE
  5
349
330
1F
100
AcDbEntity
  8
LAYERGROUP-1
  6
CONTINUOUS
 62
     3
100
AcDbLine
 10
334.784127
 20
307.917086
 30
0.0
 11
321.368304
 21
310.768707
 31
0.0
  0
ARC
  5
34A
330
1F
100
AcDbEntity
  8
LAYERGROUP-1
  6
CONTINUOUS
 62
     3
100
AcDbCircle
 10
321.784127
 20
312.725003
 30
0.0
 40
2.0
100
AcDbArc
 50
180.0
 51
258.0
  0
LINE
  5
34B
330
1F
100
AcDbEntity
  8
LAYERGROUP-1
  6
CONTINUOUS
 62
     3
100
AcDbLine
 10
334.784127
 20
357.917086
 30
0.0
 11
321.368304
 21
355.065465
 31
0.0
  0
ARC
  5
34C
330
1F
100
AcDbEntity
  8
LAYERGROUP-1
  6
CONTINUOUS
 62
     3
100
AcDbCircle
 10
321.784127
 20
353.10917
 30
0.0
 40
2.0
100
AcDbArc
 50
102.0
 51
180.0
  0
LINE
  5
34D
330
1F
100
AcDbEntity
  8
LAYERGROUP-1
  6
CONTINUOUS
 62
     3
100
AcDbLine
 10
370.284127
 20
302.917086
 30
0.0
 11
370.784127
 21
302.917086
 31
0.0
  0
LINE
  5
34E
330
1F
100
AcDbEntity
  8
LAYERGROUP-1
  6
CONTINUOUS
 62
     3
100
AcDbLine
 10
370.284127
 20
302.917086
 30
0.0
 11
370.284127
 21
307.917086
 31
0.0
  0
LINE
  5
34F
330
1F
100
AcDbEntity
  8
LAYERGROUP-1
  6
CONTINUOUS
 62
     3
100
AcDbLine
 10
334.784127
 20
357.917086
 30
0.0
 11
370.784127
 21
357.917086
 31
0.0
  0
LINE
  5
350
330
1F
100
AcDbEntity
  8
LAYERGROUP-1
  6
CONTINUOUS
 62
     3
100
AcDbLine
 10
334.784127
 20
357.917086
 30
0.0
 11
321.368304
 21
355.065465
 31
0.0
  0
ARC
  5
351
330
1F
100
AcDbEntity
  8
LAYERGROUP-1
  6
CONTINUOUS
 62
     3
100
AcDbCircle
 10
321.784127
 20
353.10917
 30
0.0
 40
2.0
100
AcDbArc
 50
102.0
 51
180.0
  0
LINE
  5
352
330
1F
100
AcDbEntity
  8
LAYERGROUP-1
  6
CONTINUOUS
 62
     3
100
AcDbLine
 10
370.284127
 20
362.917086
 30
0.0
 11
370.284127
 21
357.917086
 31
0.0
  0
LINE
  5
353
330
1F
100
AcDbEntity
  8
LAYERGROUP-1
  6
CONTINUOUS
 62
     6
100
AcDbLine
 10
370.784127
 20
354.988394
 30
0.0
 11
322.796772
 21
354.988394
 31
0.0
  0
LINE
  5
354
330
1F
100
AcDbEntity
  8
LAYERGROUP-1
  6
CONTINUOUS
 62
     6
100
AcDbLine
 10
341.805604
 20
310.845778
 30
0.0
 11
322.503422
 21
310.845778
 31
0.0
  0
LINE
  5
355
330
1F
100
AcDbEntity
  8
LAYERGROUP-1
  6
CONTINUOUS
 62
     6
100
AcDbLine
 10
370.784127
 20
310.845778
 30
0.0
 11
365.023996
 21
310.845778
 31
0.0
  0
LINE
  5
356
330
1F
100
AcDbEntity
  8
LAYERGROUP-1
  6
CONTINUOUS
 62
     3
100
AcDbLine
 10
366.380837
 20
307.917086
 30
0.0
 11
370.784127
 21
307.917086
 31
0.0
  0
TEXT
  5
357
330
1F
100
AcDbEntity
  8
LAYERGROUP-1
  6
CONTINUOUS
 62
     7
100
AcDbText
 10
329.007874
 20
12.117645
 30
0.0
 40
6.0
  1
ＨＪ－１３０　ＵＢ　Ｓ
 41
0.789744
  7
FX_VECTOR
 72
     5
 11
373.007874
 21
12.117645
 31
0.0
100
AcDbText
  0
TEXT
  5
358
330
1F
100
AcDbEntity
  8
LAYERGROUP-1
  6
CONTINUOUS
 62
     7
100
AcDbText
 10
429.0
 20
12.0
 30
0.0
 40
6.0
  1
H36B1BAA-C01
 41
0.705882
  7
FX_VECTOR
 72
     5
 11
477.0
 21
12.0
 31
0.0
100
AcDbText
  0
ARC
  5
359
330
1F
100
AcDbEntity
  8
LAYERGROUP-1
  6
CONTINUOUS
 62
     6
100
AcDbCircle
 10
384.784127
 20
115.438024
 30
0.0
 40
49.99999999999955
100
AcDbArc
 50
-12.396759
 51
10.257555
  0
ARC
  5
35A
330
1F
100
AcDbEntity
  8
LAYERGROUP-1
  6
CONTINUOUS
 62
     3
100
AcDbCircle
 10
384.784127
 20
115.438024
 30
0.0
 40
46.00000000000003
100
AcDbArc
 50
-9.224222
 51
5.850161
  0
ARC
  5
35B
330
1F
100
AcDbEntity
  8
LAYERGROUP-1
  6
CONTINUOUS
 62
     3
100
AcDbCircle
 10
384.784127
 20
115.438024
 30
0.0
 40
65.0
100
AcDbArc
 50
-20.347192
 51
22.835519
  0
LINE
  5
35C
330
1F
100
AcDbEntity
  8
LAYERGROUP-1
  6
CONTINUOUS
 62
    66
100
AcDbLine
 10
355.84659
 20
163.748262
 30
0.0
 11
354.312291
 21
166.894042
 31
0.0
  0
LINE
  5
35D
330
1F
100
AcDbEntity
  8
LAYERGROUP-1
  6
CONTINUOUS
 62
    66
100
AcDbLine
 10
176.909271
 20
191.403082
 30
0.0
 11
176.909271
 21
186.697433
 31
0.0
  0
ENDSEC
  0
SECTION
  2
OBJECTS
  0
DICTIONARY
  5
C
330
0
100
AcDbDictionary
  3
ACAD_GROUP
350
D
  3
ACAD_LAYOUT
350
1A
  3
ACAD_MLINESTYLE
350
17
  3
ACAD_PLOTSETTINGS
350
19
  3
ACDBHEADERROUNDTRIPXREC
350
35E
  0
DICTIONARY
  5
D
102
{ACAD_REACTORS
330
C
102
}
330
C
100
AcDbDictionary
  0
DICTIONARY
  5
1A
102
{ACAD_REACTORS
330
C
102
}
330
C
100
AcDbDictionary
  0
DICTIONARY
  5
17
102
{ACAD_REACTORS
330
C
102
}
330
C
100
AcDbDictionary
  3
STANDARD
350
18
  0
DICTIONARY
  5
19
102
{ACAD_REACTORS
330
C
102
}
330
C
100
AcDbDictionary
  0
DICTIONARY
  5
35E
102
{ACAD_REACTORS
330
C
102
}
330
C
100
AcDbDictionary
  3
CEPSNTYPE
350
367
  3
DIMSTYLEDATA
350
37D
  3
FINGERPRINTGUID
350
368
  3
HYPERLINKBASE
350
361
  3
INSUNITS
350
366
  3
LAYOUTDICT
350
363
  3
LWETCUNION
350
365
  3
PLOTSETDICT
350
364
  3
PSVPSCALE
350
36A
  3
PUCSBASE
350
36D
  3
PUCSORGBACK
350
373
  3
PUCSORGBOTTOM
350
36F
  3
PUCSORGFRONT
350
372
  3
PUCSORGLEFT
350
370
  3
PUCSORGRIGHT
350
371
  3
PUCSORGTOP
350
36E
  3
PUCSORTHOREF
350
36B
  3
PUCSORTHOVIEW
350
36C
  3
STYLESHEET
350
362
  3
TSTACKALIGN
350
35F
  3
TSTACKSIZE
350
360
  3
UCSBASE
350
376
  3
UCSORGBACK
350
37C
  3
UCSORGBOTTOM
350
378
  3
UCSORGFRONT
350
37B
  3
UCSORGLEFT
350
379
  3
UCSORGRIGHT
350
37A
  3
UCSORGTOP
350
377
  3
UCSORTHOREF
350
374
  3
UCSORTHOVIEW
350
375
  3
VERSIONGUID
350
369
  0
MLINESTYLE
  5
18
102
{ACAD_REACTORS
330
17
102
}
330
17
100
AcDbMlineStyle
  2
Standard
 70
     0
  3

 62
   256
 51
90.0
 52
90.0
 71
     2
 49
0.5
 62
   256
  6
BYLAYER
 49
-0.5
 62
   256
  6
BYLAYER
  0
XRECORD
  5
367
102
{ACAD_REACTORS
330
35E
102
}
330
35E
100
AcDbXrecord
 90
        0
  0
XRECORD
  5
37D
102
{ACAD_REACTORS
330
35E
102
}
330
35E
100
AcDbXrecord
1000
DSTYLE
1002
{
1070
   179
 70
     2
1070
   171
 70
     3
1070
   143
 40
0.03937
1070
   274
 70
     3
1070
    41
 40
4.0
1070
   344
340
47
1070
   141
 40
2.5
1070
   176
 70
     7
1070
   177
 70
     7
1070
   178
 70
     7
1070
   271
 70
     2
1070
    46
 40
6.0
1070
    43
 40
10.0
1070
    44
 40
1.0
1070
    42
 40
1.0
1070
   147
 40
1.0
1070
   173
 70
     1
1070
    77
 70
     1
1070
   272
 70
     2
1070
    73
 70
     0
1070
   172
 70
     1
1070
    74
 70
     0
1070
   283
 70
     0
1070
   340
340
3F
1070
   140
 40
4.0
1070
   284
 70
     8
1070
    78
 70
     8
1002
}
  0
XRECORD
  5
368
102
{ACAD_REACTORS
330
35E
102
}
330
35E
100
AcDbXrecord
  1
{DD9E72CB-0E17-406B-9A34-C5F1DE0395EE}
  0
XRECORD
  5
361
102
{ACAD_REACTORS
330
35E
102
}
330
35E
100
AcDbXrecord
  1

  0
XRECORD
  5
366
102
{ACAD_REACTORS
330
35E
102
}
330
35E
100
AcDbXrecord
 90
        1
  0
XRECORD
  5
363
102
{ACAD_REACTORS
330
35E
102
}
330
35E
100
AcDbXrecord
340
1A
  0
XRECORD
  5
365
102
{ACAD_REACTORS
330
35E
102
}
330
35E
100
AcDbXrecord
 90
    10781
  0
XRECORD
  5
364
102
{ACAD_REACTORS
330
35E
102
}
330
35E
100
AcDbXrecord
340
19
  0
XRECORD
  5
36A
102
{ACAD_REACTORS
330
35E
102
}
330
35E
100
AcDbXrecord
 40
0.0
  0
XRECORD
  5
36D
102
{ACAD_REACTORS
330
35E
102
}
330
35E
100
AcDbXrecord
340
0
  0
XRECORD
  5
373
102
{ACAD_REACTORS
330
35E
102
}
330
35E
100
AcDbXrecord
 10
0.0
 20
0.0
 30
0.0
  0
XRECORD
  5
36F
102
{ACAD_REACTORS
330
35E
102
}
330
35E
100
AcDbXrecord
 10
0.0
 20
0.0
 30
0.0
  0
XRECORD
  5
372
102
{ACAD_REACTORS
330
35E
102
}
330
35E
100
AcDbXrecord
 10
0.0
 20
0.0
 30
0.0
  0
XRECORD
  5
370
102
{ACAD_REACTORS
330
35E
102
}
330
35E
100
AcDbXrecord
 10
0.0
 20
0.0
 30
0.0
  0
XRECORD
  5
371
102
{ACAD_REACTORS
330
35E
102
}
330
35E
100
AcDbXrecord
 10
0.0
 20
0.0
 30
0.0
  0
XRECORD
  5
36E
102
{ACAD_REACTORS
330
35E
102
}
330
35E
100
AcDbXrecord
 10
0.0
 20
0.0
 30
0.0
  0
XRECORD
  5
36B
102
{ACAD_REACTORS
330
35E
102
}
330
35E
100
AcDbXrecord
340
0
  0
XRECORD
  5
36C
102
{ACAD_REACTORS
330
35E
102
}
330
35E
100
AcDbXrecord
 70
     0
  0
XRECORD
  5
362
102
{ACAD_REACTORS
330
35E
102
}
330
35E
100
AcDbXrecord
  1

  0
XRECORD
  5
35F
102
{ACAD_REACTORS
330
35E
102
}
330
35E
100
AcDbXrecord
 90
        1
  0
XRECORD
  5
360
102
{ACAD_REACTORS
330
35E
102
}
330
35E
100
AcDbXrecord
 90
       70
  0
XRECORD
  5
376
102
{ACAD_REACTORS
330
35E
102
}
330
35E
100
AcDbXrecord
340
0
  0
XRECORD
  5
37C
102
{ACAD_REACTORS
330
35E
102
}
330
35E
100
AcDbXrecord
 10
0.0
 20
0.0
 30
0.0
  0
XRECORD
  5
378
102
{ACAD_REACTORS
330
35E
102
}
330
35E
100
AcDbXrecord
 10
0.0
 20
0.0
 30
0.0
  0
XRECORD
  5
37B
102
{ACAD_REACTORS
330
35E
102
}
330
35E
100
AcDbXrecord
 10
0.0
 20
0.0
 30
0.0
  0
XRECORD
  5
379
102
{ACAD_REACTORS
330
35E
102
}
330
35E
100
AcDbXrecord
 10
0.0
 20
0.0
 30
0.0
  0
XRECORD
  5
37A
102
{ACAD_REACTORS
330
35E
102
}
330
35E
100
AcDbXrecord
 10
0.0
 20
0.0
 30
0.0
  0
XRECORD
  5
377
102
{ACAD_REACTORS
330
35E
102
}
330
35E
100
AcDbXrecord
 10
0.0
 20
0.0
 30
0.0
  0
XRECORD
  5
374
102
{ACAD_REACTORS
330
35E
102
}
330
35E
100
AcDbXrecord
340
0
  0
XRECORD
  5
375
102
{ACAD_REACTORS
330
35E
102
}
330
35E
100
AcDbXrecord
 70
     0
  0
XRECORD
  5
369
102
{ACAD_REACTORS
330
35E
102
}
330
35E
100
AcDbXrecord
  1
{FAEB1C32-E019-11D5-929B-00C0DF256EC4}
  0
ENDSEC
  0
EOF
