  0
SECTION
  2
HEADER
  9
$ACADVER
  1
AC1014
  9
$ACADMAINTVER
 70
     9
  9
$DWGCODEPAGE
  3
ANSI_932
  9
$INSBASE
 10
0.0
 20
0.0
 30
0.0
  9
$EXTMIN
 10
0.0
 20
0.0
 30
0.0
  9
$EXTMAX
 10
594.0
 20
420.0
 30
0.0
  9
$LIMMIN
 10
0.0
 20
0.0
  9
$LIMMAX
 10
594.0
 20
420.0
  9
$ORTHOMODE
 70
     0
  9
$REGENMODE
 70
     1
  9
$FILLMODE
 70
     1
  9
$QTEXTMODE
 70
     0
  9
$MIRRTEXT
 70
     1
  9
$DRAGMODE
 70
     2
  9
$LTSCALE
 40
1.0
  9
$OSMODE
 70
    37
  9
$ATTMODE
 70
     1
  9
$TEXTSIZE
 40
0.2
  9
$TRACEWID
 40
0.05
  9
$TEXTSTYLE
  7
FX_VECTOR
  9
$CLAYER
  8
0
  9
$CELTYPE
  6
BYLAYER
  9
$CECOLOR
 62
   256
  9
$CELTSCALE
 40
1.0
  9
$DELOBJ
 70
     1
  9
$DISPSILH
 70
     0
  9
$DIMSCALE
 40
1.0
  9
$DIMASZ
 40
4.0
  9
$DIMEXO
 40
1.0
  9
$DIMDLI
 40
10.0
  9
$DIMRND
 40
0.0
  9
$DIMDLE
 40
6.0
  9
$DIMEXE
 40
1.0
  9
$DIMTP
 40
0.0
  9
$DIMTM
 40
0.0
  9
$DIMTXT
 40
4.0
  9
$DIMCEN
 40
2.5
  9
$DIMTSZ
 40
0.0
  9
$DIMTOL
 70
     0
  9
$DIMLIM
 70
     0
  9
$DIMTIH
 70
     0
  9
$DIMTOH
 70
     0
  9
$DIMSE1
 70
     0
  9
$DIMSE2
 70
     0
  9
$DIMTAD
 70
     1
  9
$DIMZIN
 70
     8
  9
$DIMBLK
  1

  9
$DIMASO
 70
     1
  9
$DIMSHO
 70
     1
  9
$DIMPOST
  1

  9
$DIMAPOST
  1

  9
$DIMALT
 70
     0
  9
$DIMALTD
 70
     3
  9
$DIMALTF
 40
0.03937
  9
$DIMLFAC
 40
1.0
  9
$DIMTOFL
 70
     1
  9
$DIMTVP
 40
0.0
  9
$DIMTIX
 70
     0
  9
$DIMSOXD
 70
     0
  9
$DIMSAH
 70
     1
  9
$DIMBLK1
  1
FXTIP_ARROW_S
  9
$DIMBLK2
  1
FXTIP_ARROW_E
  9
$DIMSTYLE
  2
FXDIMINFO
  9
$DIMCLRD
 70
     7
  9
$DIMCLRE
 70
     7
  9
$DIMCLRT
 70
     7
  9
$DIMTFAC
 40
1.0
  9
$DIMGAP
 40
1.0
  9
$DIMJUST
 70
     0
  9
$DIMSD1
 70
     0
  9
$DIMSD2
 70
     0
  9
$DIMTOLJ
 70
     0
  9
$DIMTZIN
 70
     8
  9
$DIMALTZ
 70
     0
  9
$DIMALTTZ
 70
     0
  9
$DIMFIT
 70
     3
  9
$DIMUPT
 70
     0
  9
$DIMUNIT
 70
     2
  9
$DIMDEC
 70
     2
  9
$DIMTDEC
 70
     2
  9
$DIMALTU
 70
     2
  9
$DIMALTTD
 70
     3
  9
$DIMTXSTY
  7
FX_VECTOR
  9
$DIMAUNIT
 70
     0
  9
$LUNITS
 70
     2
  9
$LUPREC
 70
     4
  9
$SKETCHINC
 40
0.1
  9
$FILLETRAD
 40
0.5
  9
$AUNITS
 70
     0
  9
$AUPREC
 70
     0
  9
$MENU
  1
.
  9
$ELEVATION
 40
0.0
  9
$PELEVATION
 40
0.0
  9
$THICKNESS
 40
0.0
  9
$LIMCHECK
 70
     0
  9
$CHAMFERA
 40
0.5
  9
$CHAMFERB
 40
0.5
  9
$CHAMFERC
 40
1.0
  9
$CHAMFERD
 40
0.0
  9
$SKPOLY
 70
     0
  9
$TDCREATE
 40
2455307.608057778
  9
$TDUPDATE
 40
2455307.60805779
  9
$TDINDWG
 40
0.0000000116
  9
$TDUSRTIMER
 40
0.0000000116
  9
$USRTIMER
 70
     1
  9
$ANGBASE
 50
0.0
  9
$ANGDIR
 70
     0
  9
$PDMODE
 70
     0
  9
$PDSIZE
 40
0.0
  9
$PLINEWID
 40
0.0
  9
$COORDS
 70
     1
  9
$SPLFRAME
 70
     0
  9
$SPLINETYPE
 70
     6
  9
$SPLINESEGS
 70
     8
  9
$ATTDIA
 70
     0
  9
$ATTREQ
 70
     1
  9
$HANDLING
 70
     1
  9
$HANDSEED
  5
2D6
  9
$SURFTAB1
 70
     6
  9
$SURFTAB2
 70
     6
  9
$SURFTYPE
 70
     6
  9
$SURFU
 70
     6
  9
$SURFV
 70
     6
  9
$UCSNAME
  2

  9
$UCSORG
 10
0.0
 20
0.0
 30
0.0
  9
$UCSXDIR
 10
1.0
 20
0.0
 30
0.0
  9
$UCSYDIR
 10
0.0
 20
1.0
 30
0.0
  9
$PUCSNAME
  2

  9
$PUCSORG
 10
0.0
 20
0.0
 30
0.0
  9
$PUCSXDIR
 10
1.0
 20
0.0
 30
0.0
  9
$PUCSYDIR
 10
0.0
 20
1.0
 30
0.0
  9
$USERI1
 70
     0
  9
$USERI2
 70
     0
  9
$USERI3
 70
     0
  9
$USERI4
 70
     0
  9
$USERI5
 70
     0
  9
$USERR1
 40
0.0
  9
$USERR2
 40
0.0
  9
$USERR3
 40
0.0
  9
$USERR4
 40
0.0
  9
$USERR5
 40
0.0
  9
$WORLDVIEW
 70
     1
  9
$SHADEDGE
 70
     3
  9
$SHADEDIF
 70
    70
  9
$TILEMODE
 70
     1
  9
$MAXACTVP
 70
    64
  9
$PINSBASE
 10
0.0
 20
0.0
 30
0.0
  9
$PLIMCHECK
 70
     0
  9
$PEXTMIN
 10
1.000000E+20
 20
1.000000E+20
 30
1.000000E+20
  9
$PEXTMAX
 10
-1.000000E+20
 20
-1.000000E+20
 30
-1.000000E+20
  9
$PLIMMIN
 10
0.0
 20
0.0
  9
$PLIMMAX
 10
12.0
 20
9.0
  9
$UNITMODE
 70
     0
  9
$VISRETAIN
 70
     1
  9
$PLINEGEN
 70
     0
  9
$PSLTSCALE
 70
     1
  9
$TREEDEPTH
 70
  3020
  9
$PICKSTYLE
 70
     1
  9
$CMLSTYLE
  2
STANDARD
  9
$CMLJUST
 70
     0
  9
$CMLSCALE
 40
1.0
  9
$PROXYGRAPHICS
 70
     1
  9
$MEASUREMENT
 70
     0
  0
ENDSEC
  0
SECTION
  2
CLASSES
  0
CLASS
  1
ACDBDICTIONARYWDFLT
  2
AcDbDictionaryWithDefault
  3
ObjectDBX Classes
 90
        0
280
     0
281
     0
  0
CLASS
  1
XRECORD
  2
AcDbXrecord
  3
AutoCAD 2000
 90
        0
280
     0
281
     0
  0
CLASS
  1
LWPOLYLINE
  2
AcDbPolyline
  3
AutoCAD 2000
 90
        0
280
     0
281
     1
  0
CLASS
  1
HATCH
  2
AcDbHatch
  3
AutoCAD 2000
 90
        0
280
     0
281
     1
  0
CLASS
  1
ACDBPLACEHOLDER
  2
AcDbPlaceHolder
  3
ObjectDBX Classes
 90
        0
280
     0
281
     0
  0
CLASS
  1
LAYOUT
  2
AcDbLayout
  3
ObjectDBX Classes
 90
        0
280
     0
281
     0
  0
ENDSEC
  0
SECTION
  2
TABLES
  0
TABLE
  2
VPORT
  5
8
330
0
100
AcDbSymbolTable
 70
     1
  0
VPORT
  5
29
330
8
100
AcDbSymbolTableRecord
100
AcDbViewportTableRecord
  2
*ACTIVE
 70
     0
 10
0.0
 20
0.0
 11
1.0
 21
1.0
 12
297.0
 22
210.0
 13
0.0
 23
0.0
 14
0.5
 24
0.5
 15
0.5
 25
0.5
 16
0.0
 26
0.0
 36
1.0
 17
0.0
 27
0.0
 37
0.0
 40
420.0
 41
1.414286
 42
50.0
 43
0.0
 44
0.0
 50
0.0
 51
0.0
 71
     0
 72
   100
 73
     1
 74
     3
 75
     0
 76
     0
 77
     0
 78
     0
  0
ENDTAB
  0
TABLE
  2
LTYPE
  5
5
330
0
100
AcDbSymbolTable
 70
     4
  0
LTYPE
  5
14
330
5
100
AcDbSymbolTableRecord
100
AcDbLinetypeTableRecord
  2
BYBLOCK
 70
     0
  3

 72
    65
 73
     0
 40
0.0
  0
LTYPE
  5
15
330
5
100
AcDbSymbolTableRecord
100
AcDbLinetypeTableRecord
  2
BYLAYER
 70
     0
  3

 72
    65
 73
     0
 40
0.0
  0
LTYPE
  5
16
330
5
100
AcDbSymbolTableRecord
100
AcDbLinetypeTableRecord
  2
CONTINUOUS
 70
     0
  3
--------------------
 72
    65
 73
     0
 40
0.0
  0
LTYPE
  5
2A
330
5
100
AcDbSymbolTableRecord
100
AcDbLinetypeTableRecord
  2
CENTER
 70
     0
  3
Center ____ _ ____ _ ____ _ ____ _ ____ _ ____
 72
    65
 73
     4
 40
13.0
 49
10.0
 74
     0
 49
-1.0
 74
     0
 49
1.0
 74
     0
 49
-1.0
 74
     0
  0
ENDTAB
  0
TABLE
  2
LAYER
  5
2
330
0
100
AcDbSymbolTable
 70
    20
  0
LAYER
  5
10
330
2
100
AcDbSymbolTableRecord
100
AcDbLayerTableRecord
  2
0
 70
     0
 62
     7
  6
CONTINUOUS
  0
LAYER
  5
2D
330
2
100
AcDbSymbolTableRecord
100
AcDbLayerTableRecord
  2
LAYERGROUP-1
 70
     0
 62
     3
  6
CONTINUOUS
  0
LAYER
  5
3D
330
2
100
AcDbSymbolTableRecord
100
AcDbLayerTableRecord
  2
}}ﾊﾊGG血CCТ
 70
     0
 62
     3
  6
CONTINUOUS
  0
LAYER
  5
AA
330
2
100
AcDbSymbolTableRecord
100
AcDbLayerTableRecord
  2
GR1-1
 70
     0
 62
     7
  6
CONTINUOUS
  0
LAYER
  5
1C0
330
2
100
AcDbSymbolTableRecord
100
AcDbLayerTableRecord
  2
0-1
 70
     0
 62
     7
  6
CONTINUOUS
  0
ENDTAB
  0
TABLE
  2
STYLE
  5
3
330
0
100
AcDbSymbolTable
 70
     4
  0
STYLE
  5
11
330
3
100
AcDbSymbolTableRecord
100
AcDbTextStyleTableRecord
  2
STANDARD
 70
     0
 40
0.0
 41
1.0
 50
0.0
 71
     0
 42
0.2
  3
txt
  4

  0
STYLE
  5
40
330
3
100
AcDbSymbolTableRecord
100
AcDbTextStyleTableRecord
  2
FX_VECTOR
 70
     0
 40
0.0
 41
1.0
 50
0.0
 71
     0
 42
0.2
  3
MONOTXT.SHX
  4
BIGFONT.SHX
  0
ENDTAB
  0
TABLE
  2
VIEW
  5
6
330
0
100
AcDbSymbolTable
 70
     0
  0
ENDTAB
  0
TABLE
  2
UCS
  5
7
330
0
100
AcDbSymbolTable
 70
     0
  0
ENDTAB
  0
TABLE
  2
APPID
  5
9
330
0
100
AcDbSymbolTable
 70
     1
  0
APPID
  5
12
330
9
100
AcDbSymbolTableRecord
100
AcDbRegAppTableRecord
  2
ACAD
 70
     0
  0
ENDTAB
  0
TABLE
  2
DIMSTYLE
  5
A
330
0
100
AcDbSymbolTable
 70
     2
  0
DIMSTYLE
105
27
330
A
100
AcDbSymbolTableRecord
100
AcDbDimStyleTableRecord
  2
STANDARD
 70
     0
  3

  4

  5

  6

  7

 40
1.0
 41
0.18
 42
0.0625
 43
0.38
 44
0.18
 45
0.0
 46
0.0
 47
0.0
 48
0.0
140
0.18
141
0.09
142
0.0
143
25.4
144
1.0
145
0.0
146
1.0
147
0.09
 71
     0
 72
     0
 73
     1
 74
     1
 75
     0
 76
     0
 77
     0
 78
     0
170
     0
171
     2
172
     0
173
     0
174
     0
175
     0
176
     0
177
     0
178
     0
270
     2
271
     4
272
     4
273
     2
274
     2
340
11
275
     0
280
     0
281
     0
282
     0
283
     1
284
     0
285
     0
286
     0
287
     3
288
     0
  0
DIMSTYLE
105
A7
102
{ACAD_REACTORS
330
1DF
330
2AC
102
}
330
A
100
AcDbSymbolTableRecord
100
AcDbDimStyleTableRecord
  2
FXDIMINFO
 70
     0
  3

  4

  5

  6
FXTIP_ARROW_S
  7
FXTIP_ARROW_E
 40
1.0
 41
4.0
 42
1.0
 43
10.0
 44
1.0
 45
0.0
 46
6.0
 47
0.0
 48
0.0
140
4.0
141
2.5
142
0.0
143
0.03937
144
1.0
145
0.0
146
1.0
147
1.0
 71
     0
 72
     0
 73
     0
 74
     0
 75
     0
 76
     0
 77
     1
 78
     8
170
     0
171
     3
172
     1
173
     1
174
     0
175
     0
176
     7
177
     7
178
     7
179
     2
270
     2
271
     2
272
     2
273
     2
274
     3
340
40
275
     0
280
     0
281
     0
282
     0
283
     0
284
     8
285
     0
286
     0
287
     3
288
     0
  0
ENDTAB
  0
TABLE
  2
BLOCK_RECORD
  5
1
330
0
100
AcDbSymbolTable
 70
    26
  0
BLOCK_RECORD
  5
1F
330
1
100
AcDbSymbolTableRecord
100
AcDbBlockTableRecord
  2
*MODEL_SPACE
  0
BLOCK_RECORD
  5
1B
330
1
100
AcDbSymbolTableRecord
100
AcDbBlockTableRecord
  2
*PAPER_SPACE
  0
BLOCK_RECORD
  5
41
330
1
100
AcDbSymbolTableRecord
100
AcDbBlockTableRecord
  2
FXTIP_ARROW_S
  0
BLOCK_RECORD
  5
47
330
1
100
AcDbSymbolTableRecord
100
AcDbBlockTableRecord
  2
FXTIP_ARROW_E
  0
BLOCK_RECORD
  5
4D
330
1
100
AcDbSymbolTableRecord
100
AcDbBlockTableRecord
  2
FXTIP_BLACKDOT_S
  0
BLOCK_RECORD
  5
53
330
1
100
AcDbSymbolTableRecord
100
AcDbBlockTableRecord
  2
FXTIP_BLACKDOT_E
  0
BLOCK_RECORD
  5
59
330
1
100
AcDbSymbolTableRecord
100
AcDbBlockTableRecord
  2
FXTIP_TRIANGLE_S
  0
BLOCK_RECORD
  5
60
330
1
100
AcDbSymbolTableRecord
100
AcDbBlockTableRecord
  2
FXTIP_TRIANGLE_E
  0
BLOCK_RECORD
  5
67
330
1
100
AcDbSymbolTableRecord
100
AcDbBlockTableRecord
  2
FXTIP_ARCHITECT_S
  0
BLOCK_RECORD
  5
6D
330
1
100
AcDbSymbolTableRecord
100
AcDbBlockTableRecord
  2
FXTIP_ARCHITECT_E
  0
BLOCK_RECORD
  5
73
330
1
100
AcDbSymbolTableRecord
100
AcDbBlockTableRecord
  2
FXTIP_CIVIL_S
  0
BLOCK_RECORD
  5
79
330
1
100
AcDbSymbolTableRecord
100
AcDbBlockTableRecord
  2
FXTIP_CIVIL_E
  0
BLOCK_RECORD
  5
7F
330
1
100
AcDbSymbolTableRecord
100
AcDbBlockTableRecord
  2
FXTIP_WHITEDOT_S
  0
BLOCK_RECORD
  5
84
330
1
100
AcDbSymbolTableRecord
100
AcDbBlockTableRecord
  2
FXTIP_WHITEDOT_E
  0
BLOCK_RECORD
  5
89
330
1
100
AcDbSymbolTableRecord
100
AcDbBlockTableRecord
  2
FXTIP_UPARROW_S
  0
BLOCK_RECORD
  5
8E
330
1
100
AcDbSymbolTableRecord
100
AcDbBlockTableRecord
  2
FXTIP_UPARROW_E
  0
BLOCK_RECORD
  5
93
330
1
100
AcDbSymbolTableRecord
100
AcDbBlockTableRecord
  2
FXTIP_DOWNARROW_S
  0
BLOCK_RECORD
  5
98
330
1
100
AcDbSymbolTableRecord
100
AcDbBlockTableRecord
  2
FXTIP_DOWNARROW_E
  0
BLOCK_RECORD
  5
9D
330
1
100
AcDbSymbolTableRecord
100
AcDbBlockTableRecord
  2
FXTIP_BLACKTRIANGLE_S
  0
BLOCK_RECORD
  5
A2
330
1
100
AcDbSymbolTableRecord
100
AcDbBlockTableRecord
  2
FXTIP_BLACKTRIANGLE_E
  0
BLOCK_RECORD
  5
1B0
330
1
100
AcDbSymbolTableRecord
100
AcDbBlockTableRecord
  2
BLKF021
  0
BLOCK_RECORD
  5
1BC
330
1
100
AcDbSymbolTableRecord
100
AcDbBlockTableRecord
  2
BLKF022
  0
BLOCK_RECORD
  5
1C5
330
1
100
AcDbSymbolTableRecord
100
AcDbBlockTableRecord
  2
BLKF023
  0
BLOCK_RECORD
  5
1E0
330
1
100
AcDbSymbolTableRecord
100
AcDbBlockTableRecord
  2
*D22
  0
BLOCK_RECORD
  5
209
330
1
100
AcDbSymbolTableRecord
100
AcDbBlockTableRecord
  2
BLKF025
  0
BLOCK_RECORD
  5
29F
330
1
100
AcDbSymbolTableRecord
100
AcDbBlockTableRecord
  2
BLKF026
  0
BLOCK_RECORD
  5
2AD
330
1
100
AcDbSymbolTableRecord
100
AcDbBlockTableRecord
  2
*D25
  0
ENDTAB
  0
ENDSEC
  0
SECTION
  2
BLOCKS
  0
BLOCK
  5
20
330
1F
100
AcDbEntity
  8
0
100
AcDbBlockBegin
  2
*MODEL_SPACE
 70
     0
 71
     0
 10
0.0
 20
0.0
 30
0.0
  3
*MODEL_SPACE
  1

  0
ENDBLK
  5
21
330
1F
100
AcDbEntity
  8
0
100
AcDbBlockEnd
  0
BLOCK
  5
1C
330
1B
100
AcDbEntity
 67
     1
  8
0
100
AcDbBlockBegin
  2
*PAPER_SPACE
 70
     0
 71
     0
 10
0.0
 20
0.0
 30
0.0
  3
*PAPER_SPACE
  1

  0
ENDBLK
  5
1D
330
1B
100
AcDbEntity
 67
     1
  8
0
100
AcDbBlockEnd
  0
BLOCK
  5
42
330
41
100
AcDbEntity
  8
0
100
AcDbBlockBegin
  2
FXTIP_ARROW_S
 70
     0
 71
     0
 10
0.0
 20
0.0
 30
0.0
  3
FXTIP_ARROW_S
  1

  0
LINE
  5
44
330
41
100
AcDbEntity
  8
0
  6
CONTINUOUS
 62
     0
100
AcDbLine
 10
0.0
 20
0.0
 30
0.0
 11
-1.0
 21
0.0
 31
0.0
  0
LINE
  5
45
330
41
100
AcDbEntity
  8
0
  6
CONTINUOUS
 62
     0
100
AcDbLine
 10
0.0
 20
0.0
 30
0.0
 11
-0.965926
 21
-0.258819
 31
0.0
  0
LINE
  5
46
330
41
100
AcDbEntity
  8
0
  6
CONTINUOUS
 62
     0
100
AcDbLine
 10
0.0
 20
0.0
 30
0.0
 11
-0.965926
 21
0.258819
 31
0.0
  0
ENDBLK
  5
43
330
41
100
AcDbEntity
  8
0
100
AcDbBlockEnd
  0
BLOCK
  5
48
330
47
100
AcDbEntity
  8
0
100
AcDbBlockBegin
  2
FXTIP_ARROW_E
 70
     0
 71
     0
 10
0.0
 20
0.0
 30
0.0
  3
FXTIP_ARROW_E
  1

  0
LINE
  5
4A
330
47
100
AcDbEntity
  8
0
  6
CONTINUOUS
 62
     0
100
AcDbLine
 10
0.0
 20
0.0
 30
0.0
 11
-1.0
 21
0.0
 31
0.0
  0
LINE
  5
4B
330
47
100
AcDbEntity
  8
0
  6
CONTINUOUS
 62
     0
100
AcDbLine
 10
0.0
 20
0.0
 30
0.0
 11
-0.965926
 21
0.258819
 31
0.0
  0
LINE
  5
4C
330
47
100
AcDbEntity
  8
0
  6
CONTINUOUS
 62
     0
100
AcDbLine
 10
0.0
 20
0.0
 30
0.0
 11
-0.965926
 21
-0.258819
 31
0.0
  0
ENDBLK
  5
49
330
47
100
AcDbEntity
  8
0
100
AcDbBlockEnd
  0
BLOCK
  5
4E
330
4D
100
AcDbEntity
  8
0
100
AcDbBlockBegin
  2
FXTIP_BLACKDOT_S
 70
     0
 71
     0
 10
0.0
 20
0.0
 30
0.0
  3
FXTIP_BLACKDOT_S
  1

  0
LINE
  5
50
330
4D
100
AcDbEntity
  8
0
  6
CONTINUOUS
 62
     0
100
AcDbLine
 10
0.0
 20
0.0
 30
0.0
 11
-1.0
 21
0.0
 31
0.0
  0
LWPOLYLINE
  5
51
330
4D
100
AcDbEntity
  8
0
  6
CONTINUOUS
 62
     0
100
AcDbPolyline
 90
        2
 70
     1
 10
-0.25
 20
0.0
 40
0.5
 41
0.5
 42
1.0
 10
0.25
 20
0.0
 40
0.5
 41
0.5
 42
1.0
  0
CIRCLE
  5
52
330
4D
100
AcDbEntity
  8
0
  6
CONTINUOUS
 62
     0
100
AcDbCircle
 10
0.0
 20
0.0
 30
0.0
 40
0.5
  0
ENDBLK
  5
4F
330
4D
100
AcDbEntity
  8
0
100
AcDbBlockEnd
  0
BLOCK
  5
54
330
53
100
AcDbEntity
  8
0
100
AcDbBlockBegin
  2
FXTIP_BLACKDOT_E
 70
     0
 71
     0
 10
0.0
 20
0.0
 30
0.0
  3
FXTIP_BLACKDOT_E
  1

  0
LINE
  5
56
330
53
100
AcDbEntity
  8
0
  6
CONTINUOUS
 62
     0
100
AcDbLine
 10
0.0
 20
0.0
 30
0.0
 11
-1.0
 21
0.0
 31
0.0
  0
LWPOLYLINE
  5
57
330
53
100
AcDbEntity
  8
0
  6
CONTINUOUS
 62
     0
100
AcDbPolyline
 90
        2
 70
     1
 10
-0.25
 20
0.0
 40
0.5
 41
0.5
 42
1.0
 10
0.25
 20
0.0
 40
0.5
 41
0.5
 42
1.0
  0
CIRCLE
  5
58
330
53
100
AcDbEntity
  8
0
  6
CONTINUOUS
 62
     0
100
AcDbCircle
 10
0.0
 20
0.0
 30
0.0
 40
0.5
  0
ENDBLK
  5
55
330
53
100
AcDbEntity
  8
0
100
AcDbBlockEnd
  0
BLOCK
  5
5A
330
59
100
AcDbEntity
  8
0
100
AcDbBlockBegin
  2
FXTIP_TRIANGLE_S
 70
     0
 71
     0
 10
0.0
 20
0.0
 30
0.0
  3
FXTIP_TRIANGLE_S
  1

  0
LINE
  5
5C
330
59
100
AcDbEntity
  8
0
  6
CONTINUOUS
 62
     0
100
AcDbLine
 10
0.0
 20
0.0
 30
0.0
 11
-1.0
 21
0.0
 31
0.0
  0
LINE
  5
5D
330
59
100
AcDbEntity
  8
0
  6
CONTINUOUS
 62
     0
100
AcDbLine
 10
0.0
 20
0.0
 30
0.0
 11
-0.965926
 21
-0.258819
 31
0.0
  0
LINE
  5
5E
330
59
100
AcDbEntity
  8
0
  6
CONTINUOUS
 62
     0
100
AcDbLine
 10
0.0
 20
0.0
 30
0.0
 11
-0.965926
 21
0.258819
 31
0.0
  0
LINE
  5
5F
330
59
100
AcDbEntity
  8
0
  6
CONTINUOUS
 62
     0
100
AcDbLine
 10
-0.965926
 20
-0.258819
 30
0.0
 11
-0.965926
 21
0.258819
 31
0.0
  0
ENDBLK
  5
5B
330
59
100
AcDbEntity
  8
0
100
AcDbBlockEnd
  0
BLOCK
  5
61
330
60
100
AcDbEntity
  8
0
100
AcDbBlockBegin
  2
FXTIP_TRIANGLE_E
 70
     0
 71
     0
 10
0.0
 20
0.0
 30
0.0
  3
FXTIP_TRIANGLE_E
  1

  0
LINE
  5
63
330
60
100
AcDbEntity
  8
0
  6
CONTINUOUS
 62
     0
100
AcDbLine
 10
0.0
 20
0.0
 30
0.0
 11
-1.0
 21
0.0
 31
0.0
  0
LINE
  5
64
330
60
100
AcDbEntity
  8
0
  6
CONTINUOUS
 62
     0
100
AcDbLine
 10
0.0
 20
0.0
 30
0.0
 11
-0.965926
 21
0.258819
 31
0.0
  0
LINE
  5
65
330
60
100
AcDbEntity
  8
0
  6
CONTINUOUS
 62
     0
100
AcDbLine
 10
0.0
 20
0.0
 30
0.0
 11
-0.965926
 21
-0.258819
 31
0.0
  0
LINE
  5
66
330
60
100
AcDbEntity
  8
0
  6
CONTINUOUS
 62
     0
100
AcDbLine
 10
-0.965926
 20
0.258819
 30
0.0
 11
-0.965926
 21
-0.258819
 31
0.0
  0
ENDBLK
  5
62
330
60
100
AcDbEntity
  8
0
100
AcDbBlockEnd
  0
BLOCK
  5
68
330
67
100
AcDbEntity
  8
0
100
AcDbBlockBegin
  2
FXTIP_ARCHITECT_S
 70
     0
 71
     0
 10
0.0
 20
0.0
 30
0.0
  3
FXTIP_ARCHITECT_S
  1

  0
LINE
  5
6A
330
67
100
AcDbEntity
  8
0
  6
CONTINUOUS
 62
     0
100
AcDbLine
 10
0.0
 20
0.0
 30
0.0
 11
-1.0
 21
0.0
 31
0.0
  0
LINE
  5
6B
330
67
100
AcDbEntity
  8
0
  6
CONTINUOUS
 62
     0
100
AcDbLine
 10
0.0
 20
0.0
 30
0.0
 11
-0.707107
 21
-0.707107
 31
0.0
  0
LINE
  5
6C
330
67
100
AcDbEntity
  8
0
  6
CONTINUOUS
 62
     0
100
AcDbLine
 10
0.0
 20
0.0
 30
0.0
 11
0.707107
 21
0.707107
 31
0.0
  0
ENDBLK
  5
69
330
67
100
AcDbEntity
  8
0
100
AcDbBlockEnd
  0
BLOCK
  5
6E
330
6D
100
AcDbEntity
  8
0
100
AcDbBlockBegin
  2
FXTIP_ARCHITECT_E
 70
     0
 71
     0
 10
0.0
 20
0.0
 30
0.0
  3
FXTIP_ARCHITECT_E
  1

  0
LINE
  5
70
330
6D
100
AcDbEntity
  8
0
  6
CONTINUOUS
 62
     0
100
AcDbLine
 10
0.0
 20
0.0
 30
0.0
 11
-1.0
 21
0.0
 31
0.0
  0
LINE
  5
71
330
6D
100
AcDbEntity
  8
0
  6
CONTINUOUS
 62
     0
100
AcDbLine
 10
0.0
 20
0.0
 30
0.0
 11
0.707107
 21
0.707107
 31
0.0
  0
LINE
  5
72
330
6D
100
AcDbEntity
  8
0
  6
CONTINUOUS
 62
     0
100
AcDbLine
 10
0.0
 20
0.0
 30
0.0
 11
-0.707107
 21
-0.707107
 31
0.0
  0
ENDBLK
  5
6F
330
6D
100
AcDbEntity
  8
0
100
AcDbBlockEnd
  0
BLOCK
  5
74
330
73
100
AcDbEntity
  8
0
100
AcDbBlockBegin
  2
FXTIP_CIVIL_S
 70
     0
 71
     0
 10
0.0
 20
0.0
 30
0.0
  3
FXTIP_CIVIL_S
  1

  0
LINE
  5
76
330
73
100
AcDbEntity
  8
0
  6
CONTINUOUS
 62
     0
100
AcDbLine
 10
0.0
 20
0.0
 30
0.0
 11
-1.0
 21
0.0
 31
0.0
  0
LINE
  5
77
330
73
100
AcDbEntity
  8
0
  6
CONTINUOUS
 62
     0
100
AcDbLine
 10
0.0
 20
-0.0625
 30
0.0
 11
-1.0
 21
-0.0625
 31
0.0
  0
LINE
  5
78
330
73
100
AcDbEntity
  8
0
  6
CONTINUOUS
 62
     0
100
AcDbLine
 10
0.0
 20
-0.125
 30
0.0
 11
-1.0
 21
-0.125
 31
0.0
  0
ENDBLK
  5
75
330
73
100
AcDbEntity
  8
0
100
AcDbBlockEnd
  0
BLOCK
  5
7A
330
79
100
AcDbEntity
  8
0
100
AcDbBlockBegin
  2
FXTIP_CIVIL_E
 70
     0
 71
     0
 10
0.0
 20
0.0
 30
0.0
  3
FXTIP_CIVIL_E
  1

  0
LINE
  5
7C
330
79
100
AcDbEntity
  8
0
  6
CONTINUOUS
 62
     0
100
AcDbLine
 10
0.0
 20
0.0
 30
0.0
 11
-1.0
 21
0.0
 31
0.0
  0
LINE
  5
7D
330
79
100
AcDbEntity
  8
0
  6
CONTINUOUS
 62
     0
100
AcDbLine
 10
0.0
 20
0.0625
 30
0.0
 11
-1.0
 21
0.0625
 31
0.0
  0
LINE
  5
7E
330
79
100
AcDbEntity
  8
0
  6
CONTINUOUS
 62
     0
100
AcDbLine
 10
0.0
 20
0.125
 30
0.0
 11
-1.0
 21
0.125
 31
0.0
  0
ENDBLK
  5
7B
330
79
100
AcDbEntity
  8
0
100
AcDbBlockEnd
  0
BLOCK
  5
80
330
7F
100
AcDbEntity
  8
0
100
AcDbBlockBegin
  2
FXTIP_WHITEDOT_S
 70
     0
 71
     0
 10
0.0
 20
0.0
 30
0.0
  3
FXTIP_WHITEDOT_S
  1

  0
LINE
  5
82
330
7F
100
AcDbEntity
  8
0
  6
CONTINUOUS
 62
     0
100
AcDbLine
 10
0.0
 20
0.0
 30
0.0
 11
-1.0
 21
0.0
 31
0.0
  0
CIRCLE
  5
83
330
7F
100
AcDbEntity
  8
0
  6
CONTINUOUS
 62
     0
100
AcDbCircle
 10
0.0
 20
0.0
 30
0.0
 40
0.5
  0
ENDBLK
  5
81
330
7F
100
AcDbEntity
  8
0
100
AcDbBlockEnd
  0
BLOCK
  5
85
330
84
100
AcDbEntity
  8
0
100
AcDbBlockBegin
  2
FXTIP_WHITEDOT_E
 70
     0
 71
     0
 10
0.0
 20
0.0
 30
0.0
  3
FXTIP_WHITEDOT_E
  1

  0
LINE
  5
87
330
84
100
AcDbEntity
  8
0
  6
CONTINUOUS
 62
     0
100
AcDbLine
 10
0.0
 20
0.0
 30
0.0
 11
-1.0
 21
0.0
 31
0.0
  0
CIRCLE
  5
88
330
84
100
AcDbEntity
  8
0
  6
CONTINUOUS
 62
     0
100
AcDbCircle
 10
0.0
 20
0.0
 30
0.0
 40
0.5
  0
ENDBLK
  5
86
330
84
100
AcDbEntity
  8
0
100
AcDbBlockEnd
  0
BLOCK
  5
8A
330
89
100
AcDbEntity
  8
0
100
AcDbBlockBegin
  2
FXTIP_UPARROW_S
 70
     0
 71
     0
 10
0.0
 20
0.0
 30
0.0
  3
FXTIP_UPARROW_S
  1

  0
LINE
  5
8C
330
89
100
AcDbEntity
  8
0
  6
CONTINUOUS
 62
     0
100
AcDbLine
 10
0.0
 20
0.0
 30
0.0
 11
-1.0
 21
0.0
 31
0.0
  0
LINE
  5
8D
330
89
100
AcDbEntity
  8
0
  6
CONTINUOUS
 62
     0
100
AcDbLine
 10
0.0
 20
0.0
 30
0.0
 11
-0.965926
 21
-0.258819
 31
0.0
  0
ENDBLK
  5
8B
330
89
100
AcDbEntity
  8
0
100
AcDbBlockEnd
  0
BLOCK
  5
8F
330
8E
100
AcDbEntity
  8
0
100
AcDbBlockBegin
  2
FXTIP_UPARROW_E
 70
     0
 71
     0
 10
0.0
 20
0.0
 30
0.0
  3
FXTIP_UPARROW_E
  1

  0
LINE
  5
91
330
8E
100
AcDbEntity
  8
0
  6
CONTINUOUS
 62
     0
100
AcDbLine
 10
0.0
 20
0.0
 30
0.0
 11
-1.0
 21
0.0
 31
0.0
  0
LINE
  5
92
330
8E
100
AcDbEntity
  8
0
  6
CONTINUOUS
 62
     0
100
AcDbLine
 10
0.0
 20
0.0
 30
0.0
 11
-0.965926
 21
0.258819
 31
0.0
  0
ENDBLK
  5
90
330
8E
100
AcDbEntity
  8
0
100
AcDbBlockEnd
  0
BLOCK
  5
94
330
93
100
AcDbEntity
  8
0
100
AcDbBlockBegin
  2
FXTIP_DOWNARROW_S
 70
     0
 71
     0
 10
0.0
 20
0.0
 30
0.0
  3
FXTIP_DOWNARROW_S
  1

  0
LINE
  5
96
330
93
100
AcDbEntity
  8
0
  6
CONTINUOUS
 62
     0
100
AcDbLine
 10
0.0
 20
0.0
 30
0.0
 11
-1.0
 21
0.0
 31
0.0
  0
LINE
  5
97
330
93
100
AcDbEntity
  8
0
  6
CONTINUOUS
 62
     0
100
AcDbLine
 10
0.0
 20
0.0
 30
0.0
 11
-0.965926
 21
0.258819
 31
0.0
  0
ENDBLK
  5
95
330
93
100
AcDbEntity
  8
0
100
AcDbBlockEnd
  0
BLOCK
  5
99
330
98
100
AcDbEntity
  8
0
100
AcDbBlockBegin
  2
FXTIP_DOWNARROW_E
 70
     0
 71
     0
 10
0.0
 20
0.0
 30
0.0
  3
FXTIP_DOWNARROW_E
  1

  0
LINE
  5
9B
330
98
100
AcDbEntity
  8
0
  6
CONTINUOUS
 62
     0
100
AcDbLine
 10
0.0
 20
0.0
 30
0.0
 11
-1.0
 21
0.0
 31
0.0
  0
LINE
  5
9C
330
98
100
AcDbEntity
  8
0
  6
CONTINUOUS
 62
     0
100
AcDbLine
 10
0.0
 20
0.0
 30
0.0
 11
-0.965926
 21
-0.258819
 31
0.0
  0
ENDBLK
  5
9A
330
98
100
AcDbEntity
  8
0
100
AcDbBlockEnd
  0
BLOCK
  5
9E
330
9D
100
AcDbEntity
  8
0
100
AcDbBlockBegin
  2
FXTIP_BLACKTRIANGLE_S
 70
     0
 71
     0
 10
0.0
 20
0.0
 30
0.0
  3
FXTIP_BLACKTRIANGLE_S
  1

  0
LINE
  5
A0
330
9D
100
AcDbEntity
  8
0
  6
CONTINUOUS
 62
     0
100
AcDbLine
 10
0.0
 20
0.0
 30
0.0
 11
-1.0
 21
0.0
 31
0.0
  0
SOLID
  5
A1
330
9D
100
AcDbEntity
  8
0
  6
CONTINUOUS
 62
     0
100
AcDbTrace
 10
0.0
 20
0.0
 30
0.0
 11
-0.965926
 21
-0.258819
 31
0.0
 12
-0.965926
 22
0.258819
 32
0.0
 13
-0.965926
 23
0.258819
 33
0.0
  0
ENDBLK
  5
9F
330
9D
100
AcDbEntity
  8
0
100
AcDbBlockEnd
  0
BLOCK
  5
A3
330
A2
100
AcDbEntity
  8
0
100
AcDbBlockBegin
  2
FXTIP_BLACKTRIANGLE_E
 70
     0
 71
     0
 10
0.0
 20
0.0
 30
0.0
  3
FXTIP_BLACKTRIANGLE_E
  1

  0
LINE
  5
A5
330
A2
100
AcDbEntity
  8
0
  6
CONTINUOUS
 62
     0
100
AcDbLine
 10
0.0
 20
0.0
 30
0.0
 11
-1.0
 21
0.0
 31
0.0
  0
SOLID
  5
A6
330
A2
100
AcDbEntity
  8
0
  6
CONTINUOUS
 62
     0
100
AcDbTrace
 10
0.0
 20
0.0
 30
0.0
 11
-0.965926
 21
0.258819
 31
0.0
 12
-0.965926
 22
-0.258819
 32
0.0
 13
-0.965926
 23
-0.258819
 33
0.0
  0
ENDBLK
  5
A4
330
A2
100
AcDbEntity
  8
0
100
AcDbBlockEnd
  0
BLOCK
  5
1B1
330
1B0
100
AcDbEntity
  8
0
100
AcDbBlockBegin
  2
BLKF021
 70
     0
 71
     0
 10
0.0
 20
0.0
 30
0.0
  3
BLKF021
  1

  0
LINE
  5
1B4
330
1B0
100
AcDbEntity
  8
}}ﾊﾊGG血CCТ
  6
CONTINUOUS
 62
     7
100
AcDbLine
 10
10.0
 20
10.0
 30
0.0
 11
584.0
 21
10.0
 31
0.0
  0
LINE
  5
1B5
330
1B0
100
AcDbEntity
  8
}}ﾊﾊGG血CCТ
  6
CONTINUOUS
 62
     7
100
AcDbLine
 10
10.0
 20
10.0
 30
0.0
 11
10.0
 21
410.0
 31
0.0
  0
LINE
  5
1B6
330
1B0
100
AcDbEntity
  8
}}ﾊﾊGG血CCТ
  6
CONTINUOUS
 62
     7
100
AcDbLine
 10
10.0
 20
410.0
 30
0.0
 11
584.0
 21
410.0
 31
0.0
  0
LINE
  5
1B7
330
1B0
100
AcDbEntity
  8
}}ﾊﾊGG血CCТ
  6
CONTINUOUS
 62
     7
100
AcDbLine
 10
584.0
 20
410.0
 30
0.0
 11
584.0
 21
10.0
 31
0.0
  0
LINE
  5
1B8
330
1B0
100
AcDbEntity
  8
}}ﾊﾊGG血CCТ
  6
CONTINUOUS
 62
     7
100
AcDbLine
 10
327.0
 20
10.0
 30
0.0
 11
327.0
 21
20.0
 31
0.0
  0
TEXT
  5
1B9
330
1B0
100
AcDbEntity
  8
}}ﾊﾊGG血CCТ
  6
CONTINUOUS
 62
     7
100
AcDbText
 10
311.738831
 20
11.596879
 30
0.0
 40
6.648749
  1
品名
 41
1.083413
  7
FX_VECTOR
 72
     5
 11
323.058371
 21
11.596879
 31
0.0
100
AcDbText
  0
LINE
  5
1BA
330
1B0
100
AcDbEntity
  8
}}ﾊﾊGG血CCТ
  6
CONTINUOUS
 62
     7
100
AcDbLine
 10
407.0
 20
20.0
 30
0.0
 11
407.0
 21
10.0
 31
0.0
  0
LINE
  5
1BB
330
1B0
100
AcDbEntity
  8
}}ﾊﾊGG血CCТ
  6
CONTINUOUS
 62
     7
100
AcDbLine
 10
307.0
 20
20.0
 30
0.0
 11
584.0
 21
20.0
 31
0.0
  0
INSERT
  5
1BF
330
1B0
100
AcDbEntity
  8
0
100
AcDbBlockReference
  2
BLKF022
 10
0.0
 20
0.0
 30
0.0
  0
INSERT
  5
1C8
330
1B0
100
AcDbEntity
  8
0
100
AcDbBlockReference
  2
BLKF023
 10
0.0
 20
0.0
 30
0.0
  0
HATCH
  5
1D8
330
1B0
100
AcDbEntity
  8
GR1-1
  6
CONTINUOUS
 62
     7
100
AcDbHatch
 10
0.0
 20
0.0
 30
0.0
210
0.0
220
0.0
230
1.0
  2

 70
     0
 71
     1
 91
        2
 92
        0
 93
        4
 72
     1
 10
512.8018997861325
 20
17.91346152
 11
518.8018997861325
 21
17.91346152
 72
     1
 10
518.8018997861325
 20
17.91346152
 11
518.8018997861325
 21
11.91346152
 72
     1
 10
518.8018997861325
 20
11.91346152
 11
512.8018997861325
 21
11.91346152
 72
     1
 10
512.8018997861325
 20
11.91346152
 11
512.8018997861325
 21
17.91346152
 97
        0
 92
        0
 93
       15
 72
     1
 10
515.8018997861325
 20
17.76923076000002
 11
512.9461305461325
 21
14.91346152
 72
     1
 10
512.9461305461325
 20
14.91346152
 11
515.8018997861325
 21
12.05769228000001
 72
     1
 10
515.8018997861325
 20
12.05769228000001
 11
517.3595920661326
 21
13.61538462
 72
     1
 10
517.3595920661326
 20
13.61538462
 11
517.3595920661326
 21
12.98076924
 72
     1
 10
517.3595920661326
 20
12.98076924
 11
518.2249766861326
 21
12.98076924
 72
     1
 10
518.2249766861326
 20
12.98076924
 11
518.2249766861326
 21
15.00000000000001
 72
     1
 10
518.2249766861326
 20
15.00000000000001
 11
515.8018997861325
 21
15.00000000000001
 72
     1
 10
515.8018997861325
 20
15.00000000000001
 11
515.8018997861325
 21
14.13461538000001
 72
     1
 10
515.8018997861325
 20
14.13461538000001
 11
516.2461305461325
 21
14.13461538000001
 72
     1
 10
516.2461305461325
 20
14.13461538000001
 11
515.8018997861325
 21
13.69038462
 72
     1
 10
515.8018997861325
 20
13.69038462
 11
514.5788228861325
 21
14.91346152
 72
     1
 10
514.5788228861325
 20
14.91346152
 11
515.8018997861325
 21
16.13653842000003
 72
     1
 10
515.8018997861325
 20
16.13653842000003
 11
516.5922844061325
 21
15.3461538
 72
     1
 10
516.5922844061325
 20
15.3461538
 11
518.2249766861326
 21
15.3461538
 72
     1
 10
518.2249766861326
 20
15.3461538
 11
515.8018997861325
 21
17.76923076000002
 97
        0
 75
     0
 76
     0
 52
45.0
 41
0.05
 77
     0
 78
     1
 53
45.0
 43
0.0
 44
0.0
 45
-0.0353553390593274
 46
0.0353553390593274
 79
     0
 98
        0
  0
TEXT
  5
1D9
330
1B0
100
AcDbEntity
  8
}}ﾊﾊGG血CCТ
  6
CONTINUOUS
 62
     7
100
AcDbText
 10
523.225769
 20
11.461285
 30
0.0
 40
7.170908
  1
GOLD CASTER
 41
0.63978
  7
FX_VECTOR
 72
     5
 11
569.977636
 21
11.461285
 31
0.0
100
AcDbText
  0
LINE
  5
1DA
330
1B0
100
AcDbEntity
  8
}}ﾊﾊGG血CCТ
  6
CONTINUOUS
 62
     7
100
AcDbLine
 10
427.0
 20
10.0
 30
0.0
 11
427.0
 21
20.0
 31
0.0
  0
TEXT
  5
1DB
330
1B0
100
AcDbEntity
  8
}}ﾊﾊGG血CCТ
  6
CONTINUOUS
 62
     7
100
AcDbText
 10
411.738831
 20
11.596879
 30
0.0
 40
6.648749
  1
図番
 41
1.083413
  7
FX_VECTOR
 72
     5
 11
423.058371
 21
11.596879
 31
0.0
100
AcDbText
  0
LINE
  5
1DC
330
1B0
100
AcDbEntity
  8
}}ﾊﾊGG血CCТ
  6
CONTINUOUS
 62
     7
100
AcDbLine
 10
507.0
 20
20.0
 30
0.0
 11
507.0
 21
10.0
 31
0.0
  0
LINE
  5
1DD
330
1B0
100
AcDbEntity
  8
}}ﾊﾊGG血CCТ
  6
CONTINUOUS
 62
     7
100
AcDbLine
 10
307.0
 20
20.0
 30
0.0
 11
307.0
 21
10.0
 31
0.0
  0
ENDBLK
  5
1B2
330
1B0
100
AcDbEntity
  8
0
100
AcDbBlockEnd
  0
BLOCK
  5
1BD
330
1BC
100
AcDbEntity
  8
0
100
AcDbBlockBegin
  2
BLKF022
 70
     0
 71
     0
 10
0.0
 20
0.0
 30
0.0
  3
BLKF022
  1

  0
LINE
  5
1C1
330
1BC
100
AcDbEntity
  8
0-1
  6
CONTINUOUS
 62
     7
100
AcDbLine
 10
518.8019
 20
17.913462
 30
0.0
 11
512.8019
 21
17.913462
 31
0.0
  0
LINE
  5
1C2
330
1BC
100
AcDbEntity
  8
0-1
  6
CONTINUOUS
 62
     7
100
AcDbLine
 10
512.8019
 20
17.913462
 30
0.0
 11
512.8019
 21
11.913462
 31
0.0
  0
LINE
  5
1C3
330
1BC
100
AcDbEntity
  8
0-1
  6
CONTINUOUS
 62
     7
100
AcDbLine
 10
512.8019
 20
11.913462
 30
0.0
 11
518.8019
 21
11.913462
 31
0.0
  0
LINE
  5
1C4
330
1BC
100
AcDbEntity
  8
0-1
  6
CONTINUOUS
 62
     7
100
AcDbLine
 10
518.8019
 20
11.913462
 30
0.0
 11
518.8019
 21
17.913462
 31
0.0
  0
ENDBLK
  5
1BE
330
1BC
100
AcDbEntity
  8
0
100
AcDbBlockEnd
  0
BLOCK
  5
1C6
330
1C5
100
AcDbEntity
  8
0
100
AcDbBlockBegin
  2
BLKF023
 70
     0
 71
     0
 10
0.0
 20
0.0
 30
0.0
  3
BLKF023
  1

  0
LINE
  5
1C9
330
1C5
100
AcDbEntity
  8
0-1
  6
CONTINUOUS
 62
     7
100
AcDbLine
 10
518.224977
 20
15.346154
 30
0.0
 11
515.8019
 21
17.769231
 31
0.0
  0
LINE
  5
1CA
330
1C5
100
AcDbEntity
  8
0-1
  6
CONTINUOUS
 62
     7
100
AcDbLine
 10
515.8019
 20
17.769231
 30
0.0
 11
512.946131
 21
14.913462
 31
0.0
  0
LINE
  5
1CB
330
1C5
100
AcDbEntity
  8
0-1
  6
CONTINUOUS
 62
     7
100
AcDbLine
 10
512.946131
 20
14.913462
 30
0.0
 11
515.8019
 21
12.057692
 31
0.0
  0
LINE
  5
1CC
330
1C5
100
AcDbEntity
  8
0-1
  6
CONTINUOUS
 62
     7
100
AcDbLine
 10
515.8019
 20
12.057692
 30
0.0
 11
517.359592
 21
13.615385
 31
0.0
  0
LINE
  5
1CD
330
1C5
100
AcDbEntity
  8
0-1
  6
CONTINUOUS
 62
     7
100
AcDbLine
 10
517.359592
 20
13.615385
 30
0.0
 11
517.359592
 21
12.980769
 31
0.0
  0
LINE
  5
1CE
330
1C5
100
AcDbEntity
  8
0-1
  6
CONTINUOUS
 62
     7
100
AcDbLine
 10
517.359592
 20
12.980769
 30
0.0
 11
518.224977
 21
12.980769
 31
0.0
  0
LINE
  5
1CF
330
1C5
100
AcDbEntity
  8
0-1
  6
CONTINUOUS
 62
     7
100
AcDbLine
 10
518.224977
 20
12.980769
 30
0.0
 11
518.224977
 21
15.0
 31
0.0
  0
LINE
  5
1D0
330
1C5
100
AcDbEntity
  8
0-1
  6
CONTINUOUS
 62
     7
100
AcDbLine
 10
518.224977
 20
15.0
 30
0.0
 11
515.8019
 21
15.0
 31
0.0
  0
LINE
  5
1D1
330
1C5
100
AcDbEntity
  8
0-1
  6
CONTINUOUS
 62
     7
100
AcDbLine
 10
515.8019
 20
15.0
 30
0.0
 11
515.8019
 21
14.134615
 31
0.0
  0
LINE
  5
1D2
330
1C5
100
AcDbEntity
  8
0-1
  6
CONTINUOUS
 62
     7
100
AcDbLine
 10
515.8019
 20
14.134615
 30
0.0
 11
516.246131
 21
14.134615
 31
0.0
  0
LINE
  5
1D3
330
1C5
100
AcDbEntity
  8
0-1
  6
CONTINUOUS
 62
     7
100
AcDbLine
 10
516.246131
 20
14.134615
 30
0.0
 11
515.8019
 21
13.690385
 31
0.0
  0
LINE
  5
1D4
330
1C5
100
AcDbEntity
  8
0-1
  6
CONTINUOUS
 62
     7
100
AcDbLine
 10
515.8019
 20
13.690385
 30
0.0
 11
514.578823
 21
14.913462
 31
0.0
  0
LINE
  5
1D5
330
1C5
100
AcDbEntity
  8
0-1
  6
CONTINUOUS
 62
     7
100
AcDbLine
 10
514.578823
 20
14.913462
 30
0.0
 11
515.8019
 21
16.136538
 31
0.0
  0
LINE
  5
1D6
330
1C5
100
AcDbEntity
  8
0-1
  6
CONTINUOUS
 62
     7
100
AcDbLine
 10
515.8019
 20
16.136538
 30
0.0
 11
516.592284
 21
15.346154
 31
0.0
  0
LINE
  5
1D7
330
1C5
100
AcDbEntity
  8
0-1
  6
CONTINUOUS
 62
     7
100
AcDbLine
 10
516.592284
 20
15.346154
 30
0.0
 11
518.224977
 21
15.346154
 31
0.0
  0
ENDBLK
  5
1C7
330
1C5
100
AcDbEntity
  8
0
100
AcDbBlockEnd
  0
BLOCK
  5
1E1
330
1E0
100
AcDbEntity
  8
0
100
AcDbBlockBegin
  2
*D22
 70
     1
 71
     0
 10
0.0
 20
0.0
 30
0.0
  3
*D22
  1

  0
TEXT
  5
1E3
330
1E0
100
AcDbEntity
  8
LAYERGROUP-1
  6
CONTINUOUS
 62
     7
100
AcDbText
 10
170.318985
 20
43.246819
 30
0.0
 40
4.0
  1
45
 41
0.851351
  7
FX_VECTOR
 72
     5
 11
176.318985
 21
43.246819
 31
0.0
100
AcDbText
  0
LINE
  5
1E4
330
1E0
100
AcDbEntity
  8
LAYERGROUP-1
  6
CONTINUOUS
 62
     7
100
AcDbLine
 10
150.818992
 20
42.246817
 30
0.0
 11
195.818992
 21
42.246817
 31
0.0
  0
INSERT
  5
1E5
330
1E0
100
AcDbEntity
  8
LAYERGROUP-1
  6
CONTINUOUS
 62
     7
100
AcDbBlockReference
  2
FXTIP_ARROW_S
 10
150.818992
 20
42.246817
 30
0.0
 41
4.0
 42
4.0
 50
180.0
  0
INSERT
  5
1E6
330
1E0
100
AcDbEntity
  8
LAYERGROUP-1
  6
CONTINUOUS
 62
     7
100
AcDbBlockReference
  2
FXTIP_ARROW_E
 10
195.818992
 20
42.246817
 30
0.0
 41
4.0
 42
4.0
 50
360.0
  0
LINE
  5
1E7
330
1E0
100
AcDbEntity
  8
LAYERGROUP-1
  6
CONTINUOUS
 62
     7
100
AcDbLine
 10
150.818992
 20
109.0
 30
0.0
 11
150.818992
 21
41.246817
 31
0.0
  0
LINE
  5
1E8
330
1E0
100
AcDbEntity
  8
LAYERGROUP-1
  6
CONTINUOUS
 62
     7
100
AcDbLine
 10
195.818992
 20
109.0
 30
0.0
 11
195.818992
 21
41.246817
 31
0.0
  0
ENDBLK
  5
1E2
330
1E0
100
AcDbEntity
  8
0
100
AcDbBlockEnd
  0
BLOCK
  5
20A
330
209
100
AcDbEntity
  8
0
100
AcDbBlockBegin
  2
BLKF025
 70
     0
 71
     0
 10
0.0
 20
0.0
 30
0.0
  3
BLKF025
  1

  0
LINE
  5
20D
330
209
100
AcDbEntity
  8
GR1-1
  6
CONTINUOUS
 62
     7
100
AcDbLine
 10
337.307381
 20
93.771492
 30
0.0
 11
337.063777
 21
93.810075
 31
0.0
  0
LINE
  5
20E
330
209
100
AcDbEntity
  8
GR1-1
  6
CONTINUOUS
 62
     7
100
AcDbLine
 10
337.409891
 20
93.630399
 30
0.0
 11
336.922684
 21
93.707565
 31
0.0
  0
LINE
  5
20F
330
209
100
AcDbEntity
  8
GR1-1
  6
CONTINUOUS
 62
     7
100
AcDbLine
 10
337.512401
 20
93.489306
 30
0.0
 11
336.781591
 21
93.605055
 31
0.0
  0
LINE
  5
210
330
209
100
AcDbEntity
  8
GR1-1
  6
CONTINUOUS
 62
     7
100
AcDbLine
 10
337.614912
 20
93.348212
 30
0.0
 11
336.640498
 21
93.502544
 31
0.0
  0
LINE
  5
211
330
209
100
AcDbEntity
  8
GR1-1
  6
CONTINUOUS
 62
     7
100
AcDbLine
 10
337.717422
 20
93.207119
 30
0.0
 11
336.8771
 21
93.340213
 31
0.0
  0
LINE
  5
212
330
209
100
AcDbEntity
  8
GR1-1
  6
CONTINUOUS
 62
     7
100
AcDbLine
 10
336.647175
 20
93.37663
 30
0.0
 11
336.499405
 21
93.400034
 31
0.0
  0
LINE
  5
213
330
209
100
AcDbEntity
  8
GR1-1
  6
CONTINUOUS
 62
     7
100
AcDbLine
 10
337.819932
 20
93.066026
 30
0.0
 11
336.97961
 21
93.19912
 31
0.0
  0
LINE
  5
214
330
209
100
AcDbEntity
  8
GR1-1
  6
CONTINUOUS
 62
     7
100
AcDbLine
 10
336.506082
 20
93.274119
 30
0.0
 11
336.358311
 21
93.297524
 31
0.0
  0
LINE
  5
215
330
209
100
AcDbEntity
  8
GR1-1
  6
CONTINUOUS
 62
     7
100
AcDbLine
 10
337.922442
 20
92.924933
 30
0.0
 11
337.082121
 21
93.058027
 31
0.0
  0
LINE
  5
216
330
209
100
AcDbEntity
  8
GR1-1
  6
CONTINUOUS
 62
     7
100
AcDbLine
 10
336.364988
 20
93.171609
 30
0.0
 11
336.217218
 21
93.195014
 31
0.0
  0
LINE
  5
217
330
209
100
AcDbEntity
  8
GR1-1
  6
CONTINUOUS
 62
     7
100
AcDbLine
 10
338.024953
 20
92.783839
 30
0.0
 11
337.085163
 21
92.932687
 31
0.0
  0
LINE
  5
218
330
209
100
AcDbEntity
  8
GR1-1
  6
CONTINUOUS
 62
     7
100
AcDbLine
 10
336.223895
 20
93.069099
 30
0.0
 11
336.076125
 21
93.092503
 31
0.0
  0
LINE
  5
219
330
209
100
AcDbEntity
  8
GR1-1
  6
CONTINUOUS
 62
     7
100
AcDbLine
 10
338.127463
 20
92.642746
 30
0.0
 11
336.94407
 21
92.830177
 31
0.0
  0
LINE
  5
21A
330
209
100
AcDbEntity
  8
GR1-1
  6
CONTINUOUS
 62
     7
100
AcDbLine
 10
336.082802
 20
92.966589
 30
0.0
 11
335.935032
 21
92.989993
 31
0.0
  0
LINE
  5
21B
330
209
100
AcDbEntity
  8
GR1-1
  6
CONTINUOUS
 62
     7
100
AcDbLine
 10
338.229973
 20
92.501653
 30
0.0
 11
336.802977
 21
92.727667
 31
0.0
  0
LINE
  5
21C
330
209
100
AcDbEntity
  8
GR1-1
  6
CONTINUOUS
 62
     7
100
AcDbLine
 10
335.941709
 20
92.864078
 30
0.0
 11
335.793938
 21
92.887483
 31
0.0
  0
LINE
  5
21D
330
209
100
AcDbEntity
  8
GR1-1
  6
CONTINUOUS
 62
     7
100
AcDbLine
 10
338.332483
 20
92.36056
 30
0.0
 11
336.733057
 21
92.613884
 31
0.0
  0
LINE
  5
21E
330
209
100
AcDbEntity
  8
GR1-1
  6
CONTINUOUS
 62
     7
100
AcDbLine
 10
335.800616
 20
92.761568
 30
0.0
 11
335.652845
 21
92.784973
 31
0.0
  0
LINE
  5
21F
330
209
100
AcDbEntity
  8
GR1-1
  6
CONTINUOUS
 62
     7
100
AcDbLine
 10
338.434993
 20
92.219467
 30
0.0
 11
338.19139
 21
92.25805
 31
0.0
  0
LINE
  5
220
330
209
100
AcDbEntity
  8
GR1-1
  6
CONTINUOUS
 62
     7
100
AcDbLine
 10
335.851189
 20
92.628701
 30
0.0
 11
335.511752
 21
92.682463
 31
0.0
  0
LINE
  5
221
330
209
100
AcDbEntity
  8
GR1-1
  6
CONTINUOUS
 62
     7
100
AcDbLine
 10
338.537504
 20
92.078373
 30
0.0
 11
338.172098
 21
92.136248
 31
0.0
  0
LINE
  5
222
330
209
100
AcDbEntity
  8
GR1-1
  6
CONTINUOUS
 62
     7
100
AcDbLine
 10
335.953699
 20
92.487608
 30
0.0
 11
335.370659
 21
92.579952
 31
0.0
  0
LINE
  5
223
330
209
100
AcDbEntity
  8
GR1-1
  6
CONTINUOUS
 62
     7
100
AcDbLine
 10
338.640014
 20
91.93728
 30
0.0
 11
338.152807
 21
92.014446
 31
0.0
  0
LINE
  5
224
330
209
100
AcDbEntity
  8
GR1-1
  6
CONTINUOUS
 62
     7
100
AcDbLine
 10
336.056209
 20
92.346515
 30
0.0
 11
335.797829
 21
92.387438
 31
0.0
  0
LINE
  5
225
330
209
100
AcDbEntity
  8
GR1-1
  6
CONTINUOUS
 62
     7
100
AcDbLine
 10
335.716772
 20
92.400276
 30
0.0
 11
335.229566
 21
92.477442
 31
0.0
  0
LINE
  5
226
330
209
100
AcDbEntity
  8
GR1-1
  6
CONTINUOUS
 62
     7
100
AcDbLine
 10
338.742524
 20
91.796187
 30
0.0
 11
338.133516
 21
91.892644
 31
0.0
  0
LINE
  5
227
330
209
100
AcDbEntity
  8
GR1-1
  6
CONTINUOUS
 62
     7
100
AcDbLine
 10
336.158719
 20
92.205421
 30
0.0
 11
335.900339
 21
92.246345
 31
0.0
  0
LINE
  5
228
330
209
100
AcDbEntity
  8
GR1-1
  6
CONTINUOUS
 62
     7
100
AcDbLine
 10
335.697481
 20
92.278474
 30
0.0
 11
335.088472
 21
92.374932
 31
0.0
  0
LINE
  5
229
330
209
100
AcDbEntity
  8
GR1-1
  6
CONTINUOUS
 62
     7
100
AcDbLine
 10
338.845034
 20
91.655094
 30
0.0
 11
338.114224
 21
91.770843
 31
0.0
  0
LINE
  5
22A
330
209
100
AcDbEntity
  8
GR1-1
  6
CONTINUOUS
 62
     7
100
AcDbLine
 10
336.26123
 20
92.064328
 30
0.0
 11
336.002849
 21
92.105252
 31
0.0
  0
LINE
  5
22B
330
209
100
AcDbEntity
  8
GR1-1
  6
CONTINUOUS
 62
     7
100
AcDbLine
 10
335.678189
 20
92.156673
 30
0.0
 11
334.947379
 21
92.272422
 31
0.0
  0
LINE
  5
22C
330
209
100
AcDbEntity
  8
GR1-1
  6
CONTINUOUS
 62
     7
100
AcDbLine
 10
338.947545
 20
91.514
 30
0.0
 11
338.094933
 21
91.649041
 31
0.0
  0
LINE
  5
22D
330
209
100
AcDbEntity
  8
GR1-1
  6
CONTINUOUS
 62
     7
100
AcDbLine
 10
337.485924
 20
91.745498
 30
0.0
 11
336.795682
 21
91.854822
 31
0.0
  0
LINE
  5
22E
330
209
100
AcDbEntity
  8
GR1-1
  6
CONTINUOUS
 62
     7
100
AcDbLine
 10
336.36374
 20
91.923235
 30
0.0
 11
336.105359
 21
91.964158
 31
0.0
  0
LINE
  5
22F
330
209
100
AcDbEntity
  8
GR1-1
  6
CONTINUOUS
 62
     7
100
AcDbLine
 10
335.658898
 20
92.034871
 30
0.0
 11
334.806286
 21
92.169911
 31
0.0
  0
LINE
  5
230
330
209
100
AcDbEntity
  8
GR1-1
  6
CONTINUOUS
 62
     7
100
AcDbLine
 10
339.050055
 20
91.372907
 30
0.0
 11
338.075641
 21
91.527239
 31
0.0
  0
LINE
  5
231
330
209
100
AcDbEntity
  8
GR1-1
  6
CONTINUOUS
 62
     7
100
AcDbLine
 10
337.466632
 20
91.623697
 30
0.0
 11
336.896884
 21
91.713936
 31
0.0
  0
LINE
  5
232
330
209
100
AcDbEntity
  8
GR1-1
  6
CONTINUOUS
 62
     7
100
AcDbLine
 10
336.46625
 20
91.782142
 30
0.0
 11
336.20787
 21
91.823065
 31
0.0
  0
LINE
  5
233
330
209
100
AcDbEntity
  8
GR1-1
  6
CONTINUOUS
 62
     7
100
AcDbLine
 10
335.639606
 20
91.913069
 30
0.0
 11
334.665193
 21
92.067401
 31
0.0
  0
LINE
  5
234
330
209
100
AcDbEntity
  8
GR1-1
  6
CONTINUOUS
 62
     7
100
AcDbLine
 10
339.152565
 20
91.231814
 30
0.0
 11
338.05635
 21
91.405437
 31
0.0
  0
LINE
  5
235
330
209
100
AcDbEntity
  8
GR1-1
  6
CONTINUOUS
 62
     7
100
AcDbLine
 10
337.447341
 20
91.501895
 30
0.0
 11
336.999394
 21
91.572843
 31
0.0
  0
LINE
  5
236
330
209
100
AcDbEntity
  8
GR1-1
  6
CONTINUOUS
 62
     7
100
AcDbLine
 10
336.56876
 20
91.641048
 30
0.0
 11
336.229324
 21
91.69481
 31
0.0
  0
LINE
  5
237
330
209
100
AcDbEntity
  8
GR1-1
  6
CONTINUOUS
 62
     7
100
AcDbLine
 10
335.620315
 20
91.791267
 30
0.0
 11
334.524099
 21
91.964891
 31
0.0
  0
LINE
  5
238
330
209
100
AcDbEntity
  8
GR1-1
  6
CONTINUOUS
 62
     7
100
AcDbLine
 10
339.255075
 20
91.090721
 30
0.0
 11
338.037058
 21
91.283636
 31
0.0
  0
LINE
  5
239
330
209
100
AcDbEntity
  8
GR1-1
  6
CONTINUOUS
 62
     7
100
AcDbLine
 10
337.428049
 20
91.380093
 30
0.0
 11
336.966811
 21
91.453146
 31
0.0
  0
LINE
  5
23A
330
209
100
AcDbEntity
  8
GR1-1
  6
CONTINUOUS
 62
     7
100
AcDbLine
 10
336.67127
 20
91.499955
 30
0.0
 11
336.210032
 21
91.573008
 31
0.0
  0
LINE
  5
23B
330
209
100
AcDbEntity
  8
GR1-1
  6
CONTINUOUS
 62
     7
100
AcDbLine
 10
335.601023
 20
91.669466
 30
0.0
 11
334.383006
 21
91.862381
 31
0.0
  0
LINE
  5
23C
330
209
100
AcDbEntity
  8
GR1-1
  6
CONTINUOUS
 62
     7
100
AcDbLine
 10
339.357585
 20
90.949628
 30
0.0
 11
338.017767
 21
91.161834
 31
0.0
  0
LINE
  5
23D
330
209
100
AcDbEntity
  8
GR1-1
  6
CONTINUOUS
 62
     7
100
AcDbLine
 10
337.408758
 20
91.258292
 30
0.0
 11
336.825718
 21
91.350636
 31
0.0
  0
LINE
  5
23E
330
209
100
AcDbEntity
  8
GR1-1
  6
CONTINUOUS
 62
     7
100
AcDbLine
 10
336.773781
 20
91.358862
 30
0.0
 11
336.190741
 21
91.451207
 31
0.0
  0
LINE
  5
23F
330
209
100
AcDbEntity
  8
GR1-1
  6
CONTINUOUS
 62
     7
100
AcDbLine
 10
335.581732
 20
91.547664
 30
0.0
 11
334.241913
 21
91.75987
 31
0.0
  0
LINE
  5
240
330
209
100
AcDbEntity
  8
GR1-1
  6
CONTINUOUS
 62
     7
100
AcDbLine
 10
339.268429
 20
90.838891
 30
0.0
 11
337.998475
 21
91.040032
 31
0.0
  0
LINE
  5
241
330
209
100
AcDbEntity
  8
GR1-1
  6
CONTINUOUS
 62
     7
100
AcDbLine
 10
337.389466
 20
91.13649
 30
0.0
 11
336.171449
 21
91.329405
 31
0.0
  0
LINE
  5
242
330
209
100
AcDbEntity
  8
GR1-1
  6
CONTINUOUS
 62
     7
100
AcDbLine
 10
335.56244
 20
91.425862
 30
0.0
 11
334.292486
 21
91.627003
 31
0.0
  0
LINE
  5
243
330
209
100
AcDbEntity
  8
GR1-1
  6
CONTINUOUS
 62
     7
100
AcDbLine
 10
339.127336
 20
90.736381
 30
0.0
 11
337.979184
 21
90.918231
 31
0.0
  0
LINE
  5
244
330
209
100
AcDbEntity
  8
GR1-1
  6
CONTINUOUS
 62
     7
100
AcDbLine
 10
337.370175
 20
91.014688
 30
0.0
 11
336.152158
 21
91.207603
 31
0.0
  0
LINE
  5
245
330
209
100
AcDbEntity
  8
GR1-1
  6
CONTINUOUS
 62
     7
100
AcDbLine
 10
335.543149
 20
91.304061
 30
0.0
 11
334.394996
 21
91.48591
 31
0.0
  0
LINE
  5
246
330
209
100
AcDbEntity
  8
GR1-1
  6
CONTINUOUS
 62
     7
100
AcDbLine
 10
338.986243
 20
90.633871
 30
0.0
 11
337.959892
 21
90.796429
 31
0.0
  0
LINE
  5
247
330
209
100
AcDbEntity
  8
GR1-1
  6
CONTINUOUS
 62
     7
100
AcDbLine
 10
337.350883
 20
90.892886
 30
0.0
 11
336.132866
 21
91.085801
 31
0.0
  0
LINE
  5
248
330
209
100
AcDbEntity
  8
GR1-1
  6
CONTINUOUS
 62
     7
100
AcDbLine
 10
335.523857
 20
91.182259
 30
0.0
 11
334.497507
 21
91.344817
 31
0.0
  0
LINE
  5
249
330
209
100
AcDbEntity
  8
GR1-1
  6
CONTINUOUS
 62
     7
100
AcDbLine
 10
338.84515
 20
90.531361
 30
0.0
 11
337.940601
 21
90.674627
 31
0.0
  0
LINE
  5
24A
330
209
100
AcDbEntity
  8
GR1-1
  6
CONTINUOUS
 62
     7
100
AcDbLine
 10
337.331592
 20
90.771085
 30
0.0
 11
336.113575
 21
90.964
 31
0.0
  0
LINE
  5
24B
330
209
100
AcDbEntity
  8
GR1-1
  6
CONTINUOUS
 62
     7
100
AcDbLine
 10
335.504566
 20
91.060457
 30
0.0
 11
334.600017
 21
91.203724
 31
0.0
  0
LINE
  5
24C
330
209
100
AcDbEntity
  8
GR1-1
  6
CONTINUOUS
 62
     7
100
AcDbLine
 10
338.704056
 20
90.42885
 30
0.0
 11
337.921309
 21
90.552825
 31
0.0
  0
LINE
  5
24D
330
209
100
AcDbEntity
  8
GR1-1
  6
CONTINUOUS
 62
     7
100
AcDbLine
 10
337.3123
 20
90.649283
 30
0.0
 11
336.094283
 21
90.842198
 31
0.0
  0
LINE
  5
24E
330
209
100
AcDbEntity
  8
GR1-1
  6
CONTINUOUS
 62
     7
100
AcDbLine
 10
335.485274
 20
90.938655
 30
0.0
 11
334.702527
 21
91.06263
 31
0.0
  0
LINE
  5
24F
330
209
100
AcDbEntity
  8
GR1-1
  6
CONTINUOUS
 62
     7
100
AcDbLine
 10
338.562963
 20
90.32634
 30
0.0
 11
337.902018
 21
90.431024
 31
0.0
  0
LINE
  5
250
330
209
100
AcDbEntity
  8
GR1-1
  6
CONTINUOUS
 62
     7
100
AcDbLine
 10
335.465983
 20
90.816854
 30
0.0
 11
334.805037
 21
90.921537
 31
0.0
  0
LINE
  5
251
330
209
100
AcDbEntity
  8
GR1-1
  6
CONTINUOUS
 62
     7
100
AcDbLine
 10
338.42187
 20
90.22383
 30
0.0
 11
337.882726
 21
90.309222
 31
0.0
  0
LINE
  5
252
330
209
100
AcDbEntity
  8
GR1-1
  6
CONTINUOUS
 62
     7
100
AcDbLine
 10
335.446692
 20
90.695052
 30
0.0
 11
334.907548
 21
90.780444
 31
0.0
  0
LINE
  5
253
330
209
100
AcDbEntity
  8
GR1-1
  6
CONTINUOUS
 62
     7
100
AcDbLine
 10
338.280777
 20
90.12132
 30
0.0
 11
337.863435
 21
90.18742
 31
0.0
  0
LINE
  5
254
330
209
100
AcDbEntity
  8
GR1-1
  6
CONTINUOUS
 62
     7
100
AcDbLine
 10
335.4274
 20
90.57325
 30
0.0
 11
335.010058
 21
90.639351
 31
0.0
  0
LINE
  5
255
330
209
100
AcDbEntity
  8
GR1-1
  6
CONTINUOUS
 62
     7
100
AcDbLine
 10
338.139684
 20
90.018809
 30
0.0
 11
337.844143
 21
90.065619
 31
0.0
  0
LINE
  5
256
330
209
100
AcDbEntity
  8
GR1-1
  6
CONTINUOUS
 62
     7
100
AcDbLine
 10
335.408109
 20
90.451448
 30
0.0
 11
335.112568
 21
90.498257
 31
0.0
  0
LINE
  5
257
330
209
100
AcDbEntity
  8
GR1-1
  6
CONTINUOUS
 62
     7
100
AcDbLine
 10
337.99859
 20
89.916299
 30
0.0
 11
337.824852
 21
89.943817
 31
0.0
  0
LINE
  5
258
330
209
100
AcDbEntity
  8
GR1-1
  6
CONTINUOUS
 62
     7
100
AcDbLine
 10
335.388817
 20
90.329647
 30
0.0
 11
335.215078
 21
90.357164
 31
0.0
  0
LINE
  5
259
330
209
100
AcDbEntity
  8
GR1-1
  6
CONTINUOUS
 62
     7
100
AcDbLine
 10
337.857497
 20
89.813789
 30
0.0
 11
335.317588
 21
90.216071
 31
0.0
  0
LINE
  5
25A
330
209
100
AcDbEntity
  8
GR1-1
  6
CONTINUOUS
 62
     7
100
AcDbLine
 10
337.716404
 20
89.711279
 30
0.0
 11
335.420099
 21
90.074978
 31
0.0
  0
LINE
  5
25B
330
209
100
AcDbEntity
  8
GR1-1
  6
CONTINUOUS
 62
     7
100
AcDbLine
 10
337.575311
 20
89.608769
 30
0.0
 11
335.522609
 21
89.933885
 31
0.0
  0
LINE
  5
25C
330
209
100
AcDbEntity
  8
GR1-1
  6
CONTINUOUS
 62
     7
100
AcDbLine
 10
337.434217
 20
89.506258
 30
0.0
 11
335.625119
 21
89.792791
 31
0.0
  0
LINE
  5
25D
330
209
100
AcDbEntity
  8
GR1-1
  6
CONTINUOUS
 62
     7
100
AcDbLine
 10
337.293124
 20
89.403748
 30
0.0
 11
335.727629
 21
89.651698
 31
0.0
  0
LINE
  5
25E
330
209
100
AcDbEntity
  8
GR1-1
  6
CONTINUOUS
 62
     7
100
AcDbLine
 10
337.152031
 20
89.301238
 30
0.0
 11
335.83014
 21
89.510605
 31
0.0
  0
LINE
  5
25F
330
209
100
AcDbEntity
  8
GR1-1
  6
CONTINUOUS
 62
     7
100
AcDbLine
 10
337.010938
 20
89.198728
 30
0.0
 11
335.93265
 21
89.369512
 31
0.0
  0
LINE
  5
260
330
209
100
AcDbEntity
  8
GR1-1
  6
CONTINUOUS
 62
     7
100
AcDbLine
 10
336.869845
 20
89.096217
 30
0.0
 11
336.03516
 21
89.228418
 31
0.0
  0
LINE
  5
261
330
209
100
AcDbEntity
  8
GR1-1
  6
CONTINUOUS
 62
     7
100
AcDbLine
 10
336.728751
 20
88.993707
 30
0.0
 11
336.13767
 21
89.087325
 31
0.0
  0
LINE
  5
262
330
209
100
AcDbEntity
  8
GR1-1
  6
CONTINUOUS
 62
     7
100
AcDbLine
 10
336.587658
 20
88.891197
 30
0.0
 11
336.24018
 21
88.946232
 31
0.0
  0
LINE
  5
263
330
209
100
AcDbEntity
  8
GR1-1
  6
CONTINUOUS
 62
     7
100
AcDbLine
 10
336.446565
 20
88.788687
 30
0.0
 11
336.342691
 21
88.805139
 31
0.0
  0
ENDBLK
  5
20B
330
209
100
AcDbEntity
  8
0
100
AcDbBlockEnd
  0
BLOCK
  5
2A0
330
29F
100
AcDbEntity
  8
0
100
AcDbBlockBegin
  2
BLKF026
 70
     0
 71
     0
 10
0.0
 20
0.0
 30
0.0
  3
BLKF026
  1

  0
LINE
  5
2A3
330
29F
100
AcDbEntity
  8
LAYERGROUP-1
  6
CONTINUOUS
 62
     3
100
AcDbLine
 10
363.973791
 20
355.65
 30
0.0
 11
382.973791
 21
355.65
 31
0.0
  0
LINE
  5
2A4
330
29F
100
AcDbEntity
  8
LAYERGROUP-1
  6
CONTINUOUS
 62
     3
100
AcDbLine
 10
382.973791
 20
355.65
 30
0.0
 11
382.973791
 21
348.65
 31
0.0
  0
LINE
  5
2A5
330
29F
100
AcDbEntity
  8
LAYERGROUP-1
  6
CONTINUOUS
 62
     3
100
AcDbLine
 10
382.973791
 20
348.65
 30
0.0
 11
363.973791
 21
348.65
 31
0.0
  0
LINE
  5
2A6
330
29F
100
AcDbEntity
  8
LAYERGROUP-1
  6
CONTINUOUS
 62
     3
100
AcDbLine
 10
363.973791
 20
348.65
 30
0.0
 11
363.973791
 21
355.65
 31
0.0
  0
LINE
  5
2A7
330
29F
100
AcDbEntity
  8
LAYERGROUP-1
  6
CONTINUOUS
 62
     3
100
AcDbLine
 10
373.473791
 20
354.801494
 30
0.0
 11
373.473791
 21
349.498506
 31
0.0
  0
ARC
  5
2A8
330
29F
100
AcDbEntity
  8
LAYERGROUP-1
  6
CONTINUOUS
 62
     3
100
AcDbCircle
 10
368.723791
 20
341.930316
 30
0.0
 40
13.7196838899797
100
AcDbArc
 50
69.743842
 51
110.256158
  0
ARC
  5
2A9
330
29F
100
AcDbEntity
  8
LAYERGROUP-1
  6
CONTINUOUS
 62
     3
100
AcDbCircle
 10
378.223791
 20
341.930316
 30
0.0
 40
13.7196838899797
100
AcDbArc
 50
69.743842
 51
110.256158
  0
ARC
  5
2AA
330
29F
100
AcDbEntity
  8
LAYERGROUP-1
  6
CONTINUOUS
 62
     3
100
AcDbCircle
 10
368.723791
 20
362.369684
 30
0.0
 40
13.7196838899797
100
AcDbArc
 50
249.743842
 51
290.256158
  0
ARC
  5
2AB
330
29F
100
AcDbEntity
  8
LAYERGROUP-1
  6
CONTINUOUS
 62
     3
100
AcDbCircle
 10
378.223791
 20
362.369684
 30
0.0
 40
13.7196838899797
100
AcDbArc
 50
249.743842
 51
290.256158
  0
ENDBLK
  5
2A1
330
29F
100
AcDbEntity
  8
0
100
AcDbBlockEnd
  0
BLOCK
  5
2AE
330
2AD
100
AcDbEntity
  8
0
100
AcDbBlockBegin
  2
*D25
 70
     1
 71
     0
 10
0.0
 20
0.0
 30
0.0
  3
*D25
  1

  0
TEXT
  5
2B0
330
2AD
100
AcDbEntity
  8
LAYERGROUP-1
  6
CONTINUOUS
 62
     7
100
AcDbText
 10
170.318985
 20
56.828178
 30
0.0
 40
4.0
  1
32
 41
0.851351
  7
FX_VECTOR
 72
     5
 11
176.318985
 21
56.828178
 31
0.0
100
AcDbText
  0
LINE
  5
2B1
330
2AD
100
AcDbEntity
  8
LAYERGROUP-1
  6
CONTINUOUS
 62
     7
100
AcDbLine
 10
157.318992
 20
55.82818
 30
0.0
 11
189.318992
 21
55.82818
 31
0.0
  0
INSERT
  5
2B2
330
2AD
100
AcDbEntity
  8
LAYERGROUP-1
  6
CONTINUOUS
 62
     7
100
AcDbBlockReference
  2
FXTIP_ARROW_S
 10
157.318992
 20
55.82818
 30
0.0
 41
4.0
 42
4.0
 50
180.0
  0
INSERT
  5
2B3
330
2AD
100
AcDbEntity
  8
LAYERGROUP-1
  6
CONTINUOUS
 62
     7
100
AcDbBlockReference
  2
FXTIP_ARROW_E
 10
189.318992
 20
55.82818
 30
0.0
 41
4.0
 42
4.0
 50
360.0
  0
LINE
  5
2B4
330
2AD
100
AcDbEntity
  8
LAYERGROUP-1
  6
CONTINUOUS
 62
     7
100
AcDbLine
 10
157.318992
 20
69.711982
 30
0.0
 11
157.318992
 21
54.82818
 31
0.0
  0
LINE
  5
2B5
330
2AD
100
AcDbEntity
  8
LAYERGROUP-1
  6
CONTINUOUS
 62
     7
100
AcDbLine
 10
189.318992
 20
69.711982
 30
0.0
 11
189.318992
 21
54.82818
 31
0.0
  0
ENDBLK
  5
2AF
330
2AD
100
AcDbEntity
  8
0
100
AcDbBlockEnd
  0
ENDSEC
  0
SECTION
  2
ENTITIES
  0
TEXT
  5
A8
330
1F
100
AcDbEntity
  8
}}ﾊﾊGG血CCТ
  6
CONTINUOUS
 62
     7
100
AcDbText
 10
329.0
 20
12.0
 30
0.0
 40
6.0
  1
ＳＫ－１００　ＮＢ
 41
0.792453
  7
FX_VECTOR
 72
     5
 11
365.0
 21
12.0
 31
0.0
100
AcDbText
  0
TEXT
  5
A9
330
1F
100
AcDbEntity
  8
LAYERGROUP-1
  6
CONTINUOUS
 62
     7
100
AcDbText
 10
429.0
 20
12.0
 30
0.0
 40
6.0
  1
S30B0QAA-C02
 41
0.691358
  7
FX_VECTOR
 72
     5
 11
477.0
 21
12.0
 31
0.0
100
AcDbText
  0
LINE
  5
AB
330
1F
100
AcDbEntity
  8
GR1-1
  6
CONTINUOUS
 62
     3
100
AcDbLine
 10
134.818992
 20
196.5
 30
0.0
 11
134.818992
 21
162.0
 31
0.0
  0
LINE
  5
AC
330
1F
100
AcDbEntity
  8
GR1-1
  6
CONTINUOUS
 62
     3
100
AcDbLine
 10
137.418992
 20
162.108516
 30
0.0
 11
137.418992
 21
196.4
 31
0.0
  0
LINE
  5
AD
330
1F
100
AcDbEntity
  8
GR1-1
  6
CONTINUOUS
 62
     3
100
AcDbLine
 10
138.418992
 20
197.4
 30
0.0
 11
208.218992
 21
197.4
 31
0.0
  0
LINE
  5
AE
330
1F
100
AcDbEntity
  8
GR1-1
  6
CONTINUOUS
 62
     3
100
AcDbLine
 10
209.218992
 20
196.4
 30
0.0
 11
209.218992
 21
162.108516
 31
0.0
  0
LINE
  5
AF
330
1F
100
AcDbEntity
  8
GR1-1
  6
CONTINUOUS
 62
     3
100
AcDbLine
 10
211.818992
 20
162.0
 30
0.0
 11
211.818992
 21
196.5
 31
0.0
  0
ARC
  5
B0
330
1F
100
AcDbEntity
  8
GR1-1
  6
CONTINUOUS
 62
     3
100
AcDbCircle
 10
208.318992
 20
196.5
 30
0.0
 40
3.5
100
AcDbArc
 50
0.0
 51
90.0
  0
LINE
  5
B1
330
1F
100
AcDbEntity
  8
GR1-1
  6
CONTINUOUS
 62
     3
100
AcDbLine
 10
208.318992
 20
200.0
 30
0.0
 11
138.318992
 21
200.0
 31
0.0
  0
ARC
  5
B2
330
1F
100
AcDbEntity
  8
GR1-1
  6
CONTINUOUS
 62
     3
100
AcDbCircle
 10
138.318992
 20
196.5
 30
0.0
 40
3.5
100
AcDbArc
 50
90.0
 51
180.0
  0
ARC
  5
B3
330
1F
100
AcDbEntity
  8
GR1-1
  6
CONTINUOUS
 62
     3
100
AcDbCircle
 10
138.418992
 20
196.4
 30
0.0
 40
1.0
100
AcDbArc
 50
90.0
 51
180.0
  0
LINE
  5
B4
330
1F
100
AcDbEntity
  8
GR1-1
  6
CONTINUOUS
 62
     3
100
AcDbLine
 10
149.043858
 20
194.9
 30
0.0
 11
197.594126
 21
194.9
 31
0.0
  0
LINE
  5
B5
330
1F
100
AcDbEntity
  8
GR1-1
  6
CONTINUOUS
 62
     3
100
AcDbLine
 10
150.318992
 20
100.8
 30
0.0
 11
147.718992
 21
100.8
 31
0.0
  0
LINE
  5
B6
330
1F
100
AcDbEntity
  8
GR1-1
  6
CONTINUOUS
 62
     3
100
AcDbLine
 10
147.718992
 20
100.8
 30
0.0
 11
147.718992
 21
114.8
 31
0.0
  0
ARC
  5
B7
330
1F
100
AcDbEntity
  8
GR1-1
  6
CONTINUOUS
 62
     3
100
AcDbCircle
 10
-35.966325
 20
60.569687
 30
0.0
 40
195.1794657725243
100
AcDbArc
 50
19.651452
 51
21.460639
  0
ARC
  5
B8
330
1F
100
AcDbEntity
  8
GR1-1
  6
CONTINUOUS
 62
     3
100
AcDbCircle
 10
-142.793247
 20
18.574196
 30
0.0
 40
309.9645376202534
100
AcDbArc
 50
21.460639
 51
23.037408
  0
ARC
  5
B9
330
1F
100
AcDbEntity
  8
GR1-1
  6
CONTINUOUS
 62
     3
100
AcDbCircle
 10
187.102498
 20
158.860899
 30
0.0
 40
48.52055584056337
100
AcDbArc
 50
195.842661
 51
203.037408
  0
ARC
  5
BA
330
1F
100
AcDbEntity
  8
GR1-1
  6
CONTINUOUS
 62
     3
100
AcDbCircle
 10
106.91762
 20
111.592996
 30
0.0
 40
43.45867054004482
100
AcDbArc
 50
9.835674
 51
19.651452
  0
ARC
  5
BB
330
1F
100
AcDbEntity
  8
GR1-1
  6
CONTINUOUS
 62
     3
100
AcDbCircle
 10
81.621711
 20
107.207412
 30
0.0
 40
69.13193167802386
100
AcDbArc
 50
6.552839
 51
9.835674
  0
LINE
  5
BC
330
1F
100
AcDbEntity
  8
GR1-1
  6
CONTINUOUS
 62
     3
100
AcDbLine
 10
150.318992
 20
100.8
 30
0.0
 11
150.318992
 21
193.9
 31
0.0
  0
ARC
  5
BD
330
1F
100
AcDbEntity
  8
GR1-1
  6
CONTINUOUS
 62
     3
100
AcDbCircle
 10
151.318992
 20
193.9
 30
0.0
 40
1.0
100
AcDbArc
 50
90.0
 51
180.0
  0
ARC
  5
BE
330
1F
100
AcDbEntity
  8
GR1-1
  6
CONTINUOUS
 62
     3
100
AcDbCircle
 10
224.354086
 20
169.432
 30
0.0
 40
87.24301650277951
100
AcDbArc
 50
184.815275
 51
195.842661
  0
LINE
  5
BF
330
1F
100
AcDbEntity
  8
GR1-1
  6
CONTINUOUS
 62
     3
100
AcDbLine
 10
368.473791
 20
357.35
 30
0.0
 11
367.473791
 21
356.35
 31
0.0
  0
LINE
  5
C0
330
1F
100
AcDbEntity
  8
GR1-1
  6
CONTINUOUS
 62
     3
100
AcDbLine
 10
367.473791
 20
356.35
 30
0.0
 11
367.473791
 21
355.65
 31
0.0
  0
LINE
  5
C1
330
1F
100
AcDbEntity
  8
GR1-1
  6
CONTINUOUS
 62
     3
100
AcDbLine
 10
368.473791
 20
357.35
 30
0.0
 11
378.473791
 21
357.35
 31
0.0
  0
LINE
  5
C2
330
1F
100
AcDbEntity
  8
GR1-1
  6
CONTINUOUS
 62
     3
100
AcDbLine
 10
378.473791
 20
357.35
 30
0.0
 11
379.473791
 21
356.35
 31
0.0
  0
LINE
  5
C3
330
1F
100
AcDbEntity
  8
GR1-1
  6
CONTINUOUS
 62
     3
100
AcDbLine
 10
379.473791
 20
356.35
 30
0.0
 11
379.473791
 21
355.65
 31
0.0
  0
ARC
  5
C4
330
1F
100
AcDbEntity
  8
GR1-1
  6
CONTINUOUS
 62
     3
100
AcDbCircle
 10
387.647151
 20
357.15
 30
0.0
 40
11.5
100
AcDbArc
 50
270.0
 51
308.59465
  0
LINE
  5
C5
330
1F
100
AcDbEntity
  8
GR1-1
  6
CONTINUOUS
 62
     3
100
AcDbLine
 10
394.820927
 20
348.161845
 30
0.0
 11
405.037151
 21
356.315787
 31
0.0
  0
LINE
  5
C6
330
1F
100
AcDbEntity
  8
GR1-1
  6
CONTINUOUS
 62
     3
100
AcDbLine
 10
411.275217
 20
358.5
 30
0.0
 11
419.473791
 21
358.5
 31
0.0
  0
LINE
  5
C7
330
1F
100
AcDbEntity
  8
GR1-1
  6
CONTINUOUS
 62
     3
100
AcDbLine
 10
419.973791
 20
358.0
 30
0.0
 11
419.973791
 21
357.5
 31
0.0
  0
ARC
  5
C8
330
1F
100
AcDbEntity
  8
GR1-1
  6
CONTINUOUS
 62
     3
100
AcDbCircle
 10
420.973791
 20
357.5
 30
0.0
 40
1.0
100
AcDbArc
 50
180.0
 51
270.0
  0
ARC
  5
C9
330
1F
100
AcDbEntity
  8
GR1-1
  6
CONTINUOUS
 62
     3
100
AcDbCircle
 10
419.473791
 20
358.0
 30
0.0
 40
0.5
100
AcDbArc
 50
0.0
 51
90.0
  0
ARC
  5
CA
330
1F
100
AcDbEntity
  8
GR1-1
  6
CONTINUOUS
 62
     3
100
AcDbCircle
 10
411.275217
 20
348.5
 30
0.0
 40
10.0
100
AcDbArc
 50
90.0
 51
128.59465
  0
ARC
  5
CB
330
1F
100
AcDbEntity
  8
GR1-1
  6
CONTINUOUS
 62
     3
100
AcDbCircle
 10
413.473791
 20
342.5
 30
0.0
 40
5.5
100
AcDbArc
 50
116.565051
 51
296.565051
  0
LINE
  5
CC
330
1F
100
AcDbEntity
  8
GR1-1
  6
CONTINUOUS
 62
     3
100
AcDbLine
 10
415.933466
 20
337.58065
 30
0.0
 11
420.973874
 21
340.100855
 31
0.0
  0
ARC
  5
CD
330
1F
100
AcDbEntity
  8
GR1-1
  6
CONTINUOUS
 62
     3
100
AcDbCircle
 10
418.473791
 20
345.0
 30
0.0
 40
5.5
100
AcDbArc
 50
-62.965291
 51
116.565051
  0
LINE
  5
CE
330
1F
100
AcDbEntity
  8
GR1-1
  6
CONTINUOUS
 62
     3
100
AcDbLine
 10
416.014116
 20
349.91935
 30
0.0
 11
411.014116
 21
347.41935
 31
0.0
  0
LINE
  5
CF
330
1F
100
AcDbEntity
  8
GR1-1
  6
CONTINUOUS
 62
     3
100
AcDbLine
 10
428.473791
 20
349.0
 30
0.0
 11
428.473791
 21
291.0
 31
0.0
  0
ARC
  5
D0
330
1F
100
AcDbEntity
  8
GR1-1
  6
CONTINUOUS
 62
     3
100
AcDbCircle
 10
420.973791
 20
291.0
 30
0.0
 40
7.5
100
AcDbArc
 50
270.0
 51
360.0
  0
ARC
  5
D1
330
1F
100
AcDbEntity
  8
GR1-1
  6
CONTINUOUS
 62
     3
100
AcDbCircle
 10
420.973791
 20
282.5
 30
0.0
 40
1.0
100
AcDbArc
 50
90.0
 51
180.0
  0
LINE
  5
D2
330
1F
100
AcDbEntity
  8
GR1-1
  6
CONTINUOUS
 62
     3
100
AcDbLine
 10
419.973791
 20
282.5
 30
0.0
 11
419.973791
 21
282.0
 31
0.0
  0
ARC
  5
D3
330
1F
100
AcDbEntity
  8
GR1-1
  6
CONTINUOUS
 62
     3
100
AcDbCircle
 10
419.473791
 20
282.0
 30
0.0
 40
0.5
100
AcDbArc
 50
270.0
 51
360.0
  0
LINE
  5
D4
330
1F
100
AcDbEntity
  8
GR1-1
  6
CONTINUOUS
 62
     3
100
AcDbLine
 10
419.473791
 20
281.5
 30
0.0
 11
411.275217
 21
281.5
 31
0.0
  0
ARC
  5
D5
330
1F
100
AcDbEntity
  8
GR1-1
  6
CONTINUOUS
 62
     3
100
AcDbCircle
 10
411.275217
 20
291.5
 30
0.0
 40
10.0
100
AcDbArc
 50
231.40535
 51
270.0
  0
LINE
  5
D6
330
1F
100
AcDbEntity
  8
GR1-1
  6
CONTINUOUS
 62
     3
100
AcDbLine
 10
405.037151
 20
283.684213
 30
0.0
 11
394.820927
 21
291.838155
 31
0.0
  0
ARC
  5
D7
330
1F
100
AcDbEntity
  8
GR1-1
  6
CONTINUOUS
 62
     3
100
AcDbCircle
 10
387.647151
 20
282.85
 30
0.0
 40
11.5
100
AcDbArc
 50
51.40535
 51
90.0
  0
LINE
  5
D8
330
1F
100
AcDbEntity
  8
GR1-1
  6
CONTINUOUS
 62
     3
100
AcDbLine
 10
387.647151
 20
294.35
 30
0.0
 11
359.300431
 21
294.35
 31
0.0
  0
ARC
  5
D9
330
1F
100
AcDbEntity
  8
GR1-1
  6
CONTINUOUS
 62
     3
100
AcDbCircle
 10
359.300431
 20
282.85
 30
0.0
 40
11.5
100
AcDbArc
 50
90.0
 51
128.59465
  0
LINE
  5
DA
330
1F
100
AcDbEntity
  8
GR1-1
  6
CONTINUOUS
 62
     3
100
AcDbLine
 10
352.126655
 20
291.838155
 30
0.0
 11
341.910431
 21
283.684213
 31
0.0
  0
LINE
  5
DB
330
1F
100
AcDbEntity
  8
GR1-1
  6
CONTINUOUS
 62
     3
100
AcDbLine
 10
335.672365
 20
281.5
 30
0.0
 11
327.473791
 21
281.5
 31
0.0
  0
LINE
  5
DC
330
1F
100
AcDbEntity
  8
GR1-1
  6
CONTINUOUS
 62
     3
100
AcDbLine
 10
326.973791
 20
282.0
 30
0.0
 11
326.973791
 21
282.5
 31
0.0
  0
ARC
  5
DD
330
1F
100
AcDbEntity
  8
GR1-1
  6
CONTINUOUS
 62
     3
100
AcDbCircle
 10
325.973791
 20
282.5
 30
0.0
 40
1.0
100
AcDbArc
 50
0.0
 51
90.0
  0
ARC
  5
DE
330
1F
100
AcDbEntity
  8
GR1-1
  6
CONTINUOUS
 62
     3
100
AcDbCircle
 10
327.473791
 20
282.0
 30
0.0
 40
0.5
100
AcDbArc
 50
180.0
 51
270.0
  0
ARC
  5
DF
330
1F
100
AcDbEntity
  8
GR1-1
  6
CONTINUOUS
 62
     3
100
AcDbCircle
 10
335.672365
 20
291.5
 30
0.0
 40
10.0
100
AcDbArc
 50
270.0
 51
308.59465
  0
ARC
  5
E0
330
1F
100
AcDbEntity
  8
GR1-1
  6
CONTINUOUS
 62
     3
100
AcDbCircle
 10
333.473791
 20
297.5
 30
0.0
 40
5.5
100
AcDbArc
 50
-63.434949
 51
116.565051
  0
LINE
  5
E1
330
1F
100
AcDbEntity
  8
GR1-1
  6
CONTINUOUS
 62
     3
100
AcDbLine
 10
331.014116
 20
302.41935
 30
0.0
 11
325.973708
 21
299.899145
 31
0.0
  0
ARC
  5
E2
330
1F
100
AcDbEntity
  8
GR1-1
  6
CONTINUOUS
 62
     3
100
AcDbCircle
 10
328.473791
 20
295.0
 30
0.0
 40
5.5
100
AcDbArc
 50
117.034709
 51
296.565051
  0
LINE
  5
E3
330
1F
100
AcDbEntity
  8
GR1-1
  6
CONTINUOUS
 62
     3
100
AcDbLine
 10
330.933466
 20
290.08065
 30
0.0
 11
335.933466
 21
292.58065
 31
0.0
  0
ARC
  5
E4
330
1F
100
AcDbEntity
  8
GR1-1
  6
CONTINUOUS
 62
     3
100
AcDbCircle
 10
325.973791
 20
291.0
 30
0.0
 40
7.5
100
AcDbArc
 50
180.0
 51
270.0
  0
LINE
  5
E5
330
1F
100
AcDbEntity
  8
GR1-1
  6
CONTINUOUS
 62
     3
100
AcDbLine
 10
318.473791
 20
291.0
 30
0.0
 11
318.473791
 21
349.0
 31
0.0
  0
ARC
  5
E6
330
1F
100
AcDbEntity
  8
GR1-1
  6
CONTINUOUS
 62
     3
100
AcDbCircle
 10
325.973791
 20
357.5
 30
0.0
 40
1.0
100
AcDbArc
 50
270.0
 51
360.0
  0
LINE
  5
E7
330
1F
100
AcDbEntity
  8
GR1-1
  6
CONTINUOUS
 62
     3
100
AcDbLine
 10
326.973791
 20
357.5
 30
0.0
 11
326.973791
 21
358.0
 31
0.0
  0
LINE
  5
E8
330
1F
100
AcDbEntity
  8
GR1-1
  6
CONTINUOUS
 62
     3
100
AcDbLine
 10
327.473791
 20
358.5
 30
0.0
 11
335.672365
 21
358.5
 31
0.0
  0
ARC
  5
E9
330
1F
100
AcDbEntity
  8
GR1-1
  6
CONTINUOUS
 62
     3
100
AcDbCircle
 10
335.672365
 20
348.5
 30
0.0
 40
10.0
100
AcDbArc
 50
51.40535
 51
90.0
  0
LINE
  5
EA
330
1F
100
AcDbEntity
  8
GR1-1
  6
CONTINUOUS
 62
     3
100
AcDbLine
 10
341.910431
 20
356.315787
 30
0.0
 11
352.126655
 21
348.161845
 31
0.0
  0
ARC
  5
EB
330
1F
100
AcDbEntity
  8
GR1-1
  6
CONTINUOUS
 62
     3
100
AcDbCircle
 10
359.300431
 20
357.15
 30
0.0
 40
11.5
100
AcDbArc
 50
231.40535
 51
270.0
  0
LINE
  5
EC
330
1F
100
AcDbEntity
  8
GR1-1
  6
CONTINUOUS
 62
     3
100
AcDbLine
 10
359.300431
 20
345.65
 30
0.0
 11
387.647151
 21
345.65
 31
0.0
  0
LINE
  5
ED
330
1F
100
AcDbEntity
  8
GR1-1
  6
CONTINUOUS
 62
     3
100
AcDbLine
 10
335.933466
 20
347.41935
 30
0.0
 11
330.933466
 21
349.91935
 31
0.0
  0
ARC
  5
EE
330
1F
100
AcDbEntity
  8
GR1-1
  6
CONTINUOUS
 62
     3
100
AcDbCircle
 10
328.473791
 20
345.0
 30
0.0
 40
5.5
100
AcDbArc
 50
63.434949
 51
242.965291
  0
LINE
  5
EF
330
1F
100
AcDbEntity
  8
GR1-1
  6
CONTINUOUS
 62
     3
100
AcDbLine
 10
325.973708
 20
340.100855
 30
0.0
 11
331.014116
 21
337.58065
 31
0.0
  0
ARC
  5
F0
330
1F
100
AcDbEntity
  8
GR1-1
  6
CONTINUOUS
 62
     3
100
AcDbCircle
 10
333.473791
 20
342.5
 30
0.0
 40
5.5
100
AcDbArc
 50
-116.565051
 51
63.434949
  0
ARC
  5
F1
330
1F
100
AcDbEntity
  8
GR1-1
  6
CONTINUOUS
 62
     3
100
AcDbCircle
 10
325.973791
 20
349.0
 30
0.0
 40
7.5
100
AcDbArc
 50
90.0
 51
180.0
  0
ARC
  5
F2
330
1F
100
AcDbEntity
  8
GR1-1
  6
CONTINUOUS
 62
     3
100
AcDbCircle
 10
327.473791
 20
358.0
 30
0.0
 40
0.5
100
AcDbArc
 50
90.0
 51
180.0
  0
LINE
  5
F3
330
1F
100
AcDbEntity
  8
GR1-1
  6
CONTINUOUS
 62
     3
100
AcDbLine
 10
363.473791
 20
294.35
 30
0.0
 11
363.473791
 21
290.85
 31
0.0
  0
LINE
  5
F4
330
1F
100
AcDbEntity
  8
GR1-1
  6
CONTINUOUS
 62
     3
100
AcDbLine
 10
363.473791
 20
290.85
 30
0.0
 11
365.473791
 21
289.35
 31
0.0
  0
LINE
  5
F5
330
1F
100
AcDbEntity
  8
GR1-1
  6
CONTINUOUS
 62
     3
100
AcDbLine
 10
365.473791
 20
289.35
 30
0.0
 11
381.473791
 21
289.35
 31
0.0
  0
LINE
  5
F6
330
1F
100
AcDbEntity
  8
GR1-1
  6
CONTINUOUS
 62
     3
100
AcDbLine
 10
381.473791
 20
289.35
 30
0.0
 11
383.473791
 21
290.85
 31
0.0
  0
LINE
  5
F7
330
1F
100
AcDbEntity
  8
GR1-1
  6
CONTINUOUS
 62
     3
100
AcDbLine
 10
383.473791
 20
290.85
 30
0.0
 11
383.473791
 21
294.35
 31
0.0
  0
LINE
  5
F8
330
1F
100
AcDbEntity
  8
GR1-1
  6
CONTINUOUS
 62
     3
100
AcDbLine
 10
411.014116
 20
292.58065
 30
0.0
 11
416.014116
 21
290.08065
 31
0.0
  0
ARC
  5
F9
330
1F
100
AcDbEntity
  8
GR1-1
  6
CONTINUOUS
 62
     3
100
AcDbCircle
 10
418.473791
 20
295.0
 30
0.0
 40
5.5
100
AcDbArc
 50
-116.565051
 51
62.965291
  0
LINE
  5
FA
330
1F
100
AcDbEntity
  8
GR1-1
  6
CONTINUOUS
 62
     3
100
AcDbLine
 10
420.973874
 20
299.899145
 30
0.0
 11
415.933466
 21
302.41935
 31
0.0
  0
ARC
  5
FB
330
1F
100
AcDbEntity
  8
GR1-1
  6
CONTINUOUS
 62
     3
100
AcDbCircle
 10
413.473791
 20
297.5
 30
0.0
 40
5.5
100
AcDbArc
 50
63.434949
 51
243.434949
  0
ARC
  5
FC
330
1F
100
AcDbEntity
  8
GR1-1
  6
CONTINUOUS
 62
     3
100
AcDbCircle
 10
420.973791
 20
349.0
 30
0.0
 40
7.5
100
AcDbArc
 50
0.0
 51
90.0
  0
ARC
  5
FD
330
1F
100
AcDbEntity
  8
GR1-1
  6
CONTINUOUS
 62
     3
100
AcDbCircle
 10
195.318992
 20
193.9
 30
0.0
 40
1.0
100
AcDbArc
 50
0.0
 51
90.0
  0
ARC
  5
FE
330
1F
100
AcDbEntity
  8
GR1-1
  6
CONTINUOUS
 62
     3
100
AcDbCircle
 10
208.218992
 20
196.4
 30
0.0
 40
1.0
100
AcDbArc
 50
0.0
 51
90.0
  0
LINE
  5
FF
330
1F
100
AcDbEntity
  8
GR1-1
  6
CONTINUOUS
 62
     3
100
AcDbLine
 10
318.473791
 20
197.4
 30
0.0
 11
318.473791
 21
200.0
 31
0.0
  0
LINE
  5
100
330
1F
100
AcDbEntity
  8
GR1-1
  6
CONTINUOUS
 62
     3
100
AcDbLine
 10
318.473791
 20
200.0
 30
0.0
 11
350.871955
 21
200.0
 31
0.0
  0
LINE
  5
101
330
1F
100
AcDbEntity
  8
GR1-1
  6
CONTINUOUS
 62
     3
100
AcDbLine
 10
354.031686
 20
198.452774
 30
0.0
 11
354.771287
 21
197.5
 31
0.0
  0
LINE
  5
102
330
1F
100
AcDbEntity
  8
GR1-1
  6
CONTINUOUS
 62
     3
100
AcDbLine
 10
354.771287
 20
197.5
 30
0.0
 11
357.258878
 21
197.5
 31
0.0
  0
ARC
  5
103
330
1F
100
AcDbEntity
  8
GR1-1
  6
CONTINUOUS
 62
     3
100
AcDbCircle
 10
350.871955
 20
196.0
 30
0.0
 40
4.0
100
AcDbArc
 50
37.820774
 51
90.0
  0
LINE
  5
104
330
1F
100
AcDbEntity
  8
GR1-1
  6
CONTINUOUS
 62
     3
100
AcDbLine
 10
361.050929
 20
199.2
 30
0.0
 11
385.896653
 21
199.2
 31
0.0
  0
LINE
  5
105
330
1F
100
AcDbEntity
  8
GR1-1
  6
CONTINUOUS
 62
     3
100
AcDbLine
 10
389.688704
 20
197.5
 30
0.0
 11
392.176295
 21
197.5
 31
0.0
  0
LINE
  5
106
330
1F
100
AcDbEntity
  8
GR1-1
  6
CONTINUOUS
 62
     3
100
AcDbLine
 10
392.176295
 20
197.5
 30
0.0
 11
392.915896
 21
198.452774
 31
0.0
  0
ARC
  5
107
330
1F
100
AcDbEntity
  8
GR1-1
  6
CONTINUOUS
 62
     3
100
AcDbCircle
 10
386.052586
 20
179.229535
 30
0.0
 40
19.97107423080771
100
AcDbArc
 50
70.767278
 51
90.447368
  0
LINE
  5
108
330
1F
100
AcDbEntity
  8
GR1-1
  6
CONTINUOUS
 62
     3
100
AcDbLine
 10
396.075627
 20
200.0
 30
0.0
 11
428.473791
 21
200.0
 31
0.0
  0
LINE
  5
109
330
1F
100
AcDbEntity
  8
GR1-1
  6
CONTINUOUS
 62
     3
100
AcDbLine
 10
428.473791
 20
200.0
 30
0.0
 11
428.473791
 21
197.4
 31
0.0
  0
LINE
  5
10A
330
1F
100
AcDbEntity
  8
GR1-1
  6
CONTINUOUS
 62
     3
100
AcDbLine
 10
428.473791
 20
197.4
 30
0.0
 11
419.973791
 21
197.4
 31
0.0
  0
LINE
  5
10B
330
1F
100
AcDbEntity
  8
GR1-1
  6
CONTINUOUS
 62
     3
100
AcDbLine
 10
419.973791
 20
198.0
 30
0.0
 11
419.973791
 21
195.5
 31
0.0
  0
ARC
  5
10C
330
1F
100
AcDbEntity
  8
GR1-1
  6
CONTINUOUS
 62
     3
100
AcDbCircle
 10
424.629902
 20
180.290735
 30
0.0
 40
13.5
100
AcDbArc
 50
119.64568
 51
164.0
  0
LINE
  5
10D
330
1F
100
AcDbEntity
  8
GR1-1
  6
CONTINUOUS
 62
     3
100
AcDbLine
 10
411.652869
 20
184.011839
 30
0.0
 11
391.806694
 21
114.8
 31
0.0
  0
ARC
  5
10E
330
1F
100
AcDbEntity
  8
GR1-1
  6
CONTINUOUS
 62
     3
100
AcDbCircle
 10
24.429111
 20
252.826959
 30
0.0
 40
392.198469754377
100
AcDbArc
 50
339.893131
 51
348.106869
  0
ARC
  5
10F
330
1F
100
AcDbEntity
  8
GR1-1
  6
CONTINUOUS
 62
     3
100
AcDbCircle
 10
415.973791
 20
195.5
 30
0.0
 40
4.0
100
AcDbArc
 50
299.64568
 51
360.0
  0
ARC
  5
110
330
1F
100
AcDbEntity
  8
GR1-1
  6
CONTINUOUS
 62
     3
100
AcDbCircle
 10
421.973791
 20
198.0
 30
0.0
 40
2.0
100
AcDbArc
 50
90.0
 51
180.0
  0
ARC
  5
111
330
1F
100
AcDbEntity
  8
GR1-1
  6
CONTINUOUS
 62
     3
100
AcDbCircle
 10
396.075627
 20
196.0
 30
0.0
 40
4.0
100
AcDbArc
 50
90.0
 51
142.179226
  0
ARC
  5
112
330
1F
100
AcDbEntity
  8
GR1-1
  6
CONTINUOUS
 62
     3
100
AcDbCircle
 10
360.894996
 20
179.229535
 30
0.0
 40
19.97107423080771
100
AcDbArc
 50
89.552632
 51
109.232722
  0
LINE
  5
113
330
1F
100
AcDbEntity
  8
GR1-1
  6
CONTINUOUS
 62
     3
100
AcDbLine
 10
335.294713
 20
184.011839
 30
0.0
 11
355.140888
 21
114.8
 31
0.0
  0
ARC
  5
114
330
1F
100
AcDbEntity
  8
GR1-1
  6
CONTINUOUS
 62
     3
100
AcDbCircle
 10
373.473791
 20
119.8
 30
0.0
 40
19.0
100
AcDbArc
 50
195.25546
 51
344.74454
  0
ARC
  5
115
330
1F
100
AcDbEntity
  8
GR1-1
  6
CONTINUOUS
 62
     3
100
AcDbCircle
 10
722.518471
 20
252.826959
 30
0.0
 40
392.198469754377
100
AcDbArc
 50
191.893131
 51
200.106869
  0
ARC
  5
116
330
1F
100
AcDbEntity
  8
GR1-1
  6
CONTINUOUS
 62
     3
100
AcDbCircle
 10
322.31768
 20
180.290735
 30
0.0
 40
13.5
100
AcDbArc
 50
16.0
 51
60.35432
  0
ARC
  5
117
330
1F
100
AcDbEntity
  8
GR1-1
  6
CONTINUOUS
 62
     3
100
AcDbCircle
 10
330.973791
 20
195.5
 30
0.0
 40
4.0
100
AcDbArc
 50
180.0
 51
240.35432
  0
LINE
  5
118
330
1F
100
AcDbEntity
  8
GR1-1
  6
CONTINUOUS
 62
     3
100
AcDbLine
 10
326.973791
 20
195.5
 30
0.0
 11
326.973791
 21
198.0
 31
0.0
  0
ARC
  5
119
330
1F
100
AcDbEntity
  8
GR1-1
  6
CONTINUOUS
 62
     3
100
AcDbCircle
 10
324.973791
 20
198.0
 30
0.0
 40
2.0
100
AcDbArc
 50
0.0
 51
90.0
  0
LINE
  5
11A
330
1F
100
AcDbEntity
  8
GR1-1
  6
CONTINUOUS
 62
     3
100
AcDbLine
 10
326.973791
 20
197.4
 30
0.0
 11
318.473791
 21
197.4
 31
0.0
  0
LINE
  5
11B
330
1F
100
AcDbEntity
  8
GR1-1
  6
CENTER
 62
     6
100
AcDbLine
 10
413.473791
 20
335.797556
 30
0.0
 11
413.473791
 21
349.305349
 31
0.0
  0
LINE
  5
11C
330
1F
100
AcDbEntity
  8
GR1-1
  6
CENTER
 62
     6
100
AcDbLine
 10
418.473791
 20
351.71119
 30
0.0
 11
418.473791
 21
337.827484
 31
0.0
  0
LINE
  5
11D
330
1F
100
AcDbEntity
  8
GR1-1
  6
CENTER
 62
     6
100
AcDbLine
 10
425.284277
 20
345.0
 30
0.0
 11
408.092539
 21
345.0
 31
0.0
  0
LINE
  5
11E
330
1F
100
AcDbEntity
  8
GR1-1
  6
CENTER
 62
     6
100
AcDbLine
 10
406.212976
 20
342.5
 30
0.0
 11
421.149238
 21
342.5
 31
0.0
  0
ARC
  5
11F
330
1F
100
AcDbEntity
  8
GR1-1
  6
CONTINUOUS
 62
     6
100
AcDbCircle
 10
196.456559
 20
198.874866
 30
0.0
 40
4.134443050190309
100
AcDbArc
 50
254.029408
 51
339.100694
  0
ARC
  5
120
330
1F
100
AcDbEntity
  8
GR1-1
  6
CONTINUOUS
 62
     6
100
AcDbCircle
 10
150.181425
 20
198.874866
 30
0.0
 40
4.134443050190309
100
AcDbArc
 50
200.899306
 51
285.970592
  0
LINE
  5
121
330
1F
100
AcDbEntity
  8
GR1-1
  6
CENTER
 62
     6
100
AcDbLine
 10
320.877773
 20
118.0
 30
0.0
 11
426.581268
 21
118.0
 31
0.0
  0
LINE
  5
122
330
1F
100
AcDbEntity
  8
GR1-1
  6
CONTINUOUS
 62
     6
100
AcDbLine
 10
390.932499
 20
117.230498
 30
0.0
 11
390.932499
 21
195.627826
 31
0.0
  0
LINE
  5
123
330
1F
100
AcDbEntity
  8
GR1-1
  6
CENTER
 62
     6
100
AcDbLine
 10
373.473791
 20
203.65143
 30
0.0
 11
373.473791
 21
63.268315
 31
0.0
  0
LINE
  5
124
330
1F
100
AcDbEntity
  8
GR1-1
  6
CONTINUOUS
 62
     6
100
AcDbLine
 10
356.015083
 20
117.230498
 30
0.0
 11
356.015083
 21
195.627826
 31
0.0
  0
LINE
  5
125
330
1F
100
AcDbEntity
  8
GR1-1
  6
CENTER
 62
     6
100
AcDbLine
 10
373.473791
 20
285.907082
 30
0.0
 11
373.473791
 21
359.710723
 31
0.0
  0
LINE
  5
126
330
1F
100
AcDbEntity
  8
GR1-1
  6
CONTINUOUS
 62
     6
100
AcDbLine
 10
377.973791
 20
357.35
 30
0.0
 11
377.973791
 21
355.65
 31
0.0
  0
LINE
  5
127
330
1F
100
AcDbEntity
  8
GR1-1
  6
CONTINUOUS
 62
     6
100
AcDbLine
 10
379.473791
 20
356.35
 30
0.0
 11
367.473791
 21
356.35
 31
0.0
  0
LINE
  5
128
330
1F
100
AcDbEntity
  8
GR1-1
  6
CONTINUOUS
 62
     6
100
AcDbLine
 10
368.973791
 20
355.65
 30
0.0
 11
368.973791
 21
357.35
 31
0.0
  0
ARC
  5
129
330
1F
100
AcDbEntity
  8
GR1-1
  6
CONTINUOUS
 62
     6
100
AcDbCircle
 10
373.473791
 20
320.0
 30
0.0
 40
30.5
100
AcDbArc
 50
122.116092
 51
237.883908
  0
LINE
  5
12A
330
1F
100
AcDbEntity
  8
GR1-1
  6
CONTINUOUS
 62
     6
100
AcDbLine
 10
363.473791
 20
290.85
 30
0.0
 11
383.473791
 21
290.85
 31
0.0
  0
ARC
  5
12B
330
1F
100
AcDbEntity
  8
GR1-1
  6
CONTINUOUS
 62
     6
100
AcDbCircle
 10
373.473791
 20
320.0
 30
0.0
 40
30.5
100
AcDbArc
 50
-57.883908
 51
57.883908
  0
ARC
  5
12C
330
1F
100
AcDbEntity
  8
GR1-1
  6
CONTINUOUS
 62
     6
100
AcDbCircle
 10
373.473791
 20
320.0
 30
0.0
 40
32.5
100
AcDbArc
 50
11.225994
 51
54.868031
  0
ARC
  5
12D
330
1F
100
AcDbEntity
  8
GR1-1
  6
CONTINUOUS
 62
     6
100
AcDbCircle
 10
409.275434
 20
327.105797
 30
0.0
 40
4.0
100
AcDbArc
 50
191.225994
 51
255.0
  0
LINE
  5
12E
330
1F
100
AcDbEntity
  8
GR1-1
  6
CONTINUOUS
 62
     6
100
AcDbLine
 10
408.240158
 20
323.242094
 30
0.0
 11
418.473791
 21
320.5
 31
0.0
  0
ARC
  5
12F
330
1F
100
AcDbEntity
  8
GR1-1
  6
CONTINUOUS
 62
     6
100
AcDbCircle
 10
418.473791
 20
320.0
 30
0.0
 40
0.5
100
AcDbArc
 50
-90.0
 51
90.0
  0
LINE
  5
130
330
1F
100
AcDbEntity
  8
GR1-1
  6
CONTINUOUS
 62
     6
100
AcDbLine
 10
418.473791
 20
319.5
 30
0.0
 11
408.240158
 21
316.757906
 31
0.0
  0
ARC
  5
131
330
1F
100
AcDbEntity
  8
GR1-1
  6
CONTINUOUS
 62
     6
100
AcDbCircle
 10
409.275434
 20
312.894203
 30
0.0
 40
4.0
100
AcDbArc
 50
105.0
 51
168.774006
  0
ARC
  5
132
330
1F
100
AcDbEntity
  8
GR1-1
  6
CONTINUOUS
 62
     6
100
AcDbCircle
 10
373.473791
 20
320.0
 30
0.0
 40
32.5
100
AcDbArc
 50
305.131969
 51
348.774006
  0
LINE
  5
133
330
1F
100
AcDbEntity
  8
GR1-1
  6
CENTER
 62
     6
100
AcDbLine
 10
431.258621
 20
320.0
 30
0.0
 11
313.562026
 21
320.0
 31
0.0
  0
LINE
  5
134
330
1F
100
AcDbEntity
  8
GR1-1
  6
CONTINUOUS
 62
     6
100
AcDbLine
 10
328.473791
 20
319.5
 30
0.0
 11
338.707424
 21
316.757906
 31
0.0
  0
ARC
  5
135
330
1F
100
AcDbEntity
  8
GR1-1
  6
CONTINUOUS
 62
     6
100
AcDbCircle
 10
373.473791
 20
320.0
 30
0.0
 40
32.5
100
AcDbArc
 50
191.225994
 51
234.868031
  0
ARC
  5
136
330
1F
100
AcDbEntity
  8
GR1-1
  6
CONTINUOUS
 62
     6
100
AcDbCircle
 10
337.672148
 20
312.894203
 30
0.0
 40
4.0
100
AcDbArc
 50
11.225994
 51
75.0
  0
ARC
  5
137
330
1F
100
AcDbEntity
  8
GR1-1
  6
CONTINUOUS
 62
     6
100
AcDbCircle
 10
337.672148
 20
327.105797
 30
0.0
 40
4.0
100
AcDbArc
 50
285.0
 51
348.774006
  0
LINE
  5
138
330
1F
100
AcDbEntity
  8
GR1-1
  6
CONTINUOUS
 62
     6
100
AcDbLine
 10
338.707424
 20
323.242094
 30
0.0
 11
328.473791
 21
320.5
 31
0.0
  0
ARC
  5
139
330
1F
100
AcDbEntity
  8
GR1-1
  6
CONTINUOUS
 62
     6
100
AcDbCircle
 10
373.473791
 20
320.0
 30
0.0
 40
32.5
100
AcDbArc
 50
125.131969
 51
168.774006
  0
LINE
  5
13A
330
1F
100
AcDbEntity
  8
GR1-1
  6
CONTINUOUS
 62
     3
100
AcDbLine
 10
196.318992
 20
100.8
 30
0.0
 11
198.918992
 21
100.8
 31
0.0
  0
LINE
  5
13B
330
1F
100
AcDbEntity
  8
GR1-1
  6
CONTINUOUS
 62
     3
100
AcDbLine
 10
198.918992
 20
100.8
 30
0.0
 11
198.918992
 21
114.8
 31
0.0
  0
ARC
  5
13C
330
1F
100
AcDbEntity
  8
GR1-1
  6
CONTINUOUS
 62
     3
100
AcDbCircle
 10
382.604309
 20
60.569687
 30
0.0
 40
195.1794657725243
100
AcDbArc
 50
158.539361
 51
160.348548
  0
ARC
  5
13D
330
1F
100
AcDbEntity
  8
GR1-1
  6
CONTINUOUS
 62
     3
100
AcDbCircle
 10
489.431232
 20
18.574196
 30
0.0
 40
309.9645376202534
100
AcDbArc
 50
156.962592
 51
158.539361
  0
ARC
  5
13E
330
1F
100
AcDbEntity
  8
GR1-1
  6
CONTINUOUS
 62
     3
100
AcDbCircle
 10
159.535486
 20
158.860899
 30
0.0
 40
48.52055584056337
100
AcDbArc
 50
336.962592
 51
344.157339
  0
ARC
  5
13F
330
1F
100
AcDbEntity
  8
GR1-1
  6
CONTINUOUS
 62
     3
100
AcDbCircle
 10
239.720365
 20
111.592996
 30
0.0
 40
43.45867054004482
100
AcDbArc
 50
160.348548
 51
170.164326
  0
LINE
  5
140
330
1F
100
AcDbEntity
  8
GR1-1
  6
CONTINUOUS
 62
     3
100
AcDbLine
 10
196.318992
 20
100.8
 30
0.0
 11
196.318992
 21
193.9
 31
0.0
  0
ARC
  5
141
330
1F
100
AcDbEntity
  8
GR1-1
  6
CONTINUOUS
 62
     3
100
AcDbCircle
 10
122.283899
 20
169.432
 30
0.0
 40
87.24301650277951
100
AcDbArc
 50
344.157339
 51
355.184725
  0
LINE
  5
142
330
1F
100
AcDbEntity
  8
GR1-1
  6
CONTINUOUS
 62
     3
100
AcDbLine
 10
198.918992
 20
108.0
 30
0.0
 11
202.418992
 21
108.0
 31
0.0
  0
LINE
  5
143
330
1F
100
AcDbEntity
  8
GR1-1
  6
CONTINUOUS
 62
     3
100
AcDbLine
 10
202.418992
 20
108.0
 30
0.0
 11
203.918992
 21
110.0
 31
0.0
  0
LINE
  5
144
330
1F
100
AcDbEntity
  8
GR1-1
  6
CONTINUOUS
 62
     3
100
AcDbLine
 10
203.918992
 20
110.0
 30
0.0
 11
203.918992
 21
126.0
 31
0.0
  0
LINE
  5
145
330
1F
100
AcDbEntity
  8
GR1-1
  6
CONTINUOUS
 62
     3
100
AcDbLine
 10
203.918992
 20
126.0
 30
0.0
 11
202.418992
 21
128.0
 31
0.0
  0
LINE
  5
146
330
1F
100
AcDbEntity
  8
GR1-1
  6
CONTINUOUS
 62
     3
100
AcDbLine
 10
202.418992
 20
128.0
 30
0.0
 11
202.21583
 21
128.0
 31
0.0
  0
LINE
  5
147
330
1F
100
AcDbEntity
  8
GR1-1
  6
CONTINUOUS
 62
     3
100
AcDbLine
 10
137.718992
 20
112.0
 30
0.0
 11
136.918992
 21
112.0
 31
0.0
  0
LINE
  5
148
330
1F
100
AcDbEntity
  8
GR1-1
  6
CONTINUOUS
 62
     3
100
AcDbLine
 10
136.918992
 20
112.0
 30
0.0
 11
135.918992
 21
113.0
 31
0.0
  0
LINE
  5
149
330
1F
100
AcDbEntity
  8
GR1-1
  6
CONTINUOUS
 62
     3
100
AcDbLine
 10
135.918992
 20
113.0
 30
0.0
 11
135.918992
 21
123.0
 31
0.0
  0
LINE
  5
14A
330
1F
100
AcDbEntity
  8
GR1-1
  6
CONTINUOUS
 62
     3
100
AcDbLine
 10
135.918992
 20
123.0
 30
0.0
 11
136.918992
 21
124.0
 31
0.0
  0
LINE
  5
14B
330
1F
100
AcDbEntity
  8
GR1-1
  6
CONTINUOUS
 62
     3
100
AcDbLine
 10
136.918992
 20
124.0
 30
0.0
 11
137.718992
 21
124.0
 31
0.0
  0
LINE
  5
14C
330
1F
100
AcDbEntity
  8
GR1-1
  6
CONTINUOUS
 62
     6
100
AcDbLine
 10
202.418992
 20
128.0
 30
0.0
 11
202.418992
 21
108.0
 31
0.0
  0
LINE
  5
14D
330
1F
100
AcDbEntity
  8
GR1-1
  6
CONTINUOUS
 62
     6
100
AcDbLine
 10
135.918992
 20
122.5
 30
0.0
 11
137.718992
 21
122.5
 31
0.0
  0
LINE
  5
14E
330
1F
100
AcDbEntity
  8
GR1-1
  6
CONTINUOUS
 62
     6
100
AcDbLine
 10
136.918992
 20
124.0
 30
0.0
 11
136.918992
 21
112.0
 31
0.0
  0
LINE
  5
14F
330
1F
100
AcDbEntity
  8
GR1-1
  6
CONTINUOUS
 62
     6
100
AcDbLine
 10
137.718992
 20
113.5
 30
0.0
 11
135.918992
 21
113.5
 31
0.0
  0
ARC
  5
150
330
1F
100
AcDbEntity
  8
GR1-1
  6
CONTINUOUS
 62
     6
100
AcDbCircle
 10
328.473791
 20
320.0
 30
0.0
 40
0.5
100
AcDbArc
 50
90.0
 51
270.0
  0
CIRCLE
  5
151
330
1F
100
AcDbEntity
  8
GR1-1
  6
CONTINUOUS
 62
     3
100
AcDbCircle
 10
373.473791
 20
118.0
 30
0.0
 40
10.0
  0
CIRCLE
  5
152
330
1F
100
AcDbEntity
  8
GR1-1
  6
CONTINUOUS
 62
     6
100
AcDbCircle
 10
373.473791
 20
118.0
 30
0.0
 40
8.0
  0
CIRCLE
  5
153
330
1F
100
AcDbEntity
  8
GR1-1
  6
CONTINUOUS
 62
     6
100
AcDbCircle
 10
373.473791
 20
118.0
 30
0.0
 40
3.0
  0
ARC
  5
154
330
1F
100
AcDbEntity
  8
GR1-1
  6
CONTINUOUS
 62
     3
100
AcDbCircle
 10
265.016273
 20
107.207412
 30
0.0
 40
69.13193167802386
100
AcDbArc
 50
170.164326
 51
173.447161
  0
LINE
  5
155
330
1F
100
AcDbEntity
  8
GR1-1
  6
CENTER
 62
     6
100
AcDbLine
 10
333.473791
 20
335.797556
 30
0.0
 11
333.473791
 21
349.305349
 31
0.0
  0
LINE
  5
156
330
1F
100
AcDbEntity
  8
GR1-1
  6
CENTER
 62
     6
100
AcDbLine
 10
328.473791
 20
351.71119
 30
0.0
 11
328.473791
 21
337.827484
 31
0.0
  0
LINE
  5
157
330
1F
100
AcDbEntity
  8
GR1-1
  6
CENTER
 62
     6
100
AcDbLine
 10
321.663305
 20
345.0
 30
0.0
 11
338.855043
 21
345.0
 31
0.0
  0
LINE
  5
158
330
1F
100
AcDbEntity
  8
GR1-1
  6
CENTER
 62
     6
100
AcDbLine
 10
340.734606
 20
342.5
 30
0.0
 11
325.798344
 21
342.5
 31
0.0
  0
LINE
  5
159
330
1F
100
AcDbEntity
  8
GR1-1
  6
CENTER
 62
     6
100
AcDbLine
 10
413.473791
 20
304.202444
 30
0.0
 11
413.473791
 21
290.694651
 31
0.0
  0
LINE
  5
15A
330
1F
100
AcDbEntity
  8
GR1-1
  6
CENTER
 62
     6
100
AcDbLine
 10
418.473791
 20
288.28881
 30
0.0
 11
418.473791
 21
302.172516
 31
0.0
  0
LINE
  5
15B
330
1F
100
AcDbEntity
  8
GR1-1
  6
CENTER
 62
     6
100
AcDbLine
 10
425.284277
 20
295.0
 30
0.0
 11
408.092539
 21
295.0
 31
0.0
  0
LINE
  5
15C
330
1F
100
AcDbEntity
  8
GR1-1
  6
CENTER
 62
     6
100
AcDbLine
 10
406.212976
 20
297.5
 30
0.0
 11
421.149238
 21
297.5
 31
0.0
  0
LINE
  5
15D
330
1F
100
AcDbEntity
  8
GR1-1
  6
CENTER
 62
     6
100
AcDbLine
 10
333.473791
 20
304.202444
 30
0.0
 11
333.473791
 21
290.694651
 31
0.0
  0
LINE
  5
15E
330
1F
100
AcDbEntity
  8
GR1-1
  6
CENTER
 62
     6
100
AcDbLine
 10
328.473791
 20
288.28881
 30
0.0
 11
328.473791
 21
302.172516
 31
0.0
  0
LINE
  5
15F
330
1F
100
AcDbEntity
  8
GR1-1
  6
CENTER
 62
     6
100
AcDbLine
 10
321.663305
 20
295.0
 30
0.0
 11
338.855043
 21
295.0
 31
0.0
  0
LINE
  5
160
330
1F
100
AcDbEntity
  8
GR1-1
  6
CENTER
 62
     6
100
AcDbLine
 10
340.734606
 20
297.5
 30
0.0
 11
325.798344
 21
297.5
 31
0.0
  0
LINE
  5
161
330
1F
100
AcDbEntity
  8
LAYERGROUP-1
  6
CONTINUOUS
 62
     3
100
AcDbLine
 10
150.818992
 20
124.0
 30
0.0
 11
150.318992
 21
124.0
 31
0.0
  0
LINE
  5
162
330
1F
100
AcDbEntity
  8
LAYERGROUP-1
  6
CONTINUOUS
 62
     3
100
AcDbLine
 10
195.818992
 20
124.0
 30
0.0
 11
196.318992
 21
124.0
 31
0.0
  0
LINE
  5
163
330
1F
100
AcDbEntity
  8
LAYERGROUP-1
  6
CONTINUOUS
 62
     3
100
AcDbLine
 10
150.318992
 20
112.0
 30
0.0
 11
150.818992
 21
112.0
 31
0.0
  0
LINE
  5
164
330
1F
100
AcDbEntity
  8
LAYERGROUP-1
  6
CONTINUOUS
 62
     3
100
AcDbLine
 10
195.818992
 20
112.0
 30
0.0
 11
196.318992
 21
112.0
 31
0.0
  0
LINE
  5
165
330
1F
100
AcDbEntity
  8
GR1-1
  6
CENTER
 62
     6
100
AcDbLine
 10
206.555389
 20
118.0
 30
0.0
 11
133.89908
 21
118.0
 31
0.0
  0
LINE
  5
166
330
1F
100
AcDbEntity
  8
GR1-1
  6
CENTER
 62
     6
100
AcDbLine
 10
173.318992
 20
65.609275
 30
0.0
 11
173.318992
 21
203.385732
 31
0.0
  0
TEXT
  5
167
330
1F
100
AcDbEntity
  8
GR1-1
  6
CONTINUOUS
 62
     7
100
AcDbText
 10
437.419647
 20
156.0
 30
0.0
 40
4.0
  1
82
 50
90.0
 41
0.851351
  7
FX_VECTOR
 72
     5
 11
437.419647
 21
162.0
 31
0.0
100
AcDbText
  0
LINE
  5
168
330
1F
100
AcDbEntity
  8
GR1-1
  6
CONTINUOUS
 62
     7
100
AcDbLine
 10
427.555494
 20
118.0
 30
0.0
 11
439.419655
 21
118.0
 31
0.0
  0
LINE
  5
169
330
1F
100
AcDbEntity
  8
GR1-1
  6
CONTINUOUS
 62
     7
100
AcDbLine
 10
429.473791
 20
200.0
 30
0.0
 11
449.56576
 21
200.0
 31
0.0
  0
LINE
  5
16A
330
1F
100
AcDbEntity
  8
GR1-1
  6
CONTINUOUS
 62
     7
100
AcDbLine
 10
438.419655
 20
118.0
 30
0.0
 11
438.419655
 21
200.0
 31
0.0
  0
INSERT
  5
16B
330
1F
100
AcDbEntity
  8
GR1-1
  6
CONTINUOUS
 62
     7
100
AcDbBlockReference
  2
FXTIP_ARROW_S
 10
438.419655
 20
118.0
 30
0.0
 41
4.0
 42
4.0
 50
270.0
  0
INSERT
  5
16C
330
1F
100
AcDbEntity
  8
GR1-1
  6
CONTINUOUS
 62
     7
100
AcDbBlockReference
  2
FXTIP_ARROW_E
 10
438.419655
 20
200.0
 30
0.0
 41
4.0
 42
4.0
 50
90.0
  0
TEXT
  5
16D
330
1F
100
AcDbEntity
  8
GR1-1
  6
CONTINUOUS
 62
     7
100
AcDbText
 10
447.565735
 20
129.5
 30
0.0
 40
4.0
  1
132
 50
90.0
 41
0.828947
  7
FX_VECTOR
 72
     5
 11
447.565735
 21
138.5
 31
0.0
100
AcDbText
  0
LINE
  5
16E
330
1F
100
AcDbEntity
  8
GR1-1
  6
CONTINUOUS
 62
     7
100
AcDbLine
 10
374.473791
 20
68.0
 30
0.0
 11
449.56576
 21
68.0
 31
0.0
  0
LINE
  5
16F
330
1F
100
AcDbEntity
  8
GR1-1
  6
CONTINUOUS
 62
     7
100
AcDbLine
 10
448.56576
 20
68.0
 30
0.0
 11
448.56576
 21
200.0
 31
0.0
  0
INSERT
  5
170
330
1F
100
AcDbEntity
  8
GR1-1
  6
CONTINUOUS
 62
     7
100
AcDbBlockReference
  2
FXTIP_ARROW_S
 10
448.56576
 20
68.0
 30
0.0
 41
4.0
 42
4.0
 50
270.0
  0
INSERT
  5
171
330
1F
100
AcDbEntity
  8
GR1-1
  6
CONTINUOUS
 62
     7
100
AcDbBlockReference
  2
FXTIP_ARROW_E
 10
448.56576
 20
200.0
 30
0.0
 41
4.0
 42
4.0
 50
90.0
  0
TEXT
  5
172
330
1F
100
AcDbEntity
  8
GR1-1
  6
CONTINUOUS
 62
     7
100
AcDbText
 10
293.595283
 20
337.826613
 30
0.0
 40
4.0
  1
4-11
 50
63.434948
 41
0.818182
  7
FX_VECTOR
 72
     5
 11
298.961846
 21
348.559739
 31
0.0
100
AcDbText
  0
LINE
  5
173
330
1F
100
AcDbEntity
  8
GR1-1
  6
CONTINUOUS
 62
     7
100
AcDbLine
 10
330.119689
 20
338.027864
 30
0.0
 11
300.975127
 21
352.600145
 31
0.0
  0
LINE
  5
174
330
1F
100
AcDbEntity
  8
GR1-1
  6
CONTINUOUS
 62
     7
100
AcDbLine
 10
335.039039
 20
347.866563
 30
0.0
 11
305.894477
 21
362.438844
 31
0.0
  0
LINE
  5
175
330
1F
100
AcDbEntity
  8
GR1-1
  6
CONTINUOUS
 62
     7
100
AcDbLine
 10
301.869554
 20
352.152931
 30
0.0
 11
306.788904
 21
361.991631
 31
0.0
  0
LINE
  5
176
330
1F
100
AcDbEntity
  8
GR1-1
  6
CONTINUOUS
 62
     7
100
AcDbLine
 10
309.472185
 20
367.358194
 30
0.0
 11
306.788904
 21
361.991631
 31
0.0
  0
INSERT
  5
177
330
1F
100
AcDbEntity
  8
GR1-1
  6
CONTINUOUS
 62
     7
100
AcDbBlockReference
  2
FXTIP_ARROW_E
 10
306.788904
 20
361.991631
 30
0.0
 41
4.0
 42
4.0
 50
243.434949
  0
LINE
  5
178
330
1F
100
AcDbEntity
  8
GR1-1
  6
CONTINUOUS
 62
     7
100
AcDbLine
 10
293.778596
 20
335.971015
 30
0.0
 11
301.869554
 21
352.152931
 31
0.0
  0
INSERT
  5
179
330
1F
100
AcDbEntity
  8
GR1-1
  6
CONTINUOUS
 62
     7
100
AcDbBlockReference
  2
FXTIP_ARROW_E
 10
301.869554
 20
352.152931
 30
0.0
 41
4.0
 42
4.0
 50
63.434949
  0
TEXT
  5
17A
330
1F
100
AcDbEntity
  8
GR1-1
  6
CONTINUOUS
 62
     7
100
AcDbText
 10
457.267334
 20
317.0
 30
0.0
 40
4.0
  1
77
 50
90.0
 41
0.851351
  7
FX_VECTOR
 72
     5
 11
457.267334
 21
323.0
 31
0.0
100
AcDbText
  0
LINE
  5
17B
330
1F
100
AcDbEntity
  8
GR1-1
  6
CONTINUOUS
 62
     7
100
AcDbLine
 10
420.473791
 20
281.5
 30
0.0
 11
459.267353
 21
281.5
 31
0.0
  0
LINE
  5
17C
330
1F
100
AcDbEntity
  8
GR1-1
  6
CONTINUOUS
 62
     7
100
AcDbLine
 10
420.473791
 20
358.5
 30
0.0
 11
459.267353
 21
358.5
 31
0.0
  0
LINE
  5
17D
330
1F
100
AcDbEntity
  8
GR1-1
  6
CONTINUOUS
 62
     7
100
AcDbLine
 10
458.267353
 20
281.5
 30
0.0
 11
458.267353
 21
358.5
 31
0.0
  0
INSERT
  5
17E
330
1F
100
AcDbEntity
  8
GR1-1
  6
CONTINUOUS
 62
     7
100
AcDbBlockReference
  2
FXTIP_ARROW_S
 10
458.267353
 20
281.5
 30
0.0
 41
4.0
 42
4.0
 50
270.0
  0
INSERT
  5
17F
330
1F
100
AcDbEntity
  8
GR1-1
  6
CONTINUOUS
 62
     7
100
AcDbBlockReference
  2
FXTIP_ARROW_E
 10
458.267353
 20
358.5
 30
0.0
 41
4.0
 42
4.0
 50
90.0
  0
TEXT
  5
180
330
1F
100
AcDbEntity
  8
GR1-1
  6
CONTINUOUS
 62
     7
100
AcDbText
 10
437.267334
 20
317.0
 30
0.0
 40
4.0
  1
45
 50
90.0
 41
0.851351
  7
FX_VECTOR
 72
     5
 11
437.267334
 21
323.0
 31
0.0
100
AcDbText
  0
LINE
  5
181
330
1F
100
AcDbEntity
  8
GR1-1
  6
CONTINUOUS
 62
     7
100
AcDbLine
 10
421.973791
 20
342.5
 30
0.0
 11
439.267353
 21
342.5
 31
0.0
  0
LINE
  5
182
330
1F
100
AcDbEntity
  8
GR1-1
  6
CONTINUOUS
 62
     7
100
AcDbLine
 10
421.973791
 20
297.5
 30
0.0
 11
439.267353
 21
297.5
 31
0.0
  0
LINE
  5
183
330
1F
100
AcDbEntity
  8
GR1-1
  6
CONTINUOUS
 62
     7
100
AcDbLine
 10
438.267353
 20
342.5
 30
0.0
 11
438.267353
 21
297.5
 31
0.0
  0
INSERT
  5
184
330
1F
100
AcDbEntity
  8
GR1-1
  6
CONTINUOUS
 62
     7
100
AcDbBlockReference
  2
FXTIP_ARROW_S
 10
438.267353
 20
342.5
 30
0.0
 41
4.0
 42
4.0
 50
90.0
  0
INSERT
  5
185
330
1F
100
AcDbEntity
  8
GR1-1
  6
CONTINUOUS
 62
     7
100
AcDbBlockReference
  2
FXTIP_ARROW_E
 10
438.267353
 20
297.5
 30
0.0
 41
4.0
 42
4.0
 50
270.0
  0
TEXT
  5
186
330
1F
100
AcDbEntity
  8
GR1-1
  6
CONTINUOUS
 62
     7
100
AcDbText
 10
447.267334
 20
317.0
 30
0.0
 40
4.0
  1
50
 50
90.0
 41
0.851351
  7
FX_VECTOR
 72
     5
 11
447.267334
 21
323.0
 31
0.0
100
AcDbText
  0
LINE
  5
187
330
1F
100
AcDbEntity
  8
GR1-1
  6
CONTINUOUS
 62
     7
100
AcDbLine
 10
426.973791
 20
345.0
 30
0.0
 11
449.267353
 21
345.0
 31
0.0
  0
LINE
  5
188
330
1F
100
AcDbEntity
  8
GR1-1
  6
CONTINUOUS
 62
     7
100
AcDbLine
 10
426.973791
 20
295.0
 30
0.0
 11
449.267353
 21
295.0
 31
0.0
  0
LINE
  5
189
330
1F
100
AcDbEntity
  8
GR1-1
  6
CONTINUOUS
 62
     7
100
AcDbLine
 10
448.267353
 20
345.0
 30
0.0
 11
448.267353
 21
295.0
 31
0.0
  0
INSERT
  5
18A
330
1F
100
AcDbEntity
  8
GR1-1
  6
CONTINUOUS
 62
     7
100
AcDbBlockReference
  2
FXTIP_ARROW_S
 10
448.267353
 20
345.0
 30
0.0
 41
4.0
 42
4.0
 50
90.0
  0
INSERT
  5
18B
330
1F
100
AcDbEntity
  8
GR1-1
  6
CONTINUOUS
 62
     7
100
AcDbBlockReference
  2
FXTIP_ARROW_E
 10
448.267353
 20
295.0
 30
0.0
 41
4.0
 42
4.0
 50
270.0
  0
TEXT
  5
18C
330
1F
100
AcDbEntity
  8
GR1-1
  6
CONTINUOUS
 62
     7
100
AcDbText
 10
370.473785
 20
272.301208
 30
0.0
 40
4.0
  1
80
 41
0.851351
  7
FX_VECTOR
 72
     5
 11
376.473785
 21
272.301208
 31
0.0
100
AcDbText
  0
LINE
  5
18D
330
1F
100
AcDbEntity
  8
GR1-1
  6
CONTINUOUS
 62
     7
100
AcDbLine
 10
333.473791
 20
289.0
 30
0.0
 11
333.473791
 21
270.301194
 31
0.0
  0
LINE
  5
18E
330
1F
100
AcDbEntity
  8
GR1-1
  6
CONTINUOUS
 62
     7
100
AcDbLine
 10
413.473791
 20
289.0
 30
0.0
 11
413.473791
 21
270.301194
 31
0.0
  0
LINE
  5
18F
330
1F
100
AcDbEntity
  8
GR1-1
  6
CONTINUOUS
 62
     7
100
AcDbLine
 10
333.473791
 20
271.301194
 30
0.0
 11
413.473791
 21
271.301194
 31
0.0
  0
INSERT
  5
190
330
1F
100
AcDbEntity
  8
GR1-1
  6
CONTINUOUS
 62
     7
100
AcDbBlockReference
  2
FXTIP_ARROW_S
 10
333.473791
 20
271.301194
 30
0.0
 41
4.0
 42
4.0
 50
180.0
  0
INSERT
  5
191
330
1F
100
AcDbEntity
  8
GR1-1
  6
CONTINUOUS
 62
     7
100
AcDbBlockReference
  2
FXTIP_ARROW_E
 10
413.473791
 20
271.301194
 30
0.0
 41
4.0
 42
4.0
 50
360.0
  0
TEXT
  5
192
330
1F
100
AcDbEntity
  8
GR1-1
  6
CONTINUOUS
 62
     7
100
AcDbText
 10
370.473785
 20
262.301208
 30
0.0
 40
4.0
  1
90
 41
0.851351
  7
FX_VECTOR
 72
     5
 11
376.473785
 21
262.301208
 31
0.0
100
AcDbText
  0
LINE
  5
193
330
1F
100
AcDbEntity
  8
GR1-1
  6
CONTINUOUS
 62
     7
100
AcDbLine
 10
328.473791
 20
286.5
 30
0.0
 11
328.473791
 21
260.301194
 31
0.0
  0
LINE
  5
194
330
1F
100
AcDbEntity
  8
GR1-1
  6
CONTINUOUS
 62
     7
100
AcDbLine
 10
418.473791
 20
286.5
 30
0.0
 11
418.473791
 21
260.301194
 31
0.0
  0
LINE
  5
195
330
1F
100
AcDbEntity
  8
GR1-1
  6
CONTINUOUS
 62
     7
100
AcDbLine
 10
328.473791
 20
261.301194
 30
0.0
 11
418.473791
 21
261.301194
 31
0.0
  0
INSERT
  5
196
330
1F
100
AcDbEntity
  8
GR1-1
  6
CONTINUOUS
 62
     7
100
AcDbBlockReference
  2
FXTIP_ARROW_S
 10
328.473791
 20
261.301194
 30
0.0
 41
4.0
 42
4.0
 50
180.0
  0
INSERT
  5
197
330
1F
100
AcDbEntity
  8
GR1-1
  6
CONTINUOUS
 62
     7
100
AcDbBlockReference
  2
FXTIP_ARROW_E
 10
418.473791
 20
261.301194
 30
0.0
 41
4.0
 42
4.0
 50
360.0
  0
TEXT
  5
198
330
1F
100
AcDbEntity
  8
GR1-1
  6
CONTINUOUS
 62
     7
100
AcDbText
 10
368.973785
 20
252.301193
 30
0.0
 40
4.0
  1
110
 41
0.828947
  7
FX_VECTOR
 72
     5
 11
377.973785
 21
252.301193
 31
0.0
100
AcDbText
  0
LINE
  5
199
330
1F
100
AcDbEntity
  8
GR1-1
  6
CONTINUOUS
 62
     7
100
AcDbLine
 10
318.473791
 20
290.0
 30
0.0
 11
318.473791
 21
250.301194
 31
0.0
  0
LINE
  5
19A
330
1F
100
AcDbEntity
  8
GR1-1
  6
CONTINUOUS
 62
     7
100
AcDbLine
 10
428.473791
 20
290.0
 30
0.0
 11
428.473791
 21
250.301194
 31
0.0
  0
LINE
  5
19B
330
1F
100
AcDbEntity
  8
GR1-1
  6
CONTINUOUS
 62
     7
100
AcDbLine
 10
318.473791
 20
251.301194
 30
0.0
 11
428.473791
 21
251.301194
 31
0.0
  0
INSERT
  5
19C
330
1F
100
AcDbEntity
  8
GR1-1
  6
CONTINUOUS
 62
     7
100
AcDbBlockReference
  2
FXTIP_ARROW_S
 10
318.473791
 20
251.301194
 30
0.0
 41
4.0
 42
4.0
 50
180.0
  0
INSERT
  5
19D
330
1F
100
AcDbEntity
  8
GR1-1
  6
CONTINUOUS
 62
     7
100
AcDbBlockReference
  2
FXTIP_ARROW_E
 10
428.473791
 20
251.301194
 30
0.0
 41
4.0
 42
4.0
 50
360.0
  0
ARC
  5
19E
330
1F
100
AcDbEntity
  8
GR1-1
  6
CONTINUOUS
 62
     3
100
AcDbCircle
 10
224.354086
 20
169.432
 30
0.0
 40
89.84301650277952
100
AcDbArc
 50
184.745048
 51
195.842661
  0
ARC
  5
19F
330
1F
100
AcDbEntity
  8
GR1-1
  6
CONTINUOUS
 62
     3
100
AcDbCircle
 10
187.102498
 20
158.860899
 30
0.0
 40
51.12055584056337
100
AcDbArc
 50
195.842661
 51
203.037408
  0
ARC
  5
1A0
330
1F
100
AcDbEntity
  8
GR1-1
  6
CONTINUOUS
 62
     3
100
AcDbCircle
 10
-142.793247
 20
18.574196
 30
0.0
 40
307.3645376202534
100
AcDbArc
 50
21.460639
 51
23.037408
  0
ARC
  5
1A1
330
1F
100
AcDbEntity
  8
GR1-1
  6
CONTINUOUS
 62
     3
100
AcDbCircle
 10
-35.966325
 20
60.569687
 30
0.0
 40
192.5794657725243
100
AcDbArc
 50
19.651452
 51
21.460639
  0
ARC
  5
1A2
330
1F
100
AcDbEntity
  8
GR1-1
  6
CONTINUOUS
 62
     3
100
AcDbCircle
 10
106.91762
 20
111.592996
 30
0.0
 40
40.85867054004483
100
AcDbArc
 50
9.835674
 51
19.651452
  0
ARC
  5
1A3
330
1F
100
AcDbEntity
  8
GR1-1
  6
CONTINUOUS
 62
     3
100
AcDbCircle
 10
81.621711
 20
107.207412
 30
0.0
 40
66.53193167802387
100
AcDbArc
 50
6.552839
 51
9.835674
  0
ARC
  5
1A4
330
1F
100
AcDbEntity
  8
GR1-1
  6
CONTINUOUS
 62
     3
100
AcDbCircle
 10
122.283899
 20
169.432
 30
0.0
 40
89.84301650277952
100
AcDbArc
 50
344.157339
 51
355.254952
  0
ARC
  5
1A5
330
1F
100
AcDbEntity
  8
GR1-1
  6
CONTINUOUS
 62
     3
100
AcDbCircle
 10
159.535486
 20
158.860899
 30
0.0
 40
51.12055584056337
100
AcDbArc
 50
336.962592
 51
344.157339
  0
ARC
  5
1A6
330
1F
100
AcDbEntity
  8
GR1-1
  6
CONTINUOUS
 62
     3
100
AcDbCircle
 10
489.431232
 20
18.574196
 30
0.0
 40
307.3645376202534
100
AcDbArc
 50
156.962592
 51
158.539361
  0
ARC
  5
1A7
330
1F
100
AcDbEntity
  8
GR1-1
  6
CONTINUOUS
 62
     3
100
AcDbCircle
 10
382.604309
 20
60.569687
 30
0.0
 40
192.5794657725243
100
AcDbArc
 50
158.539361
 51
160.348548
  0
ARC
  5
1A8
330
1F
100
AcDbEntity
  8
GR1-1
  6
CONTINUOUS
 62
     3
100
AcDbCircle
 10
239.720365
 20
111.592996
 30
0.0
 40
40.85867054004483
100
AcDbArc
 50
160.348548
 51
170.164326
  0
ARC
  5
1A9
330
1F
100
AcDbEntity
  8
GR1-1
  6
CONTINUOUS
 62
     3
100
AcDbCircle
 10
265.016273
 20
107.207412
 30
0.0
 40
66.53193167802387
100
AcDbArc
 50
170.164326
 51
173.447161
  0
TEXT
  5
1AA
330
1F
100
AcDbEntity
  8
LAYERGROUP-1
  6
CONTINUOUS
 62
     7
100
AcDbText
 10
230.601746
 20
112.0
 30
0.0
 40
4.0
  1
%%c100
 50
90.0
 41
0.828947
  7
FX_VECTOR
 72
     5
 11
230.601746
 21
124.0
 31
0.0
100
AcDbText
  0
LINE
  5
1AB
330
1F
100
AcDbEntity
  8
LAYERGROUP-1
  6
CONTINUOUS
 62
     7
100
AcDbLine
 10
231.601743
 20
68.0
 30
0.0
 11
231.601743
 21
168.0
 31
0.0
  0
INSERT
  5
1AC
330
1F
100
AcDbEntity
  8
LAYERGROUP-1
  6
CONTINUOUS
 62
     7
100
AcDbBlockReference
  2
FXTIP_ARROW_S
 10
231.601743
 20
68.0
 30
0.0
 41
4.0
 42
4.0
 50
270.0
  0
INSERT
  5
1AD
330
1F
100
AcDbEntity
  8
LAYERGROUP-1
  6
CONTINUOUS
 62
     7
100
AcDbBlockReference
  2
FXTIP_ARROW_E
 10
231.601743
 20
168.0
 30
0.0
 41
4.0
 42
4.0
 50
90.0
  0
LINE
  5
1AE
330
1F
100
AcDbEntity
  8
LAYERGROUP-1
  6
CONTINUOUS
 62
     7
100
AcDbLine
 10
174.318992
 20
68.0
 30
0.0
 11
232.601743
 21
68.0
 31
0.0
  0
LINE
  5
1AF
330
1F
100
AcDbEntity
  8
LAYERGROUP-1
  6
CONTINUOUS
 62
     7
100
AcDbLine
 10
174.318992
 20
168.0
 30
0.0
 11
232.601743
 21
168.0
 31
0.0
  0
INSERT
  5
1B3
330
1F
100
AcDbEntity
  8
0
100
AcDbBlockReference
  2
BLKF021
 10
0.0
 20
0.0
 30
0.0
  0
ARC
  5
1DE
330
1F
100
AcDbEntity
  8
LAYERGROUP-1
  6
CONTINUOUS
 62
     3
100
AcDbCircle
 10
373.49367
 20
118.0
 30
0.0
 40
50.0
100
AcDbArc
 50
-231.263363
 51
51.311942
  0
DIMENSION
  5
1DF
330
1F
100
AcDbEntity
  8
LAYERGROUP-1
100
AcDbDimension
  2
*D22
 10
195.818992
 20
42.246817
 30
0.0
 11
173.318985
 21
43.246819
 31
0.0
 70
    33
  3
FXDIMINFO
100
AcDbAlignedDimension
 13
150.818992
 23
110.0
 33
0.0
 14
195.818992
 24
110.0
 34
0.0
1001
ACAD
1000
DSTYLE
1002
{
1070
     7
1000
FXTIP_ARROW_E
1070
     6
1000
FXTIP_ARROW_S
1070
   173
1070
     1
1002
}
  0
ARC
  5
1E9
330
1F
100
AcDbEntity
  8
GR1-1
  6
CONTINUOUS
 62
     3
100
AcDbCircle
 10
173.318992
 20
28.0
 30
0.0
 40
140.0
100
AcDbArc
 50
84.177368
 51
95.822632
  0
LINE
  5
1EA
330
1F
100
AcDbEntity
  8
LAYERGROUP-1
  6
CONTINUOUS
 62
     3
100
AcDbLine
 10
152.318992
 20
136.821801
 30
0.0
 11
152.318992
 21
99.178199
 31
0.0
  0
LINE
  5
1EB
330
1F
100
AcDbEntity
  8
LAYERGROUP-1
  6
CONTINUOUS
 62
     3
100
AcDbLine
 10
157.318992
 20
139.381635
 30
0.0
 11
153.971696
 21
138.791416
 31
0.0
  0
ARC
  5
1EC
330
1F
100
AcDbEntity
  8
LAYERGROUP-1
  6
CONTINUOUS
 62
     3
100
AcDbCircle
 10
154.318992
 20
136.821801
 30
0.0
 40
2.0
100
AcDbArc
 50
100.0
 51
180.0
  0
ARC
  5
1ED
330
1F
100
AcDbEntity
  8
LAYERGROUP-1
  6
CONTINUOUS
 62
     3
100
AcDbCircle
 10
159.318992
 20
165.288018
 30
0.0
 40
2.0
100
AcDbArc
 50
95.822632
 51
180.0
  0
LINE
  5
1EE
330
1F
100
AcDbEntity
  8
LAYERGROUP-1
  6
CONTINUOUS
 62
     3
100
AcDbLine
 10
157.318992
 20
165.288018
 30
0.0
 11
157.318992
 21
70.711982
 31
0.0
  0
ARC
  5
1EF
330
1F
100
AcDbEntity
  8
LAYERGROUP-1
  6
CONTINUOUS
 62
     3
100
AcDbCircle
 10
187.318992
 20
165.288018
 30
0.0
 40
2.0
100
AcDbArc
 50
0.0
 51
84.177368
  0
ARC
  5
1F0
330
1F
100
AcDbEntity
  8
GR1-1
  6
CONTINUOUS
 62
     3
100
AcDbCircle
 10
173.318992
 20
208.0
 30
0.0
 40
140.0
100
AcDbArc
 50
264.177368
 51
275.822632
  0
LINE
  5
1F1
330
1F
100
AcDbEntity
  8
LAYERGROUP-1
  6
CONTINUOUS
 62
     3
100
AcDbLine
 10
157.318992
 20
96.618365
 30
0.0
 11
153.971696
 21
97.208584
 31
0.0
  0
ARC
  5
1F2
330
1F
100
AcDbEntity
  8
LAYERGROUP-1
  6
CONTINUOUS
 62
     3
100
AcDbCircle
 10
154.318992
 20
99.178199
 30
0.0
 40
2.0
100
AcDbArc
 50
180.0
 51
260.0
  0
ARC
  5
1F3
330
1F
100
AcDbEntity
  8
LAYERGROUP-1
  6
CONTINUOUS
 62
     3
100
AcDbCircle
 10
159.318992
 20
70.711982
 30
0.0
 40
2.0
100
AcDbArc
 50
180.0
 51
264.177368
  0
ARC
  5
1F4
330
1F
100
AcDbEntity
  8
LAYERGROUP-1
  6
CONTINUOUS
 62
     3
100
AcDbCircle
 10
187.318992
 20
70.711982
 30
0.0
 40
2.0
100
AcDbArc
 50
275.822632
 51
360.0
  0
LINE
  5
1F5
330
1F
100
AcDbEntity
  8
GR1-1
  6
CONTINUOUS
 62
     3
100
AcDbLine
 10
150.818992
 20
110.0
 30
0.0
 11
151.318992
 21
109.5
 31
0.0
  0
LINE
  5
1F6
330
1F
100
AcDbEntity
  8
GR1-1
  6
CONTINUOUS
 62
     3
100
AcDbLine
 10
151.318992
 20
109.5
 30
0.0
 11
152.318992
 21
109.5
 31
0.0
  0
LINE
  5
1F7
330
1F
100
AcDbEntity
  8
GR1-1
  6
CONTINUOUS
 62
     3
100
AcDbLine
 10
150.818992
 20
110.0
 30
0.0
 11
150.818992
 21
126.0
 31
0.0
  0
LINE
  5
1F8
330
1F
100
AcDbEntity
  8
GR1-1
  6
CONTINUOUS
 62
     3
100
AcDbLine
 10
150.818992
 20
126.0
 30
0.0
 11
151.318992
 21
126.5
 31
0.0
  0
LINE
  5
1F9
330
1F
100
AcDbEntity
  8
GR1-1
  6
CONTINUOUS
 62
     3
100
AcDbLine
 10
151.318992
 20
126.5
 30
0.0
 11
152.318992
 21
126.5
 31
0.0
  0
LINE
  5
1FA
330
1F
100
AcDbEntity
  8
GR1-1
  6
CONTINUOUS
 62
     6
100
AcDbLine
 10
151.318992
 20
109.5
 30
0.0
 11
151.318992
 21
126.5
 31
0.0
  0
LINE
  5
1FB
330
1F
100
AcDbEntity
  8
LAYERGROUP-1
  6
CONTINUOUS
 62
     3
100
AcDbLine
 10
194.318992
 20
136.821801
 30
0.0
 11
194.318992
 21
99.178199
 31
0.0
  0
LINE
  5
1FC
330
1F
100
AcDbEntity
  8
LAYERGROUP-1
  6
CONTINUOUS
 62
     3
100
AcDbLine
 10
189.318992
 20
139.381635
 30
0.0
 11
192.666289
 21
138.791416
 31
0.0
  0
ARC
  5
1FD
330
1F
100
AcDbEntity
  8
LAYERGROUP-1
  6
CONTINUOUS
 62
     3
100
AcDbCircle
 10
192.318992
 20
136.821801
 30
0.0
 40
2.0
100
AcDbArc
 50
0.0
 51
80.0
  0
LINE
  5
1FE
330
1F
100
AcDbEntity
  8
LAYERGROUP-1
  6
CONTINUOUS
 62
     3
100
AcDbLine
 10
189.318992
 20
165.288018
 30
0.0
 11
189.318992
 21
70.711982
 31
0.0
  0
LINE
  5
1FF
330
1F
100
AcDbEntity
  8
LAYERGROUP-1
  6
CONTINUOUS
 62
     3
100
AcDbLine
 10
189.318992
 20
96.618365
 30
0.0
 11
192.666289
 21
97.208584
 31
0.0
  0
ARC
  5
200
330
1F
100
AcDbEntity
  8
LAYERGROUP-1
  6
CONTINUOUS
 62
     3
100
AcDbCircle
 10
192.318992
 20
99.178199
 30
0.0
 40
2.0
100
AcDbArc
 50
280.0
 51
360.0
  0
LINE
  5
201
330
1F
100
AcDbEntity
  8
GR1-1
  6
CONTINUOUS
 62
     3
100
AcDbLine
 10
195.818992
 20
110.0
 30
0.0
 11
195.318992
 21
109.5
 31
0.0
  0
LINE
  5
202
330
1F
100
AcDbEntity
  8
GR1-1
  6
CONTINUOUS
 62
     3
100
AcDbLine
 10
195.318992
 20
109.5
 30
0.0
 11
194.318992
 21
109.5
 31
0.0
  0
LINE
  5
203
330
1F
100
AcDbEntity
  8
GR1-1
  6
CONTINUOUS
 62
     3
100
AcDbLine
 10
195.818992
 20
110.0
 30
0.0
 11
195.818992
 21
126.0
 31
0.0
  0
LINE
  5
204
330
1F
100
AcDbEntity
  8
GR1-1
  6
CONTINUOUS
 62
     3
100
AcDbLine
 10
195.818992
 20
126.0
 30
0.0
 11
195.318992
 21
126.5
 31
0.0
  0
LINE
  5
205
330
1F
100
AcDbEntity
  8
GR1-1
  6
CONTINUOUS
 62
     3
100
AcDbLine
 10
195.318992
 20
126.5
 30
0.0
 11
194.318992
 21
126.5
 31
0.0
  0
LINE
  5
206
330
1F
100
AcDbEntity
  8
GR1-1
  6
CONTINUOUS
 62
     6
100
AcDbLine
 10
195.318992
 20
109.5
 30
0.0
 11
195.318992
 21
126.5
 31
0.0
  0
ARC
  5
207
330
1F
100
AcDbEntity
  8
GR1-1
  6
CONTINUOUS
 62
     6
100
AcDbCircle
 10
373.473791
 20
118.0
 30
0.0
 40
41.0
100
AcDbArc
 50
-225.596569
 51
45.596569
  0
ARC
  5
208
330
1F
100
AcDbEntity
  8
LAYERGROUP-1
  6
CONTINUOUS
 62
     6
100
AcDbCircle
 10
373.473791
 20
118.0
 30
0.0
 40
20.50000000000006
100
AcDbArc
 50
-188.102152
 51
8.102152
  0
INSERT
  5
20C
330
1F
100
AcDbEntity
  8
0
100
AcDbBlockReference
  2
BLKF025
 10
0.0
 20
0.0
 30
0.0
  0
LINE
  5
264
330
1F
100
AcDbEntity
  8
GR1-1
  6
CONTINUOUS
 62
     3
100
AcDbLine
 10
339.379441
 20
90.919546
 30
0.0
 11
337.204871
 21
93.912585
 31
0.0
  0
LINE
  5
265
330
1F
100
AcDbEntity
  8
GR1-1
  6
CONTINUOUS
 62
     3
100
AcDbLine
 10
337.204871
 20
93.912585
 30
0.0
 11
334.211831
 21
91.738015
 31
0.0
  0
LINE
  5
266
330
1F
100
AcDbEntity
  8
GR1-1
  6
CONTINUOUS
 62
     3
100
AcDbLine
 10
334.211831
 20
91.738015
 30
0.0
 11
336.386402
 21
88.744976
 31
0.0
  0
LINE
  5
267
330
1F
100
AcDbEntity
  8
GR1-1
  6
CONTINUOUS
 62
     3
100
AcDbLine
 10
336.386402
 20
88.744976
 30
0.0
 11
339.379441
 21
90.919546
 31
0.0
  0
LINE
  5
268
330
1F
100
AcDbEntity
  8
GR1-1
  6
CONTINUOUS
 62
     3
100
AcDbLine
 10
337.820739
 20
89.917848
 30
0.0
 11
335.384704
 21
90.303678
 31
0.0
  0
LINE
  5
269
330
1F
100
AcDbEntity
  8
GR1-1
  6
CONTINUOUS
 62
     3
100
AcDbLine
 10
335.384704
 20
90.303678
 30
0.0
 11
335.729611
 21
92.481332
 31
0.0
  0
LINE
  5
26A
330
1F
100
AcDbEntity
  8
GR1-1
  6
CONTINUOUS
 62
     3
100
AcDbLine
 10
335.729611
 20
92.481332
 30
0.0
 11
336.242162
 21
91.775866
 31
0.0
  0
LINE
  5
26B
330
1F
100
AcDbEntity
  8
GR1-1
  6
CONTINUOUS
 62
     3
100
AcDbLine
 10
336.242162
 20
91.775866
 30
0.0
 11
336.09017
 21
90.816229
 31
0.0
  0
LINE
  5
26C
330
1F
100
AcDbEntity
  8
GR1-1
  6
CONTINUOUS
 62
     3
100
AcDbLine
 10
336.09017
 20
90.816229
 30
0.0
 11
337.308187
 21
90.623314
 31
0.0
  0
LINE
  5
26D
330
1F
100
AcDbEntity
  8
GR1-1
  6
CONTINUOUS
 62
     3
100
AcDbLine
 10
337.308187
 20
90.623314
 30
0.0
 11
337.501102
 21
91.841332
 31
0.0
  0
LINE
  5
26E
330
1F
100
AcDbEntity
  8
GR1-1
  6
CONTINUOUS
 62
     3
100
AcDbLine
 10
337.501102
 20
91.841332
 30
0.0
 11
336.860747
 21
91.942754
 31
0.0
  0
ARC
  5
26F
330
1F
100
AcDbEntity
  8
GR1-1
  6
CONTINUOUS
 62
     3
100
AcDbCircle
 10
336.851101
 20
91.881853
 30
0.0
 40
0.06166
100
AcDbArc
 50
81.0
 51
216.0
  0
LINE
  5
270
330
1F
100
AcDbEntity
  8
GR1-1
  6
CONTINUOUS
 62
     3
100
AcDbLine
 10
336.801217
 20
91.84561
 30
0.0
 11
337.045056
 21
91.509995
 31
0.0
  0
LINE
  5
271
330
1F
100
AcDbEntity
  8
GR1-1
  6
CONTINUOUS
 62
     3
100
AcDbLine
 10
337.045056
 20
91.509995
 30
0.0
 11
336.795636
 21
91.32878
 31
0.0
  0
LINE
  5
272
330
1F
100
AcDbEntity
  8
GR1-1
  6
CONTINUOUS
 62
     3
100
AcDbLine
 10
336.795636
 20
91.32878
 30
0.0
 11
335.770534
 21
92.739713
 31
0.0
  0
LINE
  5
273
330
1F
100
AcDbEntity
  8
GR1-1
  6
CONTINUOUS
 62
     3
100
AcDbLine
 10
335.770534
 20
92.739713
 30
0.0
 11
336.780346
 21
93.473384
 31
0.0
  0
LINE
  5
274
330
1F
100
AcDbEntity
  8
GR1-1
  6
CONTINUOUS
 62
     3
100
AcDbLine
 10
336.780346
 20
93.473384
 30
0.0
 11
337.142774
 21
92.974544
 31
0.0
  0
LINE
  5
275
330
1F
100
AcDbEntity
  8
GR1-1
  6
CONTINUOUS
 62
     3
100
AcDbLine
 10
337.142774
 20
92.974544
 30
0.0
 11
336.752233
 21
92.690799
 31
0.0
  0
ARC
  5
276
330
1F
100
AcDbEntity
  8
GR1-1
  6
CONTINUOUS
 62
     3
100
AcDbCircle
 10
336.788476
 20
92.640915
 30
0.0
 40
0.06166
100
AcDbArc
 50
126.0
 51
261.0
  0
LINE
  5
277
330
1F
100
AcDbEntity
  8
GR1-1
  6
CONTINUOUS
 62
     3
100
AcDbLine
 10
336.77883
 20
92.580014
 30
0.0
 11
338.206568
 21
92.353883
 31
0.0
  0
LINE
  5
278
330
1F
100
AcDbEntity
  8
GR1-1
  6
CONTINUOUS
 62
     3
100
AcDbLine
 10
338.206568
 20
92.353883
 30
0.0
 11
337.820739
 21
89.917848
 31
0.0
  0
TEXT
  5
279
330
1F
100
AcDbEntity
  8
LAYERGROUP-1
  6
CONTINUOUS
 62
     7
100
AcDbText
 10
335.521362
 20
98.389839
 30
0.0
 40
5.331655
  1
G
 50
114.0
 41
1.098276
  7
FX_VECTOR
 72
     5
 11
333.479906
 21
102.975025
 31
0.0
100
AcDbText
  0
TEXT
  5
27A
330
1F
100
AcDbEntity
  8
LAYERGROUP-1
  6
CONTINUOUS
 62
     7
100
AcDbText
 10
333.54538
 20
102.812202
 30
0.0
 40
5.331655
  1
O
 50
107.5
 41
1.040472
  7
FX_VECTOR
 72
     5
 11
332.036104
 21
107.599014
 31
0.0
100
AcDbText
  0
TEXT
  5
27B
330
1F
100
AcDbEntity
  8
LAYERGROUP-1
  6
CONTINUOUS
 62
     7
100
AcDbText
 10
332.176575
 20
107.069069
 30
0.0
 40
5.331655
  1
L
 50
101.5
 41
1.235561
  7
FX_VECTOR
 72
     5
 11
331.175925
 21
111.98742
 31
0.0
100
AcDbText
  0
TEXT
  5
27C
330
1F
100
AcDbEntity
  8
LAYERGROUP-1
  6
CONTINUOUS
 62
     7
100
AcDbText
 10
331.20462
 20
111.814308
 30
0.0
 40
5.331655
  1
D
 50
95.0
 41
1.098276
  7
FX_VECTOR
 72
     5
 11
330.767176
 21
116.81432
 31
0.0
100
AcDbText
  0
TEXT
  5
27D
330
1F
100
AcDbEntity
  8
LAYERGROUP-1
  6
CONTINUOUS
 62
     7
100
AcDbText
 10
330.800934
 20
119.993324
 30
0.0
 40
5.331655
  1
C
 50
84.0
 41
1.098276
  7
FX_VECTOR
 72
     5
 11
331.325574
 21
124.98494
 31
0.0
100
AcDbText
  0
TEXT
  5
27E
330
1F
100
AcDbEntity
  8
LAYERGROUP-1
  6
CONTINUOUS
 62
     7
100
AcDbText
 10
331.243073
 20
124.44294
 30
0.0
 40
5.331655
  1
A
 50
78.0
 41
1.162881
  7
FX_VECTOR
 72
     5
 11
332.286604
 21
129.352371
 31
0.0
100
AcDbText
  0
TEXT
  5
27F
330
1F
100
AcDbEntity
  8
LAYERGROUP-1
  6
CONTINUOUS
 62
     7
100
AcDbText
 10
332.243896
 20
129.182159
 30
0.0
 40
5.331655
  1
S
 50
71.5
 41
1.162881
  7
FX_VECTOR
 72
     5
 11
333.836484
 21
133.941901
 31
0.0
100
AcDbText
  0
TEXT
  5
280
330
1F
100
AcDbEntity
  8
LAYERGROUP-1
  6
CONTINUOUS
 62
     7
100
AcDbText
 10
333.638611
 20
133.430573
 30
0.0
 40
5.331655
  1
T
 50
65.5
 41
1.317931
  7
FX_VECTOR
 72
     5
 11
335.720002
 21
137.997769
 31
0.0
100
AcDbText
  0
TEXT
  5
281
330
1F
100
AcDbEntity
  8
LAYERGROUP-1
  6
CONTINUOUS
 62
     7
100
AcDbText
 10
335.300934
 20
137.177582
 30
0.0
 40
5.331655
  1
E
 50
60.0
 41
1.162881
  7
FX_VECTOR
 72
     5
 11
337.810489
 21
141.52426
 31
0.0
100
AcDbText
  0
TEXT
  5
282
330
1F
100
AcDbEntity
  8
LAYERGROUP-1
  6
CONTINUOUS
 62
     7
100
AcDbText
 10
337.717285
 20
141.37558
 30
0.0
 40
5.331655
  1
R
 50
53.5
 41
1.098276
  7
FX_VECTOR
 72
     5
 11
340.702767
 21
145.410227
 31
0.0
100
AcDbText
  0
TEXT
  5
283
330
1F
100
AcDbEntity
  8
LAYERGROUP-1
  6
CONTINUOUS
 62
     7
100
AcDbText
 10
413.981506
 20
131.590576
 30
0.0
 40
5.27711
  1
1
 50
285.5
 41
1.701829
  7
FX_VECTOR
 72
     5
 11
415.238648
 21
127.057469
 31
0.0
100
AcDbText
  0
TEXT
  5
284
330
1F
100
AcDbEntity
  8
LAYERGROUP-1
  6
CONTINUOUS
 62
     7
100
AcDbText
 10
414.922943
 20
128.370483
 30
0.0
 40
5.27711
  1
0
 50
281.0
 41
1.101184
  7
FX_VECTOR
 72
     5
 11
415.820546
 21
123.752716
 31
0.0
100
AcDbText
  0
TEXT
  5
285
330
1F
100
AcDbEntity
  8
LAYERGROUP-1
  6
CONTINUOUS
 62
     7
100
AcDbText
 10
415.779877
 20
123.981087
 30
0.0
 40
5.27711
  1
0
 50
275.0
 41
1.101184
  7
FX_VECTOR
 72
     5
 11
416.189874
 21
119.294791
 31
0.0
100
AcDbText
  0
TEXT
  5
286
330
1F
100
AcDbEntity
  8
LAYERGROUP-1
  6
CONTINUOUS
 62
     7
100
AcDbText
 10
416.184998
 20
119.15345
 30
0.0
 40
5.27711
  1
X
 50
268.5
 41
1.101184
  7
FX_VECTOR
 72
     5
 11
416.061856
 21
114.450866
 31
0.0
100
AcDbText
  0
TEXT
  5
287
330
1F
100
AcDbEntity
  8
LAYERGROUP-1
  6
CONTINUOUS
 62
     7
100
AcDbText
 10
416.071594
 20
114.682594
 30
0.0
 40
5.27711
  1
3
 50
262.5
 41
1.101184
  7
FX_VECTOR
 72
     5
 11
415.457573
 21
110.018643
 31
0.0
100
AcDbText
  0
TEXT
  5
288
330
1F
100
AcDbEntity
  8
LAYERGROUP-1
  6
CONTINUOUS
 62
     7
100
AcDbText
 10
415.491455
 20
110.248085
 30
0.0
 40
5.27711
  1
2
 50
256.5
 41
1.101184
  7
FX_VECTOR
 72
     5
 11
414.393282
 21
105.673866
 31
0.0
100
AcDbText
  0
LINE
  5
289
330
1F
100
AcDbEntity
  8
GR1-1
  6
CONTINUOUS
 62
     3
100
AcDbLine
 10
144.718992
 20
127.200512
 30
0.0
 11
144.718992
 21
108.0
 31
0.0
  0
ARC
  5
28A
330
1F
100
AcDbEntity
  8
GR1-1
  6
CONTINUOUS
 62
     3
100
AcDbCircle
 10
145.218992
 20
108.0
 30
0.0
 40
0.5
100
AcDbArc
 50
180.0
 51
270.0
  0
LINE
  5
28B
330
1F
100
AcDbEntity
  8
GR1-1
  6
CONTINUOUS
 62
     3
100
AcDbLine
 10
145.218992
 20
107.5
 30
0.0
 11
147.218992
 21
107.5
 31
0.0
  0
ARC
  5
28C
330
1F
100
AcDbEntity
  8
GR1-1
  6
CONTINUOUS
 62
     3
100
AcDbCircle
 10
147.218992
 20
108.0
 30
0.0
 40
0.5
100
AcDbArc
 50
270.0
 51
360.0
  0
LINE
  5
28D
330
1F
100
AcDbEntity
  8
GR1-1
  6
CONTINUOUS
 62
     3
100
AcDbLine
 10
143.468992
 20
107.030345
 30
0.0
 11
138.968992
 21
107.030345
 31
0.0
  0
ARC
  5
28E
330
1F
100
AcDbEntity
  8
GR1-1
  6
CONTINUOUS
 62
     3
100
AcDbCircle
 10
141.085659
 20
109.772759
 30
0.0
 40
3.633333333332942
100
AcDbArc
 50
-49.007267
 51
49.007267
  0
LINE
  5
28F
330
1F
100
AcDbEntity
  8
GR1-1
  6
CONTINUOUS
 62
     3
100
AcDbLine
 10
143.468992
 20
112.515172
 30
0.0
 11
138.968992
 21
112.515172
 31
0.0
  0
ARC
  5
290
330
1F
100
AcDbEntity
  8
GR1-1
  6
CONTINUOUS
 62
     3
100
AcDbCircle
 10
141.352326
 20
109.772759
 30
0.0
 40
3.633333333332979
100
AcDbArc
 50
130.992733
 51
229.007267
  0
LINE
  5
291
330
1F
100
AcDbEntity
  8
GR1-1
  6
CONTINUOUS
 62
     3
100
AcDbLine
 10
138.968992
 20
123.484828
 30
0.0
 11
143.468992
 21
123.484828
 31
0.0
  0
ARC
  5
292
330
1F
100
AcDbEntity
  8
GR1-1
  6
CONTINUOUS
 62
     3
100
AcDbCircle
 10
141.085659
 20
126.227241
 30
0.0
 40
3.633333333333
100
AcDbArc
 50
-49.007267
 51
49.007267
  0
LINE
  5
293
330
1F
100
AcDbEntity
  8
GR1-1
  6
CONTINUOUS
 62
     3
100
AcDbLine
 10
143.468992
 20
128.969655
 30
0.0
 11
138.968992
 21
128.969655
 31
0.0
  0
ARC
  5
294
330
1F
100
AcDbEntity
  8
GR1-1
  6
CONTINUOUS
 62
     3
100
AcDbCircle
 10
141.352326
 20
126.227241
 30
0.0
 40
3.633333333332883
100
AcDbArc
 50
130.992733
 51
229.007267
  0
ARC
  5
295
330
1F
100
AcDbEntity
  8
GR1-1
  6
CONTINUOUS
 62
     3
100
AcDbCircle
 10
150.377326
 20
118.0
 30
0.0
 40
12.65833333333353
100
AcDbArc
 50
154.322973
 51
205.677027
  0
ARC
  5
296
330
1F
100
AcDbEntity
  8
GR1-1
  6
CONTINUOUS
 62
     3
100
AcDbCircle
 10
132.060659
 20
118.0
 30
0.0
 40
12.65833333333325
100
AcDbArc
 50
-25.677027
 51
25.677027
  0
LINE
  5
297
330
1F
100
AcDbEntity
  8
GR1-1
  6
CONTINUOUS
 62
     3
100
AcDbLine
 10
137.718992
 20
109.77276
 30
0.0
 11
137.718992
 21
126.227241
 31
0.0
  0
ARC
  5
298
330
1F
100
AcDbEntity
  8
GR1-1
  6
CONTINUOUS
 62
     3
100
AcDbCircle
 10
383.473791
 20
346.15
 30
0.0
 40
0.5
100
AcDbArc
 50
270.0
 51
360.0
  0
LINE
  5
299
330
1F
100
AcDbEntity
  8
GR1-1
  6
CONTINUOUS
 62
     3
100
AcDbLine
 10
383.973791
 20
346.15
 30
0.0
 11
383.973791
 21
348.15
 31
0.0
  0
ARC
  5
29A
330
1F
100
AcDbEntity
  8
GR1-1
  6
CONTINUOUS
 62
     3
100
AcDbCircle
 10
383.473791
 20
348.15
 30
0.0
 40
0.5
100
AcDbArc
 50
0.0
 51
90.0
  0
LINE
  5
29B
330
1F
100
AcDbEntity
  8
GR1-1
  6
CONTINUOUS
 62
     3
100
AcDbLine
 10
383.473791
 20
348.65
 30
0.0
 11
363.473791
 21
348.65
 31
0.0
  0
ARC
  5
29C
330
1F
100
AcDbEntity
  8
GR1-1
  6
CONTINUOUS
 62
     3
100
AcDbCircle
 10
363.473791
 20
348.15
 30
0.0
 40
0.5
100
AcDbArc
 50
90.0
 51
180.0
  0
LINE
  5
29D
330
1F
100
AcDbEntity
  8
GR1-1
  6
CONTINUOUS
 62
     3
100
AcDbLine
 10
362.973791
 20
348.15
 30
0.0
 11
362.973791
 21
346.15
 31
0.0
  0
ARC
  5
29E
330
1F
100
AcDbEntity
  8
GR1-1
  6
CONTINUOUS
 62
     3
100
AcDbCircle
 10
363.473791
 20
346.15
 30
0.0
 40
0.5
100
AcDbArc
 50
180.0
 51
270.0
  0
INSERT
  5
2A2
330
1F
100
AcDbEntity
  8
0
100
AcDbBlockReference
  2
BLKF026
 10
0.0
 20
0.0
 30
0.0
  0
DIMENSION
  5
2AC
330
1F
100
AcDbEntity
  8
LAYERGROUP-1
100
AcDbDimension
  2
*D25
 10
189.318992
 20
55.82818
 30
0.0
 11
173.318985
 21
56.828178
 31
0.0
 70
    33
  3
FXDIMINFO
100
AcDbAlignedDimension
 13
157.318992
 23
70.711982
 33
0.0
 14
189.318992
 24
70.711982
 34
0.0
1001
ACAD
1000
DSTYLE
1002
{
1070
     7
1000
FXTIP_ARROW_E
1070
     6
1000
FXTIP_ARROW_S
1070
   173
1070
     1
1002
}
  0
ENDSEC
  0
SECTION
  2
OBJECTS
  0
DICTIONARY
  5
C
330
0
100
AcDbDictionary
  3
ACAD_GROUP
350
D
  3
ACAD_LAYOUT
350
1A
  3
ACAD_MLINESTYLE
350
17
  3
ACAD_PLOTSETTINGS
350
19
  3
ACDBHEADERROUNDTRIPXREC
350
2B6
  0
DICTIONARY
  5
D
102
{ACAD_REACTORS
330
C
102
}
330
C
100
AcDbDictionary
  0
DICTIONARY
  5
1A
102
{ACAD_REACTORS
330
C
102
}
330
C
100
AcDbDictionary
  0
DICTIONARY
  5
17
102
{ACAD_REACTORS
330
C
102
}
330
C
100
AcDbDictionary
  3
STANDARD
350
18
  0
DICTIONARY
  5
19
102
{ACAD_REACTORS
330
C
102
}
330
C
100
AcDbDictionary
  0
DICTIONARY
  5
2B6
102
{ACAD_REACTORS
330
C
102
}
330
C
100
AcDbDictionary
  3
CEPSNTYPE
350
2BF
  3
DIMSTYLEDATA
350
2D5
  3
FINGERPRINTGUID
350
2C0
  3
HYPERLINKBASE
350
2B9
  3
INSUNITS
350
2BE
  3
LAYOUTDICT
350
2BB
  3
LWETCUNION
350
2BD
  3
PLOTSETDICT
350
2BC
  3
PSVPSCALE
350
2C2
  3
PUCSBASE
350
2C5
  3
PUCSORGBACK
350
2CB
  3
PUCSORGBOTTOM
350
2C7
  3
PUCSORGFRONT
350
2CA
  3
PUCSORGLEFT
350
2C8
  3
PUCSORGRIGHT
350
2C9
  3
PUCSORGTOP
350
2C6
  3
PUCSORTHOREF
350
2C3
  3
PUCSORTHOVIEW
350
2C4
  3
STYLESHEET
350
2BA
  3
TSTACKALIGN
350
2B7
  3
TSTACKSIZE
350
2B8
  3
UCSBASE
350
2CE
  3
UCSORGBACK
350
2D4
  3
UCSORGBOTTOM
350
2D0
  3
UCSORGFRONT
350
2D3
  3
UCSORGLEFT
350
2D1
  3
UCSORGRIGHT
350
2D2
  3
UCSORGTOP
350
2CF
  3
UCSORTHOREF
350
2CC
  3
UCSORTHOVIEW
350
2CD
  3
VERSIONGUID
350
2C1
  0
MLINESTYLE
  5
18
102
{ACAD_REACTORS
330
17
102
}
330
17
100
AcDbMlineStyle
  2
Standard
 70
     0
  3

 62
   256
 51
90.0
 52
90.0
 71
     2
 49
0.5
 62
   256
  6
BYLAYER
 49
-0.5
 62
   256
  6
BYLAYER
  0
XRECORD
  5
2BF
102
{ACAD_REACTORS
330
2B6
102
}
330
2B6
100
AcDbXrecord
 90
        0
  0
XRECORD
  5
2D5
102
{ACAD_REACTORS
330
2B6
102
}
330
2B6
100
AcDbXrecord
1000
DSTYLE
1002
{
1070
   179
 70
     2
1070
   171
 70
     3
1070
   143
 40
0.03937
1070
   274
 70
     3
1070
    41
 40
4.0
1070
   343
340
41
1070
   344
340
47
1070
   141
 40
2.5
1070
   176
 70
     7
1070
   177
 70
     7
1070
   178
 70
     7
1070
   271
 70
     2
1070
    46
 40
6.0
1070
    43
 40
10.0
1070
    44
 40
1.0
1070
    42
 40
1.0
1070
   147
 40
1.0
1070
   341
340
41
1070
   173
 70
     1
1070
    77
 70
     1
1070
   272
 70
     2
1070
    73
 70
     0
1070
   172
 70
     1
1070
    74
 70
     0
1070
   283
 70
     0
1070
   340
340
40
1070
   140
 40
4.0
1070
   284
 70
     8
1070
    78
 70
     8
1002
}
  0
XRECORD
  5
2C0
102
{ACAD_REACTORS
330
2B6
102
}
330
2B6
100
AcDbXrecord
  1
{0EFEC55A-6B78-4A52-BCF2-2CC670296265}
  0
XRECORD
  5
2B9
102
{ACAD_REACTORS
330
2B6
102
}
330
2B6
100
AcDbXrecord
  1

  0
XRECORD
  5
2BE
102
{ACAD_REACTORS
330
2B6
102
}
330
2B6
100
AcDbXrecord
 90
        1
  0
XRECORD
  5
2BB
102
{ACAD_REACTORS
330
2B6
102
}
330
2B6
100
AcDbXrecord
340
1A
  0
XRECORD
  5
2BD
102
{ACAD_REACTORS
330
2B6
102
}
330
2B6
100
AcDbXrecord
 90
    10781
  0
XRECORD
  5
2BC
102
{ACAD_REACTORS
330
2B6
102
}
330
2B6
100
AcDbXrecord
340
19
  0
XRECORD
  5
2C2
102
{ACAD_REACTORS
330
2B6
102
}
330
2B6
100
AcDbXrecord
 40
0.0
  0
XRECORD
  5
2C5
102
{ACAD_REACTORS
330
2B6
102
}
330
2B6
100
AcDbXrecord
340
0
  0
XRECORD
  5
2CB
102
{ACAD_REACTORS
330
2B6
102
}
330
2B6
100
AcDbXrecord
 10
0.0
 20
0.0
 30
0.0
  0
XRECORD
  5
2C7
102
{ACAD_REACTORS
330
2B6
102
}
330
2B6
100
AcDbXrecord
 10
0.0
 20
0.0
 30
0.0
  0
XRECORD
  5
2CA
102
{ACAD_REACTORS
330
2B6
102
}
330
2B6
100
AcDbXrecord
 10
0.0
 20
0.0
 30
0.0
  0
XRECORD
  5
2C8
102
{ACAD_REACTORS
330
2B6
102
}
330
2B6
100
AcDbXrecord
 10
0.0
 20
0.0
 30
0.0
  0
XRECORD
  5
2C9
102
{ACAD_REACTORS
330
2B6
102
}
330
2B6
100
AcDbXrecord
 10
0.0
 20
0.0
 30
0.0
  0
XRECORD
  5
2C6
102
{ACAD_REACTORS
330
2B6
102
}
330
2B6
100
AcDbXrecord
 10
0.0
 20
0.0
 30
0.0
  0
XRECORD
  5
2C3
102
{ACAD_REACTORS
330
2B6
102
}
330
2B6
100
AcDbXrecord
340
0
  0
XRECORD
  5
2C4
102
{ACAD_REACTORS
330
2B6
102
}
330
2B6
100
AcDbXrecord
 70
     0
  0
XRECORD
  5
2BA
102
{ACAD_REACTORS
330
2B6
102
}
330
2B6
100
AcDbXrecord
  1

  0
XRECORD
  5
2B7
102
{ACAD_REACTORS
330
2B6
102
}
330
2B6
100
AcDbXrecord
 90
        1
  0
XRECORD
  5
2B8
102
{ACAD_REACTORS
330
2B6
102
}
330
2B6
100
AcDbXrecord
 90
       70
  0
XRECORD
  5
2CE
102
{ACAD_REACTORS
330
2B6
102
}
330
2B6
100
AcDbXrecord
340
0
  0
XRECORD
  5
2D4
102
{ACAD_REACTORS
330
2B6
102
}
330
2B6
100
AcDbXrecord
 10
0.0
 20
0.0
 30
0.0
  0
XRECORD
  5
2D0
102
{ACAD_REACTORS
330
2B6
102
}
330
2B6
100
AcDbXrecord
 10
0.0
 20
0.0
 30
0.0
  0
XRECORD
  5
2D3
102
{ACAD_REACTORS
330
2B6
102
}
330
2B6
100
AcDbXrecord
 10
0.0
 20
0.0
 30
0.0
  0
XRECORD
  5
2D1
102
{ACAD_REACTORS
330
2B6
102
}
330
2B6
100
AcDbXrecord
 10
0.0
 20
0.0
 30
0.0
  0
XRECORD
  5
2D2
102
{ACAD_REACTORS
330
2B6
102
}
330
2B6
100
AcDbXrecord
 10
0.0
 20
0.0
 30
0.0
  0
XRECORD
  5
2CF
102
{ACAD_REACTORS
330
2B6
102
}
330
2B6
100
AcDbXrecord
 10
0.0
 20
0.0
 30
0.0
  0
XRECORD
  5
2CC
102
{ACAD_REACTORS
330
2B6
102
}
330
2B6
100
AcDbXrecord
340
0
  0
XRECORD
  5
2CD
102
{ACAD_REACTORS
330
2B6
102
}
330
2B6
100
AcDbXrecord
 70
     0
  0
XRECORD
  5
2C1
102
{ACAD_REACTORS
330
2B6
102
}
330
2B6
100
AcDbXrecord
  1
{FAEB1C32-E019-11D5-929B-00C0DF256EC4}
  0
ENDSEC
  0
EOF
