  0
SECTION
  2
HEADER
  9
$ACADVER
  1
AC1014
  9
$ACADMAINTVER
 70
     9
  9
$DWGCODEPAGE
  3
ANSI_932
  9
$INSBASE
 10
0.0
 20
0.0
 30
0.0
  9
$EXTMIN
 10
0.0
 20
0.0
 30
0.0
  9
$EXTMAX
 10
594.0
 20
420.0
 30
0.0
  9
$LIMMIN
 10
0.0
 20
0.0
  9
$LIMMAX
 10
594.0
 20
420.0
  9
$ORTHOMODE
 70
     0
  9
$REGENMODE
 70
     1
  9
$FILLMODE
 70
     1
  9
$QTEXTMODE
 70
     0
  9
$MIRRTEXT
 70
     1
  9
$DRAGMODE
 70
     2
  9
$LTSCALE
 40
1.0
  9
$OSMODE
 70
    37
  9
$ATTMODE
 70
     1
  9
$TEXTSIZE
 40
0.2
  9
$TRACEWID
 40
0.05
  9
$TEXTSTYLE
  7
STYLE1
  9
$CLAYER
  8
0
  9
$CELTYPE
  6
BYLAYER
  9
$CECOLOR
 62
   256
  9
$CELTSCALE
 40
1.0
  9
$DELOBJ
 70
     1
  9
$DISPSILH
 70
     0
  9
$DIMSCALE
 40
1.0
  9
$DIMASZ
 40
4.0
  9
$DIMEXO
 40
1.0
  9
$DIMDLI
 40
10.0
  9
$DIMRND
 40
0.0
  9
$DIMDLE
 40
6.0
  9
$DIMEXE
 40
1.0
  9
$DIMTP
 40
0.0
  9
$DIMTM
 40
0.0
  9
$DIMTXT
 40
4.0
  9
$DIMCEN
 40
2.5
  9
$DIMTSZ
 40
0.0
  9
$DIMTOL
 70
     0
  9
$DIMLIM
 70
     0
  9
$DIMTIH
 70
     0
  9
$DIMTOH
 70
     0
  9
$DIMSE1
 70
     0
  9
$DIMSE2
 70
     0
  9
$DIMTAD
 70
     1
  9
$DIMZIN
 70
     8
  9
$DIMBLK
  1

  9
$DIMASO
 70
     1
  9
$DIMSHO
 70
     1
  9
$DIMPOST
  1

  9
$DIMAPOST
  1

  9
$DIMALT
 70
     0
  9
$DIMALTD
 70
     3
  9
$DIMALTF
 40
0.03937
  9
$DIMLFAC
 40
1.0
  9
$DIMTOFL
 70
     1
  9
$DIMTVP
 40
0.0
  9
$DIMTIX
 70
     0
  9
$DIMSOXD
 70
     0
  9
$DIMSAH
 70
     1
  9
$DIMBLK1
  1

  9
$DIMBLK2
  1
FXTIP_ARROW_E
  9
$DIMSTYLE
  2
FXDIMINFO
  9
$DIMCLRD
 70
     7
  9
$DIMCLRE
 70
     7
  9
$DIMCLRT
 70
     7
  9
$DIMTFAC
 40
1.0
  9
$DIMGAP
 40
1.0
  9
$DIMJUST
 70
     0
  9
$DIMSD1
 70
     0
  9
$DIMSD2
 70
     0
  9
$DIMTOLJ
 70
     0
  9
$DIMTZIN
 70
     8
  9
$DIMALTZ
 70
     0
  9
$DIMALTTZ
 70
     0
  9
$DIMFIT
 70
     3
  9
$DIMUPT
 70
     0
  9
$DIMUNIT
 70
     2
  9
$DIMDEC
 70
     2
  9
$DIMTDEC
 70
     2
  9
$DIMALTU
 70
     2
  9
$DIMALTTD
 70
     3
  9
$DIMTXSTY
  7
STYLE1
  9
$DIMAUNIT
 70
     0
  9
$LUNITS
 70
     2
  9
$LUPREC
 70
     4
  9
$SKETCHINC
 40
0.1
  9
$FILLETRAD
 40
0.5
  9
$AUNITS
 70
     0
  9
$AUPREC
 70
     0
  9
$MENU
  1
.
  9
$ELEVATION
 40
0.0
  9
$PELEVATION
 40
0.0
  9
$THICKNESS
 40
0.0
  9
$LIMCHECK
 70
     0
  9
$CHAMFERA
 40
0.5
  9
$CHAMFERB
 40
0.5
  9
$CHAMFERC
 40
1.0
  9
$CHAMFERD
 40
0.0
  9
$SKPOLY
 70
     0
  9
$TDCREATE
 40
2455307.749961169
  9
$TDUPDATE
 40
2455307.749961181
  9
$TDINDWG
 40
0.0000000116
  9
$TDUSRTIMER
 40
0.0000000116
  9
$USRTIMER
 70
     1
  9
$ANGBASE
 50
0.0
  9
$ANGDIR
 70
     0
  9
$PDMODE
 70
     0
  9
$PDSIZE
 40
0.0
  9
$PLINEWID
 40
0.0
  9
$COORDS
 70
     1
  9
$SPLFRAME
 70
     0
  9
$SPLINETYPE
 70
     6
  9
$SPLINESEGS
 70
     8
  9
$ATTDIA
 70
     0
  9
$ATTREQ
 70
     1
  9
$HANDLING
 70
     1
  9
$HANDSEED
  5
2F8
  9
$SURFTAB1
 70
     6
  9
$SURFTAB2
 70
     6
  9
$SURFTYPE
 70
     6
  9
$SURFU
 70
     6
  9
$SURFV
 70
     6
  9
$UCSNAME
  2

  9
$UCSORG
 10
0.0
 20
0.0
 30
0.0
  9
$UCSXDIR
 10
1.0
 20
0.0
 30
0.0
  9
$UCSYDIR
 10
0.0
 20
1.0
 30
0.0
  9
$PUCSNAME
  2

  9
$PUCSORG
 10
0.0
 20
0.0
 30
0.0
  9
$PUCSXDIR
 10
1.0
 20
0.0
 30
0.0
  9
$PUCSYDIR
 10
0.0
 20
1.0
 30
0.0
  9
$USERI1
 70
     0
  9
$USERI2
 70
     0
  9
$USERI3
 70
     0
  9
$USERI4
 70
     0
  9
$USERI5
 70
     0
  9
$USERR1
 40
0.0
  9
$USERR2
 40
0.0
  9
$USERR3
 40
0.0
  9
$USERR4
 40
0.0
  9
$USERR5
 40
0.0
  9
$WORLDVIEW
 70
     1
  9
$SHADEDGE
 70
     3
  9
$SHADEDIF
 70
    70
  9
$TILEMODE
 70
     1
  9
$MAXACTVP
 70
    64
  9
$PINSBASE
 10
0.0
 20
0.0
 30
0.0
  9
$PLIMCHECK
 70
     0
  9
$PEXTMIN
 10
1.000000E+20
 20
1.000000E+20
 30
1.000000E+20
  9
$PEXTMAX
 10
-1.000000E+20
 20
-1.000000E+20
 30
-1.000000E+20
  9
$PLIMMIN
 10
0.0
 20
0.0
  9
$PLIMMAX
 10
12.0
 20
9.0
  9
$UNITMODE
 70
     0
  9
$VISRETAIN
 70
     1
  9
$PLINEGEN
 70
     0
  9
$PSLTSCALE
 70
     1
  9
$TREEDEPTH
 70
  3020
  9
$PICKSTYLE
 70
     1
  9
$CMLSTYLE
  2
STANDARD
  9
$CMLJUST
 70
     0
  9
$CMLSCALE
 40
1.0
  9
$PROXYGRAPHICS
 70
     1
  9
$MEASUREMENT
 70
     0
  0
ENDSEC
  0
SECTION
  2
CLASSES
  0
CLASS
  1
ACDBDICTIONARYWDFLT
  2
AcDbDictionaryWithDefault
  3
ObjectDBX Classes
 90
        0
280
     0
281
     0
  0
CLASS
  1
XRECORD
  2
AcDbXrecord
  3
AutoCAD 2000
 90
        0
280
     0
281
     0
  0
CLASS
  1
LWPOLYLINE
  2
AcDbPolyline
  3
AutoCAD 2000
 90
        0
280
     0
281
     1
  0
CLASS
  1
HATCH
  2
AcDbHatch
  3
AutoCAD 2000
 90
        0
280
     0
281
     1
  0
CLASS
  1
ACDBPLACEHOLDER
  2
AcDbPlaceHolder
  3
ObjectDBX Classes
 90
        0
280
     0
281
     0
  0
CLASS
  1
LAYOUT
  2
AcDbLayout
  3
ObjectDBX Classes
 90
        0
280
     0
281
     0
  0
ENDSEC
  0
SECTION
  2
TABLES
  0
TABLE
  2
VPORT
  5
8
330
0
100
AcDbSymbolTable
 70
     1
  0
VPORT
  5
29
330
8
100
AcDbSymbolTableRecord
100
AcDbViewportTableRecord
  2
*ACTIVE
 70
     0
 10
0.0
 20
0.0
 11
1.0
 21
1.0
 12
297.0
 22
210.0
 13
0.0
 23
0.0
 14
0.5
 24
0.5
 15
0.5
 25
0.5
 16
0.0
 26
0.0
 36
1.0
 17
0.0
 27
0.0
 37
0.0
 40
420.0
 41
1.414286
 42
50.0
 43
0.0
 44
0.0
 50
0.0
 51
0.0
 71
     0
 72
   100
 73
     1
 74
     3
 75
     0
 76
     0
 77
     0
 78
     0
  0
ENDTAB
  0
TABLE
  2
LTYPE
  5
5
330
0
100
AcDbSymbolTable
 70
     4
  0
LTYPE
  5
14
330
5
100
AcDbSymbolTableRecord
100
AcDbLinetypeTableRecord
  2
BYBLOCK
 70
     0
  3

 72
    65
 73
     0
 40
0.0
  0
LTYPE
  5
15
330
5
100
AcDbSymbolTableRecord
100
AcDbLinetypeTableRecord
  2
BYLAYER
 70
     0
  3

 72
    65
 73
     0
 40
0.0
  0
LTYPE
  5
16
330
5
100
AcDbSymbolTableRecord
100
AcDbLinetypeTableRecord
  2
CONTINUOUS
 70
     0
  3
--------------------
 72
    65
 73
     0
 40
0.0
  0
LTYPE
  5
2A
330
5
100
AcDbSymbolTableRecord
100
AcDbLinetypeTableRecord
  2
CENTER
 70
     0
  3
Center ____ _ ____ _ ____ _ ____ _ ____ _ ____
 72
    65
 73
     4
 40
13.0
 49
10.0
 74
     0
 49
-1.0
 74
     0
 49
1.0
 74
     0
 49
-1.0
 74
     0
  0
LTYPE
  5
2C
330
5
100
AcDbSymbolTableRecord
100
AcDbLinetypeTableRecord
  2
DASHED
 70
     0
  3
Dashed __ __ __ __ __ __ __ __ __ __ __ __ __ _
 72
    65
 73
     2
 40
4.0
 49
3.0
 74
     0
 49
-1.0
 74
     0
  0
ENDTAB
  0
TABLE
  2
LAYER
  5
2
330
0
100
AcDbSymbolTable
 70
    24
  0
LAYER
  5
10
330
2
100
AcDbSymbolTableRecord
100
AcDbLayerTableRecord
  2
0
 70
     0
 62
     7
  6
CONTINUOUS
  0
LAYER
  5
2D
330
2
100
AcDbSymbolTableRecord
100
AcDbLayerTableRecord
  2
LAYERGROUP-1
 70
     0
 62
     3
  6
CONTINUOUS
  0
LAYER
  5
3D
330
2
100
AcDbSymbolTableRecord
100
AcDbLayerTableRecord
  2
}}ﾊﾊGG血CCТ
 70
     0
 62
     3
  6
CONTINUOUS
  0
LAYER
  5
BA
330
2
100
AcDbSymbolTableRecord
100
AcDbLayerTableRecord
  2
0-1
 70
     0
 62
     7
  6
CONTINUOUS
  0
LAYER
  5
D2
330
2
100
AcDbSymbolTableRecord
100
AcDbLayerTableRecord
  2
GR1-1
 70
     0
 62
     7
  6
CONTINUOUS
  0
LAYER
  5
D9
330
2
100
AcDbSymbolTableRecord
100
AcDbLayerTableRecord
  2
GR1-1-1
 70
     0
 62
     7
  6
CONTINUOUS
  0
LAYER
  5
DB
330
2
100
AcDbSymbolTableRecord
100
AcDbLayerTableRecord
  2
FIG_3-1-1
 70
     0
 62
     7
  6
CONTINUOUS
  0
LAYER
  5
DD
330
2
100
AcDbSymbolTableRecord
100
AcDbLayerTableRecord
  2
FIG_1-1-1
 70
     0
 62
     7
  6
CONTINUOUS
  0
LAYER
  5
116
330
2
100
AcDbSymbolTableRecord
100
AcDbLayerTableRecord
  2
FIG_2-1-1
 70
     0
 62
     7
  6
CONTINUOUS
  0
ENDTAB
  0
TABLE
  2
STYLE
  5
3
330
0
100
AcDbSymbolTable
 70
     4
  0
STYLE
  5
11
330
3
100
AcDbSymbolTableRecord
100
AcDbTextStyleTableRecord
  2
STANDARD
 70
     0
 40
0.0
 41
1.0
 50
0.0
 71
     0
 42
0.2
  3
txt
  4

  0
STYLE
  5
3F
330
3
100
AcDbSymbolTableRecord
100
AcDbTextStyleTableRecord
  2
STYLE1
 70
     0
 40
0.0
 41
1.0
 50
0.0
 71
     0
 42
0.2
  3
MONOTXT.SHX
  4
extfont.shx
  0
STYLE
  5
40
330
3
100
AcDbSymbolTableRecord
100
AcDbTextStyleTableRecord
  2
FX_VECTOR
 70
     0
 40
0.0
 41
1.0
 50
0.0
 71
     0
 42
0.2
  3
MONOTXT.SHX
  4
BIGFONT.SHX
  0
ENDTAB
  0
TABLE
  2
VIEW
  5
6
330
0
100
AcDbSymbolTable
 70
     0
  0
ENDTAB
  0
TABLE
  2
UCS
  5
7
330
0
100
AcDbSymbolTable
 70
     0
  0
ENDTAB
  0
TABLE
  2
APPID
  5
9
330
0
100
AcDbSymbolTable
 70
     1
  0
APPID
  5
12
330
9
100
AcDbSymbolTableRecord
100
AcDbRegAppTableRecord
  2
ACAD
 70
     0
  0
ENDTAB
  0
TABLE
  2
DIMSTYLE
  5
A
330
0
100
AcDbSymbolTable
 70
     2
  0
DIMSTYLE
105
27
330
A
100
AcDbSymbolTableRecord
100
AcDbDimStyleTableRecord
  2
STANDARD
 70
     0
  3

  4

  5

  6

  7

 40
1.0
 41
0.18
 42
0.0625
 43
0.38
 44
0.18
 45
0.0
 46
0.0
 47
0.0
 48
0.0
140
0.18
141
0.09
142
0.0
143
25.4
144
1.0
145
0.0
146
1.0
147
0.09
 71
     0
 72
     0
 73
     1
 74
     1
 75
     0
 76
     0
 77
     0
 78
     0
170
     0
171
     2
172
     0
173
     0
174
     0
175
     0
176
     0
177
     0
178
     0
270
     2
271
     4
272
     4
273
     2
274
     2
340
11
275
     0
280
     0
281
     0
282
     0
283
     1
284
     0
285
     0
286
     0
287
     3
288
     0
  0
DIMSTYLE
105
A7
102
{ACAD_REACTORS
330
18C
330
196
330
1A0
330
1AA
330
1B4
330
1BE
330
1C8
330
1D2
330
1DC
330
1E6
330
1F8
330
227
102
}
330
A
100
AcDbSymbolTableRecord
100
AcDbDimStyleTableRecord
  2
FXDIMINFO
 70
     0
  3

  4

  5

  6

  7
FXTIP_ARROW_E
 40
1.0
 41
4.0
 42
1.0
 43
10.0
 44
1.0
 45
0.0
 46
6.0
 47
0.0
 48
0.0
140
4.0
141
2.5
142
0.0
143
0.03937
144
1.0
145
0.0
146
1.0
147
1.0
 71
     0
 72
     0
 73
     0
 74
     0
 75
     0
 76
     0
 77
     1
 78
     8
170
     0
171
     3
172
     1
173
     1
174
     0
175
     0
176
     7
177
     7
178
     7
179
     2
270
     2
271
     2
272
     2
273
     2
274
     3
340
3F
275
     0
280
     0
281
     0
282
     0
283
     0
284
     8
285
     0
286
     0
287
     3
288
     0
  0
ENDTAB
  0
TABLE
  2
BLOCK_RECORD
  5
1
330
0
100
AcDbSymbolTable
 70
    37
  0
BLOCK_RECORD
  5
1F
330
1
100
AcDbSymbolTableRecord
100
AcDbBlockTableRecord
  2
*MODEL_SPACE
  0
BLOCK_RECORD
  5
1B
330
1
100
AcDbSymbolTableRecord
100
AcDbBlockTableRecord
  2
*PAPER_SPACE
  0
BLOCK_RECORD
  5
41
330
1
100
AcDbSymbolTableRecord
100
AcDbBlockTableRecord
  2
FXTIP_ARROW_S
  0
BLOCK_RECORD
  5
47
330
1
100
AcDbSymbolTableRecord
100
AcDbBlockTableRecord
  2
FXTIP_ARROW_E
  0
BLOCK_RECORD
  5
4D
330
1
100
AcDbSymbolTableRecord
100
AcDbBlockTableRecord
  2
FXTIP_BLACKDOT_S
  0
BLOCK_RECORD
  5
53
330
1
100
AcDbSymbolTableRecord
100
AcDbBlockTableRecord
  2
FXTIP_BLACKDOT_E
  0
BLOCK_RECORD
  5
59
330
1
100
AcDbSymbolTableRecord
100
AcDbBlockTableRecord
  2
FXTIP_TRIANGLE_S
  0
BLOCK_RECORD
  5
60
330
1
100
AcDbSymbolTableRecord
100
AcDbBlockTableRecord
  2
FXTIP_TRIANGLE_E
  0
BLOCK_RECORD
  5
67
330
1
100
AcDbSymbolTableRecord
100
AcDbBlockTableRecord
  2
FXTIP_ARCHITECT_S
  0
BLOCK_RECORD
  5
6D
330
1
100
AcDbSymbolTableRecord
100
AcDbBlockTableRecord
  2
FXTIP_ARCHITECT_E
  0
BLOCK_RECORD
  5
73
330
1
100
AcDbSymbolTableRecord
100
AcDbBlockTableRecord
  2
FXTIP_CIVIL_S
  0
BLOCK_RECORD
  5
79
330
1
100
AcDbSymbolTableRecord
100
AcDbBlockTableRecord
  2
FXTIP_CIVIL_E
  0
BLOCK_RECORD
  5
7F
330
1
100
AcDbSymbolTableRecord
100
AcDbBlockTableRecord
  2
FXTIP_WHITEDOT_S
  0
BLOCK_RECORD
  5
84
330
1
100
AcDbSymbolTableRecord
100
AcDbBlockTableRecord
  2
FXTIP_WHITEDOT_E
  0
BLOCK_RECORD
  5
89
330
1
100
AcDbSymbolTableRecord
100
AcDbBlockTableRecord
  2
FXTIP_UPARROW_S
  0
BLOCK_RECORD
  5
8E
330
1
100
AcDbSymbolTableRecord
100
AcDbBlockTableRecord
  2
FXTIP_UPARROW_E
  0
BLOCK_RECORD
  5
93
330
1
100
AcDbSymbolTableRecord
100
AcDbBlockTableRecord
  2
FXTIP_DOWNARROW_S
  0
BLOCK_RECORD
  5
98
330
1
100
AcDbSymbolTableRecord
100
AcDbBlockTableRecord
  2
FXTIP_DOWNARROW_E
  0
BLOCK_RECORD
  5
9D
330
1
100
AcDbSymbolTableRecord
100
AcDbBlockTableRecord
  2
FXTIP_BLACKTRIANGLE_S
  0
BLOCK_RECORD
  5
A2
330
1
100
AcDbSymbolTableRecord
100
AcDbBlockTableRecord
  2
FXTIP_BLACKTRIANGLE_E
  0
BLOCK_RECORD
  5
AA
330
1
100
AcDbSymbolTableRecord
100
AcDbBlockTableRecord
  2
BLKF021
  0
BLOCK_RECORD
  5
B6
330
1
100
AcDbSymbolTableRecord
100
AcDbBlockTableRecord
  2
BLKF022
  0
BLOCK_RECORD
  5
BF
330
1
100
AcDbSymbolTableRecord
100
AcDbBlockTableRecord
  2
BLKF023
  0
BLOCK_RECORD
  5
18D
330
1
100
AcDbSymbolTableRecord
100
AcDbBlockTableRecord
  2
*D22
  0
BLOCK_RECORD
  5
197
330
1
100
AcDbSymbolTableRecord
100
AcDbBlockTableRecord
  2
*D23
  0
BLOCK_RECORD
  5
1A1
330
1
100
AcDbSymbolTableRecord
100
AcDbBlockTableRecord
  2
*D24
  0
BLOCK_RECORD
  5
1AB
330
1
100
AcDbSymbolTableRecord
100
AcDbBlockTableRecord
  2
*D25
  0
BLOCK_RECORD
  5
1B5
330
1
100
AcDbSymbolTableRecord
100
AcDbBlockTableRecord
  2
*D26
  0
BLOCK_RECORD
  5
1BF
330
1
100
AcDbSymbolTableRecord
100
AcDbBlockTableRecord
  2
*D27
  0
BLOCK_RECORD
  5
1C9
330
1
100
AcDbSymbolTableRecord
100
AcDbBlockTableRecord
  2
*D28
  0
BLOCK_RECORD
  5
1D3
330
1
100
AcDbSymbolTableRecord
100
AcDbBlockTableRecord
  2
*D29
  0
BLOCK_RECORD
  5
1DD
330
1
100
AcDbSymbolTableRecord
100
AcDbBlockTableRecord
  2
*D30
  0
BLOCK_RECORD
  5
1E7
330
1
100
AcDbSymbolTableRecord
100
AcDbBlockTableRecord
  2
*D31
  0
BLOCK_RECORD
  5
1F9
330
1
100
AcDbSymbolTableRecord
100
AcDbBlockTableRecord
  2
*D32
  0
BLOCK_RECORD
  5
228
330
1
100
AcDbSymbolTableRecord
100
AcDbBlockTableRecord
  2
*D33
  0
BLOCK_RECORD
  5
242
330
1
100
AcDbSymbolTableRecord
100
AcDbBlockTableRecord
  2
BLKF036
  0
BLOCK_RECORD
  5
246
330
1
100
AcDbSymbolTableRecord
100
AcDbBlockTableRecord
  2
BLKF037
  0
BLOCK_RECORD
  5
2C0
330
1
100
AcDbSymbolTableRecord
100
AcDbBlockTableRecord
  2
BLKF038
  0
ENDTAB
  0
ENDSEC
  0
SECTION
  2
BLOCKS
  0
BLOCK
  5
20
330
1F
100
AcDbEntity
  8
0
100
AcDbBlockBegin
  2
*MODEL_SPACE
 70
     0
 71
     0
 10
0.0
 20
0.0
 30
0.0
  3
*MODEL_SPACE
  1

  0
ENDBLK
  5
21
330
1F
100
AcDbEntity
  8
0
100
AcDbBlockEnd
  0
BLOCK
  5
1C
330
1B
100
AcDbEntity
 67
     1
  8
0
100
AcDbBlockBegin
  2
*PAPER_SPACE
 70
     0
 71
     0
 10
0.0
 20
0.0
 30
0.0
  3
*PAPER_SPACE
  1

  0
ENDBLK
  5
1D
330
1B
100
AcDbEntity
 67
     1
  8
0
100
AcDbBlockEnd
  0
BLOCK
  5
42
330
41
100
AcDbEntity
  8
0
100
AcDbBlockBegin
  2
FXTIP_ARROW_S
 70
     0
 71
     0
 10
0.0
 20
0.0
 30
0.0
  3
FXTIP_ARROW_S
  1

  0
LINE
  5
44
330
41
100
AcDbEntity
  8
0
  6
CONTINUOUS
 62
     0
100
AcDbLine
 10
0.0
 20
0.0
 30
0.0
 11
-1.0
 21
0.0
 31
0.0
  0
LINE
  5
45
330
41
100
AcDbEntity
  8
0
  6
CONTINUOUS
 62
     0
100
AcDbLine
 10
0.0
 20
0.0
 30
0.0
 11
-0.965926
 21
-0.258819
 31
0.0
  0
LINE
  5
46
330
41
100
AcDbEntity
  8
0
  6
CONTINUOUS
 62
     0
100
AcDbLine
 10
0.0
 20
0.0
 30
0.0
 11
-0.965926
 21
0.258819
 31
0.0
  0
ENDBLK
  5
43
330
41
100
AcDbEntity
  8
0
100
AcDbBlockEnd
  0
BLOCK
  5
48
330
47
100
AcDbEntity
  8
0
100
AcDbBlockBegin
  2
FXTIP_ARROW_E
 70
     0
 71
     0
 10
0.0
 20
0.0
 30
0.0
  3
FXTIP_ARROW_E
  1

  0
LINE
  5
4A
330
47
100
AcDbEntity
  8
0
  6
CONTINUOUS
 62
     0
100
AcDbLine
 10
0.0
 20
0.0
 30
0.0
 11
-1.0
 21
0.0
 31
0.0
  0
LINE
  5
4B
330
47
100
AcDbEntity
  8
0
  6
CONTINUOUS
 62
     0
100
AcDbLine
 10
0.0
 20
0.0
 30
0.0
 11
-0.965926
 21
0.258819
 31
0.0
  0
LINE
  5
4C
330
47
100
AcDbEntity
  8
0
  6
CONTINUOUS
 62
     0
100
AcDbLine
 10
0.0
 20
0.0
 30
0.0
 11
-0.965926
 21
-0.258819
 31
0.0
  0
ENDBLK
  5
49
330
47
100
AcDbEntity
  8
0
100
AcDbBlockEnd
  0
BLOCK
  5
4E
330
4D
100
AcDbEntity
  8
0
100
AcDbBlockBegin
  2
FXTIP_BLACKDOT_S
 70
     0
 71
     0
 10
0.0
 20
0.0
 30
0.0
  3
FXTIP_BLACKDOT_S
  1

  0
LINE
  5
50
330
4D
100
AcDbEntity
  8
0
  6
CONTINUOUS
 62
     0
100
AcDbLine
 10
0.0
 20
0.0
 30
0.0
 11
-1.0
 21
0.0
 31
0.0
  0
LWPOLYLINE
  5
51
330
4D
100
AcDbEntity
  8
0
  6
CONTINUOUS
 62
     0
100
AcDbPolyline
 90
        2
 70
     1
 10
-0.25
 20
0.0
 40
0.5
 41
0.5
 42
1.0
 10
0.25
 20
0.0
 40
0.5
 41
0.5
 42
1.0
  0
CIRCLE
  5
52
330
4D
100
AcDbEntity
  8
0
  6
CONTINUOUS
 62
     0
100
AcDbCircle
 10
0.0
 20
0.0
 30
0.0
 40
0.5
  0
ENDBLK
  5
4F
330
4D
100
AcDbEntity
  8
0
100
AcDbBlockEnd
  0
BLOCK
  5
54
330
53
100
AcDbEntity
  8
0
100
AcDbBlockBegin
  2
FXTIP_BLACKDOT_E
 70
     0
 71
     0
 10
0.0
 20
0.0
 30
0.0
  3
FXTIP_BLACKDOT_E
  1

  0
LINE
  5
56
330
53
100
AcDbEntity
  8
0
  6
CONTINUOUS
 62
     0
100
AcDbLine
 10
0.0
 20
0.0
 30
0.0
 11
-1.0
 21
0.0
 31
0.0
  0
LWPOLYLINE
  5
57
330
53
100
AcDbEntity
  8
0
  6
CONTINUOUS
 62
     0
100
AcDbPolyline
 90
        2
 70
     1
 10
-0.25
 20
0.0
 40
0.5
 41
0.5
 42
1.0
 10
0.25
 20
0.0
 40
0.5
 41
0.5
 42
1.0
  0
CIRCLE
  5
58
330
53
100
AcDbEntity
  8
0
  6
CONTINUOUS
 62
     0
100
AcDbCircle
 10
0.0
 20
0.0
 30
0.0
 40
0.5
  0
ENDBLK
  5
55
330
53
100
AcDbEntity
  8
0
100
AcDbBlockEnd
  0
BLOCK
  5
5A
330
59
100
AcDbEntity
  8
0
100
AcDbBlockBegin
  2
FXTIP_TRIANGLE_S
 70
     0
 71
     0
 10
0.0
 20
0.0
 30
0.0
  3
FXTIP_TRIANGLE_S
  1

  0
LINE
  5
5C
330
59
100
AcDbEntity
  8
0
  6
CONTINUOUS
 62
     0
100
AcDbLine
 10
0.0
 20
0.0
 30
0.0
 11
-1.0
 21
0.0
 31
0.0
  0
LINE
  5
5D
330
59
100
AcDbEntity
  8
0
  6
CONTINUOUS
 62
     0
100
AcDbLine
 10
0.0
 20
0.0
 30
0.0
 11
-0.965926
 21
-0.258819
 31
0.0
  0
LINE
  5
5E
330
59
100
AcDbEntity
  8
0
  6
CONTINUOUS
 62
     0
100
AcDbLine
 10
0.0
 20
0.0
 30
0.0
 11
-0.965926
 21
0.258819
 31
0.0
  0
LINE
  5
5F
330
59
100
AcDbEntity
  8
0
  6
CONTINUOUS
 62
     0
100
AcDbLine
 10
-0.965926
 20
-0.258819
 30
0.0
 11
-0.965926
 21
0.258819
 31
0.0
  0
ENDBLK
  5
5B
330
59
100
AcDbEntity
  8
0
100
AcDbBlockEnd
  0
BLOCK
  5
61
330
60
100
AcDbEntity
  8
0
100
AcDbBlockBegin
  2
FXTIP_TRIANGLE_E
 70
     0
 71
     0
 10
0.0
 20
0.0
 30
0.0
  3
FXTIP_TRIANGLE_E
  1

  0
LINE
  5
63
330
60
100
AcDbEntity
  8
0
  6
CONTINUOUS
 62
     0
100
AcDbLine
 10
0.0
 20
0.0
 30
0.0
 11
-1.0
 21
0.0
 31
0.0
  0
LINE
  5
64
330
60
100
AcDbEntity
  8
0
  6
CONTINUOUS
 62
     0
100
AcDbLine
 10
0.0
 20
0.0
 30
0.0
 11
-0.965926
 21
0.258819
 31
0.0
  0
LINE
  5
65
330
60
100
AcDbEntity
  8
0
  6
CONTINUOUS
 62
     0
100
AcDbLine
 10
0.0
 20
0.0
 30
0.0
 11
-0.965926
 21
-0.258819
 31
0.0
  0
LINE
  5
66
330
60
100
AcDbEntity
  8
0
  6
CONTINUOUS
 62
     0
100
AcDbLine
 10
-0.965926
 20
0.258819
 30
0.0
 11
-0.965926
 21
-0.258819
 31
0.0
  0
ENDBLK
  5
62
330
60
100
AcDbEntity
  8
0
100
AcDbBlockEnd
  0
BLOCK
  5
68
330
67
100
AcDbEntity
  8
0
100
AcDbBlockBegin
  2
FXTIP_ARCHITECT_S
 70
     0
 71
     0
 10
0.0
 20
0.0
 30
0.0
  3
FXTIP_ARCHITECT_S
  1

  0
LINE
  5
6A
330
67
100
AcDbEntity
  8
0
  6
CONTINUOUS
 62
     0
100
AcDbLine
 10
0.0
 20
0.0
 30
0.0
 11
-1.0
 21
0.0
 31
0.0
  0
LINE
  5
6B
330
67
100
AcDbEntity
  8
0
  6
CONTINUOUS
 62
     0
100
AcDbLine
 10
0.0
 20
0.0
 30
0.0
 11
-0.707107
 21
-0.707107
 31
0.0
  0
LINE
  5
6C
330
67
100
AcDbEntity
  8
0
  6
CONTINUOUS
 62
     0
100
AcDbLine
 10
0.0
 20
0.0
 30
0.0
 11
0.707107
 21
0.707107
 31
0.0
  0
ENDBLK
  5
69
330
67
100
AcDbEntity
  8
0
100
AcDbBlockEnd
  0
BLOCK
  5
6E
330
6D
100
AcDbEntity
  8
0
100
AcDbBlockBegin
  2
FXTIP_ARCHITECT_E
 70
     0
 71
     0
 10
0.0
 20
0.0
 30
0.0
  3
FXTIP_ARCHITECT_E
  1

  0
LINE
  5
70
330
6D
100
AcDbEntity
  8
0
  6
CONTINUOUS
 62
     0
100
AcDbLine
 10
0.0
 20
0.0
 30
0.0
 11
-1.0
 21
0.0
 31
0.0
  0
LINE
  5
71
330
6D
100
AcDbEntity
  8
0
  6
CONTINUOUS
 62
     0
100
AcDbLine
 10
0.0
 20
0.0
 30
0.0
 11
0.707107
 21
0.707107
 31
0.0
  0
LINE
  5
72
330
6D
100
AcDbEntity
  8
0
  6
CONTINUOUS
 62
     0
100
AcDbLine
 10
0.0
 20
0.0
 30
0.0
 11
-0.707107
 21
-0.707107
 31
0.0
  0
ENDBLK
  5
6F
330
6D
100
AcDbEntity
  8
0
100
AcDbBlockEnd
  0
BLOCK
  5
74
330
73
100
AcDbEntity
  8
0
100
AcDbBlockBegin
  2
FXTIP_CIVIL_S
 70
     0
 71
     0
 10
0.0
 20
0.0
 30
0.0
  3
FXTIP_CIVIL_S
  1

  0
LINE
  5
76
330
73
100
AcDbEntity
  8
0
  6
CONTINUOUS
 62
     0
100
AcDbLine
 10
0.0
 20
0.0
 30
0.0
 11
-1.0
 21
0.0
 31
0.0
  0
LINE
  5
77
330
73
100
AcDbEntity
  8
0
  6
CONTINUOUS
 62
     0
100
AcDbLine
 10
0.0
 20
-0.0625
 30
0.0
 11
-1.0
 21
-0.0625
 31
0.0
  0
LINE
  5
78
330
73
100
AcDbEntity
  8
0
  6
CONTINUOUS
 62
     0
100
AcDbLine
 10
0.0
 20
-0.125
 30
0.0
 11
-1.0
 21
-0.125
 31
0.0
  0
ENDBLK
  5
75
330
73
100
AcDbEntity
  8
0
100
AcDbBlockEnd
  0
BLOCK
  5
7A
330
79
100
AcDbEntity
  8
0
100
AcDbBlockBegin
  2
FXTIP_CIVIL_E
 70
     0
 71
     0
 10
0.0
 20
0.0
 30
0.0
  3
FXTIP_CIVIL_E
  1

  0
LINE
  5
7C
330
79
100
AcDbEntity
  8
0
  6
CONTINUOUS
 62
     0
100
AcDbLine
 10
0.0
 20
0.0
 30
0.0
 11
-1.0
 21
0.0
 31
0.0
  0
LINE
  5
7D
330
79
100
AcDbEntity
  8
0
  6
CONTINUOUS
 62
     0
100
AcDbLine
 10
0.0
 20
0.0625
 30
0.0
 11
-1.0
 21
0.0625
 31
0.0
  0
LINE
  5
7E
330
79
100
AcDbEntity
  8
0
  6
CONTINUOUS
 62
     0
100
AcDbLine
 10
0.0
 20
0.125
 30
0.0
 11
-1.0
 21
0.125
 31
0.0
  0
ENDBLK
  5
7B
330
79
100
AcDbEntity
  8
0
100
AcDbBlockEnd
  0
BLOCK
  5
80
330
7F
100
AcDbEntity
  8
0
100
AcDbBlockBegin
  2
FXTIP_WHITEDOT_S
 70
     0
 71
     0
 10
0.0
 20
0.0
 30
0.0
  3
FXTIP_WHITEDOT_S
  1

  0
LINE
  5
82
330
7F
100
AcDbEntity
  8
0
  6
CONTINUOUS
 62
     0
100
AcDbLine
 10
0.0
 20
0.0
 30
0.0
 11
-1.0
 21
0.0
 31
0.0
  0
CIRCLE
  5
83
330
7F
100
AcDbEntity
  8
0
  6
CONTINUOUS
 62
     0
100
AcDbCircle
 10
0.0
 20
0.0
 30
0.0
 40
0.5
  0
ENDBLK
  5
81
330
7F
100
AcDbEntity
  8
0
100
AcDbBlockEnd
  0
BLOCK
  5
85
330
84
100
AcDbEntity
  8
0
100
AcDbBlockBegin
  2
FXTIP_WHITEDOT_E
 70
     0
 71
     0
 10
0.0
 20
0.0
 30
0.0
  3
FXTIP_WHITEDOT_E
  1

  0
LINE
  5
87
330
84
100
AcDbEntity
  8
0
  6
CONTINUOUS
 62
     0
100
AcDbLine
 10
0.0
 20
0.0
 30
0.0
 11
-1.0
 21
0.0
 31
0.0
  0
CIRCLE
  5
88
330
84
100
AcDbEntity
  8
0
  6
CONTINUOUS
 62
     0
100
AcDbCircle
 10
0.0
 20
0.0
 30
0.0
 40
0.5
  0
ENDBLK
  5
86
330
84
100
AcDbEntity
  8
0
100
AcDbBlockEnd
  0
BLOCK
  5
8A
330
89
100
AcDbEntity
  8
0
100
AcDbBlockBegin
  2
FXTIP_UPARROW_S
 70
     0
 71
     0
 10
0.0
 20
0.0
 30
0.0
  3
FXTIP_UPARROW_S
  1

  0
LINE
  5
8C
330
89
100
AcDbEntity
  8
0
  6
CONTINUOUS
 62
     0
100
AcDbLine
 10
0.0
 20
0.0
 30
0.0
 11
-1.0
 21
0.0
 31
0.0
  0
LINE
  5
8D
330
89
100
AcDbEntity
  8
0
  6
CONTINUOUS
 62
     0
100
AcDbLine
 10
0.0
 20
0.0
 30
0.0
 11
-0.965926
 21
-0.258819
 31
0.0
  0
ENDBLK
  5
8B
330
89
100
AcDbEntity
  8
0
100
AcDbBlockEnd
  0
BLOCK
  5
8F
330
8E
100
AcDbEntity
  8
0
100
AcDbBlockBegin
  2
FXTIP_UPARROW_E
 70
     0
 71
     0
 10
0.0
 20
0.0
 30
0.0
  3
FXTIP_UPARROW_E
  1

  0
LINE
  5
91
330
8E
100
AcDbEntity
  8
0
  6
CONTINUOUS
 62
     0
100
AcDbLine
 10
0.0
 20
0.0
 30
0.0
 11
-1.0
 21
0.0
 31
0.0
  0
LINE
  5
92
330
8E
100
AcDbEntity
  8
0
  6
CONTINUOUS
 62
     0
100
AcDbLine
 10
0.0
 20
0.0
 30
0.0
 11
-0.965926
 21
0.258819
 31
0.0
  0
ENDBLK
  5
90
330
8E
100
AcDbEntity
  8
0
100
AcDbBlockEnd
  0
BLOCK
  5
94
330
93
100
AcDbEntity
  8
0
100
AcDbBlockBegin
  2
FXTIP_DOWNARROW_S
 70
     0
 71
     0
 10
0.0
 20
0.0
 30
0.0
  3
FXTIP_DOWNARROW_S
  1

  0
LINE
  5
96
330
93
100
AcDbEntity
  8
0
  6
CONTINUOUS
 62
     0
100
AcDbLine
 10
0.0
 20
0.0
 30
0.0
 11
-1.0
 21
0.0
 31
0.0
  0
LINE
  5
97
330
93
100
AcDbEntity
  8
0
  6
CONTINUOUS
 62
     0
100
AcDbLine
 10
0.0
 20
0.0
 30
0.0
 11
-0.965926
 21
0.258819
 31
0.0
  0
ENDBLK
  5
95
330
93
100
AcDbEntity
  8
0
100
AcDbBlockEnd
  0
BLOCK
  5
99
330
98
100
AcDbEntity
  8
0
100
AcDbBlockBegin
  2
FXTIP_DOWNARROW_E
 70
     0
 71
     0
 10
0.0
 20
0.0
 30
0.0
  3
FXTIP_DOWNARROW_E
  1

  0
LINE
  5
9B
330
98
100
AcDbEntity
  8
0
  6
CONTINUOUS
 62
     0
100
AcDbLine
 10
0.0
 20
0.0
 30
0.0
 11
-1.0
 21
0.0
 31
0.0
  0
LINE
  5
9C
330
98
100
AcDbEntity
  8
0
  6
CONTINUOUS
 62
     0
100
AcDbLine
 10
0.0
 20
0.0
 30
0.0
 11
-0.965926
 21
-0.258819
 31
0.0
  0
ENDBLK
  5
9A
330
98
100
AcDbEntity
  8
0
100
AcDbBlockEnd
  0
BLOCK
  5
9E
330
9D
100
AcDbEntity
  8
0
100
AcDbBlockBegin
  2
FXTIP_BLACKTRIANGLE_S
 70
     0
 71
     0
 10
0.0
 20
0.0
 30
0.0
  3
FXTIP_BLACKTRIANGLE_S
  1

  0
LINE
  5
A0
330
9D
100
AcDbEntity
  8
0
  6
CONTINUOUS
 62
     0
100
AcDbLine
 10
0.0
 20
0.0
 30
0.0
 11
-1.0
 21
0.0
 31
0.0
  0
SOLID
  5
A1
330
9D
100
AcDbEntity
  8
0
  6
CONTINUOUS
 62
     0
100
AcDbTrace
 10
0.0
 20
0.0
 30
0.0
 11
-0.965926
 21
-0.258819
 31
0.0
 12
-0.965926
 22
0.258819
 32
0.0
 13
-0.965926
 23
0.258819
 33
0.0
  0
ENDBLK
  5
9F
330
9D
100
AcDbEntity
  8
0
100
AcDbBlockEnd
  0
BLOCK
  5
A3
330
A2
100
AcDbEntity
  8
0
100
AcDbBlockBegin
  2
FXTIP_BLACKTRIANGLE_E
 70
     0
 71
     0
 10
0.0
 20
0.0
 30
0.0
  3
FXTIP_BLACKTRIANGLE_E
  1

  0
LINE
  5
A5
330
A2
100
AcDbEntity
  8
0
  6
CONTINUOUS
 62
     0
100
AcDbLine
 10
0.0
 20
0.0
 30
0.0
 11
-1.0
 21
0.0
 31
0.0
  0
SOLID
  5
A6
330
A2
100
AcDbEntity
  8
0
  6
CONTINUOUS
 62
     0
100
AcDbTrace
 10
0.0
 20
0.0
 30
0.0
 11
-0.965926
 21
0.258819
 31
0.0
 12
-0.965926
 22
-0.258819
 32
0.0
 13
-0.965926
 23
-0.258819
 33
0.0
  0
ENDBLK
  5
A4
330
A2
100
AcDbEntity
  8
0
100
AcDbBlockEnd
  0
BLOCK
  5
AB
330
AA
100
AcDbEntity
  8
0
100
AcDbBlockBegin
  2
BLKF021
 70
     0
 71
     0
 10
0.0
 20
0.0
 30
0.0
  3
BLKF021
  1

  0
LINE
  5
AE
330
AA
100
AcDbEntity
  8
}}ﾊﾊGG血CCТ
  6
CONTINUOUS
 62
     7
100
AcDbLine
 10
10.0
 20
10.0
 30
0.0
 11
584.0
 21
10.0
 31
0.0
  0
LINE
  5
AF
330
AA
100
AcDbEntity
  8
}}ﾊﾊGG血CCТ
  6
CONTINUOUS
 62
     7
100
AcDbLine
 10
10.0
 20
10.0
 30
0.0
 11
10.0
 21
410.0
 31
0.0
  0
LINE
  5
B0
330
AA
100
AcDbEntity
  8
}}ﾊﾊGG血CCТ
  6
CONTINUOUS
 62
     7
100
AcDbLine
 10
10.0
 20
410.0
 30
0.0
 11
584.0
 21
410.0
 31
0.0
  0
LINE
  5
B1
330
AA
100
AcDbEntity
  8
}}ﾊﾊGG血CCТ
  6
CONTINUOUS
 62
     7
100
AcDbLine
 10
584.0
 20
410.0
 30
0.0
 11
584.0
 21
10.0
 31
0.0
  0
LINE
  5
B2
330
AA
100
AcDbEntity
  8
}}ﾊﾊGG血CCТ
  6
CONTINUOUS
 62
     7
100
AcDbLine
 10
327.0
 20
10.0
 30
0.0
 11
327.0
 21
20.0
 31
0.0
  0
TEXT
  5
B3
330
AA
100
AcDbEntity
  8
}}ﾊﾊGG血CCТ
  6
CONTINUOUS
 62
     7
100
AcDbText
 10
311.738831
 20
11.596879
 30
0.0
 40
6.648749
  1
品名
 41
1.083413
  7
FX_VECTOR
 72
     5
 11
323.058371
 21
11.596879
 31
0.0
100
AcDbText
  0
LINE
  5
B4
330
AA
100
AcDbEntity
  8
}}ﾊﾊGG血CCТ
  6
CONTINUOUS
 62
     7
100
AcDbLine
 10
407.0
 20
20.0
 30
0.0
 11
407.0
 21
10.0
 31
0.0
  0
LINE
  5
B5
330
AA
100
AcDbEntity
  8
}}ﾊﾊGG血CCТ
  6
CONTINUOUS
 62
     7
100
AcDbLine
 10
307.0
 20
20.0
 30
0.0
 11
584.0
 21
20.0
 31
0.0
  0
INSERT
  5
B9
330
AA
100
AcDbEntity
  8
0
100
AcDbBlockReference
  2
BLKF022
 10
0.0
 20
0.0
 30
0.0
  0
INSERT
  5
C2
330
AA
100
AcDbEntity
  8
0
100
AcDbBlockReference
  2
BLKF023
 10
0.0
 20
0.0
 30
0.0
  0
HATCH
  5
D3
330
AA
100
AcDbEntity
  8
GR1-1
  6
CONTINUOUS
 62
     7
100
AcDbHatch
 10
0.0
 20
0.0
 30
0.0
210
0.0
220
0.0
230
1.0
  2

 70
     0
 71
     1
 91
        2
 92
        0
 93
        4
 72
     1
 10
512.8018997861325
 20
17.91346152
 11
518.8018997861325
 21
17.91346152
 72
     1
 10
518.8018997861325
 20
17.91346152
 11
518.8018997861325
 21
11.91346152
 72
     1
 10
518.8018997861325
 20
11.91346152
 11
512.8018997861325
 21
11.91346152
 72
     1
 10
512.8018997861325
 20
11.91346152
 11
512.8018997861325
 21
17.91346152
 97
        0
 92
        0
 93
       15
 72
     1
 10
515.8018997861325
 20
17.76923076000002
 11
512.9461305461325
 21
14.91346152
 72
     1
 10
512.9461305461325
 20
14.91346152
 11
515.8018997861325
 21
12.05769228000001
 72
     1
 10
515.8018997861325
 20
12.05769228000001
 11
517.3595920661326
 21
13.61538462
 72
     1
 10
517.3595920661326
 20
13.61538462
 11
517.3595920661326
 21
12.98076924
 72
     1
 10
517.3595920661326
 20
12.98076924
 11
518.2249766861326
 21
12.98076924
 72
     1
 10
518.2249766861326
 20
12.98076924
 11
518.2249766861326
 21
15.00000000000001
 72
     1
 10
518.2249766861326
 20
15.00000000000001
 11
515.8018997861325
 21
15.00000000000001
 72
     1
 10
515.8018997861325
 20
15.00000000000001
 11
515.8018997861325
 21
14.13461538000001
 72
     1
 10
515.8018997861325
 20
14.13461538000001
 11
516.2461305461325
 21
14.13461538000001
 72
     1
 10
516.2461305461325
 20
14.13461538000001
 11
515.8018997861325
 21
13.69038462
 72
     1
 10
515.8018997861325
 20
13.69038462
 11
514.5788228861325
 21
14.91346152
 72
     1
 10
514.5788228861325
 20
14.91346152
 11
515.8018997861325
 21
16.13653842000003
 72
     1
 10
515.8018997861325
 20
16.13653842000003
 11
516.5922844061325
 21
15.3461538
 72
     1
 10
516.5922844061325
 20
15.3461538
 11
518.2249766861326
 21
15.3461538
 72
     1
 10
518.2249766861326
 20
15.3461538
 11
515.8018997861325
 21
17.76923076000002
 97
        0
 75
     0
 76
     0
 52
45.0
 41
0.05
 77
     0
 78
     1
 53
45.0
 43
0.0
 44
0.0
 45
-0.0353553390593274
 46
0.0353553390593274
 79
     0
 98
        0
  0
TEXT
  5
D4
330
AA
100
AcDbEntity
  8
}}ﾊﾊGG血CCТ
  6
CONTINUOUS
 62
     7
100
AcDbText
 10
523.225769
 20
11.461285
 30
0.0
 40
7.170908
  1
GOLD CASTER
 41
0.63978
  7
FX_VECTOR
 72
     5
 11
569.977636
 21
11.461285
 31
0.0
100
AcDbText
  0
LINE
  5
D5
330
AA
100
AcDbEntity
  8
}}ﾊﾊGG血CCТ
  6
CONTINUOUS
 62
     7
100
AcDbLine
 10
427.0
 20
10.0
 30
0.0
 11
427.0
 21
20.0
 31
0.0
  0
TEXT
  5
D6
330
AA
100
AcDbEntity
  8
}}ﾊﾊGG血CCТ
  6
CONTINUOUS
 62
     7
100
AcDbText
 10
411.738831
 20
11.596879
 30
0.0
 40
6.648749
  1
図番
 41
1.083413
  7
FX_VECTOR
 72
     5
 11
423.058371
 21
11.596879
 31
0.0
100
AcDbText
  0
LINE
  5
D7
330
AA
100
AcDbEntity
  8
}}ﾊﾊGG血CCТ
  6
CONTINUOUS
 62
     7
100
AcDbLine
 10
507.0
 20
20.0
 30
0.0
 11
507.0
 21
10.0
 31
0.0
  0
LINE
  5
D8
330
AA
100
AcDbEntity
  8
}}ﾊﾊGG血CCТ
  6
CONTINUOUS
 62
     7
100
AcDbLine
 10
307.0
 20
20.0
 30
0.0
 11
307.0
 21
10.0
 31
0.0
  0
ENDBLK
  5
AC
330
AA
100
AcDbEntity
  8
0
100
AcDbBlockEnd
  0
BLOCK
  5
B7
330
B6
100
AcDbEntity
  8
0
100
AcDbBlockBegin
  2
BLKF022
 70
     0
 71
     0
 10
0.0
 20
0.0
 30
0.0
  3
BLKF022
  1

  0
LINE
  5
BB
330
B6
100
AcDbEntity
  8
0-1
  6
CONTINUOUS
 62
     7
100
AcDbLine
 10
518.8019
 20
17.913462
 30
0.0
 11
512.8019
 21
17.913462
 31
0.0
  0
LINE
  5
BC
330
B6
100
AcDbEntity
  8
0-1
  6
CONTINUOUS
 62
     7
100
AcDbLine
 10
512.8019
 20
17.913462
 30
0.0
 11
512.8019
 21
11.913462
 31
0.0
  0
LINE
  5
BD
330
B6
100
AcDbEntity
  8
0-1
  6
CONTINUOUS
 62
     7
100
AcDbLine
 10
512.8019
 20
11.913462
 30
0.0
 11
518.8019
 21
11.913462
 31
0.0
  0
LINE
  5
BE
330
B6
100
AcDbEntity
  8
0-1
  6
CONTINUOUS
 62
     7
100
AcDbLine
 10
518.8019
 20
11.913462
 30
0.0
 11
518.8019
 21
17.913462
 31
0.0
  0
ENDBLK
  5
B8
330
B6
100
AcDbEntity
  8
0
100
AcDbBlockEnd
  0
BLOCK
  5
C0
330
BF
100
AcDbEntity
  8
0
100
AcDbBlockBegin
  2
BLKF023
 70
     0
 71
     0
 10
0.0
 20
0.0
 30
0.0
  3
BLKF023
  1

  0
LINE
  5
C3
330
BF
100
AcDbEntity
  8
0-1
  6
CONTINUOUS
 62
     7
100
AcDbLine
 10
518.224977
 20
15.346154
 30
0.0
 11
515.8019
 21
17.769231
 31
0.0
  0
LINE
  5
C4
330
BF
100
AcDbEntity
  8
0-1
  6
CONTINUOUS
 62
     7
100
AcDbLine
 10
515.8019
 20
17.769231
 30
0.0
 11
512.946131
 21
14.913462
 31
0.0
  0
LINE
  5
C5
330
BF
100
AcDbEntity
  8
0-1
  6
CONTINUOUS
 62
     7
100
AcDbLine
 10
512.946131
 20
14.913462
 30
0.0
 11
515.8019
 21
12.057692
 31
0.0
  0
LINE
  5
C6
330
BF
100
AcDbEntity
  8
0-1
  6
CONTINUOUS
 62
     7
100
AcDbLine
 10
515.8019
 20
12.057692
 30
0.0
 11
517.359592
 21
13.615385
 31
0.0
  0
LINE
  5
C7
330
BF
100
AcDbEntity
  8
0-1
  6
CONTINUOUS
 62
     7
100
AcDbLine
 10
517.359592
 20
13.615385
 30
0.0
 11
517.359592
 21
12.980769
 31
0.0
  0
LINE
  5
C8
330
BF
100
AcDbEntity
  8
0-1
  6
CONTINUOUS
 62
     7
100
AcDbLine
 10
517.359592
 20
12.980769
 30
0.0
 11
518.224977
 21
12.980769
 31
0.0
  0
LINE
  5
C9
330
BF
100
AcDbEntity
  8
0-1
  6
CONTINUOUS
 62
     7
100
AcDbLine
 10
518.224977
 20
12.980769
 30
0.0
 11
518.224977
 21
15.0
 31
0.0
  0
LINE
  5
CA
330
BF
100
AcDbEntity
  8
0-1
  6
CONTINUOUS
 62
     7
100
AcDbLine
 10
518.224977
 20
15.0
 30
0.0
 11
515.8019
 21
15.0
 31
0.0
  0
LINE
  5
CB
330
BF
100
AcDbEntity
  8
0-1
  6
CONTINUOUS
 62
     7
100
AcDbLine
 10
515.8019
 20
15.0
 30
0.0
 11
515.8019
 21
14.134615
 31
0.0
  0
LINE
  5
CC
330
BF
100
AcDbEntity
  8
0-1
  6
CONTINUOUS
 62
     7
100
AcDbLine
 10
515.8019
 20
14.134615
 30
0.0
 11
516.246131
 21
14.134615
 31
0.0
  0
LINE
  5
CD
330
BF
100
AcDbEntity
  8
0-1
  6
CONTINUOUS
 62
     7
100
AcDbLine
 10
516.246131
 20
14.134615
 30
0.0
 11
515.8019
 21
13.690385
 31
0.0
  0
LINE
  5
CE
330
BF
100
AcDbEntity
  8
0-1
  6
CONTINUOUS
 62
     7
100
AcDbLine
 10
515.8019
 20
13.690385
 30
0.0
 11
514.578823
 21
14.913462
 31
0.0
  0
LINE
  5
CF
330
BF
100
AcDbEntity
  8
0-1
  6
CONTINUOUS
 62
     7
100
AcDbLine
 10
514.578823
 20
14.913462
 30
0.0
 11
515.8019
 21
16.136538
 31
0.0
  0
LINE
  5
D0
330
BF
100
AcDbEntity
  8
0-1
  6
CONTINUOUS
 62
     7
100
AcDbLine
 10
515.8019
 20
16.136538
 30
0.0
 11
516.592284
 21
15.346154
 31
0.0
  0
LINE
  5
D1
330
BF
100
AcDbEntity
  8
0-1
  6
CONTINUOUS
 62
     7
100
AcDbLine
 10
516.592284
 20
15.346154
 30
0.0
 11
518.224977
 21
15.346154
 31
0.0
  0
ENDBLK
  5
C1
330
BF
100
AcDbEntity
  8
0
100
AcDbBlockEnd
  0
BLOCK
  5
18E
330
18D
100
AcDbEntity
  8
0
100
AcDbBlockBegin
  2
*D22
 70
     1
 71
     0
 10
0.0
 20
0.0
 30
0.0
  3
*D22
  1

  0
TEXT
  5
190
330
18D
100
AcDbEntity
  8
LAYERGROUP-1
  6
CONTINUOUS
 62
     7
100
AcDbText
 10
343.900334
 20
376.740422
 30
0.0
 40
4.0
  1
4-11
 50
44.999996
 41
0.818182
  7
FX_VECTOR
 72
     5
 11
352.385616
 21
385.225703
 31
0.0
100
AcDbText
  0
LINE
  5
191
330
18D
100
AcDbEntity
  8
LAYERGROUP-1
  6
CONTINUOUS
 62
     7
100
AcDbLine
 10
344.960999
 20
376.386865
 30
0.0
 11
352.739174
 21
384.165039
 31
0.0
  0
INSERT
  5
192
330
18D
100
AcDbEntity
  8
LAYERGROUP-1
  6
CONTINUOUS
 62
     7
100
AcDbBlockReference
  2
FXTIP_ARROW_S
 10
344.960999
 20
376.386865
 30
0.0
 41
4.0
 42
4.0
 50
224.999996
  0
INSERT
  5
193
330
18D
100
AcDbEntity
  8
LAYERGROUP-1
  6
CONTINUOUS
 62
     7
100
AcDbBlockReference
  2
FXTIP_ARROW_E
 10
352.739174
 20
384.165039
 30
0.0
 41
4.0
 42
4.0
 50
44.999996
  0
LINE
  5
194
330
18D
100
AcDbEntity
  8
LAYERGROUP-1
  6
CONTINUOUS
 62
     7
100
AcDbLine
 10
363.893607
 20
357.454254
 30
0.0
 11
344.253892
 21
377.093972
 31
0.0
  0
LINE
  5
195
330
18D
100
AcDbEntity
  8
LAYERGROUP-1
  6
CONTINUOUS
 62
     7
100
AcDbLine
 10
371.671782
 20
365.232428
 30
0.0
 11
352.032067
 21
384.872146
 31
0.0
  0
ENDBLK
  5
18F
330
18D
100
AcDbEntity
  8
0
100
AcDbBlockEnd
  0
BLOCK
  5
198
330
197
100
AcDbEntity
  8
0
100
AcDbBlockBegin
  2
*D23
 70
     1
 71
     0
 10
0.0
 20
0.0
 30
0.0
  3
*D23
  1

  0
TEXT
  5
19A
330
197
100
AcDbEntity
  8
LAYERGROUP-1
  6
CONTINUOUS
 62
     7
100
AcDbText
 10
468.061768
 20
322.13623
 30
0.0
 40
4.0
  1
68
 50
90.0
 41
0.851351
  7
FX_VECTOR
 72
     5
 11
468.061768
 21
328.13623
 31
0.0
100
AcDbText
  0
LINE
  5
19B
330
197
100
AcDbEntity
  8
LAYERGROUP-1
  6
CONTINUOUS
 62
     7
100
AcDbLine
 10
469.061798
 20
291.136234
 30
0.0
 11
469.061798
 21
359.136234
 31
0.0
  0
INSERT
  5
19C
330
197
100
AcDbEntity
  8
LAYERGROUP-1
  6
CONTINUOUS
 62
     7
100
AcDbBlockReference
  2
FXTIP_ARROW_S
 10
469.061798
 20
291.136234
 30
0.0
 41
4.0
 42
4.0
 50
270.0
  0
INSERT
  5
19D
330
197
100
AcDbEntity
  8
LAYERGROUP-1
  6
CONTINUOUS
 62
     7
100
AcDbBlockReference
  2
FXTIP_ARROW_E
 10
469.061798
 20
359.136234
 30
0.0
 41
4.0
 42
4.0
 50
90.0
  0
LINE
  5
19E
330
197
100
AcDbEntity
  8
LAYERGROUP-1
  6
CONTINUOUS
 62
     7
100
AcDbLine
 10
446.489802
 20
291.136234
 30
0.0
 11
470.061798
 21
291.136234
 31
0.0
  0
LINE
  5
19F
330
197
100
AcDbEntity
  8
LAYERGROUP-1
  6
CONTINUOUS
 62
     7
100
AcDbLine
 10
446.489802
 20
359.136234
 30
0.0
 11
470.061798
 21
359.136234
 31
0.0
  0
ENDBLK
  5
199
330
197
100
AcDbEntity
  8
0
100
AcDbBlockEnd
  0
BLOCK
  5
1A2
330
1A1
100
AcDbEntity
  8
0
100
AcDbBlockBegin
  2
*D24
 70
     1
 71
     0
 10
0.0
 20
0.0
 30
0.0
  3
*D24
  1

  0
TEXT
  5
1A4
330
1A1
100
AcDbEntity
  8
LAYERGROUP-1
  6
CONTINUOUS
 62
     7
100
AcDbText
 10
480.841431
 20
322.13623
 30
0.0
 40
4.0
  1
71
 50
90.0
 41
1.016129
  7
FX_VECTOR
 72
     5
 11
480.841431
 21
328.13623
 31
0.0
100
AcDbText
  0
LINE
  5
1A5
330
1A1
100
AcDbEntity
  8
LAYERGROUP-1
  6
CONTINUOUS
 62
     7
100
AcDbLine
 10
481.84145
 20
289.636234
 30
0.0
 11
481.84145
 21
360.636234
 31
0.0
  0
INSERT
  5
1A6
330
1A1
100
AcDbEntity
  8
LAYERGROUP-1
  6
CONTINUOUS
 62
     7
100
AcDbBlockReference
  2
FXTIP_ARROW_S
 10
481.84145
 20
289.636234
 30
0.0
 41
4.0
 42
4.0
 50
270.0
  0
INSERT
  5
1A7
330
1A1
100
AcDbEntity
  8
LAYERGROUP-1
  6
CONTINUOUS
 62
     7
100
AcDbBlockReference
  2
FXTIP_ARROW_E
 10
481.84145
 20
360.636234
 30
0.0
 41
4.0
 42
4.0
 50
90.0
  0
LINE
  5
1A8
330
1A1
100
AcDbEntity
  8
LAYERGROUP-1
  6
CONTINUOUS
 62
     7
100
AcDbLine
 10
447.989802
 20
289.636234
 30
0.0
 11
482.84145
 21
289.636234
 31
0.0
  0
LINE
  5
1A9
330
1A1
100
AcDbEntity
  8
LAYERGROUP-1
  6
CONTINUOUS
 62
     7
100
AcDbLine
 10
447.989802
 20
360.636234
 30
0.0
 11
482.84145
 21
360.636234
 31
0.0
  0
ENDBLK
  5
1A3
330
1A1
100
AcDbEntity
  8
0
100
AcDbBlockEnd
  0
BLOCK
  5
1AC
330
1AB
100
AcDbEntity
  8
0
100
AcDbBlockBegin
  2
*D25
 70
     1
 71
     0
 10
0.0
 20
0.0
 30
0.0
  3
*D25
  1

  0
TEXT
  5
1AE
330
1AB
100
AcDbEntity
  8
LAYERGROUP-1
  6
CONTINUOUS
 62
     7
100
AcDbText
 10
494.104645
 20
320.63623
 30
0.0
 40
4.0
  1
101
 50
90.0
 41
0.926471
  7
FX_VECTOR
 72
     5
 11
494.104645
 21
329.63623
 31
0.0
100
AcDbText
  0
LINE
  5
1AF
330
1AB
100
AcDbEntity
  8
LAYERGROUP-1
  6
CONTINUOUS
 62
     7
100
AcDbLine
 10
495.104656
 20
274.636234
 30
0.0
 11
495.104656
 21
375.636234
 31
0.0
  0
INSERT
  5
1B0
330
1AB
100
AcDbEntity
  8
LAYERGROUP-1
  6
CONTINUOUS
 62
     7
100
AcDbBlockReference
  2
FXTIP_ARROW_S
 10
495.104656
 20
274.636234
 30
0.0
 41
4.0
 42
4.0
 50
270.0
  0
INSERT
  5
1B1
330
1AB
100
AcDbEntity
  8
LAYERGROUP-1
  6
CONTINUOUS
 62
     7
100
AcDbBlockReference
  2
FXTIP_ARROW_E
 10
495.104656
 20
375.636234
 30
0.0
 41
4.0
 42
4.0
 50
90.0
  0
LINE
  5
1B2
330
1AB
100
AcDbEntity
  8
LAYERGROUP-1
  6
CONTINUOUS
 62
     7
100
AcDbLine
 10
449.989802
 20
274.636234
 30
0.0
 11
496.104656
 21
274.636234
 31
0.0
  0
LINE
  5
1B3
330
1AB
100
AcDbEntity
  8
LAYERGROUP-1
  6
CONTINUOUS
 62
     7
100
AcDbLine
 10
449.989802
 20
375.636234
 30
0.0
 11
496.104656
 21
375.636234
 31
0.0
  0
ENDBLK
  5
1AD
330
1AB
100
AcDbEntity
  8
0
100
AcDbBlockEnd
  0
BLOCK
  5
1B6
330
1B5
100
AcDbEntity
  8
0
100
AcDbBlockBegin
  2
*D26
 70
     1
 71
     0
 10
0.0
 20
0.0
 30
0.0
  3
*D26
  1

  0
TEXT
  5
1B8
330
1B5
100
AcDbEntity
  8
LAYERGROUP-1
  6
CONTINUOUS
 62
     7
100
AcDbText
 10
400.989777
 20
261.713776
 30
0.0
 40
4.0
  1
68
 41
0.851351
  7
FX_VECTOR
 72
     5
 11
406.989777
 21
261.713776
 31
0.0
100
AcDbText
  0
LINE
  5
1B9
330
1B5
100
AcDbEntity
  8
LAYERGROUP-1
  6
CONTINUOUS
 62
     7
100
AcDbLine
 10
369.989802
 20
260.713764
 30
0.0
 11
437.989802
 21
260.713764
 31
0.0
  0
INSERT
  5
1BA
330
1B5
100
AcDbEntity
  8
LAYERGROUP-1
  6
CONTINUOUS
 62
     7
100
AcDbBlockReference
  2
FXTIP_ARROW_S
 10
369.989802
 20
260.713764
 30
0.0
 41
4.0
 42
4.0
 50
180.0
  0
INSERT
  5
1BB
330
1B5
100
AcDbEntity
  8
LAYERGROUP-1
  6
CONTINUOUS
 62
     7
100
AcDbBlockReference
  2
FXTIP_ARROW_E
 10
437.989802
 20
260.713764
 30
0.0
 41
4.0
 42
4.0
 50
360.0
  0
LINE
  5
1BC
330
1B5
100
AcDbEntity
  8
LAYERGROUP-1
  6
CONTINUOUS
 62
     7
100
AcDbLine
 10
369.989802
 20
282.636234
 30
0.0
 11
369.989802
 21
259.713764
 31
0.0
  0
LINE
  5
1BD
330
1B5
100
AcDbEntity
  8
LAYERGROUP-1
  6
CONTINUOUS
 62
     7
100
AcDbLine
 10
437.989802
 20
282.636234
 30
0.0
 11
437.989802
 21
259.713764
 31
0.0
  0
ENDBLK
  5
1B7
330
1B5
100
AcDbEntity
  8
0
100
AcDbBlockEnd
  0
BLOCK
  5
1C0
330
1BF
100
AcDbEntity
  8
0
100
AcDbBlockBegin
  2
*D27
 70
     1
 71
     0
 10
0.0
 20
0.0
 30
0.0
  3
*D27
  1

  0
TEXT
  5
1C2
330
1BF
100
AcDbEntity
  8
LAYERGROUP-1
  6
CONTINUOUS
 62
     7
100
AcDbText
 10
400.989777
 20
251.973602
 30
0.0
 40
4.0
  1
71
 41
1.016129
  7
FX_VECTOR
 72
     5
 11
406.989777
 21
251.973602
 31
0.0
100
AcDbText
  0
LINE
  5
1C3
330
1BF
100
AcDbEntity
  8
LAYERGROUP-1
  6
CONTINUOUS
 62
     7
100
AcDbLine
 10
368.489802
 20
250.973597
 30
0.0
 11
439.489802
 21
250.973597
 31
0.0
  0
INSERT
  5
1C4
330
1BF
100
AcDbEntity
  8
LAYERGROUP-1
  6
CONTINUOUS
 62
     7
100
AcDbBlockReference
  2
FXTIP_ARROW_S
 10
368.489802
 20
250.973597
 30
0.0
 41
4.0
 42
4.0
 50
180.0
  0
INSERT
  5
1C5
330
1BF
100
AcDbEntity
  8
LAYERGROUP-1
  6
CONTINUOUS
 62
     7
100
AcDbBlockReference
  2
FXTIP_ARROW_E
 10
439.489802
 20
250.973597
 30
0.0
 41
4.0
 42
4.0
 50
360.0
  0
LINE
  5
1C6
330
1BF
100
AcDbEntity
  8
LAYERGROUP-1
  6
CONTINUOUS
 62
     7
100
AcDbLine
 10
368.489802
 20
281.136234
 30
0.0
 11
368.489802
 21
249.973597
 31
0.0
  0
LINE
  5
1C7
330
1BF
100
AcDbEntity
  8
LAYERGROUP-1
  6
CONTINUOUS
 62
     7
100
AcDbLine
 10
439.489802
 20
281.136234
 30
0.0
 11
439.489802
 21
249.973597
 31
0.0
  0
ENDBLK
  5
1C1
330
1BF
100
AcDbEntity
  8
0
100
AcDbBlockEnd
  0
BLOCK
  5
1CA
330
1C9
100
AcDbEntity
  8
0
100
AcDbBlockBegin
  2
*D28
 70
     1
 71
     0
 10
0.0
 20
0.0
 30
0.0
  3
*D28
  1

  0
TEXT
  5
1CC
330
1C9
100
AcDbEntity
  8
LAYERGROUP-1
  6
CONTINUOUS
 62
     7
100
AcDbText
 10
400.989777
 20
240.575531
 30
0.0
 40
4.0
  1
90
 41
0.851351
  7
FX_VECTOR
 72
     5
 11
406.989777
 21
240.575531
 31
0.0
100
AcDbText
  0
LINE
  5
1CD
330
1C9
100
AcDbEntity
  8
LAYERGROUP-1
  6
CONTINUOUS
 62
     7
100
AcDbLine
 10
358.989802
 20
239.575529
 30
0.0
 11
448.989802
 21
239.575529
 31
0.0
  0
INSERT
  5
1CE
330
1C9
100
AcDbEntity
  8
LAYERGROUP-1
  6
CONTINUOUS
 62
     7
100
AcDbBlockReference
  2
FXTIP_ARROW_S
 10
358.989802
 20
239.575529
 30
0.0
 41
4.0
 42
4.0
 50
180.0
  0
INSERT
  5
1CF
330
1C9
100
AcDbEntity
  8
LAYERGROUP-1
  6
CONTINUOUS
 62
     7
100
AcDbBlockReference
  2
FXTIP_ARROW_E
 10
448.989802
 20
239.575529
 30
0.0
 41
4.0
 42
4.0
 50
360.0
  0
LINE
  5
1D0
330
1C9
100
AcDbEntity
  8
LAYERGROUP-1
  6
CONTINUOUS
 62
     7
100
AcDbLine
 10
358.989802
 20
273.636234
 30
0.0
 11
358.989802
 21
238.575529
 31
0.0
  0
LINE
  5
1D1
330
1C9
100
AcDbEntity
  8
LAYERGROUP-1
  6
CONTINUOUS
 62
     7
100
AcDbLine
 10
448.989802
 20
273.636234
 30
0.0
 11
448.989802
 21
238.575529
 31
0.0
  0
ENDBLK
  5
1CB
330
1C9
100
AcDbEntity
  8
0
100
AcDbBlockEnd
  0
BLOCK
  5
1D4
330
1D3
100
AcDbEntity
  8
0
100
AcDbBlockBegin
  2
*D29
 70
     1
 71
     0
 10
0.0
 20
0.0
 30
0.0
  3
*D29
  1

  0
TEXT
  5
1D6
330
1D3
100
AcDbEntity
  8
LAYERGROUP-1
  6
CONTINUOUS
 62
     7
100
AcDbText
 10
465.298615
 20
166.0
 30
0.0
 40
4.0
  1
82
 50
90.0
 41
0.851351
  7
FX_VECTOR
 72
     5
 11
465.298615
 21
172.0
 31
0.0
100
AcDbText
  0
LINE
  5
1D7
330
1D3
100
AcDbEntity
  8
LAYERGROUP-1
  6
CONTINUOUS
 62
     7
100
AcDbLine
 10
466.29863
 20
128.0
 30
0.0
 11
466.29863
 21
210.0
 31
0.0
  0
INSERT
  5
1D8
330
1D3
100
AcDbEntity
  8
LAYERGROUP-1
  6
CONTINUOUS
 62
     7
100
AcDbBlockReference
  2
FXTIP_ARROW_S
 10
466.29863
 20
128.0
 30
0.0
 41
4.0
 42
4.0
 50
270.0
  0
INSERT
  5
1D9
330
1D3
100
AcDbEntity
  8
LAYERGROUP-1
  6
CONTINUOUS
 62
     7
100
AcDbBlockReference
  2
FXTIP_ARROW_E
 10
466.29863
 20
210.0
 30
0.0
 41
4.0
 42
4.0
 50
90.0
  0
LINE
  5
1DA
330
1D3
100
AcDbEntity
  8
LAYERGROUP-1
  6
CONTINUOUS
 62
     7
100
AcDbLine
 10
459.423602
 20
128.0
 30
0.0
 11
467.29863
 21
128.0
 31
0.0
  0
LINE
  5
1DB
330
1D3
100
AcDbEntity
  8
LAYERGROUP-1
  6
CONTINUOUS
 62
     7
100
AcDbLine
 10
449.989802
 20
210.0
 30
0.0
 11
467.29863
 21
210.0
 31
0.0
  0
ENDBLK
  5
1D5
330
1D3
100
AcDbEntity
  8
0
100
AcDbBlockEnd
  0
BLOCK
  5
1DE
330
1DD
100
AcDbEntity
  8
0
100
AcDbBlockBegin
  2
*D30
 70
     1
 71
     0
 10
0.0
 20
0.0
 30
0.0
  3
*D30
  1

  0
TEXT
  5
1E0
330
1DD
100
AcDbEntity
  8
LAYERGROUP-1
  6
CONTINUOUS
 62
     7
100
AcDbText
 10
482.292084
 20
139.5
 30
0.0
 40
4.0
  1
132
 50
90.0
 41
0.828947
  7
FX_VECTOR
 72
     5
 11
482.292084
 21
148.5
 31
0.0
100
AcDbText
  0
LINE
  5
1E1
330
1DD
100
AcDbEntity
  8
LAYERGROUP-1
  6
CONTINUOUS
 62
     7
100
AcDbLine
 10
483.292113
 20
78.0
 30
0.0
 11
483.292113
 21
210.0
 31
0.0
  0
INSERT
  5
1E2
330
1DD
100
AcDbEntity
  8
LAYERGROUP-1
  6
CONTINUOUS
 62
     7
100
AcDbBlockReference
  2
FXTIP_ARROW_S
 10
483.292113
 20
78.0
 30
0.0
 41
4.0
 42
4.0
 50
270.0
  0
INSERT
  5
1E3
330
1DD
100
AcDbEntity
  8
LAYERGROUP-1
  6
CONTINUOUS
 62
     7
100
AcDbBlockReference
  2
FXTIP_ARROW_E
 10
483.292113
 20
210.0
 30
0.0
 41
4.0
 42
4.0
 50
90.0
  0
LINE
  5
1E4
330
1DD
100
AcDbEntity
  8
LAYERGROUP-1
  6
CONTINUOUS
 62
     7
100
AcDbLine
 10
404.989802
 20
78.0
 30
0.0
 11
484.292113
 21
78.0
 31
0.0
  0
LINE
  5
1E5
330
1DD
100
AcDbEntity
  8
LAYERGROUP-1
  6
CONTINUOUS
 62
     7
100
AcDbLine
 10
449.989802
 20
210.0
 30
0.0
 11
484.292113
 21
210.0
 31
0.0
  0
ENDBLK
  5
1DF
330
1DD
100
AcDbEntity
  8
0
100
AcDbBlockEnd
  0
BLOCK
  5
1E8
330
1E7
100
AcDbEntity
  8
0
100
AcDbBlockBegin
  2
*D31
 70
     1
 71
     0
 10
0.0
 20
0.0
 30
0.0
  3
*D31
  1

  0
TEXT
  5
1EA
330
1E7
100
AcDbEntity
  8
LAYERGROUP-1
  6
CONTINUOUS
 62
     7
100
AcDbText
 10
121.63868
 20
123.5
 30
0.0
 40
4.0
  1
100
 50
90.0
 41
0.828947
  7
FX_VECTOR
 72
     5
 11
121.63868
 21
132.5
 31
0.0
100
AcDbText
  0
LINE
  5
1EB
330
1E7
100
AcDbEntity
  8
LAYERGROUP-1
  6
CONTINUOUS
 62
     7
100
AcDbLine
 10
122.638673
 20
78.0
 30
0.0
 11
122.638673
 21
178.0
 31
0.0
  0
INSERT
  5
1EC
330
1E7
100
AcDbEntity
  8
LAYERGROUP-1
  6
CONTINUOUS
 62
     7
100
AcDbBlockReference
  2
FXTIP_ARROW_S
 10
122.638673
 20
78.0
 30
0.0
 41
4.0
 42
4.0
 50
270.0
  0
INSERT
  5
1ED
330
1E7
100
AcDbEntity
  8
LAYERGROUP-1
  6
CONTINUOUS
 62
     7
100
AcDbBlockReference
  2
FXTIP_ARROW_E
 10
122.638673
 20
178.0
 30
0.0
 41
4.0
 42
4.0
 50
90.0
  0
LINE
  5
1EE
330
1E7
100
AcDbEntity
  8
LAYERGROUP-1
  6
CONTINUOUS
 62
     7
100
AcDbLine
 10
177.074525
 20
78.0
 30
0.0
 11
121.638673
 21
78.0
 31
0.0
  0
LINE
  5
1EF
330
1E7
100
AcDbEntity
  8
LAYERGROUP-1
  6
CONTINUOUS
 62
     7
100
AcDbLine
 10
177.074525
 20
178.0
 30
0.0
 11
121.638673
 21
178.0
 31
0.0
  0
ENDBLK
  5
1E9
330
1E7
100
AcDbEntity
  8
0
100
AcDbBlockEnd
  0
BLOCK
  5
1FA
330
1F9
100
AcDbEntity
  8
0
100
AcDbBlockBegin
  2
*D32
 70
     1
 71
     0
 10
0.0
 20
0.0
 30
0.0
  3
*D32
  1

  0
TEXT
  5
1FC
330
1F9
100
AcDbEntity
  8
LAYERGROUP-1
  6
CONTINUOUS
 62
     7
100
AcDbText
 10
175.074524
 20
50.267651
 30
0.0
 40
4.0
  1
45
 41
0.851351
  7
FX_VECTOR
 72
     5
 11
181.074524
 21
50.267651
 31
0.0
100
AcDbText
  0
LINE
  5
1FD
330
1F9
100
AcDbEntity
  8
LAYERGROUP-1
  6
CONTINUOUS
 62
     7
100
AcDbLine
 10
155.574525
 20
49.26765
 30
0.0
 11
200.574525
 21
49.26765
 31
0.0
  0
INSERT
  5
1FE
330
1F9
100
AcDbEntity
  8
LAYERGROUP-1
  6
CONTINUOUS
 62
     7
100
AcDbBlockReference
  2
FXTIP_ARROW_S
 10
155.574525
 20
49.26765
 30
0.0
 41
4.0
 42
4.0
 50
180.0
  0
INSERT
  5
1FF
330
1F9
100
AcDbEntity
  8
LAYERGROUP-1
  6
CONTINUOUS
 62
     7
100
AcDbBlockReference
  2
FXTIP_ARROW_E
 10
200.574525
 20
49.26765
 30
0.0
 41
4.0
 42
4.0
 50
360.0
  0
LINE
  5
200
330
1F9
100
AcDbEntity
  8
LAYERGROUP-1
  6
CONTINUOUS
 62
     7
100
AcDbLine
 10
155.574525
 20
118.25
 30
0.0
 11
155.574525
 21
48.26765
 31
0.0
  0
LINE
  5
201
330
1F9
100
AcDbEntity
  8
LAYERGROUP-1
  6
CONTINUOUS
 62
     7
100
AcDbLine
 10
200.574525
 20
118.25
 30
0.0
 11
200.574525
 21
48.26765
 31
0.0
  0
ENDBLK
  5
1FB
330
1F9
100
AcDbEntity
  8
0
100
AcDbBlockEnd
  0
BLOCK
  5
229
330
228
100
AcDbEntity
  8
0
100
AcDbBlockBegin
  2
*D33
 70
     1
 71
     0
 10
0.0
 20
0.0
 30
0.0
  3
*D33
  1

  0
TEXT
  5
22B
330
228
100
AcDbEntity
  8
LAYERGROUP-1
  6
CONTINUOUS
 62
     7
100
AcDbText
 10
175.074524
 20
62.558434
 30
0.0
 40
4.0
  1
32
 41
0.851351
  7
FX_VECTOR
 72
     5
 11
181.074524
 21
62.558434
 31
0.0
100
AcDbText
  0
LINE
  5
22C
330
228
100
AcDbEntity
  8
LAYERGROUP-1
  6
CONTINUOUS
 62
     7
100
AcDbLine
 10
162.074525
 20
61.558433
 30
0.0
 11
194.074525
 21
61.558433
 31
0.0
  0
INSERT
  5
22D
330
228
100
AcDbEntity
  8
LAYERGROUP-1
  6
CONTINUOUS
 62
     7
100
AcDbBlockReference
  2
FXTIP_ARROW_S
 10
162.074525
 20
61.558433
 30
0.0
 41
4.0
 42
4.0
 50
180.0
  0
INSERT
  5
22E
330
228
100
AcDbEntity
  8
LAYERGROUP-1
  6
CONTINUOUS
 62
     7
100
AcDbBlockReference
  2
FXTIP_ARROW_E
 10
194.074525
 20
61.558433
 30
0.0
 41
4.0
 42
4.0
 50
360.0
  0
LINE
  5
22F
330
228
100
AcDbEntity
  8
LAYERGROUP-1
  6
CONTINUOUS
 62
     7
100
AcDbLine
 10
162.074525
 20
85.0
 30
0.0
 11
162.074525
 21
60.558433
 31
0.0
  0
LINE
  5
230
330
228
100
AcDbEntity
  8
LAYERGROUP-1
  6
CONTINUOUS
 62
     7
100
AcDbLine
 10
194.074525
 20
85.0
 30
0.0
 11
194.074525
 21
60.558433
 31
0.0
  0
ENDBLK
  5
22A
330
228
100
AcDbEntity
  8
0
100
AcDbBlockEnd
  0
BLOCK
  5
243
330
242
100
AcDbEntity
  8
0
100
AcDbBlockBegin
  2
BLKF036
 70
     0
 71
     0
 10
0.0
 20
0.0
 30
0.0
  3
BLKF036
  1

  0
INSERT
  5
249
330
242
100
AcDbEntity
  8
0
100
AcDbBlockReference
  2
BLKF037
 10
0.0
 20
0.0
 30
0.0
  0
LINE
  5
2A1
330
242
100
AcDbEntity
  8
GR1-1
  6
CONTINUOUS
 62
     3
100
AcDbLine
 10
369.002366
 20
101.683667
 30
0.0
 11
366.827795
 21
104.676706
 31
0.0
  0
LINE
  5
2A2
330
242
100
AcDbEntity
  8
GR1-1
  6
CONTINUOUS
 62
     3
100
AcDbLine
 10
366.827795
 20
104.676706
 30
0.0
 11
363.834756
 21
102.502136
 31
0.0
  0
LINE
  5
2A3
330
242
100
AcDbEntity
  8
GR1-1
  6
CONTINUOUS
 62
     3
100
AcDbLine
 10
363.834756
 20
102.502136
 30
0.0
 11
366.009326
 21
99.509097
 31
0.0
  0
LINE
  5
2A4
330
242
100
AcDbEntity
  8
GR1-1
  6
CONTINUOUS
 62
     3
100
AcDbLine
 10
366.009326
 20
99.509097
 30
0.0
 11
369.002366
 21
101.683667
 31
0.0
  0
LINE
  5
2A5
330
242
100
AcDbEntity
  8
GR1-1
  6
CONTINUOUS
 62
     3
100
AcDbLine
 10
367.443663
 20
100.681969
 30
0.0
 11
365.007629
 21
101.067799
 31
0.0
  0
LINE
  5
2A6
330
242
100
AcDbEntity
  8
GR1-1
  6
CONTINUOUS
 62
     3
100
AcDbLine
 10
365.007629
 20
101.067799
 30
0.0
 11
365.352535
 21
103.245453
 31
0.0
  0
LINE
  5
2A7
330
242
100
AcDbEntity
  8
GR1-1
  6
CONTINUOUS
 62
     3
100
AcDbLine
 10
365.352535
 20
103.245453
 30
0.0
 11
365.865086
 21
102.539987
 31
0.0
  0
LINE
  5
2A8
330
242
100
AcDbEntity
  8
GR1-1
  6
CONTINUOUS
 62
     3
100
AcDbLine
 10
365.865086
 20
102.539987
 30
0.0
 11
365.713095
 21
101.58035
 31
0.0
  0
LINE
  5
2A9
330
242
100
AcDbEntity
  8
GR1-1
  6
CONTINUOUS
 62
     3
100
AcDbLine
 10
365.713095
 20
101.58035
 30
0.0
 11
366.931112
 21
101.387435
 31
0.0
  0
LINE
  5
2AA
330
242
100
AcDbEntity
  8
GR1-1
  6
CONTINUOUS
 62
     3
100
AcDbLine
 10
366.931112
 20
101.387435
 30
0.0
 11
367.124027
 21
102.605452
 31
0.0
  0
LINE
  5
2AB
330
242
100
AcDbEntity
  8
GR1-1
  6
CONTINUOUS
 62
     3
100
AcDbLine
 10
367.124027
 20
102.605452
 30
0.0
 11
366.483672
 21
102.706875
 31
0.0
  0
ARC
  5
2AC
330
242
100
AcDbEntity
  8
GR1-1
  6
CONTINUOUS
 62
     3
100
AcDbCircle
 10
366.474026
 20
102.645974
 30
0.0
 40
0.06166
100
AcDbArc
 50
81.0
 51
216.0
  0
LINE
  5
2AD
330
242
100
AcDbEntity
  8
GR1-1
  6
CONTINUOUS
 62
     3
100
AcDbLine
 10
366.424142
 20
102.609731
 30
0.0
 11
366.667981
 21
102.274115
 31
0.0
  0
LINE
  5
2AE
330
242
100
AcDbEntity
  8
GR1-1
  6
CONTINUOUS
 62
     3
100
AcDbLine
 10
366.667981
 20
102.274115
 30
0.0
 11
366.418561
 21
102.092901
 31
0.0
  0
LINE
  5
2AF
330
242
100
AcDbEntity
  8
GR1-1
  6
CONTINUOUS
 62
     3
100
AcDbLine
 10
366.418561
 20
102.092901
 30
0.0
 11
365.393459
 21
103.503834
 31
0.0
  0
LINE
  5
2B0
330
242
100
AcDbEntity
  8
GR1-1
  6
CONTINUOUS
 62
     3
100
AcDbLine
 10
365.393459
 20
103.503834
 30
0.0
 11
366.403271
 21
104.237505
 31
0.0
  0
LINE
  5
2B1
330
242
100
AcDbEntity
  8
GR1-1
  6
CONTINUOUS
 62
     3
100
AcDbLine
 10
366.403271
 20
104.237505
 30
0.0
 11
366.765699
 21
103.738665
 31
0.0
  0
LINE
  5
2B2
330
242
100
AcDbEntity
  8
GR1-1
  6
CONTINUOUS
 62
     3
100
AcDbLine
 10
366.765699
 20
103.738665
 30
0.0
 11
366.375158
 21
103.45492
 31
0.0
  0
ARC
  5
2B3
330
242
100
AcDbEntity
  8
GR1-1
  6
CONTINUOUS
 62
     3
100
AcDbCircle
 10
366.4114
 20
103.405036
 30
0.0
 40
0.06166
100
AcDbArc
 50
126.0
 51
261.0
  0
LINE
  5
2B4
330
242
100
AcDbEntity
  8
GR1-1
  6
CONTINUOUS
 62
     3
100
AcDbLine
 10
366.401755
 20
103.344135
 30
0.0
 11
367.829493
 21
103.118004
 31
0.0
  0
LINE
  5
2B5
330
242
100
AcDbEntity
  8
GR1-1
  6
CONTINUOUS
 62
     3
100
AcDbLine
 10
367.829493
 20
103.118004
 30
0.0
 11
367.443663
 21
100.681969
 31
0.0
  0
TEXT
  5
2B6
330
242
100
AcDbEntity
  8
LAYERGROUP-1
  6
CONTINUOUS
 62
     7
100
AcDbText
 10
365.280212
 20
108.918571
 30
0.0
 40
5.331655
  1
G
 50
114.0
 41
1.098276
  7
FX_VECTOR
 72
     5
 11
363.238756
 21
113.503758
 31
0.0
100
AcDbText
  0
TEXT
  5
2B7
330
242
100
AcDbEntity
  8
LAYERGROUP-1
  6
CONTINUOUS
 62
     7
100
AcDbText
 10
363.356445
 20
113.203117
 30
0.0
 40
5.331655
  1
O
 50
107.5
 41
1.040472
  7
FX_VECTOR
 72
     5
 11
361.847169
 21
117.989929
 31
0.0
100
AcDbText
  0
TEXT
  5
2B8
330
242
100
AcDbEntity
  8
LAYERGROUP-1
  6
CONTINUOUS
 62
     7
100
AcDbText
 10
362.021698
 20
117.328239
 30
0.0
 40
5.331655
  1
L
 50
101.5
 41
1.235561
  7
FX_VECTOR
 72
     5
 11
361.021048
 21
122.24659
 31
0.0
100
AcDbText
  0
TEXT
  5
2B9
330
242
100
AcDbEntity
  8
LAYERGROUP-1
  6
CONTINUOUS
 62
     7
100
AcDbText
 10
361.070892
 20
121.927605
 30
0.0
 40
5.331655
  1
D
 50
95.0
 41
1.098276
  7
FX_VECTOR
 72
     5
 11
360.633448
 21
126.927617
 31
0.0
100
AcDbText
  0
TEXT
  5
2BA
330
242
100
AcDbEntity
  8
LAYERGROUP-1
  6
CONTINUOUS
 62
     7
100
AcDbText
 10
360.665039
 20
129.857422
 30
0.0
 40
5.331655
  1
C
 50
84.0
 41
1.098276
  7
FX_VECTOR
 72
     5
 11
361.189679
 21
134.849038
 31
0.0
100
AcDbText
  0
TEXT
  5
2BB
330
242
100
AcDbEntity
  8
LAYERGROUP-1
  6
CONTINUOUS
 62
     7
100
AcDbText
 10
361.085876
 20
134.172638
 30
0.0
 40
5.331655
  1
A
 50
78.0
 41
1.162881
  7
FX_VECTOR
 72
     5
 11
362.129408
 21
139.082069
 31
0.0
100
AcDbText
  0
TEXT
  5
2BC
330
242
100
AcDbEntity
  8
LAYERGROUP-1
  6
CONTINUOUS
 62
     7
100
AcDbText
 10
362.047943
 20
138.769653
 30
0.0
 40
5.331655
  1
S
 50
71.5
 41
1.162881
  7
FX_VECTOR
 72
     5
 11
363.64053
 21
143.529395
 31
0.0
100
AcDbText
  0
TEXT
  5
2BD
330
242
100
AcDbEntity
  8
LAYERGROUP-1
  6
CONTINUOUS
 62
     7
100
AcDbText
 10
363.392792
 20
142.891479
 30
0.0
 40
5.331655
  1
T
 50
65.5
 41
1.317931
  7
FX_VECTOR
 72
     5
 11
365.474183
 21
147.458676
 31
0.0
100
AcDbText
  0
TEXT
  5
2BE
330
242
100
AcDbEntity
  8
LAYERGROUP-1
  6
CONTINUOUS
 62
     7
100
AcDbText
 10
364.998016
 20
146.527588
 30
0.0
 40
5.331655
  1
E
 50
60.0
 41
1.162881
  7
FX_VECTOR
 72
     5
 11
367.507572
 21
150.874266
 31
0.0
100
AcDbText
  0
TEXT
  5
2BF
330
242
100
AcDbEntity
  8
LAYERGROUP-1
  6
CONTINUOUS
 62
     7
100
AcDbText
 10
367.333527
 20
150.602325
 30
0.0
 40
5.331655
  1
R
 50
53.5
 41
1.098276
  7
FX_VECTOR
 72
     5
 11
370.319008
 21
154.636972
 31
0.0
100
AcDbText
  0
ENDBLK
  5
244
330
242
100
AcDbEntity
  8
0
100
AcDbBlockEnd
  0
BLOCK
  5
247
330
246
100
AcDbEntity
  8
0
100
AcDbBlockBegin
  2
BLKF037
 70
     0
 71
     0
 10
0.0
 20
0.0
 30
0.0
  3
BLKF037
  1

  0
LINE
  5
24A
330
246
100
AcDbEntity
  8
GR1-1
  6
CONTINUOUS
 62
     7
100
AcDbLine
 10
366.930306
 20
104.535613
 30
0.0
 11
366.686702
 21
104.574196
 31
0.0
  0
LINE
  5
24B
330
246
100
AcDbEntity
  8
GR1-1
  6
CONTINUOUS
 62
     7
100
AcDbLine
 10
367.032816
 20
104.39452
 30
0.0
 11
366.545609
 21
104.471686
 31
0.0
  0
LINE
  5
24C
330
246
100
AcDbEntity
  8
GR1-1
  6
CONTINUOUS
 62
     7
100
AcDbLine
 10
367.135326
 20
104.253426
 30
0.0
 11
366.404516
 21
104.369175
 31
0.0
  0
LINE
  5
24D
330
246
100
AcDbEntity
  8
GR1-1
  6
CONTINUOUS
 62
     7
100
AcDbLine
 10
367.237836
 20
104.112333
 30
0.0
 11
366.263423
 21
104.266665
 31
0.0
  0
LINE
  5
24E
330
246
100
AcDbEntity
  8
GR1-1
  6
CONTINUOUS
 62
     7
100
AcDbLine
 10
367.340347
 20
103.97124
 30
0.0
 11
366.500025
 21
104.104334
 31
0.0
  0
LINE
  5
24F
330
246
100
AcDbEntity
  8
GR1-1
  6
CONTINUOUS
 62
     7
100
AcDbLine
 10
366.2701
 20
104.14075
 30
0.0
 11
366.122329
 21
104.164155
 31
0.0
  0
LINE
  5
250
330
246
100
AcDbEntity
  8
GR1-1
  6
CONTINUOUS
 62
     7
100
AcDbLine
 10
367.442857
 20
103.830147
 30
0.0
 11
366.602535
 21
103.963241
 31
0.0
  0
LINE
  5
251
330
246
100
AcDbEntity
  8
GR1-1
  6
CONTINUOUS
 62
     7
100
AcDbLine
 10
366.129006
 20
104.03824
 30
0.0
 11
365.981236
 21
104.061645
 31
0.0
  0
LINE
  5
252
330
246
100
AcDbEntity
  8
GR1-1
  6
CONTINUOUS
 62
     7
100
AcDbLine
 10
367.545367
 20
103.689054
 30
0.0
 11
366.705045
 21
103.822147
 31
0.0
  0
LINE
  5
253
330
246
100
AcDbEntity
  8
GR1-1
  6
CONTINUOUS
 62
     7
100
AcDbLine
 10
365.987913
 20
103.93573
 30
0.0
 11
365.840143
 21
103.959134
 31
0.0
  0
LINE
  5
254
330
246
100
AcDbEntity
  8
GR1-1
  6
CONTINUOUS
 62
     7
100
AcDbLine
 10
367.647877
 20
103.54796
 30
0.0
 11
366.708088
 21
103.696808
 31
0.0
  0
LINE
  5
255
330
246
100
AcDbEntity
  8
GR1-1
  6
CONTINUOUS
 62
     7
100
AcDbLine
 10
365.84682
 20
103.83322
 30
0.0
 11
365.69905
 21
103.856624
 31
0.0
  0
LINE
  5
256
330
246
100
AcDbEntity
  8
GR1-1
  6
CONTINUOUS
 62
     7
100
AcDbLine
 10
367.750387
 20
103.406867
 30
0.0
 11
366.566995
 21
103.594298
 31
0.0
  0
LINE
  5
257
330
246
100
AcDbEntity
  8
GR1-1
  6
CONTINUOUS
 62
     7
100
AcDbLine
 10
365.705727
 20
103.73071
 30
0.0
 11
365.557956
 21
103.754114
 31
0.0
  0
LINE
  5
258
330
246
100
AcDbEntity
  8
GR1-1
  6
CONTINUOUS
 62
     7
100
AcDbLine
 10
367.852898
 20
103.265774
 30
0.0
 11
366.425902
 21
103.491788
 31
0.0
  0
LINE
  5
259
330
246
100
AcDbEntity
  8
GR1-1
  6
CONTINUOUS
 62
     7
100
AcDbLine
 10
365.564633
 20
103.628199
 30
0.0
 11
365.416863
 21
103.651604
 31
0.0
  0
LINE
  5
25A
330
246
100
AcDbEntity
  8
GR1-1
  6
CONTINUOUS
 62
     7
100
AcDbLine
 10
367.955408
 20
103.124681
 30
0.0
 11
366.355981
 21
103.378005
 31
0.0
  0
LINE
  5
25B
330
246
100
AcDbEntity
  8
GR1-1
  6
CONTINUOUS
 62
     7
100
AcDbLine
 10
365.42354
 20
103.525689
 30
0.0
 11
365.27577
 21
103.549094
 31
0.0
  0
LINE
  5
25C
330
246
100
AcDbEntity
  8
GR1-1
  6
CONTINUOUS
 62
     7
100
AcDbLine
 10
368.057918
 20
102.983587
 30
0.0
 11
367.814315
 21
103.02217
 31
0.0
  0
LINE
  5
25D
330
246
100
AcDbEntity
  8
GR1-1
  6
CONTINUOUS
 62
     7
100
AcDbLine
 10
365.474113
 20
103.392822
 30
0.0
 11
365.134677
 21
103.446583
 31
0.0
  0
LINE
  5
25E
330
246
100
AcDbEntity
  8
GR1-1
  6
CONTINUOUS
 62
     7
100
AcDbLine
 10
368.160428
 20
102.842494
 30
0.0
 11
367.795023
 21
102.900369
 31
0.0
  0
LINE
  5
25F
330
246
100
AcDbEntity
  8
GR1-1
  6
CONTINUOUS
 62
     7
100
AcDbLine
 10
365.576624
 20
103.251729
 30
0.0
 11
364.993584
 21
103.344073
 31
0.0
  0
LINE
  5
260
330
246
100
AcDbEntity
  8
GR1-1
  6
CONTINUOUS
 62
     7
100
AcDbLine
 10
368.262939
 20
102.701401
 30
0.0
 11
367.775732
 21
102.778567
 31
0.0
  0
LINE
  5
261
330
246
100
AcDbEntity
  8
GR1-1
  6
CONTINUOUS
 62
     7
100
AcDbLine
 10
365.679134
 20
103.110635
 30
0.0
 11
365.420753
 21
103.151559
 31
0.0
  0
LINE
  5
262
330
246
100
AcDbEntity
  8
GR1-1
  6
CONTINUOUS
 62
     7
100
AcDbLine
 10
365.339697
 20
103.164397
 30
0.0
 11
364.85249
 21
103.241563
 31
0.0
  0
LINE
  5
263
330
246
100
AcDbEntity
  8
GR1-1
  6
CONTINUOUS
 62
     7
100
AcDbLine
 10
368.365449
 20
102.560308
 30
0.0
 11
367.75644
 21
102.656765
 31
0.0
  0
LINE
  5
264
330
246
100
AcDbEntity
  8
GR1-1
  6
CONTINUOUS
 62
     7
100
AcDbLine
 10
365.781644
 20
102.969542
 30
0.0
 11
365.523264
 21
103.010466
 31
0.0
  0
LINE
  5
265
330
246
100
AcDbEntity
  8
GR1-1
  6
CONTINUOUS
 62
     7
100
AcDbLine
 10
365.320406
 20
103.042595
 30
0.0
 11
364.711397
 21
103.139053
 31
0.0
  0
LINE
  5
266
330
246
100
AcDbEntity
  8
GR1-1
  6
CONTINUOUS
 62
     7
100
AcDbLine
 10
368.467959
 20
102.419215
 30
0.0
 11
367.737149
 21
102.534963
 31
0.0
  0
LINE
  5
267
330
246
100
AcDbEntity
  8
GR1-1
  6
CONTINUOUS
 62
     7
100
AcDbLine
 10
365.884154
 20
102.828449
 30
0.0
 11
365.625774
 21
102.869372
 31
0.0
  0
LINE
  5
268
330
246
100
AcDbEntity
  8
GR1-1
  6
CONTINUOUS
 62
     7
100
AcDbLine
 10
365.301114
 20
102.920793
 30
0.0
 11
364.570304
 21
103.036542
 31
0.0
  0
LINE
  5
269
330
246
100
AcDbEntity
  8
GR1-1
  6
CONTINUOUS
 62
     7
100
AcDbLine
 10
368.570469
 20
102.278121
 30
0.0
 11
367.717857
 21
102.413162
 31
0.0
  0
LINE
  5
26A
330
246
100
AcDbEntity
  8
GR1-1
  6
CONTINUOUS
 62
     7
100
AcDbLine
 10
367.108849
 20
102.509619
 30
0.0
 11
366.418607
 21
102.618943
 31
0.0
  0
LINE
  5
26B
330
246
100
AcDbEntity
  8
GR1-1
  6
CONTINUOUS
 62
     7
100
AcDbLine
 10
365.986665
 20
102.687356
 30
0.0
 11
365.728284
 21
102.728279
 31
0.0
  0
LINE
  5
26C
330
246
100
AcDbEntity
  8
GR1-1
  6
CONTINUOUS
 62
     7
100
AcDbLine
 10
365.281823
 20
102.798992
 30
0.0
 11
364.429211
 21
102.934032
 31
0.0
  0
LINE
  5
26D
330
246
100
AcDbEntity
  8
GR1-1
  6
CONTINUOUS
 62
     7
100
AcDbLine
 10
368.67298
 20
102.137028
 30
0.0
 11
367.698566
 21
102.29136
 31
0.0
  0
LINE
  5
26E
330
246
100
AcDbEntity
  8
GR1-1
  6
CONTINUOUS
 62
     7
100
AcDbLine
 10
367.089557
 20
102.387818
 30
0.0
 11
366.519809
 21
102.478057
 31
0.0
  0
LINE
  5
26F
330
246
100
AcDbEntity
  8
GR1-1
  6
CONTINUOUS
 62
     7
100
AcDbLine
 10
366.089175
 20
102.546263
 30
0.0
 11
365.830794
 21
102.587186
 31
0.0
  0
LINE
  5
270
330
246
100
AcDbEntity
  8
GR1-1
  6
CONTINUOUS
 62
     7
100
AcDbLine
 10
365.262531
 20
102.67719
 30
0.0
 11
364.288117
 21
102.831522
 31
0.0
  0
LINE
  5
271
330
246
100
AcDbEntity
  8
GR1-1
  6
CONTINUOUS
 62
     7
100
AcDbLine
 10
368.77549
 20
101.995935
 30
0.0
 11
367.679274
 21
102.169558
 31
0.0
  0
LINE
  5
272
330
246
100
AcDbEntity
  8
GR1-1
  6
CONTINUOUS
 62
     7
100
AcDbLine
 10
367.070266
 20
102.266016
 30
0.0
 11
366.622319
 21
102.336964
 31
0.0
  0
LINE
  5
273
330
246
100
AcDbEntity
  8
GR1-1
  6
CONTINUOUS
 62
     7
100
AcDbLine
 10
366.191685
 20
102.405169
 30
0.0
 11
365.852248
 21
102.458931
 31
0.0
  0
LINE
  5
274
330
246
100
AcDbEntity
  8
GR1-1
  6
CONTINUOUS
 62
     7
100
AcDbLine
 10
365.24324
 20
102.555388
 30
0.0
 11
364.147024
 21
102.729012
 31
0.0
  0
LINE
  5
275
330
246
100
AcDbEntity
  8
GR1-1
  6
CONTINUOUS
 62
     7
100
AcDbLine
 10
368.878
 20
101.854842
 30
0.0
 11
367.659983
 21
102.047757
 31
0.0
  0
LINE
  5
276
330
246
100
AcDbEntity
  8
GR1-1
  6
CONTINUOUS
 62
     7
100
AcDbLine
 10
367.050974
 20
102.144214
 30
0.0
 11
366.589736
 21
102.217267
 31
0.0
  0
LINE
  5
277
330
246
100
AcDbEntity
  8
GR1-1
  6
CONTINUOUS
 62
     7
100
AcDbLine
 10
366.294195
 20
102.264076
 30
0.0
 11
365.832957
 21
102.337129
 31
0.0
  0
LINE
  5
278
330
246
100
AcDbEntity
  8
GR1-1
  6
CONTINUOUS
 62
     7
100
AcDbLine
 10
365.223948
 20
102.433587
 30
0.0
 11
364.005931
 21
102.626502
 31
0.0
  0
LINE
  5
279
330
246
100
AcDbEntity
  8
GR1-1
  6
CONTINUOUS
 62
     7
100
AcDbLine
 10
368.98051
 20
101.713748
 30
0.0
 11
367.640691
 21
101.925955
 31
0.0
  0
LINE
  5
27A
330
246
100
AcDbEntity
  8
GR1-1
  6
CONTINUOUS
 62
     7
100
AcDbLine
 10
367.031683
 20
102.022412
 30
0.0
 11
366.448643
 21
102.114757
 31
0.0
  0
LINE
  5
27B
330
246
100
AcDbEntity
  8
GR1-1
  6
CONTINUOUS
 62
     7
100
AcDbLine
 10
366.396705
 20
102.122983
 30
0.0
 11
365.813665
 21
102.215327
 31
0.0
  0
LINE
  5
27C
330
246
100
AcDbEntity
  8
GR1-1
  6
CONTINUOUS
 62
     7
100
AcDbLine
 10
365.204657
 20
102.311785
 30
0.0
 11
363.864838
 21
102.523991
 31
0.0
  0
LINE
  5
27D
330
246
100
AcDbEntity
  8
GR1-1
  6
CONTINUOUS
 62
     7
100
AcDbLine
 10
368.891354
 20
101.603012
 30
0.0
 11
367.6214
 21
101.804153
 31
0.0
  0
LINE
  5
27E
330
246
100
AcDbEntity
  8
GR1-1
  6
CONTINUOUS
 62
     7
100
AcDbLine
 10
367.012391
 20
101.900611
 30
0.0
 11
365.794374
 21
102.093526
 31
0.0
  0
LINE
  5
27F
330
246
100
AcDbEntity
  8
GR1-1
  6
CONTINUOUS
 62
     7
100
AcDbLine
 10
365.185365
 20
102.189983
 30
0.0
 11
363.915411
 21
102.391124
 31
0.0
  0
LINE
  5
280
330
246
100
AcDbEntity
  8
GR1-1
  6
CONTINUOUS
 62
     7
100
AcDbLine
 10
368.750261
 20
101.500502
 30
0.0
 11
367.602108
 21
101.682351
 31
0.0
  0
LINE
  5
281
330
246
100
AcDbEntity
  8
GR1-1
  6
CONTINUOUS
 62
     7
100
AcDbLine
 10
366.9931
 20
101.778809
 30
0.0
 11
365.775082
 21
101.971724
 31
0.0
  0
LINE
  5
282
330
246
100
AcDbEntity
  8
GR1-1
  6
CONTINUOUS
 62
     7
100
AcDbLine
 10
365.166074
 20
102.068181
 30
0.0
 11
364.017921
 21
102.250031
 31
0.0
  0
LINE
  5
283
330
246
100
AcDbEntity
  8
GR1-1
  6
CONTINUOUS
 62
     7
100
AcDbLine
 10
368.609168
 20
101.397992
 30
0.0
 11
367.582817
 21
101.56055
 31
0.0
  0
LINE
  5
284
330
246
100
AcDbEntity
  8
GR1-1
  6
CONTINUOUS
 62
     7
100
AcDbLine
 10
366.973808
 20
101.657007
 30
0.0
 11
365.755791
 21
101.849922
 31
0.0
  0
LINE
  5
285
330
246
100
AcDbEntity
  8
GR1-1
  6
CONTINUOUS
 62
     7
100
AcDbLine
 10
365.146782
 20
101.94638
 30
0.0
 11
364.120431
 21
102.108938
 31
0.0
  0
LINE
  5
286
330
246
100
AcDbEntity
  8
GR1-1
  6
CONTINUOUS
 62
     7
100
AcDbLine
 10
368.468074
 20
101.295481
 30
0.0
 11
367.563525
 21
101.438748
 31
0.0
  0
LINE
  5
287
330
246
100
AcDbEntity
  8
GR1-1
  6
CONTINUOUS
 62
     7
100
AcDbLine
 10
366.954517
 20
101.535205
 30
0.0
 11
365.736499
 21
101.72812
 31
0.0
  0
LINE
  5
288
330
246
100
AcDbEntity
  8
GR1-1
  6
CONTINUOUS
 62
     7
100
AcDbLine
 10
365.127491
 20
101.824578
 30
0.0
 11
364.222942
 21
101.967844
 31
0.0
  0
LINE
  5
289
330
246
100
AcDbEntity
  8
GR1-1
  6
CONTINUOUS
 62
     7
100
AcDbLine
 10
368.326981
 20
101.192971
 30
0.0
 11
367.544234
 21
101.316946
 31
0.0
  0
LINE
  5
28A
330
246
100
AcDbEntity
  8
GR1-1
  6
CONTINUOUS
 62
     7
100
AcDbLine
 10
366.935225
 20
101.413404
 30
0.0
 11
365.717208
 21
101.606319
 31
0.0
  0
LINE
  5
28B
330
246
100
AcDbEntity
  8
GR1-1
  6
CONTINUOUS
 62
     7
100
AcDbLine
 10
365.108199
 20
101.702776
 30
0.0
 11
364.325452
 21
101.826751
 31
0.0
  0
LINE
  5
28C
330
246
100
AcDbEntity
  8
GR1-1
  6
CONTINUOUS
 62
     7
100
AcDbLine
 10
368.185888
 20
101.090461
 30
0.0
 11
367.524942
 21
101.195145
 31
0.0
  0
LINE
  5
28D
330
246
100
AcDbEntity
  8
GR1-1
  6
CONTINUOUS
 62
     7
100
AcDbLine
 10
365.088908
 20
101.580974
 30
0.0
 11
364.427962
 21
101.685658
 31
0.0
  0
LINE
  5
28E
330
246
100
AcDbEntity
  8
GR1-1
  6
CONTINUOUS
 62
     7
100
AcDbLine
 10
368.044795
 20
100.987951
 30
0.0
 11
367.505651
 21
101.073343
 31
0.0
  0
LINE
  5
28F
330
246
100
AcDbEntity
  8
GR1-1
  6
CONTINUOUS
 62
     7
100
AcDbLine
 10
365.069616
 20
101.459173
 30
0.0
 11
364.530472
 21
101.544565
 31
0.0
  0
LINE
  5
290
330
246
100
AcDbEntity
  8
GR1-1
  6
CONTINUOUS
 62
     7
100
AcDbLine
 10
367.903702
 20
100.885441
 30
0.0
 11
367.486359
 21
100.951541
 31
0.0
  0
LINE
  5
291
330
246
100
AcDbEntity
  8
GR1-1
  6
CONTINUOUS
 62
     7
100
AcDbLine
 10
365.050325
 20
101.337371
 30
0.0
 11
364.632982
 21
101.403472
 31
0.0
  0
LINE
  5
292
330
246
100
AcDbEntity
  8
GR1-1
  6
CONTINUOUS
 62
     7
100
AcDbLine
 10
367.762608
 20
100.78293
 30
0.0
 11
367.467068
 21
100.829739
 31
0.0
  0
LINE
  5
293
330
246
100
AcDbEntity
  8
GR1-1
  6
CONTINUOUS
 62
     7
100
AcDbLine
 10
365.031033
 20
101.215569
 30
0.0
 11
364.735493
 21
101.262378
 31
0.0
  0
LINE
  5
294
330
246
100
AcDbEntity
  8
GR1-1
  6
CONTINUOUS
 62
     7
100
AcDbLine
 10
367.621515
 20
100.68042
 30
0.0
 11
367.447776
 21
100.707938
 31
0.0
  0
LINE
  5
295
330
246
100
AcDbEntity
  8
GR1-1
  6
CONTINUOUS
 62
     7
100
AcDbLine
 10
365.011742
 20
101.093768
 30
0.0
 11
364.838003
 21
101.121285
 31
0.0
  0
LINE
  5
296
330
246
100
AcDbEntity
  8
GR1-1
  6
CONTINUOUS
 62
     7
100
AcDbLine
 10
367.480422
 20
100.57791
 30
0.0
 11
364.940513
 21
100.980192
 31
0.0
  0
LINE
  5
297
330
246
100
AcDbEntity
  8
GR1-1
  6
CONTINUOUS
 62
     7
100
AcDbLine
 10
367.339329
 20
100.4754
 30
0.0
 11
365.043023
 21
100.839099
 31
0.0
  0
LINE
  5
298
330
246
100
AcDbEntity
  8
GR1-1
  6
CONTINUOUS
 62
     7
100
AcDbLine
 10
367.198235
 20
100.372889
 30
0.0
 11
365.145534
 21
100.698005
 31
0.0
  0
LINE
  5
299
330
246
100
AcDbEntity
  8
GR1-1
  6
CONTINUOUS
 62
     7
100
AcDbLine
 10
367.057142
 20
100.270379
 30
0.0
 11
365.248044
 21
100.556912
 31
0.0
  0
LINE
  5
29A
330
246
100
AcDbEntity
  8
GR1-1
  6
CONTINUOUS
 62
     7
100
AcDbLine
 10
366.916049
 20
100.167869
 30
0.0
 11
365.350554
 21
100.415819
 31
0.0
  0
LINE
  5
29B
330
246
100
AcDbEntity
  8
GR1-1
  6
CONTINUOUS
 62
     7
100
AcDbLine
 10
366.774956
 20
100.065359
 30
0.0
 11
365.453064
 21
100.274726
 31
0.0
  0
LINE
  5
29C
330
246
100
AcDbEntity
  8
GR1-1
  6
CONTINUOUS
 62
     7
100
AcDbLine
 10
366.633863
 20
99.962848
 30
0.0
 11
365.555575
 21
100.133633
 31
0.0
  0
LINE
  5
29D
330
246
100
AcDbEntity
  8
GR1-1
  6
CONTINUOUS
 62
     7
100
AcDbLine
 10
366.492769
 20
99.860338
 30
0.0
 11
365.658085
 21
99.992539
 31
0.0
  0
LINE
  5
29E
330
246
100
AcDbEntity
  8
GR1-1
  6
CONTINUOUS
 62
     7
100
AcDbLine
 10
366.351676
 20
99.757828
 30
0.0
 11
365.760595
 21
99.851446
 31
0.0
  0
LINE
  5
29F
330
246
100
AcDbEntity
  8
GR1-1
  6
CONTINUOUS
 62
     7
100
AcDbLine
 10
366.210583
 20
99.655318
 30
0.0
 11
365.863105
 21
99.710353
 31
0.0
  0
LINE
  5
2A0
330
246
100
AcDbEntity
  8
GR1-1
  6
CONTINUOUS
 62
     7
100
AcDbLine
 10
366.06949
 20
99.552808
 30
0.0
 11
365.965615
 21
99.56926
 31
0.0
  0
ENDBLK
  5
248
330
246
100
AcDbEntity
  8
0
100
AcDbBlockEnd
  0
BLOCK
  5
2C1
330
2C0
100
AcDbEntity
  8
0
100
AcDbBlockBegin
  2
BLKF038
 70
     0
 71
     0
 10
0.0
 20
0.0
 30
0.0
  3
BLKF038
  1

  0
TEXT
  5
2C4
330
2C0
100
AcDbEntity
  8
LAYERGROUP-1
  6
CONTINUOUS
 62
     7
100
AcDbText
 10
445.129883
 20
140.6875
 30
0.0
 40
5.27711
  1
1
 50
285.5
 41
1.701829
  7
FX_VECTOR
 72
     5
 11
446.387025
 21
136.154393
 31
0.0
100
AcDbText
  0
TEXT
  5
2C5
330
2C0
100
AcDbEntity
  8
LAYERGROUP-1
  6
CONTINUOUS
 62
     7
100
AcDbText
 10
446.047913
 20
137.566772
 30
0.0
 40
5.27711
  1
0
 50
281.0
 41
1.101184
  7
FX_VECTOR
 72
     5
 11
446.945516
 21
132.949005
 31
0.0
100
AcDbText
  0
TEXT
  5
2C6
330
2C0
100
AcDbEntity
  8
LAYERGROUP-1
  6
CONTINUOUS
 62
     7
100
AcDbText
 10
446.885925
 20
133.312103
 30
0.0
 40
5.27711
  1
0
 50
275.0
 41
1.101184
  7
FX_VECTOR
 72
     5
 11
447.295923
 21
128.625808
 31
0.0
100
AcDbText
  0
TEXT
  5
2C7
330
2C0
100
AcDbEntity
  8
LAYERGROUP-1
  6
CONTINUOUS
 62
     7
100
AcDbText
 10
447.28653
 20
128.631805
 30
0.0
 40
5.27711
  1
X
 50
268.5
 41
1.101184
  7
FX_VECTOR
 72
     5
 11
447.163388
 21
123.929221
 31
0.0
100
AcDbText
  0
TEXT
  5
2C8
330
2C0
100
AcDbEntity
  8
LAYERGROUP-1
  6
CONTINUOUS
 62
     7
100
AcDbText
 10
447.183807
 20
124.296593
 30
0.0
 40
5.27711
  1
3
 50
262.5
 41
1.101184
  7
FX_VECTOR
 72
     5
 11
446.569787
 21
119.632641
 31
0.0
100
AcDbText
  0
TEXT
  5
2C9
330
2C0
100
AcDbEntity
  8
LAYERGROUP-1
  6
CONTINUOUS
 62
     7
100
AcDbText
 10
446.628479
 20
119.995872
 30
0.0
 40
5.27711
  1
2
 50
256.5
 41
1.101184
  7
FX_VECTOR
 72
     5
 11
445.530306
 21
115.421653
 31
0.0
100
AcDbText
  0
ENDBLK
  5
2C2
330
2C0
100
AcDbEntity
  8
0
100
AcDbBlockEnd
  0
ENDSEC
  0
SECTION
  2
ENTITIES
  0
TEXT
  5
A8
330
1F
100
AcDbEntity
  8
}}ﾊﾊGG血CCТ
  6
CONTINUOUS
 62
     7
100
AcDbText
 10
329.0
 20
12.0
 30
0.0
 40
6.0
  1
ＳＫＰ－１００　ＵＢ
 41
0.79096
  7
FX_VECTOR
 72
     5
 11
369.0
 21
12.0
 31
0.0
100
AcDbText
  0
TEXT
  5
A9
330
1F
100
AcDbEntity
  8
}}ﾊﾊGG血CCТ
  6
CONTINUOUS
 62
     7
100
AcDbText
 10
429.0
 20
12.0
 30
0.0
 40
6.0
  1
S30C0FAA-C01
 41
0.72103
  7
FX_VECTOR
 72
     5
 11
477.0
 21
12.0
 31
0.0
100
AcDbText
  0
INSERT
  5
AD
330
1F
100
AcDbEntity
  8
0
100
AcDbBlockReference
  2
BLKF021
 10
0.0
 20
0.0
 30
0.0
  0
LINE
  5
DA
330
1F
100
AcDbEntity
  8
GR1-1-1
  6
CENTER
 62
     6
100
AcDbLine
 10
178.074525
 20
214.062054
 30
0.0
 11
178.074525
 21
68.844796
 31
0.0
  0
LINE
  5
DC
330
1F
100
AcDbEntity
  8
FIG_3-1-1
  6
CENTER
 62
     6
100
AcDbLine
 10
403.989802
 20
214.062054
 30
0.0
 11
403.989802
 21
72.130783
 31
0.0
  0
LINE
  5
DE
330
1F
100
AcDbEntity
  8
FIG_1-1-1
  6
CONTINUOUS
 62
     3
100
AcDbLine
 10
358.989802
 20
207.4
 30
0.0
 11
358.989802
 21
210.0
 31
0.0
  0
LINE
  5
DF
330
1F
100
AcDbEntity
  8
FIG_1-1-1
  6
CONTINUOUS
 62
     3
100
AcDbLine
 10
358.989802
 20
210.0
 30
0.0
 11
448.989802
 21
210.0
 31
0.0
  0
LINE
  5
E0
330
1F
100
AcDbEntity
  8
FIG_3-1-1
  6
CENTER
 62
     6
100
AcDbLine
 10
350.245576
 20
128.0
 30
0.0
 11
458.423602
 21
128.0
 31
0.0
  0
LINE
  5
E1
330
1F
100
AcDbEntity
  8
FIG_1-1-1
  6
CONTINUOUS
 62
     3
100
AcDbLine
 10
448.989802
 20
207.4
 30
0.0
 11
448.989802
 21
210.0
 31
0.0
  0
ARC
  5
E2
330
1F
100
AcDbEntity
  8
LAYERGROUP-1
  6
CONTINUOUS
 62
     3
100
AcDbCircle
 10
403.989802
 20
111.421579
 30
0.0
 40
33.07842105263186
100
AcDbArc
 50
48.303055
 51
131.696945
  0
ARC
  5
E3
330
1F
100
AcDbEntity
  8
LAYERGROUP-1
  6
CONTINUOUS
 62
     6
100
AcDbCircle
 10
403.989802
 20
108.777778
 30
0.0
 40
39.22222222222248
100
AcDbArc
 50
53.369994
 51
126.540123
  0
LINE
  5
E4
330
1F
100
AcDbEntity
  8
LAYERGROUP-1
  6
CONTINUOUS
 62
     3
100
AcDbLine
 10
429.095317
 20
140.84652
 30
0.0
 11
429.153579
 21
141.866098
 31
0.0
  0
LINE
  5
E5
330
1F
100
AcDbEntity
  8
LAYERGROUP-1
  6
CONTINUOUS
 62
     3
100
AcDbLine
 10
429.383315
 20
143.104728
 30
0.0
 11
429.873555
 21
144.636728
 31
0.0
  0
LINE
  5
E6
330
1F
100
AcDbEntity
  8
LAYERGROUP-1
  6
CONTINUOUS
 62
     3
100
AcDbLine
 10
440.646853
 20
180.0
 30
0.0
 11
448.989802
 21
207.4
 31
0.0
  0
LINE
  5
E7
330
1F
100
AcDbEntity
  8
LAYERGROUP-1
  6
CONTINUOUS
 62
     3
100
AcDbLine
 10
428.230819
 20
137.313371
 30
0.0
 11
427.189802
 21
135.0
 31
0.0
  0
LINE
  5
E8
330
1F
100
AcDbEntity
  8
LAYERGROUP-1
  6
CONTINUOUS
 62
     3
100
AcDbLine
 10
427.189802
 20
135.0
 30
0.0
 11
421.410007
 21
122.088028
 31
0.0
  0
LINE
  5
E9
330
1F
100
AcDbEntity
  8
LAYERGROUP-1
  6
CONTINUOUS
 62
     3
100
AcDbLine
 10
380.789802
 20
135.0
 30
0.0
 11
386.569596
 21
122.088028
 31
0.0
  0
ARC
  5
EA
330
1F
100
AcDbEntity
  8
LAYERGROUP-1
  6
CONTINUOUS
 62
     3
100
AcDbCircle
 10
403.989802
 20
129.885846
 30
0.0
 40
19.08584647371151
100
AcDbArc
 50
204.114752
 51
335.885248
  0
LINE
  5
EB
330
1F
100
AcDbEntity
  8
LAYERGROUP-1
  6
CONTINUOUS
 62
     3
100
AcDbLine
 10
429.815
 20
146.350796
 30
0.0
 11
434.090904
 21
163.618504
 31
0.0
  0
LINE
  5
EC
330
1F
100
AcDbEntity
  8
LAYERGROUP-1
  6
CONTINUOUS
 62
     3
100
AcDbLine
 10
440.646853
 20
180.0
 30
0.0
 11
434.090904
 21
163.618504
 31
0.0
  0
LINE
  5
ED
330
1F
100
AcDbEntity
  8
LAYERGROUP-1
  6
CONTINUOUS
 62
     3
100
AcDbLine
 10
428.685596
 20
143.609348
 30
0.0
 11
428.789919
 21
143.791854
 31
0.0
  0
ARC
  5
EE
330
1F
100
AcDbEntity
  8
LAYERGROUP-1
  6
CONTINUOUS
 62
     6
100
AcDbCircle
 10
403.989802
 20
124.575385
 30
0.0
 40
30.92461538461583
100
AcDbArc
 50
58.842848
 51
121.157152
  0
ARC
  5
EF
330
1F
100
AcDbEntity
  8
LAYERGROUP-1
  6
CONTINUOUS
 62
     3
100
AcDbCircle
 10
429.516776
 20
150.282307
 30
0.0
 40
5.303443815664243
100
AcDbArc
 50
225.201238
 51
268.401922
  0
LINE
  5
F0
330
1F
100
AcDbEntity
  8
LAYERGROUP-1
  6
CONTINUOUS
 62
     3
100
AcDbLine
 10
428.026469
 20
137.932435
 30
0.0
 11
428.026469
 21
141.128053
 31
0.0
  0
ARC
  5
F1
330
1F
100
AcDbEntity
  8
LAYERGROUP-1
  6
CONTINUOUS
 62
     3
100
AcDbCircle
 10
906.877095
 20
18.916401
 30
0.0
 40
493.2733158616005
100
AcDbArc
 50
160.939854
 51
165.146861
  0
ARC
  5
F2
330
1F
100
AcDbEntity
  8
LAYERGROUP-1
  6
CONTINUOUS
 62
     3
100
AcDbCircle
 10
403.989802
 20
114.73302
 30
0.0
 40
36.66698048370949
100
AcDbArc
 50
55.568456
 51
124.431544
  0
ARC
  5
F3
330
1F
100
AcDbEntity
  8
LAYERGROUP-1
  6
CONTINUOUS
 62
     3
100
AcDbCircle
 10
433.026469
 20
141.128053
 30
0.0
 40
5.0
100
AcDbArc
 50
150.247206
 51
180.0
  0
ARC
  5
F4
330
1F
100
AcDbEntity
  8
LAYERGROUP-1
  6
CONTINUOUS
 62
     3
100
AcDbCircle
 10
419.111604
 20
141.417018
 30
0.0
 40
10.0
100
AcDbArc
 50
335.772255
 51
356.729512
  0
ARC
  5
F5
330
1F
100
AcDbEntity
  8
LAYERGROUP-1
  6
CONTINUOUS
 62
     3
100
AcDbCircle
 10
434.145435
 20
141.580849
 30
0.0
 40
5.0
100
AcDbArc
 50
162.255328
 51
176.729512
  0
ARC
  5
F6
330
1F
100
AcDbEntity
  8
LAYERGROUP-1
  6
CONTINUOUS
 62
     3
100
AcDbCircle
 10
415.587192
 20
149.208364
 30
0.0
 40
15.0
100
AcDbArc
 50
342.255328
 51
345.146861
  0
ARC
  5
F7
330
1F
100
AcDbEntity
  8
LAYERGROUP-1
  6
CONTINUOUS
 62
     3
100
AcDbCircle
 10
423.026469
 20
137.932435
 30
0.0
 40
5.0
100
AcDbArc
 50
335.772255
 51
360.0
  0
LINE
  5
F8
330
1F
100
AcDbEntity
  8
LAYERGROUP-1
  6
CONTINUOUS
 62
     3
100
AcDbLine
 10
378.884286
 20
140.84652
 30
0.0
 11
378.826025
 21
141.866098
 31
0.0
  0
LINE
  5
F9
330
1F
100
AcDbEntity
  8
LAYERGROUP-1
  6
CONTINUOUS
 62
     3
100
AcDbLine
 10
378.596289
 20
143.104728
 30
0.0
 11
378.106049
 21
144.636728
 31
0.0
  0
LINE
  5
FA
330
1F
100
AcDbEntity
  8
LAYERGROUP-1
  6
CONTINUOUS
 62
     3
100
AcDbLine
 10
379.748785
 20
137.313371
 30
0.0
 11
380.789802
 21
135.0
 31
0.0
  0
LINE
  5
FB
330
1F
100
AcDbEntity
  8
LAYERGROUP-1
  6
CONTINUOUS
 62
     3
100
AcDbLine
 10
378.164604
 20
146.350796
 30
0.0
 11
373.888699
 21
163.618504
 31
0.0
  0
LINE
  5
FC
330
1F
100
AcDbEntity
  8
LAYERGROUP-1
  6
CONTINUOUS
 62
     3
100
AcDbLine
 10
367.33275
 20
180.0
 30
0.0
 11
373.888699
 21
163.618504
 31
0.0
  0
ARC
  5
FD
330
1F
100
AcDbEntity
  8
LAYERGROUP-1
  6
CONTINUOUS
 62
     3
100
AcDbCircle
 10
378.462827
 20
150.282307
 30
0.0
 40
5.303443815664243
100
AcDbArc
 50
271.598078
 51
314.798762
  0
LINE
  5
FE
330
1F
100
AcDbEntity
  8
LAYERGROUP-1
  6
CONTINUOUS
 62
     3
100
AcDbLine
 10
379.953134
 20
137.932435
 30
0.0
 11
379.953134
 21
141.128053
 31
0.0
  0
ARC
  5
FF
330
1F
100
AcDbEntity
  8
LAYERGROUP-1
  6
CONTINUOUS
 62
     3
100
AcDbCircle
 10
-98.897491
 20
18.916401
 30
0.0
 40
493.2733158616005
100
AcDbArc
 50
14.853139
 51
19.060146
  0
ARC
  5
100
330
1F
100
AcDbEntity
  8
LAYERGROUP-1
  6
CONTINUOUS
 62
     3
100
AcDbCircle
 10
374.953134
 20
141.128053
 30
0.0
 40
5.0
100
AcDbArc
 50
0.0
 51
32.1603
  0
ARC
  5
101
330
1F
100
AcDbEntity
  8
LAYERGROUP-1
  6
CONTINUOUS
 62
     3
100
AcDbCircle
 10
388.868
 20
141.417018
 30
0.0
 40
10.0
100
AcDbArc
 50
183.270488
 51
204.227745
  0
ARC
  5
102
330
1F
100
AcDbEntity
  8
LAYERGROUP-1
  6
CONTINUOUS
 62
     3
100
AcDbCircle
 10
373.834168
 20
141.580849
 30
0.0
 40
5.0
100
AcDbArc
 50
3.270488
 51
17.744672
  0
ARC
  5
103
330
1F
100
AcDbEntity
  8
LAYERGROUP-1
  6
CONTINUOUS
 62
     3
100
AcDbCircle
 10
392.392411
 20
149.208364
 30
0.0
 40
15.0
100
AcDbArc
 50
194.853139
 51
197.744672
  0
ARC
  5
104
330
1F
100
AcDbEntity
  8
LAYERGROUP-1
  6
CONTINUOUS
 62
     3
100
AcDbCircle
 10
384.953134
 20
137.932435
 30
0.0
 40
5.0
100
AcDbArc
 50
180.0
 51
204.227745
  0
LINE
  5
105
330
1F
100
AcDbEntity
  8
LAYERGROUP-1
  6
CONTINUOUS
 62
     3
100
AcDbLine
 10
367.33275
 20
180.0
 30
0.0
 11
358.989802
 21
207.4
 31
0.0
  0
LINE
  5
106
330
1F
100
AcDbEntity
  8
LAYERGROUP-1
  6
CONTINUOUS
 62
     6
100
AcDbLine
 10
419.989802
 20
205.627826
 30
0.0
 11
419.989802
 21
151.039168
 31
0.0
  0
LINE
  5
107
330
1F
100
AcDbEntity
  8
LAYERGROUP-1
  6
CONTINUOUS
 62
     6
100
AcDbLine
 10
387.989802
 20
205.627826
 30
0.0
 11
387.989802
 21
151.039168
 31
0.0
  0
ARC
  5
108
330
1F
100
AcDbEntity
  8
LAYERGROUP-1
  6
CONTINUOUS
 62
     3
100
AcDbCircle
 10
420.108173
 20
148.754442
 30
0.0
 40
10.0
100
AcDbArc
 50
330.247206
 51
346.091937
  0
ARC
  5
109
330
1F
100
AcDbEntity
  8
LAYERGROUP-1
  6
CONTINUOUS
 62
     3
100
AcDbCircle
 10
387.87143
 20
148.754442
 30
0.0
 40
10.0
100
AcDbArc
 50
193.908063
 51
209.752794
  0
LINE
  5
10A
330
1F
100
AcDbEntity
  8
GR1-1-1
  6
CENTER
 62
     6
100
AcDbLine
 10
403.989802
 20
276.297239
 30
0.0
 11
403.989802
 21
373.202698
 31
0.0
  0
LINE
  5
10B
330
1F
100
AcDbEntity
  8
GR1-1-1
  6
CENTER
 62
     6
100
AcDbLine
 10
351.477412
 20
325.136234
 30
0.0
 11
457.054668
 21
325.136234
 31
0.0
  0
LINE
  5
10C
330
1F
100
AcDbEntity
  8
FIG_1-1-1
  6
CONTINUOUS
 62
     3
100
AcDbLine
 10
358.989802
 20
274.636234
 30
0.0
 11
358.989802
 21
375.636234
 31
0.0
  0
LINE
  5
10D
330
1F
100
AcDbEntity
  8
FIG_1-1-1
  6
CONTINUOUS
 62
     3
100
AcDbLine
 10
448.989802
 20
274.636234
 30
0.0
 11
448.989802
 21
375.636234
 31
0.0
  0
LINE
  5
10E
330
1F
100
AcDbEntity
  8
FIG_1-1-1
  6
CONTINUOUS
 62
     3
100
AcDbLine
 10
372.378889
 20
285.747147
 30
0.0
 11
374.10261
 21
287.484548
 31
0.0
  0
ARC
  5
10F
330
1F
100
AcDbEntity
  8
FIG_1-1-1
  6
CONTINUOUS
 62
     3
100
AcDbCircle
 10
369.989802
 20
291.136234
 30
0.0
 40
5.5
100
AcDbArc
 50
-45.0
 51
135.0
  0
LINE
  5
110
330
1F
100
AcDbEntity
  8
FIG_1-1-1
  6
CONTINUOUS
 62
     3
100
AcDbLine
 10
366.333559
 20
295.244991
 30
0.0
 11
364.600715
 21
293.525321
 31
0.0
  0
ARC
  5
111
330
1F
100
AcDbEntity
  8
FIG_1-1-1
  6
CONTINUOUS
 62
     3
100
AcDbCircle
 10
368.489802
 20
289.636234
 30
0.0
 40
5.5
100
AcDbArc
 50
135.0
 51
315.0
  0
LINE
  5
112
330
1F
100
AcDbEntity
  8
FIG_1-1-1
  6
CONTINUOUS
 62
     3
100
AcDbLine
 10
435.600715
 20
285.747147
 30
0.0
 11
433.876994
 21
287.484548
 31
0.0
  0
ARC
  5
113
330
1F
100
AcDbEntity
  8
FIG_1-1-1
  6
CONTINUOUS
 62
     3
100
AcDbCircle
 10
437.989802
 20
291.136234
 30
0.0
 40
5.5
100
AcDbArc
 50
45.0
 51
225.0
  0
LINE
  5
114
330
1F
100
AcDbEntity
  8
FIG_1-1-1
  6
CONTINUOUS
 62
     3
100
AcDbLine
 10
441.646045
 20
295.244991
 30
0.0
 11
443.378889
 21
293.525321
 31
0.0
  0
ARC
  5
115
330
1F
100
AcDbEntity
  8
FIG_1-1-1
  6
CONTINUOUS
 62
     3
100
AcDbCircle
 10
439.489802
 20
289.636234
 30
0.0
 40
5.5
100
AcDbArc
 50
-135.0
 51
45.0
  0
LINE
  5
117
330
1F
100
AcDbEntity
  8
FIG_2-1-1
  6
DASHED
 62
     6
100
AcDbLine
 10
381.989802
 20
317.136234
 30
0.0
 11
425.989802
 21
317.136234
 31
0.0
  0
ARC
  5
118
330
1F
100
AcDbEntity
  8
FIG_2-1-1
  6
DASHED
 62
     6
100
AcDbCircle
 10
381.989802
 20
325.136234
 30
0.0
 40
8.0
100
AcDbArc
 50
90.0
 51
270.0
  0
ARC
  5
119
330
1F
100
AcDbEntity
  8
FIG_2-1-1
  6
DASHED
 62
     6
100
AcDbCircle
 10
425.989802
 20
325.136234
 30
0.0
 40
8.0
100
AcDbArc
 50
-90.0
 51
90.0
  0
ARC
  5
11A
330
1F
100
AcDbEntity
  8
FIG_1-1-1
  6
CONTINUOUS
 62
     3
100
AcDbCircle
 10
415.858585
 20
279.286234
 30
0.0
 40
10.0
100
AcDbArc
 50
25.150663
 51
90.0
  0
LINE
  5
11B
330
1F
100
AcDbEntity
  8
FIG_1-1-1
  6
CONTINUOUS
 62
     3
100
AcDbLine
 10
392.121019
 20
289.286234
 30
0.0
 11
415.858585
 21
289.286234
 31
0.0
  0
ARC
  5
11C
330
1F
100
AcDbEntity
  8
FIG_1-1-1
  6
CONTINUOUS
 62
     3
100
AcDbCircle
 10
392.121019
 20
279.286234
 30
0.0
 40
10.0
100
AcDbArc
 50
90.0
 51
154.849337
  0
LINE
  5
11D
330
1F
100
AcDbEntity
  8
LAYERGROUP-1
  6
CENTER
 62
     6
100
AcDbLine
 10
368.489802
 20
282.136234
 30
0.0
 11
368.489802
 21
297.136234
 31
0.0
  0
LINE
  5
11E
330
1F
100
AcDbEntity
  8
LAYERGROUP-1
  6
CENTER
 62
     6
100
AcDbLine
 10
369.989802
 20
283.636234
 30
0.0
 11
369.989802
 21
298.636234
 31
0.0
  0
LINE
  5
11F
330
1F
100
AcDbEntity
  8
LAYERGROUP-1
  6
CENTER
 62
     6
100
AcDbLine
 10
362.489802
 20
291.136234
 30
0.0
 11
377.489802
 21
291.136234
 31
0.0
  0
LINE
  5
120
330
1F
100
AcDbEntity
  8
LAYERGROUP-1
  6
CENTER
 62
     6
100
AcDbLine
 10
360.989802
 20
289.636234
 30
0.0
 11
375.989802
 21
289.636234
 31
0.0
  0
LINE
  5
121
330
1F
100
AcDbEntity
  8
LAYERGROUP-1
  6
CENTER
 62
     6
100
AcDbLine
 10
439.489802
 20
282.136234
 30
0.0
 11
439.489802
 21
297.136234
 31
0.0
  0
LINE
  5
122
330
1F
100
AcDbEntity
  8
LAYERGROUP-1
  6
CENTER
 62
     6
100
AcDbLine
 10
437.989802
 20
283.636234
 30
0.0
 11
437.989802
 21
298.636234
 31
0.0
  0
LINE
  5
123
330
1F
100
AcDbEntity
  8
LAYERGROUP-1
  6
CENTER
 62
     6
100
AcDbLine
 10
445.489802
 20
291.136234
 30
0.0
 11
430.489802
 21
291.136234
 31
0.0
  0
LINE
  5
124
330
1F
100
AcDbEntity
  8
LAYERGROUP-1
  6
CENTER
 62
     6
100
AcDbLine
 10
446.989802
 20
289.636234
 30
0.0
 11
431.989802
 21
289.636234
 31
0.0
  0
LINE
  5
125
330
1F
100
AcDbEntity
  8
FIG_1-1-1
  6
CONTINUOUS
 62
     3
100
AcDbLine
 10
439.393612
 20
274.636234
 30
0.0
 11
448.989802
 21
274.636234
 31
0.0
  0
ARC
  5
126
330
1F
100
AcDbEntity
  8
LAYERGROUP-1
  6
CONTINUOUS
 62
     3
100
AcDbCircle
 10
439.249251
 20
290.635583
 30
0.0
 40
16.0
100
AcDbArc
 50
206.34079
 51
270.516962
  0
LINE
  5
127
330
1F
100
AcDbEntity
  8
FIG_1-1-1
  6
CONTINUOUS
 62
     3
100
AcDbLine
 10
368.585992
 20
274.636234
 30
0.0
 11
358.989802
 21
274.636234
 31
0.0
  0
ARC
  5
128
330
1F
100
AcDbEntity
  8
LAYERGROUP-1
  6
CONTINUOUS
 62
     3
100
AcDbCircle
 10
368.730353
 20
290.635583
 30
0.0
 40
16.0
100
AcDbArc
 50
269.483038
 51
333.65921
  0
LINE
  5
129
330
1F
100
AcDbEntity
  8
GR1-1-1
  6
CONTINUOUS
 62
     3
100
AcDbLine
 10
381.75625
 20
319.636234
 30
0.0
 11
426.223353
 21
319.636234
 31
0.0
  0
ARC
  5
12A
330
1F
100
AcDbEntity
  8
LAYERGROUP-1
  6
CONTINUOUS
 62
     3
100
AcDbCircle
 10
381.99498
 20
325.136234
 30
0.0
 40
5.505178668419045
100
AcDbArc
 50
87.514607
 51
272.485393
  0
ARC
  5
12B
330
1F
100
AcDbEntity
  8
LAYERGROUP-1
  6
CONTINUOUS
 62
     3
100
AcDbCircle
 10
425.984623
 20
325.136234
 30
0.0
 40
5.505178668419045
100
AcDbArc
 50
-92.485393
 51
92.485393
  0
LINE
  5
12C
330
1F
100
AcDbEntity
  8
FIG_1-1-1
  6
CONTINUOUS
 62
     3
100
AcDbLine
 10
372.378889
 20
364.525321
 30
0.0
 11
374.10261
 21
362.78792
 31
0.0
  0
ARC
  5
12D
330
1F
100
AcDbEntity
  8
FIG_1-1-1
  6
CONTINUOUS
 62
     3
100
AcDbCircle
 10
369.989802
 20
359.136234
 30
0.0
 40
5.5
100
AcDbArc
 50
-135.0
 51
45.0
  0
LINE
  5
12E
330
1F
100
AcDbEntity
  8
FIG_1-1-1
  6
CONTINUOUS
 62
     3
100
AcDbLine
 10
366.333559
 20
355.027477
 30
0.0
 11
364.600715
 21
356.747147
 31
0.0
  0
ARC
  5
12F
330
1F
100
AcDbEntity
  8
FIG_1-1-1
  6
CONTINUOUS
 62
     3
100
AcDbCircle
 10
368.489802
 20
360.636234
 30
0.0
 40
5.5
100
AcDbArc
 50
45.0
 51
225.0
  0
LINE
  5
130
330
1F
100
AcDbEntity
  8
FIG_1-1-1
  6
CONTINUOUS
 62
     3
100
AcDbLine
 10
435.600715
 20
364.525321
 30
0.0
 11
433.876994
 21
362.78792
 31
0.0
  0
ARC
  5
131
330
1F
100
AcDbEntity
  8
FIG_1-1-1
  6
CONTINUOUS
 62
     3
100
AcDbCircle
 10
437.989802
 20
359.136234
 30
0.0
 40
5.5
100
AcDbArc
 50
135.0
 51
315.0
  0
LINE
  5
132
330
1F
100
AcDbEntity
  8
FIG_1-1-1
  6
CONTINUOUS
 62
     3
100
AcDbLine
 10
441.646045
 20
355.027477
 30
0.0
 11
443.378889
 21
356.747147
 31
0.0
  0
ARC
  5
133
330
1F
100
AcDbEntity
  8
FIG_1-1-1
  6
CONTINUOUS
 62
     3
100
AcDbCircle
 10
439.489802
 20
360.636234
 30
0.0
 40
5.5
100
AcDbArc
 50
-45.0
 51
135.0
  0
LINE
  5
134
330
1F
100
AcDbEntity
  8
FIG_2-1-1
  6
DASHED
 62
     6
100
AcDbLine
 10
381.989802
 20
333.136234
 30
0.0
 11
425.989802
 21
333.136234
 31
0.0
  0
ARC
  5
135
330
1F
100
AcDbEntity
  8
FIG_1-1-1
  6
CONTINUOUS
 62
     3
100
AcDbCircle
 10
415.858585
 20
370.986234
 30
0.0
 40
10.0
100
AcDbArc
 50
270.0
 51
334.849337
  0
LINE
  5
136
330
1F
100
AcDbEntity
  8
FIG_1-1-1
  6
CONTINUOUS
 62
     3
100
AcDbLine
 10
392.121019
 20
360.986234
 30
0.0
 11
415.858585
 21
360.986234
 31
0.0
  0
ARC
  5
137
330
1F
100
AcDbEntity
  8
FIG_1-1-1
  6
CONTINUOUS
 62
     3
100
AcDbCircle
 10
392.121019
 20
370.986234
 30
0.0
 40
10.0
100
AcDbArc
 50
205.150663
 51
270.0
  0
LINE
  5
138
330
1F
100
AcDbEntity
  8
LAYERGROUP-1
  6
CENTER
 62
     6
100
AcDbLine
 10
368.489802
 20
368.136234
 30
0.0
 11
368.489802
 21
353.136234
 31
0.0
  0
LINE
  5
139
330
1F
100
AcDbEntity
  8
LAYERGROUP-1
  6
CENTER
 62
     6
100
AcDbLine
 10
369.989802
 20
366.636234
 30
0.0
 11
369.989802
 21
351.636234
 31
0.0
  0
LINE
  5
13A
330
1F
100
AcDbEntity
  8
LAYERGROUP-1
  6
CENTER
 62
     6
100
AcDbLine
 10
362.489802
 20
359.136234
 30
0.0
 11
377.489802
 21
359.136234
 31
0.0
  0
LINE
  5
13B
330
1F
100
AcDbEntity
  8
LAYERGROUP-1
  6
CENTER
 62
     6
100
AcDbLine
 10
360.989802
 20
360.636234
 30
0.0
 11
375.989802
 21
360.636234
 31
0.0
  0
LINE
  5
13C
330
1F
100
AcDbEntity
  8
LAYERGROUP-1
  6
CENTER
 62
     6
100
AcDbLine
 10
439.489802
 20
368.136234
 30
0.0
 11
439.489802
 21
353.136234
 31
0.0
  0
LINE
  5
13D
330
1F
100
AcDbEntity
  8
LAYERGROUP-1
  6
CENTER
 62
     6
100
AcDbLine
 10
437.989802
 20
366.636234
 30
0.0
 11
437.989802
 21
351.636234
 31
0.0
  0
LINE
  5
13E
330
1F
100
AcDbEntity
  8
LAYERGROUP-1
  6
CENTER
 62
     6
100
AcDbLine
 10
445.489802
 20
359.136234
 30
0.0
 11
430.489802
 21
359.136234
 31
0.0
  0
LINE
  5
13F
330
1F
100
AcDbEntity
  8
LAYERGROUP-1
  6
CENTER
 62
     6
100
AcDbLine
 10
446.989802
 20
360.636234
 30
0.0
 11
431.989802
 21
360.636234
 31
0.0
  0
LINE
  5
140
330
1F
100
AcDbEntity
  8
FIG_1-1-1
  6
CONTINUOUS
 62
     3
100
AcDbLine
 10
439.393612
 20
375.636234
 30
0.0
 11
448.989802
 21
375.636234
 31
0.0
  0
ARC
  5
141
330
1F
100
AcDbEntity
  8
LAYERGROUP-1
  6
CONTINUOUS
 62
     3
100
AcDbCircle
 10
439.249251
 20
359.636885
 30
0.0
 40
16.0
100
AcDbArc
 50
89.483038
 51
153.65921
  0
LINE
  5
142
330
1F
100
AcDbEntity
  8
FIG_1-1-1
  6
CONTINUOUS
 62
     3
100
AcDbLine
 10
368.585992
 20
375.636234
 30
0.0
 11
358.989802
 21
375.636234
 31
0.0
  0
ARC
  5
143
330
1F
100
AcDbEntity
  8
LAYERGROUP-1
  6
CONTINUOUS
 62
     3
100
AcDbCircle
 10
368.730353
 20
359.636885
 30
0.0
 40
16.0
100
AcDbArc
 50
26.34079
 51
90.516962
  0
LINE
  5
144
330
1F
100
AcDbEntity
  8
GR1-1-1
  6
CONTINUOUS
 62
     3
100
AcDbLine
 10
381.75625
 20
330.636234
 30
0.0
 11
426.223353
 21
330.636234
 31
0.0
  0
LINE
  5
145
330
1F
100
AcDbEntity
  8
FIG_1-1-1
  6
CONTINUOUS
 62
     3
100
AcDbLine
 10
130.974525
 20
210.0
 30
0.0
 11
225.174525
 21
210.0
 31
0.0
  0
LINE
  5
146
330
1F
100
AcDbEntity
  8
FIG_1-1-1
  6
CONTINUOUS
 62
     3
100
AcDbLine
 10
225.074525
 20
207.4
 30
0.0
 11
131.074525
 21
207.4
 31
0.0
  0
LINE
  5
147
330
1F
100
AcDbEntity
  8
FIG_1-1-1
  6
CONTINUOUS
 62
     3
100
AcDbLine
 10
173.947508
 20
204.4
 30
0.0
 11
182.201542
 21
204.4
 31
0.0
  0
ARC
  5
148
330
1F
100
AcDbEntity
  8
FIG_1-1-1
  6
CONTINUOUS
 62
     3
100
AcDbCircle
 10
173.947508
 20
208.4
 30
0.0
 40
4.0
100
AcDbArc
 50
203.578178
 51
270.0
  0
ARC
  5
149
330
1F
100
AcDbEntity
  8
FIG_1-1-1
  6
CONTINUOUS
 62
     3
100
AcDbCircle
 10
182.201542
 20
208.4
 30
0.0
 40
4.0
100
AcDbArc
 50
270.0
 51
336.421822
  0
ARC
  5
14A
330
1F
100
AcDbEntity
  8
FIG_1-1-1
  6
CONTINUOUS
 62
     3
100
AcDbCircle
 10
169.364933
 20
206.4
 30
0.0
 40
1.0
100
AcDbArc
 50
23.578178
 51
90.0
  0
ARC
  5
14B
330
1F
100
AcDbEntity
  8
FIG_1-1-1
  6
CONTINUOUS
 62
     3
100
AcDbCircle
 10
186.784117
 20
206.4
 30
0.0
 40
1.0
100
AcDbArc
 50
90.0
 51
156.421822
  0
LINE
  5
14C
330
1F
100
AcDbEntity
  8
FIG_1-1-1
  6
CONTINUOUS
 62
     3
100
AcDbLine
 10
203.674525
 20
133.5
 30
0.0
 11
203.674525
 21
110.8
 31
0.0
  0
LINE
  5
14D
330
1F
100
AcDbEntity
  8
FIG_1-1-1
  6
CONTINUOUS
 62
     3
100
AcDbLine
 10
203.674525
 20
110.8
 30
0.0
 11
201.074525
 21
110.8
 31
0.0
  0
LINE
  5
14E
330
1F
100
AcDbEntity
  8
FIG_1-1-1
  6
CONTINUOUS
 62
     3
100
AcDbLine
 10
228.574525
 20
206.5
 30
0.0
 11
228.574525
 21
158.5
 31
0.0
  0
LINE
  5
14F
330
1F
100
AcDbEntity
  8
FIG_1-1-1
  6
CONTINUOUS
 62
     3
100
AcDbLine
 10
225.974525
 20
158.0
 30
0.0
 11
225.974525
 21
206.4
 31
0.0
  0
ARC
  5
150
330
1F
100
AcDbEntity
  8
FIG_1-1-1
  6
CONTINUOUS
 62
     3
100
AcDbCircle
 10
206.674525
 20
145.267949
 30
0.0
 40
5.6
100
AcDbArc
 50
120.0
 51
180.0
  0
LINE
  5
151
330
1F
100
AcDbEntity
  8
FIG_1-1-1
  6
CONTINUOUS
 62
     3
100
AcDbLine
 10
203.874525
 20
150.117691
 30
0.0
 11
208.774525
 21
152.946708
 31
0.0
  0
ARC
  5
152
330
1F
100
AcDbEntity
  8
FIG_1-1-1
  6
CONTINUOUS
 62
     3
100
AcDbCircle
 10
225.074525
 20
206.5
 30
0.0
 40
3.5
100
AcDbArc
 50
0.0
 51
90.0
  0
ARC
  5
153
330
1F
100
AcDbEntity
  8
FIG_1-1-1
  6
CONTINUOUS
 62
     3
100
AcDbCircle
 10
224.974525
 20
206.4
 30
0.0
 40
1.0
100
AcDbArc
 50
0.0
 51
90.0
  0
ARC
  5
154
330
1F
100
AcDbEntity
  8
FIG_1-1-1
  6
CONTINUOUS
 62
     3
100
AcDbCircle
 10
210.274525
 20
206.4
 30
0.0
 40
1.0
100
AcDbArc
 50
0.0
 51
90.0
  0
LINE
  5
155
330
1F
100
AcDbEntity
  8
FIG_3-1-1
  6
CENTER
 62
     6
100
AcDbLine
 10
213.986588
 20
128.0
 30
0.0
 11
134.330047
 21
128.0
 31
0.0
  0
LINE
  5
156
330
1F
100
AcDbEntity
  8
FIG_1-1-1
  6
CONTINUOUS
 62
     3
100
AcDbLine
 10
211.274525
 20
157.276835
 30
0.0
 11
211.274525
 21
206.4
 31
0.0
  0
ARC
  5
157
330
1F
100
AcDbEntity
  8
LAYERGROUP-1
  6
CONTINUOUS
 62
     3
100
AcDbCircle
 10
208.674525
 20
133.5
 30
0.0
 40
5.0
100
AcDbArc
 50
89.614587
 51
180.0
  0
LINE
  5
158
330
1F
100
AcDbEntity
  8
LAYERGROUP-1
  6
CONTINUOUS
 62
     3
100
AcDbLine
 10
208.641597
 20
140.6
 30
0.0
 11
208.574525
 21
140.6
 31
0.0
  0
ARC
  5
159
330
1F
100
AcDbEntity
  8
LAYERGROUP-1
  6
CONTINUOUS
 62
     3
100
AcDbCircle
 10
208.658061
 20
133.000018
 30
0.0
 40
7.6
100
AcDbArc
 50
89.875879
 51
176.227951
  0
ARC
  5
15A
330
1F
100
AcDbEntity
  8
LAYERGROUP-1
  6
CONTINUOUS
 62
     3
100
AcDbCircle
 10
208.574525
 20
158.496
 30
0.0
 40
20.0
100
AcDbArc
 50
-89.617101
 51
0.01146
  0
ARC
  5
15B
330
1F
100
AcDbEntity
  8
LAYERGROUP-1
  6
CONTINUOUS
 62
     3
100
AcDbCircle
 10
208.574525
 20
158.0
 30
0.0
 40
17.4
100
AcDbArc
 50
270.0
 51
360.0
  0
LINE
  5
15C
330
1F
100
AcDbEntity
  8
FIG_1-1-1
  6
CONTINUOUS
 62
     3
100
AcDbLine
 10
127.574525
 20
206.5
 30
0.0
 11
127.574525
 21
158.5
 31
0.0
  0
LINE
  5
15D
330
1F
100
AcDbEntity
  8
FIG_1-1-1
  6
CONTINUOUS
 62
     3
100
AcDbLine
 10
130.174525
 20
158.0
 30
0.0
 11
130.174525
 21
206.4
 31
0.0
  0
ARC
  5
15E
330
1F
100
AcDbEntity
  8
FIG_1-1-1
  6
CONTINUOUS
 62
     3
100
AcDbCircle
 10
131.074525
 20
206.5
 30
0.0
 40
3.5
100
AcDbArc
 50
90.0
 51
180.0
  0
ARC
  5
15F
330
1F
100
AcDbEntity
  8
FIG_1-1-1
  6
CONTINUOUS
 62
     3
100
AcDbCircle
 10
131.174525
 20
206.4
 30
0.0
 40
1.0
100
AcDbArc
 50
90.0
 51
180.0
  0
ARC
  5
160
330
1F
100
AcDbEntity
  8
FIG_1-1-1
  6
CONTINUOUS
 62
     3
100
AcDbCircle
 10
145.874525
 20
206.4
 30
0.0
 40
1.0
100
AcDbArc
 50
90.0
 51
180.0
  0
LINE
  5
161
330
1F
100
AcDbEntity
  8
FIG_1-1-1
  6
CONTINUOUS
 62
     3
100
AcDbLine
 10
144.874525
 20
157.276835
 30
0.0
 11
144.874525
 21
206.4
 31
0.0
  0
LINE
  5
162
330
1F
100
AcDbEntity
  8
FIG_1-1-1
  6
CONTINUOUS
 62
     3
100
AcDbLine
 10
201.074525
 20
110.8
 30
0.0
 11
201.074525
 21
145.267949
 31
0.0
  0
ARC
  5
163
330
1F
100
AcDbEntity
  8
LAYERGROUP-1
  6
CONTINUOUS
 62
     3
100
AcDbCircle
 10
206.274525
 20
157.276835
 30
0.0
 40
5.0
100
AcDbArc
 50
300.000003
 51
360.0
  0
LINE
  5
164
330
1F
100
AcDbEntity
  8
FIG_1-1-1
  6
CONTINUOUS
 62
     3
100
AcDbLine
 10
152.474525
 20
133.5
 30
0.0
 11
152.474525
 21
110.8
 31
0.0
  0
LINE
  5
165
330
1F
100
AcDbEntity
  8
FIG_1-1-1
  6
CONTINUOUS
 62
     3
100
AcDbLine
 10
152.474525
 20
110.8
 30
0.0
 11
155.074525
 21
110.8
 31
0.0
  0
ARC
  5
166
330
1F
100
AcDbEntity
  8
FIG_1-1-1
  6
CONTINUOUS
 62
     3
100
AcDbCircle
 10
149.474525
 20
145.267949
 30
0.0
 40
5.6
100
AcDbArc
 50
0.0
 51
60.0
  0
LINE
  5
167
330
1F
100
AcDbEntity
  8
FIG_1-1-1
  6
CONTINUOUS
 62
     3
100
AcDbLine
 10
152.274525
 20
150.117691
 30
0.0
 11
147.374525
 21
152.946708
 31
0.0
  0
ARC
  5
168
330
1F
100
AcDbEntity
  8
LAYERGROUP-1
  6
CONTINUOUS
 62
     3
100
AcDbCircle
 10
147.474525
 20
133.5
 30
0.0
 40
5.0
100
AcDbArc
 50
0.0
 51
90.385413
  0
LINE
  5
169
330
1F
100
AcDbEntity
  8
LAYERGROUP-1
  6
CONTINUOUS
 62
     3
100
AcDbLine
 10
147.507453
 20
140.6
 30
0.0
 11
147.574525
 21
140.6
 31
0.0
  0
ARC
  5
16A
330
1F
100
AcDbEntity
  8
LAYERGROUP-1
  6
CONTINUOUS
 62
     3
100
AcDbCircle
 10
147.490989
 20
133.000018
 30
0.0
 40
7.6
100
AcDbArc
 50
3.772049
 51
90.124121
  0
ARC
  5
16B
330
1F
100
AcDbEntity
  8
LAYERGROUP-1
  6
CONTINUOUS
 62
     3
100
AcDbCircle
 10
147.574525
 20
158.496
 30
0.0
 40
20.0
100
AcDbArc
 50
179.98854
 51
269.617101
  0
ARC
  5
16C
330
1F
100
AcDbEntity
  8
LAYERGROUP-1
  6
CONTINUOUS
 62
     3
100
AcDbCircle
 10
147.574525
 20
158.0
 30
0.0
 40
17.4
100
AcDbArc
 50
180.0
 51
270.0
  0
LINE
  5
16D
330
1F
100
AcDbEntity
  8
FIG_1-1-1
  6
CONTINUOUS
 62
     3
100
AcDbLine
 10
155.074525
 20
110.8
 30
0.0
 11
155.074525
 21
145.267949
 31
0.0
  0
ARC
  5
16E
330
1F
100
AcDbEntity
  8
LAYERGROUP-1
  6
CONTINUOUS
 62
     3
100
AcDbCircle
 10
149.874525
 20
157.276835
 30
0.0
 40
5.0
100
AcDbArc
 50
180.0
 51
239.999997
  0
LINE
  5
16F
330
1F
100
AcDbEntity
  8
GR1-1-1
  6
CONTINUOUS
 62
     3
100
AcDbLine
 10
203.674525
 20
118.0
 30
0.0
 11
207.174525
 21
118.0
 31
0.0
  0
LINE
  5
170
330
1F
100
AcDbEntity
  8
GR1-1-1
  6
CONTINUOUS
 62
     3
100
AcDbLine
 10
207.174525
 20
118.0
 30
0.0
 11
208.674525
 21
120.0
 31
0.0
  0
LINE
  5
171
330
1F
100
AcDbEntity
  8
GR1-1-1
  6
CONTINUOUS
 62
     3
100
AcDbLine
 10
208.674525
 20
120.0
 30
0.0
 11
208.674525
 21
136.0
 31
0.0
  0
LINE
  5
172
330
1F
100
AcDbEntity
  8
GR1-1-1
  6
CONTINUOUS
 62
     3
100
AcDbLine
 10
208.674525
 20
136.0
 30
0.0
 11
207.174525
 21
138.0
 31
0.0
  0
LINE
  5
173
330
1F
100
AcDbEntity
  8
GR1-1-1
  6
CONTINUOUS
 62
     3
100
AcDbLine
 10
207.174525
 20
138.0
 30
0.0
 11
206.643879
 21
138.0
 31
0.0
  0
LINE
  5
174
330
1F
100
AcDbEntity
  8
GR1-1-1
  6
CONTINUOUS
 62
     3
100
AcDbLine
 10
142.474525
 20
122.0
 30
0.0
 11
141.674525
 21
122.0
 31
0.0
  0
LINE
  5
175
330
1F
100
AcDbEntity
  8
GR1-1-1
  6
CONTINUOUS
 62
     3
100
AcDbLine
 10
141.674525
 20
122.0
 30
0.0
 11
140.674525
 21
123.0
 31
0.0
  0
LINE
  5
176
330
1F
100
AcDbEntity
  8
GR1-1-1
  6
CONTINUOUS
 62
     3
100
AcDbLine
 10
140.674525
 20
123.0
 30
0.0
 11
140.674525
 21
133.0
 31
0.0
  0
LINE
  5
177
330
1F
100
AcDbEntity
  8
GR1-1-1
  6
CONTINUOUS
 62
     3
100
AcDbLine
 10
140.674525
 20
133.0
 30
0.0
 11
141.674525
 21
134.0
 31
0.0
  0
LINE
  5
178
330
1F
100
AcDbEntity
  8
GR1-1-1
  6
CONTINUOUS
 62
     3
100
AcDbLine
 10
141.674525
 20
134.0
 30
0.0
 11
142.474525
 21
134.0
 31
0.0
  0
LINE
  5
179
330
1F
100
AcDbEntity
  8
GR1-1-1
  6
CONTINUOUS
 62
     6
100
AcDbLine
 10
207.174525
 20
138.0
 30
0.0
 11
207.174525
 21
118.0
 31
0.0
  0
LINE
  5
17A
330
1F
100
AcDbEntity
  8
GR1-1-1
  6
CONTINUOUS
 62
     6
100
AcDbLine
 10
140.674525
 20
132.5
 30
0.0
 11
142.474525
 21
132.5
 31
0.0
  0
LINE
  5
17B
330
1F
100
AcDbEntity
  8
GR1-1-1
  6
CONTINUOUS
 62
     6
100
AcDbLine
 10
141.674525
 20
134.0
 30
0.0
 11
141.674525
 21
122.0
 31
0.0
  0
LINE
  5
17C
330
1F
100
AcDbEntity
  8
GR1-1-1
  6
CONTINUOUS
 62
     6
100
AcDbLine
 10
142.474525
 20
123.5
 30
0.0
 11
140.674525
 21
123.5
 31
0.0
  0
LINE
  5
17D
330
1F
100
AcDbEntity
  8
GR1-1-1
  6
CONTINUOUS
 62
     3
100
AcDbLine
 10
155.074525
 20
134.0
 30
0.0
 11
155.574525
 21
134.0
 31
0.0
  0
CIRCLE
  5
17E
330
1F
100
AcDbEntity
  8
GR1-1-1
  6
CONTINUOUS
 62
     3
100
AcDbCircle
 10
403.989802
 20
128.0
 30
0.0
 40
10.0
  0
CIRCLE
  5
17F
330
1F
100
AcDbEntity
  8
GR1-1-1
  6
CONTINUOUS
 62
     6
100
AcDbCircle
 10
403.989802
 20
128.0
 30
0.0
 40
8.0
  0
CIRCLE
  5
180
330
1F
100
AcDbEntity
  8
GR1-1-1
  6
CONTINUOUS
 62
     6
100
AcDbCircle
 10
403.989802
 20
128.0
 30
0.0
 40
3.0
  0
LINE
  5
181
330
1F
100
AcDbEntity
  8
GR1-1-1
  6
CONTINUOUS
 62
     3
100
AcDbLine
 10
155.574525
 20
122.0
 30
0.0
 11
155.074525
 21
122.0
 31
0.0
  0
LINE
  5
182
330
1F
100
AcDbEntity
  8
GR1-1-1
  6
CONTINUOUS
 62
     3
100
AcDbLine
 10
200.574525
 20
134.0
 30
0.0
 11
201.074525
 21
134.0
 31
0.0
  0
LINE
  5
183
330
1F
100
AcDbEntity
  8
GR1-1-1
  6
CONTINUOUS
 62
     3
100
AcDbLine
 10
201.074525
 20
122.0
 30
0.0
 11
200.574525
 21
122.0
 31
0.0
  0
LINE
  5
184
330
1F
100
AcDbEntity
  8
GR1-1-1
  6
CONTINUOUS
 62
     3
100
AcDbLine
 10
397.989802
 20
360.986234
 30
0.0
 11
397.989802
 21
361.536234
 31
0.0
  0
LINE
  5
185
330
1F
100
AcDbEntity
  8
GR1-1-1
  6
CONTINUOUS
 62
     3
100
AcDbLine
 10
397.989802
 20
361.536234
 30
0.0
 11
398.989802
 21
362.536234
 31
0.0
  0
LINE
  5
186
330
1F
100
AcDbEntity
  8
GR1-1-1
  6
CONTINUOUS
 62
     3
100
AcDbLine
 10
398.989802
 20
362.536234
 30
0.0
 11
408.989802
 21
362.536234
 31
0.0
  0
LINE
  5
187
330
1F
100
AcDbEntity
  8
GR1-1-1
  6
CONTINUOUS
 62
     3
100
AcDbLine
 10
408.989802
 20
362.536234
 30
0.0
 11
409.989802
 21
361.536234
 31
0.0
  0
LINE
  5
188
330
1F
100
AcDbEntity
  8
GR1-1-1
  6
CONTINUOUS
 62
     3
100
AcDbLine
 10
409.989802
 20
361.536234
 30
0.0
 11
409.989802
 21
360.986234
 31
0.0
  0
LINE
  5
189
330
1F
100
AcDbEntity
  8
GR1-1-1
  6
CONTINUOUS
 62
     6
100
AcDbLine
 10
408.489802
 20
362.536234
 30
0.0
 11
408.489802
 21
360.986234
 31
0.0
  0
LINE
  5
18A
330
1F
100
AcDbEntity
  8
GR1-1-1
  6
CONTINUOUS
 62
     6
100
AcDbLine
 10
409.989802
 20
361.536234
 30
0.0
 11
397.989802
 21
361.536234
 31
0.0
  0
LINE
  5
18B
330
1F
100
AcDbEntity
  8
GR1-1-1
  6
CONTINUOUS
 62
     6
100
AcDbLine
 10
399.489802
 20
360.986234
 30
0.0
 11
399.489802
 21
362.536234
 31
0.0
  0
DIMENSION
  5
18C
330
1F
100
AcDbEntity
  8
LAYERGROUP-1
100
AcDbDimension
  2
*D22
 10
352.739174
 20
384.165039
 30
0.0
 11
348.142975
 21
380.983063
 31
0.0
 70
    33
  3
FXDIMINFO
100
AcDbAlignedDimension
 13
364.600714
 23
356.747147
 33
0.0
 14
372.378889
 24
364.525321
 34
0.0
1001
ACAD
1000
DSTYLE
1002
{
1070
     7
1000
FXTIP_ARROW_E
1070
     6
1000
FXTIP_ARROW_S
1070
   173
1070
     1
1002
}
  0
DIMENSION
  5
196
330
1F
100
AcDbEntity
  8
LAYERGROUP-1
100
AcDbDimension
  2
*D23
 10
469.061798
 20
359.136234
 30
0.0
 11
468.061768
 21
325.13623
 31
0.0
 70
    33
  3
FXDIMINFO
100
AcDbAlignedDimension
 13
445.489802
 23
291.136234
 33
0.0
 14
445.489802
 24
359.136234
 34
0.0
1001
ACAD
1000
DSTYLE
1002
{
1070
     7
1000
FXTIP_ARROW_E
1070
     6
1000
FXTIP_ARROW_S
1070
   173
1070
     1
1002
}
  0
DIMENSION
  5
1A0
330
1F
100
AcDbEntity
  8
LAYERGROUP-1
100
AcDbDimension
  2
*D24
 10
481.84145
 20
360.636234
 30
0.0
 11
480.841431
 21
325.13623
 31
0.0
 70
    33
  3
FXDIMINFO
100
AcDbAlignedDimension
 13
446.989802
 23
289.636234
 33
0.0
 14
446.989802
 24
360.636234
 34
0.0
1001
ACAD
1000
DSTYLE
1002
{
1070
     7
1000
FXTIP_ARROW_E
1070
     6
1000
FXTIP_ARROW_S
1070
   173
1070
     1
1002
}
  0
DIMENSION
  5
1AA
330
1F
100
AcDbEntity
  8
LAYERGROUP-1
100
AcDbDimension
  2
*D25
 10
495.104656
 20
375.636234
 30
0.0
 11
494.104645
 21
325.13623
 31
0.0
 70
    33
  3
FXDIMINFO
100
AcDbAlignedDimension
 13
448.989802
 23
274.636234
 33
0.0
 14
448.989802
 24
375.636234
 34
0.0
1001
ACAD
1000
DSTYLE
1002
{
1070
     7
1000
FXTIP_ARROW_E
1070
     6
1000
FXTIP_ARROW_S
1070
   173
1070
     1
1002
}
  0
DIMENSION
  5
1B4
330
1F
100
AcDbEntity
  8
LAYERGROUP-1
100
AcDbDimension
  2
*D26
 10
437.989802
 20
260.713764
 30
0.0
 11
403.989777
 21
261.713776
 31
0.0
 70
    33
  3
FXDIMINFO
100
AcDbAlignedDimension
 13
369.989802
 23
283.636234
 33
0.0
 14
437.989802
 24
283.636234
 34
0.0
1001
ACAD
1000
DSTYLE
1002
{
1070
     7
1000
FXTIP_ARROW_E
1070
     6
1000
FXTIP_ARROW_S
1070
   173
1070
     1
1002
}
  0
DIMENSION
  5
1BE
330
1F
100
AcDbEntity
  8
LAYERGROUP-1
100
AcDbDimension
  2
*D27
 10
439.489802
 20
250.973597
 30
0.0
 11
403.989777
 21
251.973602
 31
0.0
 70
    33
  3
FXDIMINFO
100
AcDbAlignedDimension
 13
368.489802
 23
282.136234
 33
0.0
 14
439.489802
 24
282.136234
 34
0.0
1001
ACAD
1000
DSTYLE
1002
{
1070
     7
1000
FXTIP_ARROW_E
1070
     6
1000
FXTIP_ARROW_S
1070
   173
1070
     1
1002
}
  0
DIMENSION
  5
1C8
330
1F
100
AcDbEntity
  8
LAYERGROUP-1
100
AcDbDimension
  2
*D28
 10
448.989802
 20
239.575529
 30
0.0
 11
403.989777
 21
240.575531
 31
0.0
 70
    33
  3
FXDIMINFO
100
AcDbAlignedDimension
 13
358.989802
 23
274.636234
 33
0.0
 14
448.989802
 24
274.636234
 34
0.0
1001
ACAD
1000
DSTYLE
1002
{
1070
     7
1000
FXTIP_ARROW_E
1070
     6
1000
FXTIP_ARROW_S
1070
   173
1070
     1
1002
}
  0
DIMENSION
  5
1D2
330
1F
100
AcDbEntity
  8
LAYERGROUP-1
100
AcDbDimension
  2
*D29
 10
466.29863
 20
210.0
 30
0.0
 11
465.298615
 21
169.0
 31
0.0
 70
    32
  3
FXDIMINFO
100
AcDbAlignedDimension
 13
458.423602
 23
128.0
 33
0.0
 14
448.989802
 24
210.0
 34
0.0
 50
270.0
100
AcDbRotatedDimension
1001
ACAD
1000
DSTYLE
1002
{
1070
     7
1000
FXTIP_ARROW_E
1070
     6
1000
FXTIP_ARROW_S
1070
   173
1070
     1
1002
}
  0
DIMENSION
  5
1DC
330
1F
100
AcDbEntity
  8
LAYERGROUP-1
100
AcDbDimension
  2
*D30
 10
483.292113
 20
210.0
 30
0.0
 11
482.292084
 21
144.0
 31
0.0
 70
    32
  3
FXDIMINFO
100
AcDbAlignedDimension
 13
403.989802
 23
78.0
 33
0.0
 14
448.989802
 24
210.0
 34
0.0
 50
270.0
100
AcDbRotatedDimension
1001
ACAD
1000
DSTYLE
1002
{
1070
     7
1000
FXTIP_ARROW_E
1070
     6
1000
FXTIP_ARROW_S
1070
   173
1070
     1
1002
}
  0
DIMENSION
  5
1E6
330
1F
100
AcDbEntity
  8
LAYERGROUP-1
100
AcDbDimension
  2
*D31
 10
122.638673
 20
178.0
 30
0.0
 11
121.63868
 21
128.0
 31
0.0
 70
    33
  3
FXDIMINFO
100
AcDbAlignedDimension
 13
178.074525
 23
78.0
 33
0.0
 14
178.074525
 24
178.0
 34
0.0
1001
ACAD
1000
DSTYLE
1002
{
1070
     7
1000
FXTIP_ARROW_E
1070
     6
1000
FXTIP_ARROW_S
1070
   173
1070
     1
1002
}
  0
LINE
  5
1F0
330
1F
100
AcDbEntity
  8
LAYERGROUP-1
  6
CENTER
 62
     6
100
AcDbLine
 10
439.489802
 20
214.062054
 30
0.0
 11
439.489802
 21
203.7034
 31
0.0
  0
LINE
  5
1F1
330
1F
100
AcDbEntity
  8
LAYERGROUP-1
  6
CENTER
 62
     6
100
AcDbLine
 10
437.989802
 20
214.062054
 30
0.0
 11
437.989802
 21
203.7034
 31
0.0
  0
LINE
  5
1F2
330
1F
100
AcDbEntity
  8
LAYERGROUP-1
  6
CENTER
 62
     6
100
AcDbLine
 10
368.489802
 20
214.062054
 30
0.0
 11
368.489802
 21
203.7034
 31
0.0
  0
LINE
  5
1F3
330
1F
100
AcDbEntity
  8
LAYERGROUP-1
  6
CENTER
 62
     6
100
AcDbLine
 10
369.989802
 20
214.062054
 30
0.0
 11
369.989802
 21
203.7034
 31
0.0
  0
LINE
  5
1F4
330
1F
100
AcDbEntity
  8
GR1-1-1
  6
CENTER
 62
     6
100
AcDbLine
 10
144.074525
 20
214.062054
 30
0.0
 11
144.074525
 21
203.7034
 31
0.0
  0
LINE
  5
1F5
330
1F
100
AcDbEntity
  8
GR1-1-1
  6
CENTER
 62
     6
100
AcDbLine
 10
142.574525
 20
214.062054
 30
0.0
 11
142.574525
 21
203.7034
 31
0.0
  0
LINE
  5
1F6
330
1F
100
AcDbEntity
  8
GR1-1-1
  6
CENTER
 62
     6
100
AcDbLine
 10
212.074525
 20
214.062054
 30
0.0
 11
212.074525
 21
203.7034
 31
0.0
  0
LINE
  5
1F7
330
1F
100
AcDbEntity
  8
GR1-1-1
  6
CENTER
 62
     6
100
AcDbLine
 10
213.574525
 20
214.062054
 30
0.0
 11
213.574525
 21
203.7034
 31
0.0
  0
DIMENSION
  5
1F8
330
1F
100
AcDbEntity
  8
LAYERGROUP-1
100
AcDbDimension
  2
*D32
 10
200.574525
 20
49.26765
 30
0.0
 11
178.074524
 21
50.267651
 31
0.0
 70
    33
  3
FXDIMINFO
100
AcDbAlignedDimension
 13
155.574525
 23
119.25
 33
0.0
 14
200.574525
 24
119.25
 34
0.0
1001
ACAD
1000
DSTYLE
1002
{
1070
     7
1000
FXTIP_ARROW_E
1070
     6
1000
FXTIP_ARROW_S
1070
   173
1070
     1
1002
}
  0
ARC
  5
202
330
1F
100
AcDbEntity
  8
LAYERGROUP-1
  6
CONTINUOUS
 62
     3
100
AcDbCircle
 10
403.989802
 20
128.0
 30
0.0
 40
50.0
100
AcDbArc
 50
-229.99042
 51
49.99042
  0
ARC
  5
203
330
1F
100
AcDbEntity
  8
GR1-1
  6
CONTINUOUS
 62
     3
100
AcDbCircle
 10
178.074525
 20
78.0
 30
0.0
 40
100.0
100
AcDbArc
 50
82.052653
 51
97.947347
  0
ARC
  5
204
330
1F
100
AcDbEntity
  8
LAYERGROUP-1
  6
CONTINUOUS
 62
     3
100
AcDbCircle
 10
164.524749
 20
175.058764
 30
0.0
 40
2.0
100
AcDbArc
 50
97.947347
 51
175.0
  0
LINE
  5
205
330
1F
100
AcDbEntity
  8
LAYERGROUP-1
  6
CONTINUOUS
 62
     3
100
AcDbLine
 10
162.074525
 20
170.0
 30
0.0
 11
162.53236
 21
175.233075
 31
0.0
  0
ARC
  5
206
330
1F
100
AcDbEntity
  8
LAYERGROUP-1
  6
CONTINUOUS
 62
     3
100
AcDbCircle
 10
191.624301
 20
175.058764
 30
0.0
 40
2.0
100
AcDbArc
 50
5.0
 51
82.052653
  0
LINE
  5
207
330
1F
100
AcDbEntity
  8
LAYERGROUP-1
  6
CONTINUOUS
 62
     3
100
AcDbLine
 10
194.074525
 20
170.0
 30
0.0
 11
193.61669
 21
175.233075
 31
0.0
  0
ARC
  5
208
330
1F
100
AcDbEntity
  8
GR1-1
  6
CONTINUOUS
 62
     3
100
AcDbCircle
 10
178.074525
 20
178.0
 30
0.0
 40
100.0
100
AcDbArc
 50
262.052653
 51
277.947347
  0
LINE
  5
209
330
1F
100
AcDbEntity
  8
LAYERGROUP-1
  6
CONTINUOUS
 62
     3
100
AcDbLine
 10
162.074525
 20
86.0
 30
0.0
 11
162.074525
 21
170.0
 31
0.0
  0
ARC
  5
20A
330
1F
100
AcDbEntity
  8
LAYERGROUP-1
  6
CONTINUOUS
 62
     3
100
AcDbCircle
 10
164.524749
 20
80.941236
 30
0.0
 40
2.0
100
AcDbArc
 50
185.0
 51
262.052653
  0
LINE
  5
20B
330
1F
100
AcDbEntity
  8
LAYERGROUP-1
  6
CONTINUOUS
 62
     3
100
AcDbLine
 10
162.074525
 20
86.0
 30
0.0
 11
162.53236
 21
80.766925
 31
0.0
  0
ARC
  5
20C
330
1F
100
AcDbEntity
  8
LAYERGROUP-1
  6
CONTINUOUS
 62
     3
100
AcDbCircle
 10
191.624301
 20
80.941236
 30
0.0
 40
2.0
100
AcDbArc
 50
277.947347
 51
355.0
  0
LINE
  5
20D
330
1F
100
AcDbEntity
  8
LAYERGROUP-1
  6
CONTINUOUS
 62
     3
100
AcDbLine
 10
194.074525
 20
86.0
 30
0.0
 11
193.61669
 21
80.766925
 31
0.0
  0
ARC
  5
20E
330
1F
100
AcDbEntity
  8
LAYERGROUP-1
  6
CONTINUOUS
 62
     3
100
AcDbCircle
 10
159.074525
 20
146.321801
 30
0.0
 40
2.0
100
AcDbArc
 50
100.0
 51
180.0
  0
LINE
  5
20F
330
1F
100
AcDbEntity
  8
LAYERGROUP-1
  6
CONTINUOUS
 62
     3
100
AcDbLine
 10
158.727228
 20
148.291416
 30
0.0
 11
162.074525
 21
148.881635
 31
0.0
  0
LINE
  5
210
330
1F
100
AcDbEntity
  8
LAYERGROUP-1
  6
CONTINUOUS
 62
     3
100
AcDbLine
 10
157.074525
 20
109.678199
 30
0.0
 11
157.074525
 21
146.321801
 31
0.0
  0
ARC
  5
211
330
1F
100
AcDbEntity
  8
LAYERGROUP-1
  6
CONTINUOUS
 62
     3
100
AcDbCircle
 10
159.074525
 20
109.678199
 30
0.0
 40
2.0
100
AcDbArc
 50
180.0
 51
260.0
  0
LINE
  5
212
330
1F
100
AcDbEntity
  8
LAYERGROUP-1
  6
CONTINUOUS
 62
     3
100
AcDbLine
 10
158.727228
 20
107.708584
 30
0.0
 11
162.074525
 21
107.118365
 31
0.0
  0
LINE
  5
213
330
1F
100
AcDbEntity
  8
GR1-1
  6
CONTINUOUS
 62
     3
100
AcDbLine
 10
155.574525
 20
136.0
 30
0.0
 11
155.574525
 21
120.0
 31
0.0
  0
LINE
  5
214
330
1F
100
AcDbEntity
  8
GR1-1
  6
CONTINUOUS
 62
     3
100
AcDbLine
 10
155.574525
 20
120.0
 30
0.0
 11
156.074525
 21
119.5
 31
0.0
  0
LINE
  5
215
330
1F
100
AcDbEntity
  8
GR1-1
  6
CONTINUOUS
 62
     3
100
AcDbLine
 10
156.074525
 20
119.5
 30
0.0
 11
157.074525
 21
119.5
 31
0.0
  0
LINE
  5
216
330
1F
100
AcDbEntity
  8
GR1-1
  6
CONTINUOUS
 62
     3
100
AcDbLine
 10
155.574525
 20
136.0
 30
0.0
 11
156.074525
 21
136.5
 31
0.0
  0
LINE
  5
217
330
1F
100
AcDbEntity
  8
GR1-1
  6
CONTINUOUS
 62
     3
100
AcDbLine
 10
156.074525
 20
136.5
 30
0.0
 11
157.074525
 21
136.5
 31
0.0
  0
LINE
  5
218
330
1F
100
AcDbEntity
  8
GR1-1
  6
CONTINUOUS
 62
     6
100
AcDbLine
 10
156.074525
 20
119.5
 30
0.0
 11
156.074525
 21
136.5
 31
0.0
  0
ARC
  5
219
330
1F
100
AcDbEntity
  8
LAYERGROUP-1
  6
CONTINUOUS
 62
     3
100
AcDbCircle
 10
197.074525
 20
146.321801
 30
0.0
 40
2.0
100
AcDbArc
 50
0.0
 51
80.0
  0
LINE
  5
21A
330
1F
100
AcDbEntity
  8
LAYERGROUP-1
  6
CONTINUOUS
 62
     3
100
AcDbLine
 10
197.421821
 20
148.291416
 30
0.0
 11
194.074525
 21
148.881635
 31
0.0
  0
LINE
  5
21B
330
1F
100
AcDbEntity
  8
LAYERGROUP-1
  6
CONTINUOUS
 62
     3
100
AcDbLine
 10
199.074525
 20
109.678199
 30
0.0
 11
199.074525
 21
146.321801
 31
0.0
  0
ARC
  5
21C
330
1F
100
AcDbEntity
  8
LAYERGROUP-1
  6
CONTINUOUS
 62
     3
100
AcDbCircle
 10
197.074525
 20
109.678199
 30
0.0
 40
2.0
100
AcDbArc
 50
280.0
 51
360.0
  0
LINE
  5
21D
330
1F
100
AcDbEntity
  8
LAYERGROUP-1
  6
CONTINUOUS
 62
     3
100
AcDbLine
 10
197.421821
 20
107.708584
 30
0.0
 11
194.074525
 21
107.118365
 31
0.0
  0
LINE
  5
21E
330
1F
100
AcDbEntity
  8
GR1-1
  6
CONTINUOUS
 62
     3
100
AcDbLine
 10
200.574525
 20
136.0
 30
0.0
 11
200.574525
 21
120.0
 31
0.0
  0
LINE
  5
21F
330
1F
100
AcDbEntity
  8
GR1-1
  6
CONTINUOUS
 62
     3
100
AcDbLine
 10
200.574525
 20
120.0
 30
0.0
 11
200.074525
 21
119.5
 31
0.0
  0
LINE
  5
220
330
1F
100
AcDbEntity
  8
GR1-1
  6
CONTINUOUS
 62
     3
100
AcDbLine
 10
200.074525
 20
119.5
 30
0.0
 11
199.074525
 21
119.5
 31
0.0
  0
LINE
  5
221
330
1F
100
AcDbEntity
  8
GR1-1
  6
CONTINUOUS
 62
     3
100
AcDbLine
 10
200.574525
 20
136.0
 30
0.0
 11
200.074525
 21
136.5
 31
0.0
  0
LINE
  5
222
330
1F
100
AcDbEntity
  8
GR1-1
  6
CONTINUOUS
 62
     3
100
AcDbLine
 10
200.074525
 20
136.5
 30
0.0
 11
199.074525
 21
136.5
 31
0.0
  0
LINE
  5
223
330
1F
100
AcDbEntity
  8
GR1-1
  6
CONTINUOUS
 62
     6
100
AcDbLine
 10
200.074525
 20
119.5
 30
0.0
 11
200.074525
 21
136.5
 31
0.0
  0
LINE
  5
224
330
1F
100
AcDbEntity
  8
LAYERGROUP-1
  6
CONTINUOUS
 62
     3
100
AcDbLine
 10
194.074525
 20
86.0
 30
0.0
 11
194.074525
 21
170.0
 31
0.0
  0
LINE
  5
225
330
1F
100
AcDbEntity
  8
GR1-1
  6
CONTINUOUS
 62
     6
100
AcDbLine
 10
163.074633
 20
79.563861
 30
0.0
 11
163.074633
 21
176.436139
 31
0.0
  0
LINE
  5
226
330
1F
100
AcDbEntity
  8
GR1-1
  6
CONTINUOUS
 62
     6
100
AcDbLine
 10
193.074417
 20
79.563861
 30
0.0
 11
193.074417
 21
176.436139
 31
0.0
  0
DIMENSION
  5
227
330
1F
100
AcDbEntity
  8
LAYERGROUP-1
100
AcDbDimension
  2
*D33
 10
194.074525
 20
61.558433
 30
0.0
 11
178.074524
 21
62.558434
 31
0.0
 70
    33
  3
FXDIMINFO
100
AcDbAlignedDimension
 13
162.074525
 23
86.0
 33
0.0
 14
194.074525
 24
86.0
 34
0.0
1001
ACAD
1000
DSTYLE
1002
{
1070
     7
1000
FXTIP_ARROW_E
1070
     6
1000
FXTIP_ARROW_S
1070
   173
1070
     1
1002
}
  0
LINE
  5
231
330
1F
100
AcDbEntity
  8
GR1-1
  6
CONTINUOUS
 62
     3
100
AcDbLine
 10
149.474525
 20
138.082576
 30
0.0
 11
149.474525
 21
118.0
 31
0.0
  0
ARC
  5
232
330
1F
100
AcDbEntity
  8
GR1-1
  6
CONTINUOUS
 62
     3
100
AcDbCircle
 10
149.974525
 20
118.0
 30
0.0
 40
0.5
100
AcDbArc
 50
180.0
 51
270.0
  0
LINE
  5
233
330
1F
100
AcDbEntity
  8
GR1-1
  6
CONTINUOUS
 62
     3
100
AcDbLine
 10
149.974525
 20
117.5
 30
0.0
 11
151.974525
 21
117.5
 31
0.0
  0
ARC
  5
234
330
1F
100
AcDbEntity
  8
GR1-1
  6
CONTINUOUS
 62
     3
100
AcDbCircle
 10
151.974525
 20
118.0
 30
0.0
 40
0.5
100
AcDbArc
 50
270.0
 51
360.0
  0
LINE
  5
235
330
1F
100
AcDbEntity
  8
GR1-1
  6
CONTINUOUS
 62
     3
100
AcDbLine
 10
148.224525
 20
117.030345
 30
0.0
 11
143.724525
 21
117.030345
 31
0.0
  0
ARC
  5
236
330
1F
100
AcDbEntity
  8
GR1-1
  6
CONTINUOUS
 62
     3
100
AcDbCircle
 10
145.841192
 20
119.772759
 30
0.0
 40
3.633333333332942
100
AcDbArc
 50
-49.007267
 51
49.007267
  0
LINE
  5
237
330
1F
100
AcDbEntity
  8
GR1-1
  6
CONTINUOUS
 62
     3
100
AcDbLine
 10
148.224525
 20
122.515172
 30
0.0
 11
143.724525
 21
122.515172
 31
0.0
  0
ARC
  5
238
330
1F
100
AcDbEntity
  8
GR1-1
  6
CONTINUOUS
 62
     3
100
AcDbCircle
 10
146.107858
 20
119.772759
 30
0.0
 40
3.633333333332979
100
AcDbArc
 50
130.992733
 51
229.007267
  0
LINE
  5
239
330
1F
100
AcDbEntity
  8
GR1-1
  6
CONTINUOUS
 62
     3
100
AcDbLine
 10
143.724525
 20
133.484828
 30
0.0
 11
148.224525
 21
133.484828
 31
0.0
  0
ARC
  5
23A
330
1F
100
AcDbEntity
  8
GR1-1
  6
CONTINUOUS
 62
     3
100
AcDbCircle
 10
145.841192
 20
136.227241
 30
0.0
 40
3.633333333333
100
AcDbArc
 50
-49.007267
 51
35.120807
  0
ARC
  5
23B
330
1F
100
AcDbEntity
  8
GR1-1
  6
CONTINUOUS
 62
     3
100
AcDbCircle
 10
146.107858
 20
136.227241
 30
0.0
 40
3.633333333332883
100
AcDbArc
 50
132.917011
 51
229.007267
  0
ARC
  5
23C
330
1F
100
AcDbEntity
  8
GR1-1
  6
CONTINUOUS
 62
     3
100
AcDbCircle
 10
155.132858
 20
128.0
 30
0.0
 40
12.65833333333353
100
AcDbArc
 50
154.322973
 51
205.677027
  0
ARC
  5
23D
330
1F
100
AcDbEntity
  8
GR1-1
  6
CONTINUOUS
 62
     3
100
AcDbCircle
 10
136.816192
 20
128.0
 30
0.0
 40
12.65833333333325
100
AcDbArc
 50
-25.677027
 51
25.677027
  0
LINE
  5
23E
330
1F
100
AcDbEntity
  8
GR1-1
  6
CONTINUOUS
 62
     3
100
AcDbLine
 10
142.474525
 20
119.77276
 30
0.0
 11
142.474525
 21
136.227241
 31
0.0
  0
ARC
  5
23F
330
1F
100
AcDbEntity
  8
LAYERGROUP-1
  6
CONTINUOUS
 62
     3
100
AcDbCircle
 10
403.989802
 20
128.0
 30
0.0
 40
42.0
100
AcDbArc
 50
-225.236833
 51
45.236833
  0
ARC
  5
240
330
1F
100
AcDbEntity
  8
LAYERGROUP-1
  6
CONTINUOUS
 62
     6
100
AcDbCircle
 10
403.989802
 20
128.0
 30
0.0
 40
20.0
100
AcDbArc
 50
180.429746
 51
359.570258
  0
ARC
  5
241
330
1F
100
AcDbEntity
  8
LAYERGROUP-1
  6
CONTINUOUS
 62
     6
100
AcDbCircle
 10
403.989802
 20
128.0
 30
0.0
 40
35.5
100
AcDbArc
 50
-219.275807
 51
39.275807
  0
INSERT
  5
245
330
1F
100
AcDbEntity
  8
0
100
AcDbBlockReference
  2
BLKF036
 10
0.0
 20
0.0
 30
0.0
  0
INSERT
  5
2C3
330
1F
100
AcDbEntity
  8
0
100
AcDbBlockReference
  2
BLKF038
 10
0.0
 20
0.0
 30
0.0
  0
ARC
  5
2CA
330
1F
100
AcDbEntity
  8
GR1-1
  6
CONTINUOUS
 62
     3
100
AcDbCircle
 10
453.989802
 20
325.136234
 30
0.0
 40
100.0
100
AcDbArc
 50
172.052653
 51
187.947347
  0
ARC
  5
2CB
330
1F
100
AcDbEntity
  8
LAYERGROUP-1
  6
CONTINUOUS
 62
     3
100
AcDbCircle
 10
356.931038
 20
338.68601
 30
0.0
 40
2.0
100
AcDbArc
 50
95.0
 51
172.052653
  0
LINE
  5
2CC
330
1F
100
AcDbEntity
  8
LAYERGROUP-1
  6
CONTINUOUS
 62
     3
100
AcDbLine
 10
358.989802
 20
340.873768
 30
0.0
 11
356.756727
 21
340.678399
 31
0.0
  0
ARC
  5
2CD
330
1F
100
AcDbEntity
  8
LAYERGROUP-1
  6
CONTINUOUS
 62
     3
100
AcDbCircle
 10
356.931038
 20
311.586458
 30
0.0
 40
2.0
100
AcDbArc
 50
187.947347
 51
265.0
  0
LINE
  5
2CE
330
1F
100
AcDbEntity
  8
LAYERGROUP-1
  6
CONTINUOUS
 62
     3
100
AcDbLine
 10
358.989802
 20
309.3987
 30
0.0
 11
356.756727
 21
309.594069
 31
0.0
  0
LINE
  5
2CF
330
1F
100
AcDbEntity
  8
GR1-1
  6
CONTINUOUS
 62
     6
100
AcDbLine
 10
355.553663
 20
340.136126
 30
0.0
 11
358.989802
 21
340.136126
 31
0.0
  0
LINE
  5
2D0
330
1F
100
AcDbEntity
  8
GR1-1
  6
CONTINUOUS
 62
     6
100
AcDbLine
 10
355.553663
 20
310.136342
 30
0.0
 11
358.989802
 21
310.136342
 31
0.0
  0
ARC
  5
2D1
330
1F
100
AcDbEntity
  8
GR1-1
  6
CONTINUOUS
 62
     3
100
AcDbCircle
 10
353.989802
 20
325.136234
 30
0.0
 40
100.0
100
AcDbArc
 50
-7.947347
 51
7.947347
  0
ARC
  5
2D2
330
1F
100
AcDbEntity
  8
LAYERGROUP-1
  6
CONTINUOUS
 62
     3
100
AcDbCircle
 10
451.048565
 20
338.68601
 30
0.0
 40
2.0
100
AcDbArc
 50
7.947347
 51
85.0
  0
LINE
  5
2D3
330
1F
100
AcDbEntity
  8
LAYERGROUP-1
  6
CONTINUOUS
 62
     3
100
AcDbLine
 10
448.989802
 20
340.873768
 30
0.0
 11
451.222877
 21
340.678399
 31
0.0
  0
ARC
  5
2D4
330
1F
100
AcDbEntity
  8
LAYERGROUP-1
  6
CONTINUOUS
 62
     3
100
AcDbCircle
 10
451.048565
 20
311.586458
 30
0.0
 40
2.0
100
AcDbArc
 50
275.0
 51
352.052653
  0
LINE
  5
2D5
330
1F
100
AcDbEntity
  8
LAYERGROUP-1
  6
CONTINUOUS
 62
     3
100
AcDbLine
 10
448.989802
 20
309.3987
 30
0.0
 11
451.222877
 21
309.594069
 31
0.0
  0
LINE
  5
2D6
330
1F
100
AcDbEntity
  8
GR1-1
  6
CONTINUOUS
 62
     6
100
AcDbLine
 10
452.425941
 20
340.136126
 30
0.0
 11
448.989802
 21
340.136126
 31
0.0
  0
LINE
  5
2D7
330
1F
100
AcDbEntity
  8
GR1-1
  6
CONTINUOUS
 62
     6
100
AcDbLine
 10
452.425941
 20
310.136342
 30
0.0
 11
448.989802
 21
310.136342
 31
0.0
  0
ENDSEC
  0
SECTION
  2
OBJECTS
  0
DICTIONARY
  5
C
330
0
100
AcDbDictionary
  3
ACAD_GROUP
350
D
  3
ACAD_LAYOUT
350
1A
  3
ACAD_MLINESTYLE
350
17
  3
ACAD_PLOTSETTINGS
350
19
  3
ACDBHEADERROUNDTRIPXREC
350
2D8
  0
DICTIONARY
  5
D
102
{ACAD_REACTORS
330
C
102
}
330
C
100
AcDbDictionary
  0
DICTIONARY
  5
1A
102
{ACAD_REACTORS
330
C
102
}
330
C
100
AcDbDictionary
  0
DICTIONARY
  5
17
102
{ACAD_REACTORS
330
C
102
}
330
C
100
AcDbDictionary
  3
STANDARD
350
18
  0
DICTIONARY
  5
19
102
{ACAD_REACTORS
330
C
102
}
330
C
100
AcDbDictionary
  0
DICTIONARY
  5
2D8
102
{ACAD_REACTORS
330
C
102
}
330
C
100
AcDbDictionary
  3
CEPSNTYPE
350
2E1
  3
DIMSTYLEDATA
350
2F7
  3
FINGERPRINTGUID
350
2E2
  3
HYPERLINKBASE
350
2DB
  3
INSUNITS
350
2E0
  3
LAYOUTDICT
350
2DD
  3
LWETCUNION
350
2DF
  3
PLOTSETDICT
350
2DE
  3
PSVPSCALE
350
2E4
  3
PUCSBASE
350
2E7
  3
PUCSORGBACK
350
2ED
  3
PUCSORGBOTTOM
350
2E9
  3
PUCSORGFRONT
350
2EC
  3
PUCSORGLEFT
350
2EA
  3
PUCSORGRIGHT
350
2EB
  3
PUCSORGTOP
350
2E8
  3
PUCSORTHOREF
350
2E5
  3
PUCSORTHOVIEW
350
2E6
  3
STYLESHEET
350
2DC
  3
TSTACKALIGN
350
2D9
  3
TSTACKSIZE
350
2DA
  3
UCSBASE
350
2F0
  3
UCSORGBACK
350
2F6
  3
UCSORGBOTTOM
350
2F2
  3
UCSORGFRONT
350
2F5
  3
UCSORGLEFT
350
2F3
  3
UCSORGRIGHT
350
2F4
  3
UCSORGTOP
350
2F1
  3
UCSORTHOREF
350
2EE
  3
UCSORTHOVIEW
350
2EF
  3
VERSIONGUID
350
2E3
  0
MLINESTYLE
  5
18
102
{ACAD_REACTORS
330
17
102
}
330
17
100
AcDbMlineStyle
  2
Standard
 70
     0
  3

 62
   256
 51
90.0
 52
90.0
 71
     2
 49
0.5
 62
   256
  6
BYLAYER
 49
-0.5
 62
   256
  6
BYLAYER
  0
XRECORD
  5
2E1
102
{ACAD_REACTORS
330
2D8
102
}
330
2D8
100
AcDbXrecord
 90
        0
  0
XRECORD
  5
2F7
102
{ACAD_REACTORS
330
2D8
102
}
330
2D8
100
AcDbXrecord
1000
DSTYLE
1002
{
1070
   179
 70
     2
1070
   171
 70
     3
1070
   143
 40
0.03937
1070
   274
 70
     3
1070
    41
 40
4.0
1070
   344
340
47
1070
   141
 40
2.5
1070
   176
 70
     7
1070
   177
 70
     7
1070
   178
 70
     7
1070
   271
 70
     2
1070
    46
 40
6.0
1070
    43
 40
10.0
1070
    44
 40
1.0
1070
    42
 40
1.0
1070
   147
 40
1.0
1070
   173
 70
     1
1070
    77
 70
     1
1070
   272
 70
     2
1070
    73
 70
     0
1070
   172
 70
     1
1070
    74
 70
     0
1070
   283
 70
     0
1070
   340
340
3F
1070
   140
 40
4.0
1070
   284
 70
     8
1070
    78
 70
     8
1002
}
  0
XRECORD
  5
2E2
102
{ACAD_REACTORS
330
2D8
102
}
330
2D8
100
AcDbXrecord
  1
{6F932CE1-8023-47B2-9BC3-1229139E6D6C}
  0
XRECORD
  5
2DB
102
{ACAD_REACTORS
330
2D8
102
}
330
2D8
100
AcDbXrecord
  1

  0
XRECORD
  5
2E0
102
{ACAD_REACTORS
330
2D8
102
}
330
2D8
100
AcDbXrecord
 90
        1
  0
XRECORD
  5
2DD
102
{ACAD_REACTORS
330
2D8
102
}
330
2D8
100
AcDbXrecord
340
1A
  0
XRECORD
  5
2DF
102
{ACAD_REACTORS
330
2D8
102
}
330
2D8
100
AcDbXrecord
 90
    10781
  0
XRECORD
  5
2DE
102
{ACAD_REACTORS
330
2D8
102
}
330
2D8
100
AcDbXrecord
340
19
  0
XRECORD
  5
2E4
102
{ACAD_REACTORS
330
2D8
102
}
330
2D8
100
AcDbXrecord
 40
0.0
  0
XRECORD
  5
2E7
102
{ACAD_REACTORS
330
2D8
102
}
330
2D8
100
AcDbXrecord
340
0
  0
XRECORD
  5
2ED
102
{ACAD_REACTORS
330
2D8
102
}
330
2D8
100
AcDbXrecord
 10
0.0
 20
0.0
 30
0.0
  0
XRECORD
  5
2E9
102
{ACAD_REACTORS
330
2D8
102
}
330
2D8
100
AcDbXrecord
 10
0.0
 20
0.0
 30
0.0
  0
XRECORD
  5
2EC
102
{ACAD_REACTORS
330
2D8
102
}
330
2D8
100
AcDbXrecord
 10
0.0
 20
0.0
 30
0.0
  0
XRECORD
  5
2EA
102
{ACAD_REACTORS
330
2D8
102
}
330
2D8
100
AcDbXrecord
 10
0.0
 20
0.0
 30
0.0
  0
XRECORD
  5
2EB
102
{ACAD_REACTORS
330
2D8
102
}
330
2D8
100
AcDbXrecord
 10
0.0
 20
0.0
 30
0.0
  0
XRECORD
  5
2E8
102
{ACAD_REACTORS
330
2D8
102
}
330
2D8
100
AcDbXrecord
 10
0.0
 20
0.0
 30
0.0
  0
XRECORD
  5
2E5
102
{ACAD_REACTORS
330
2D8
102
}
330
2D8
100
AcDbXrecord
340
0
  0
XRECORD
  5
2E6
102
{ACAD_REACTORS
330
2D8
102
}
330
2D8
100
AcDbXrecord
 70
     0
  0
XRECORD
  5
2DC
102
{ACAD_REACTORS
330
2D8
102
}
330
2D8
100
AcDbXrecord
  1

  0
XRECORD
  5
2D9
102
{ACAD_REACTORS
330
2D8
102
}
330
2D8
100
AcDbXrecord
 90
        1
  0
XRECORD
  5
2DA
102
{ACAD_REACTORS
330
2D8
102
}
330
2D8
100
AcDbXrecord
 90
       70
  0
XRECORD
  5
2F0
102
{ACAD_REACTORS
330
2D8
102
}
330
2D8
100
AcDbXrecord
340
0
  0
XRECORD
  5
2F6
102
{ACAD_REACTORS
330
2D8
102
}
330
2D8
100
AcDbXrecord
 10
0.0
 20
0.0
 30
0.0
  0
XRECORD
  5
2F2
102
{ACAD_REACTORS
330
2D8
102
}
330
2D8
100
AcDbXrecord
 10
0.0
 20
0.0
 30
0.0
  0
XRECORD
  5
2F5
102
{ACAD_REACTORS
330
2D8
102
}
330
2D8
100
AcDbXrecord
 10
0.0
 20
0.0
 30
0.0
  0
XRECORD
  5
2F3
102
{ACAD_REACTORS
330
2D8
102
}
330
2D8
100
AcDbXrecord
 10
0.0
 20
0.0
 30
0.0
  0
XRECORD
  5
2F4
102
{ACAD_REACTORS
330
2D8
102
}
330
2D8
100
AcDbXrecord
 10
0.0
 20
0.0
 30
0.0
  0
XRECORD
  5
2F1
102
{ACAD_REACTORS
330
2D8
102
}
330
2D8
100
AcDbXrecord
 10
0.0
 20
0.0
 30
0.0
  0
XRECORD
  5
2EE
102
{ACAD_REACTORS
330
2D8
102
}
330
2D8
100
AcDbXrecord
340
0
  0
XRECORD
  5
2EF
102
{ACAD_REACTORS
330
2D8
102
}
330
2D8
100
AcDbXrecord
 70
     0
  0
XRECORD
  5
2E3
102
{ACAD_REACTORS
330
2D8
102
}
330
2D8
100
AcDbXrecord
  1
{FAEB1C32-E019-11D5-929B-00C0DF256EC4}
  0
ENDSEC
  0
EOF
