  0
SECTION
  2
HEADER
  9
$ACADVER
  1
AC1014
  9
$ACADMAINTVER
 70
     9
  9
$DWGCODEPAGE
  3
ANSI_932
  9
$INSBASE
 10
0.0
 20
0.0
 30
0.0
  9
$EXTMIN
 10
0.0
 20
0.0
 30
0.0
  9
$EXTMAX
 10
420.0
 20
297.0
 30
0.0
  9
$LIMMIN
 10
0.0
 20
0.0
  9
$LIMMAX
 10
420.0
 20
297.0
  9
$ORTHOMODE
 70
     0
  9
$REGENMODE
 70
     1
  9
$FILLMODE
 70
     1
  9
$QTEXTMODE
 70
     0
  9
$MIRRTEXT
 70
     1
  9
$DRAGMODE
 70
     2
  9
$LTSCALE
 40
1.0
  9
$OSMODE
 70
    37
  9
$ATTMODE
 70
     1
  9
$TEXTSIZE
 40
0.2
  9
$TRACEWID
 40
0.05
  9
$TEXTSTYLE
  7
STYLE1
  9
$CLAYER
  8
0
  9
$CELTYPE
  6
BYLAYER
  9
$CECOLOR
 62
   256
  9
$CELTSCALE
 40
1.0
  9
$DELOBJ
 70
     1
  9
$DISPSILH
 70
     0
  9
$DIMSCALE
 40
1.0
  9
$DIMASZ
 40
4.0
  9
$DIMEXO
 40
1.0
  9
$DIMDLI
 40
10.0
  9
$DIMRND
 40
0.0
  9
$DIMDLE
 40
6.0
  9
$DIMEXE
 40
1.0
  9
$DIMTP
 40
0.0
  9
$DIMTM
 40
0.0
  9
$DIMTXT
 40
4.0
  9
$DIMCEN
 40
2.5
  9
$DIMTSZ
 40
0.0
  9
$DIMTOL
 70
     0
  9
$DIMLIM
 70
     0
  9
$DIMTIH
 70
     0
  9
$DIMTOH
 70
     0
  9
$DIMSE1
 70
     0
  9
$DIMSE2
 70
     0
  9
$DIMTAD
 70
     1
  9
$DIMZIN
 70
     8
  9
$DIMBLK
  1

  9
$DIMASO
 70
     1
  9
$DIMSHO
 70
     1
  9
$DIMPOST
  1

  9
$DIMAPOST
  1

  9
$DIMALT
 70
     0
  9
$DIMALTD
 70
     3
  9
$DIMALTF
 40
0.03937
  9
$DIMLFAC
 40
1.0
  9
$DIMTOFL
 70
     1
  9
$DIMTVP
 40
0.0
  9
$DIMTIX
 70
     0
  9
$DIMSOXD
 70
     0
  9
$DIMSAH
 70
     1
  9
$DIMBLK1
  1
FXTIP_ARROW_S
  9
$DIMBLK2
  1
FXTIP_ARROW_E
  9
$DIMSTYLE
  2
FXDIMINFO
  9
$DIMCLRD
 70
     7
  9
$DIMCLRE
 70
     7
  9
$DIMCLRT
 70
     7
  9
$DIMTFAC
 40
1.0
  9
$DIMGAP
 40
1.0
  9
$DIMJUST
 70
     0
  9
$DIMSD1
 70
     0
  9
$DIMSD2
 70
     0
  9
$DIMTOLJ
 70
     0
  9
$DIMTZIN
 70
     8
  9
$DIMALTZ
 70
     0
  9
$DIMALTTZ
 70
     0
  9
$DIMFIT
 70
     3
  9
$DIMUPT
 70
     0
  9
$DIMUNIT
 70
     2
  9
$DIMDEC
 70
     2
  9
$DIMTDEC
 70
     2
  9
$DIMALTU
 70
     2
  9
$DIMALTTD
 70
     3
  9
$DIMTXSTY
  7
STYLE1
  9
$DIMAUNIT
 70
     0
  9
$LUNITS
 70
     2
  9
$LUPREC
 70
     4
  9
$SKETCHINC
 40
0.1
  9
$FILLETRAD
 40
0.5
  9
$AUNITS
 70
     0
  9
$AUPREC
 70
     0
  9
$MENU
  1
.
  9
$ELEVATION
 40
0.0
  9
$PELEVATION
 40
0.0
  9
$THICKNESS
 40
0.0
  9
$LIMCHECK
 70
     0
  9
$CHAMFERA
 40
0.5
  9
$CHAMFERB
 40
0.5
  9
$CHAMFERC
 40
1.0
  9
$CHAMFERD
 40
0.0
  9
$SKPOLY
 70
     0
  9
$TDCREATE
 40
2455308.352456887
  9
$TDUPDATE
 40
2455308.352456898
  9
$TDINDWG
 40
0.0000000116
  9
$TDUSRTIMER
 40
0.0000000116
  9
$USRTIMER
 70
     1
  9
$ANGBASE
 50
0.0
  9
$ANGDIR
 70
     0
  9
$PDMODE
 70
     0
  9
$PDSIZE
 40
0.0
  9
$PLINEWID
 40
0.0
  9
$COORDS
 70
     1
  9
$SPLFRAME
 70
     0
  9
$SPLINETYPE
 70
     6
  9
$SPLINESEGS
 70
     8
  9
$ATTDIA
 70
     0
  9
$ATTREQ
 70
     1
  9
$HANDLING
 70
     1
  9
$HANDSEED
  5
361
  9
$SURFTAB1
 70
     6
  9
$SURFTAB2
 70
     6
  9
$SURFTYPE
 70
     6
  9
$SURFU
 70
     6
  9
$SURFV
 70
     6
  9
$UCSNAME
  2

  9
$UCSORG
 10
0.0
 20
0.0
 30
0.0
  9
$UCSXDIR
 10
1.0
 20
0.0
 30
0.0
  9
$UCSYDIR
 10
0.0
 20
1.0
 30
0.0
  9
$PUCSNAME
  2

  9
$PUCSORG
 10
0.0
 20
0.0
 30
0.0
  9
$PUCSXDIR
 10
1.0
 20
0.0
 30
0.0
  9
$PUCSYDIR
 10
0.0
 20
1.0
 30
0.0
  9
$USERI1
 70
     0
  9
$USERI2
 70
     0
  9
$USERI3
 70
     0
  9
$USERI4
 70
     0
  9
$USERI5
 70
     0
  9
$USERR1
 40
0.0
  9
$USERR2
 40
0.0
  9
$USERR3
 40
0.0
  9
$USERR4
 40
0.0
  9
$USERR5
 40
0.0
  9
$WORLDVIEW
 70
     1
  9
$SHADEDGE
 70
     3
  9
$SHADEDIF
 70
    70
  9
$TILEMODE
 70
     1
  9
$MAXACTVP
 70
    64
  9
$PINSBASE
 10
0.0
 20
0.0
 30
0.0
  9
$PLIMCHECK
 70
     0
  9
$PEXTMIN
 10
1.000000E+20
 20
1.000000E+20
 30
1.000000E+20
  9
$PEXTMAX
 10
-1.000000E+20
 20
-1.000000E+20
 30
-1.000000E+20
  9
$PLIMMIN
 10
0.0
 20
0.0
  9
$PLIMMAX
 10
12.0
 20
9.0
  9
$UNITMODE
 70
     0
  9
$VISRETAIN
 70
     1
  9
$PLINEGEN
 70
     0
  9
$PSLTSCALE
 70
     1
  9
$TREEDEPTH
 70
  3020
  9
$PICKSTYLE
 70
     1
  9
$CMLSTYLE
  2
STANDARD
  9
$CMLJUST
 70
     0
  9
$CMLSCALE
 40
1.0
  9
$PROXYGRAPHICS
 70
     1
  9
$MEASUREMENT
 70
     0
  0
ENDSEC
  0
SECTION
  2
CLASSES
  0
CLASS
  1
ACDBDICTIONARYWDFLT
  2
AcDbDictionaryWithDefault
  3
ObjectDBX Classes
 90
        0
280
     0
281
     0
  0
CLASS
  1
XRECORD
  2
AcDbXrecord
  3
AutoCAD 2000
 90
        0
280
     0
281
     0
  0
CLASS
  1
LWPOLYLINE
  2
AcDbPolyline
  3
AutoCAD 2000
 90
        0
280
     0
281
     1
  0
CLASS
  1
HATCH
  2
AcDbHatch
  3
AutoCAD 2000
 90
        0
280
     0
281
     1
  0
CLASS
  1
ACDBPLACEHOLDER
  2
AcDbPlaceHolder
  3
ObjectDBX Classes
 90
        0
280
     0
281
     0
  0
CLASS
  1
LAYOUT
  2
AcDbLayout
  3
ObjectDBX Classes
 90
        0
280
     0
281
     0
  0
ENDSEC
  0
SECTION
  2
TABLES
  0
TABLE
  2
VPORT
  5
8
330
0
100
AcDbSymbolTable
 70
     1
  0
VPORT
  5
29
330
8
100
AcDbSymbolTableRecord
100
AcDbViewportTableRecord
  2
*ACTIVE
 70
     0
 10
0.0
 20
0.0
 11
1.0
 21
1.0
 12
210.0
 22
148.5
 13
0.0
 23
0.0
 14
0.5
 24
0.5
 15
0.5
 25
0.5
 16
0.0
 26
0.0
 36
1.0
 17
0.0
 27
0.0
 37
0.0
 40
297.0
 41
1.414141
 42
50.0
 43
0.0
 44
0.0
 50
0.0
 51
0.0
 71
     0
 72
   100
 73
     1
 74
     3
 75
     0
 76
     0
 77
     0
 78
     0
  0
ENDTAB
  0
TABLE
  2
LTYPE
  5
5
330
0
100
AcDbSymbolTable
 70
     4
  0
LTYPE
  5
14
330
5
100
AcDbSymbolTableRecord
100
AcDbLinetypeTableRecord
  2
BYBLOCK
 70
     0
  3

 72
    65
 73
     0
 40
0.0
  0
LTYPE
  5
15
330
5
100
AcDbSymbolTableRecord
100
AcDbLinetypeTableRecord
  2
BYLAYER
 70
     0
  3

 72
    65
 73
     0
 40
0.0
  0
LTYPE
  5
16
330
5
100
AcDbSymbolTableRecord
100
AcDbLinetypeTableRecord
  2
CONTINUOUS
 70
     0
  3
--------------------
 72
    65
 73
     0
 40
0.0
  0
LTYPE
  5
2A
330
5
100
AcDbSymbolTableRecord
100
AcDbLinetypeTableRecord
  2
CENTER
 70
     0
  3
Center ____ _ ____ _ ____ _ ____ _ ____ _ ____
 72
    65
 73
     4
 40
13.0
 49
10.0
 74
     0
 49
-1.0
 74
     0
 49
1.0
 74
     0
 49
-1.0
 74
     0
  0
LTYPE
  5
2C
330
5
100
AcDbSymbolTableRecord
100
AcDbLinetypeTableRecord
  2
DASHED
 70
     0
  3
Dashed __ __ __ __ __ __ __ __ __ __ __ __ __ _
 72
    65
 73
     2
 40
4.0
 49
3.0
 74
     0
 49
-1.0
 74
     0
  0
ENDTAB
  0
TABLE
  2
LAYER
  5
2
330
0
100
AcDbSymbolTable
 70
    21
  0
LAYER
  5
10
330
2
100
AcDbSymbolTableRecord
100
AcDbLayerTableRecord
  2
0
 70
     0
 62
     7
  6
CONTINUOUS
  0
LAYER
  5
2D
330
2
100
AcDbSymbolTableRecord
100
AcDbLayerTableRecord
  2
LAYERGROUP-1
 70
     0
 62
     3
  6
CONTINUOUS
  0
LAYER
  5
3D
330
2
100
AcDbSymbolTableRecord
100
AcDbLayerTableRecord
  2
}}ﾊﾊGG血CCТ
 70
     0
 62
     3
  6
CONTINUOUS
  0
LAYER
  5
175
330
2
100
AcDbSymbolTableRecord
100
AcDbLayerTableRecord
  2
1-1
 70
     0
 62
     7
  6
CONTINUOUS
  0
LAYER
  5
2DD
330
2
100
AcDbSymbolTableRecord
100
AcDbLayerTableRecord
  2
GR1-1
 70
     0
 62
     7
  6
CONTINUOUS
  0
LAYER
  5
320
330
2
100
AcDbSymbolTableRecord
100
AcDbLayerTableRecord
  2
0-1
 70
     0
 62
     7
  6
CONTINUOUS
  0
ENDTAB
  0
TABLE
  2
STYLE
  5
3
330
0
100
AcDbSymbolTable
 70
     4
  0
STYLE
  5
11
330
3
100
AcDbSymbolTableRecord
100
AcDbTextStyleTableRecord
  2
STANDARD
 70
     0
 40
0.0
 41
1.0
 50
0.0
 71
     0
 42
0.2
  3
txt
  4

  0
STYLE
  5
3F
330
3
100
AcDbSymbolTableRecord
100
AcDbTextStyleTableRecord
  2
STYLE1
 70
     0
 40
0.0
 41
1.0
 50
0.0
 71
     0
 42
0.2
  3
MONOTXT.SHX
  4
extfont.shx
  0
STYLE
  5
40
330
3
100
AcDbSymbolTableRecord
100
AcDbTextStyleTableRecord
  2
FX_VECTOR
 70
     0
 40
0.0
 41
1.0
 50
0.0
 71
     0
 42
0.2
  3
MONOTXT.SHX
  4
BIGFONT.SHX
  0
ENDTAB
  0
TABLE
  2
VIEW
  5
6
330
0
100
AcDbSymbolTable
 70
     0
  0
ENDTAB
  0
TABLE
  2
UCS
  5
7
330
0
100
AcDbSymbolTable
 70
     0
  0
ENDTAB
  0
TABLE
  2
APPID
  5
9
330
0
100
AcDbSymbolTable
 70
     1
  0
APPID
  5
12
330
9
100
AcDbSymbolTableRecord
100
AcDbRegAppTableRecord
  2
ACAD
 70
     0
  0
ENDTAB
  0
TABLE
  2
DIMSTYLE
  5
A
330
0
100
AcDbSymbolTable
 70
     2
  0
DIMSTYLE
105
27
330
A
100
AcDbSymbolTableRecord
100
AcDbDimStyleTableRecord
  2
STANDARD
 70
     0
  3

  4

  5

  6

  7

 40
1.0
 41
0.18
 42
0.0625
 43
0.38
 44
0.18
 45
0.0
 46
0.0
 47
0.0
 48
0.0
140
0.18
141
0.09
142
0.0
143
25.4
144
1.0
145
0.0
146
1.0
147
0.09
 71
     0
 72
     0
 73
     1
 74
     1
 75
     0
 76
     0
 77
     0
 78
     0
170
     0
171
     2
172
     0
173
     0
174
     0
175
     0
176
     0
177
     0
178
     0
270
     2
271
     4
272
     4
273
     2
274
     2
340
11
275
     0
280
     0
281
     0
282
     0
283
     1
284
     0
285
     0
286
     0
287
     3
288
     0
  0
DIMSTYLE
105
A7
102
{ACAD_REACTORS
330
BC
330
C6
330
EF
330
14B
330
156
330
160
330
16A
330
27F
330
28B
330
296
330
2D2
330
2EE
102
}
330
A
100
AcDbSymbolTableRecord
100
AcDbDimStyleTableRecord
  2
FXDIMINFO
 70
     0
  3

  4

  5

  6
FXTIP_ARROW_S
  7
FXTIP_ARROW_E
 40
1.0
 41
4.0
 42
1.0
 43
10.0
 44
1.0
 45
0.0
 46
6.0
 47
0.0
 48
0.0
140
4.0
141
2.5
142
0.0
143
0.03937
144
1.0
145
0.0
146
1.0
147
1.0
 71
     0
 72
     0
 73
     0
 74
     0
 75
     0
 76
     0
 77
     1
 78
     8
170
     0
171
     3
172
     1
173
     1
174
     0
175
     0
176
     7
177
     7
178
     7
179
     2
270
     2
271
     2
272
     2
273
     2
274
     3
340
3F
275
     0
280
     0
281
     0
282
     0
283
     0
284
     8
285
     0
286
     0
287
     3
288
     0
  0
ENDTAB
  0
TABLE
  2
BLOCK_RECORD
  5
1
330
0
100
AcDbSymbolTable
 70
    43
  0
BLOCK_RECORD
  5
1F
330
1
100
AcDbSymbolTableRecord
100
AcDbBlockTableRecord
  2
*MODEL_SPACE
  0
BLOCK_RECORD
  5
1B
330
1
100
AcDbSymbolTableRecord
100
AcDbBlockTableRecord
  2
*PAPER_SPACE
  0
BLOCK_RECORD
  5
41
330
1
100
AcDbSymbolTableRecord
100
AcDbBlockTableRecord
  2
FXTIP_ARROW_S
  0
BLOCK_RECORD
  5
47
330
1
100
AcDbSymbolTableRecord
100
AcDbBlockTableRecord
  2
FXTIP_ARROW_E
  0
BLOCK_RECORD
  5
4D
330
1
100
AcDbSymbolTableRecord
100
AcDbBlockTableRecord
  2
FXTIP_BLACKDOT_S
  0
BLOCK_RECORD
  5
53
330
1
100
AcDbSymbolTableRecord
100
AcDbBlockTableRecord
  2
FXTIP_BLACKDOT_E
  0
BLOCK_RECORD
  5
59
330
1
100
AcDbSymbolTableRecord
100
AcDbBlockTableRecord
  2
FXTIP_TRIANGLE_S
  0
BLOCK_RECORD
  5
60
330
1
100
AcDbSymbolTableRecord
100
AcDbBlockTableRecord
  2
FXTIP_TRIANGLE_E
  0
BLOCK_RECORD
  5
67
330
1
100
AcDbSymbolTableRecord
100
AcDbBlockTableRecord
  2
FXTIP_ARCHITECT_S
  0
BLOCK_RECORD
  5
6D
330
1
100
AcDbSymbolTableRecord
100
AcDbBlockTableRecord
  2
FXTIP_ARCHITECT_E
  0
BLOCK_RECORD
  5
73
330
1
100
AcDbSymbolTableRecord
100
AcDbBlockTableRecord
  2
FXTIP_CIVIL_S
  0
BLOCK_RECORD
  5
79
330
1
100
AcDbSymbolTableRecord
100
AcDbBlockTableRecord
  2
FXTIP_CIVIL_E
  0
BLOCK_RECORD
  5
7F
330
1
100
AcDbSymbolTableRecord
100
AcDbBlockTableRecord
  2
FXTIP_WHITEDOT_S
  0
BLOCK_RECORD
  5
84
330
1
100
AcDbSymbolTableRecord
100
AcDbBlockTableRecord
  2
FXTIP_WHITEDOT_E
  0
BLOCK_RECORD
  5
89
330
1
100
AcDbSymbolTableRecord
100
AcDbBlockTableRecord
  2
FXTIP_UPARROW_S
  0
BLOCK_RECORD
  5
8E
330
1
100
AcDbSymbolTableRecord
100
AcDbBlockTableRecord
  2
FXTIP_UPARROW_E
  0
BLOCK_RECORD
  5
93
330
1
100
AcDbSymbolTableRecord
100
AcDbBlockTableRecord
  2
FXTIP_DOWNARROW_S
  0
BLOCK_RECORD
  5
98
330
1
100
AcDbSymbolTableRecord
100
AcDbBlockTableRecord
  2
FXTIP_DOWNARROW_E
  0
BLOCK_RECORD
  5
9D
330
1
100
AcDbSymbolTableRecord
100
AcDbBlockTableRecord
  2
FXTIP_BLACKTRIANGLE_S
  0
BLOCK_RECORD
  5
A2
330
1
100
AcDbSymbolTableRecord
100
AcDbBlockTableRecord
  2
FXTIP_BLACKTRIANGLE_E
  0
BLOCK_RECORD
  5
BD
330
1
100
AcDbSymbolTableRecord
100
AcDbBlockTableRecord
  2
*D19
  0
BLOCK_RECORD
  5
C7
330
1
100
AcDbSymbolTableRecord
100
AcDbBlockTableRecord
  2
*D20
  0
BLOCK_RECORD
  5
F0
330
1
100
AcDbSymbolTableRecord
100
AcDbBlockTableRecord
  2
*D21
  0
BLOCK_RECORD
  5
14C
330
1
100
AcDbSymbolTableRecord
100
AcDbBlockTableRecord
  2
*D22
  0
BLOCK_RECORD
  5
157
330
1
100
AcDbSymbolTableRecord
100
AcDbBlockTableRecord
  2
*D23
  0
BLOCK_RECORD
  5
161
330
1
100
AcDbSymbolTableRecord
100
AcDbBlockTableRecord
  2
*D24
  0
BLOCK_RECORD
  5
16B
330
1
100
AcDbSymbolTableRecord
100
AcDbBlockTableRecord
  2
*D25
  0
BLOCK_RECORD
  5
18E
330
1
100
AcDbSymbolTableRecord
100
AcDbBlockTableRecord
  2
BLKF028
  0
BLOCK_RECORD
  5
1BB
330
1
100
AcDbSymbolTableRecord
100
AcDbBlockTableRecord
  2
BLKF029
  0
BLOCK_RECORD
  5
1C6
330
1
100
AcDbSymbolTableRecord
100
AcDbBlockTableRecord
  2
BLKF030
  0
BLOCK_RECORD
  5
1EE
330
1
100
AcDbSymbolTableRecord
100
AcDbBlockTableRecord
  2
BLKF031
  0
BLOCK_RECORD
  5
1FF
330
1
100
AcDbSymbolTableRecord
100
AcDbBlockTableRecord
  2
BLKF032
  0
BLOCK_RECORD
  5
20B
330
1
100
AcDbSymbolTableRecord
100
AcDbBlockTableRecord
  2
BLKF033
  0
BLOCK_RECORD
  5
21A
330
1
100
AcDbSymbolTableRecord
100
AcDbBlockTableRecord
  2
BLKF034
  0
BLOCK_RECORD
  5
222
330
1
100
AcDbSymbolTableRecord
100
AcDbBlockTableRecord
  2
BLKF035
  0
BLOCK_RECORD
  5
24D
330
1
100
AcDbSymbolTableRecord
100
AcDbBlockTableRecord
  2
BLKF036
  0
BLOCK_RECORD
  5
280
330
1
100
AcDbSymbolTableRecord
100
AcDbBlockTableRecord
  2
*D35
  0
BLOCK_RECORD
  5
28C
330
1
100
AcDbSymbolTableRecord
100
AcDbBlockTableRecord
  2
*D36
  0
BLOCK_RECORD
  5
297
330
1
100
AcDbSymbolTableRecord
100
AcDbBlockTableRecord
  2
*D37
  0
BLOCK_RECORD
  5
2D3
330
1
100
AcDbSymbolTableRecord
100
AcDbBlockTableRecord
  2
*D38
  0
BLOCK_RECORD
  5
2EF
330
1
100
AcDbSymbolTableRecord
100
AcDbBlockTableRecord
  2
*D39
  0
BLOCK_RECORD
  5
310
330
1
100
AcDbSymbolTableRecord
100
AcDbBlockTableRecord
  2
BLKF042
  0
BLOCK_RECORD
  5
31C
330
1
100
AcDbSymbolTableRecord
100
AcDbBlockTableRecord
  2
BLKF043
  0
BLOCK_RECORD
  5
325
330
1
100
AcDbSymbolTableRecord
100
AcDbBlockTableRecord
  2
BLKF044
  0
ENDTAB
  0
ENDSEC
  0
SECTION
  2
BLOCKS
  0
BLOCK
  5
20
330
1F
100
AcDbEntity
  8
0
100
AcDbBlockBegin
  2
*MODEL_SPACE
 70
     0
 71
     0
 10
0.0
 20
0.0
 30
0.0
  3
*MODEL_SPACE
  1

  0
ENDBLK
  5
21
330
1F
100
AcDbEntity
  8
0
100
AcDbBlockEnd
  0
BLOCK
  5
1C
330
1B
100
AcDbEntity
 67
     1
  8
0
100
AcDbBlockBegin
  2
*PAPER_SPACE
 70
     0
 71
     0
 10
0.0
 20
0.0
 30
0.0
  3
*PAPER_SPACE
  1

  0
ENDBLK
  5
1D
330
1B
100
AcDbEntity
 67
     1
  8
0
100
AcDbBlockEnd
  0
BLOCK
  5
42
330
41
100
AcDbEntity
  8
0
100
AcDbBlockBegin
  2
FXTIP_ARROW_S
 70
     0
 71
     0
 10
0.0
 20
0.0
 30
0.0
  3
FXTIP_ARROW_S
  1

  0
LINE
  5
44
330
41
100
AcDbEntity
  8
0
  6
CONTINUOUS
 62
     0
100
AcDbLine
 10
0.0
 20
0.0
 30
0.0
 11
-1.0
 21
0.0
 31
0.0
  0
LINE
  5
45
330
41
100
AcDbEntity
  8
0
  6
CONTINUOUS
 62
     0
100
AcDbLine
 10
0.0
 20
0.0
 30
0.0
 11
-0.965926
 21
-0.258819
 31
0.0
  0
LINE
  5
46
330
41
100
AcDbEntity
  8
0
  6
CONTINUOUS
 62
     0
100
AcDbLine
 10
0.0
 20
0.0
 30
0.0
 11
-0.965926
 21
0.258819
 31
0.0
  0
ENDBLK
  5
43
330
41
100
AcDbEntity
  8
0
100
AcDbBlockEnd
  0
BLOCK
  5
48
330
47
100
AcDbEntity
  8
0
100
AcDbBlockBegin
  2
FXTIP_ARROW_E
 70
     0
 71
     0
 10
0.0
 20
0.0
 30
0.0
  3
FXTIP_ARROW_E
  1

  0
LINE
  5
4A
330
47
100
AcDbEntity
  8
0
  6
CONTINUOUS
 62
     0
100
AcDbLine
 10
0.0
 20
0.0
 30
0.0
 11
-1.0
 21
0.0
 31
0.0
  0
LINE
  5
4B
330
47
100
AcDbEntity
  8
0
  6
CONTINUOUS
 62
     0
100
AcDbLine
 10
0.0
 20
0.0
 30
0.0
 11
-0.965926
 21
0.258819
 31
0.0
  0
LINE
  5
4C
330
47
100
AcDbEntity
  8
0
  6
CONTINUOUS
 62
     0
100
AcDbLine
 10
0.0
 20
0.0
 30
0.0
 11
-0.965926
 21
-0.258819
 31
0.0
  0
ENDBLK
  5
49
330
47
100
AcDbEntity
  8
0
100
AcDbBlockEnd
  0
BLOCK
  5
4E
330
4D
100
AcDbEntity
  8
0
100
AcDbBlockBegin
  2
FXTIP_BLACKDOT_S
 70
     0
 71
     0
 10
0.0
 20
0.0
 30
0.0
  3
FXTIP_BLACKDOT_S
  1

  0
LINE
  5
50
330
4D
100
AcDbEntity
  8
0
  6
CONTINUOUS
 62
     0
100
AcDbLine
 10
0.0
 20
0.0
 30
0.0
 11
-1.0
 21
0.0
 31
0.0
  0
LWPOLYLINE
  5
51
330
4D
100
AcDbEntity
  8
0
  6
CONTINUOUS
 62
     0
100
AcDbPolyline
 90
        2
 70
     1
 10
-0.25
 20
0.0
 40
0.5
 41
0.5
 42
1.0
 10
0.25
 20
0.0
 40
0.5
 41
0.5
 42
1.0
  0
CIRCLE
  5
52
330
4D
100
AcDbEntity
  8
0
  6
CONTINUOUS
 62
     0
100
AcDbCircle
 10
0.0
 20
0.0
 30
0.0
 40
0.5
  0
ENDBLK
  5
4F
330
4D
100
AcDbEntity
  8
0
100
AcDbBlockEnd
  0
BLOCK
  5
54
330
53
100
AcDbEntity
  8
0
100
AcDbBlockBegin
  2
FXTIP_BLACKDOT_E
 70
     0
 71
     0
 10
0.0
 20
0.0
 30
0.0
  3
FXTIP_BLACKDOT_E
  1

  0
LINE
  5
56
330
53
100
AcDbEntity
  8
0
  6
CONTINUOUS
 62
     0
100
AcDbLine
 10
0.0
 20
0.0
 30
0.0
 11
-1.0
 21
0.0
 31
0.0
  0
LWPOLYLINE
  5
57
330
53
100
AcDbEntity
  8
0
  6
CONTINUOUS
 62
     0
100
AcDbPolyline
 90
        2
 70
     1
 10
-0.25
 20
0.0
 40
0.5
 41
0.5
 42
1.0
 10
0.25
 20
0.0
 40
0.5
 41
0.5
 42
1.0
  0
CIRCLE
  5
58
330
53
100
AcDbEntity
  8
0
  6
CONTINUOUS
 62
     0
100
AcDbCircle
 10
0.0
 20
0.0
 30
0.0
 40
0.5
  0
ENDBLK
  5
55
330
53
100
AcDbEntity
  8
0
100
AcDbBlockEnd
  0
BLOCK
  5
5A
330
59
100
AcDbEntity
  8
0
100
AcDbBlockBegin
  2
FXTIP_TRIANGLE_S
 70
     0
 71
     0
 10
0.0
 20
0.0
 30
0.0
  3
FXTIP_TRIANGLE_S
  1

  0
LINE
  5
5C
330
59
100
AcDbEntity
  8
0
  6
CONTINUOUS
 62
     0
100
AcDbLine
 10
0.0
 20
0.0
 30
0.0
 11
-1.0
 21
0.0
 31
0.0
  0
LINE
  5
5D
330
59
100
AcDbEntity
  8
0
  6
CONTINUOUS
 62
     0
100
AcDbLine
 10
0.0
 20
0.0
 30
0.0
 11
-0.965926
 21
-0.258819
 31
0.0
  0
LINE
  5
5E
330
59
100
AcDbEntity
  8
0
  6
CONTINUOUS
 62
     0
100
AcDbLine
 10
0.0
 20
0.0
 30
0.0
 11
-0.965926
 21
0.258819
 31
0.0
  0
LINE
  5
5F
330
59
100
AcDbEntity
  8
0
  6
CONTINUOUS
 62
     0
100
AcDbLine
 10
-0.965926
 20
-0.258819
 30
0.0
 11
-0.965926
 21
0.258819
 31
0.0
  0
ENDBLK
  5
5B
330
59
100
AcDbEntity
  8
0
100
AcDbBlockEnd
  0
BLOCK
  5
61
330
60
100
AcDbEntity
  8
0
100
AcDbBlockBegin
  2
FXTIP_TRIANGLE_E
 70
     0
 71
     0
 10
0.0
 20
0.0
 30
0.0
  3
FXTIP_TRIANGLE_E
  1

  0
LINE
  5
63
330
60
100
AcDbEntity
  8
0
  6
CONTINUOUS
 62
     0
100
AcDbLine
 10
0.0
 20
0.0
 30
0.0
 11
-1.0
 21
0.0
 31
0.0
  0
LINE
  5
64
330
60
100
AcDbEntity
  8
0
  6
CONTINUOUS
 62
     0
100
AcDbLine
 10
0.0
 20
0.0
 30
0.0
 11
-0.965926
 21
0.258819
 31
0.0
  0
LINE
  5
65
330
60
100
AcDbEntity
  8
0
  6
CONTINUOUS
 62
     0
100
AcDbLine
 10
0.0
 20
0.0
 30
0.0
 11
-0.965926
 21
-0.258819
 31
0.0
  0
LINE
  5
66
330
60
100
AcDbEntity
  8
0
  6
CONTINUOUS
 62
     0
100
AcDbLine
 10
-0.965926
 20
0.258819
 30
0.0
 11
-0.965926
 21
-0.258819
 31
0.0
  0
ENDBLK
  5
62
330
60
100
AcDbEntity
  8
0
100
AcDbBlockEnd
  0
BLOCK
  5
68
330
67
100
AcDbEntity
  8
0
100
AcDbBlockBegin
  2
FXTIP_ARCHITECT_S
 70
     0
 71
     0
 10
0.0
 20
0.0
 30
0.0
  3
FXTIP_ARCHITECT_S
  1

  0
LINE
  5
6A
330
67
100
AcDbEntity
  8
0
  6
CONTINUOUS
 62
     0
100
AcDbLine
 10
0.0
 20
0.0
 30
0.0
 11
-1.0
 21
0.0
 31
0.0
  0
LINE
  5
6B
330
67
100
AcDbEntity
  8
0
  6
CONTINUOUS
 62
     0
100
AcDbLine
 10
0.0
 20
0.0
 30
0.0
 11
-0.707107
 21
-0.707107
 31
0.0
  0
LINE
  5
6C
330
67
100
AcDbEntity
  8
0
  6
CONTINUOUS
 62
     0
100
AcDbLine
 10
0.0
 20
0.0
 30
0.0
 11
0.707107
 21
0.707107
 31
0.0
  0
ENDBLK
  5
69
330
67
100
AcDbEntity
  8
0
100
AcDbBlockEnd
  0
BLOCK
  5
6E
330
6D
100
AcDbEntity
  8
0
100
AcDbBlockBegin
  2
FXTIP_ARCHITECT_E
 70
     0
 71
     0
 10
0.0
 20
0.0
 30
0.0
  3
FXTIP_ARCHITECT_E
  1

  0
LINE
  5
70
330
6D
100
AcDbEntity
  8
0
  6
CONTINUOUS
 62
     0
100
AcDbLine
 10
0.0
 20
0.0
 30
0.0
 11
-1.0
 21
0.0
 31
0.0
  0
LINE
  5
71
330
6D
100
AcDbEntity
  8
0
  6
CONTINUOUS
 62
     0
100
AcDbLine
 10
0.0
 20
0.0
 30
0.0
 11
0.707107
 21
0.707107
 31
0.0
  0
LINE
  5
72
330
6D
100
AcDbEntity
  8
0
  6
CONTINUOUS
 62
     0
100
AcDbLine
 10
0.0
 20
0.0
 30
0.0
 11
-0.707107
 21
-0.707107
 31
0.0
  0
ENDBLK
  5
6F
330
6D
100
AcDbEntity
  8
0
100
AcDbBlockEnd
  0
BLOCK
  5
74
330
73
100
AcDbEntity
  8
0
100
AcDbBlockBegin
  2
FXTIP_CIVIL_S
 70
     0
 71
     0
 10
0.0
 20
0.0
 30
0.0
  3
FXTIP_CIVIL_S
  1

  0
LINE
  5
76
330
73
100
AcDbEntity
  8
0
  6
CONTINUOUS
 62
     0
100
AcDbLine
 10
0.0
 20
0.0
 30
0.0
 11
-1.0
 21
0.0
 31
0.0
  0
LINE
  5
77
330
73
100
AcDbEntity
  8
0
  6
CONTINUOUS
 62
     0
100
AcDbLine
 10
0.0
 20
-0.0625
 30
0.0
 11
-1.0
 21
-0.0625
 31
0.0
  0
LINE
  5
78
330
73
100
AcDbEntity
  8
0
  6
CONTINUOUS
 62
     0
100
AcDbLine
 10
0.0
 20
-0.125
 30
0.0
 11
-1.0
 21
-0.125
 31
0.0
  0
ENDBLK
  5
75
330
73
100
AcDbEntity
  8
0
100
AcDbBlockEnd
  0
BLOCK
  5
7A
330
79
100
AcDbEntity
  8
0
100
AcDbBlockBegin
  2
FXTIP_CIVIL_E
 70
     0
 71
     0
 10
0.0
 20
0.0
 30
0.0
  3
FXTIP_CIVIL_E
  1

  0
LINE
  5
7C
330
79
100
AcDbEntity
  8
0
  6
CONTINUOUS
 62
     0
100
AcDbLine
 10
0.0
 20
0.0
 30
0.0
 11
-1.0
 21
0.0
 31
0.0
  0
LINE
  5
7D
330
79
100
AcDbEntity
  8
0
  6
CONTINUOUS
 62
     0
100
AcDbLine
 10
0.0
 20
0.0625
 30
0.0
 11
-1.0
 21
0.0625
 31
0.0
  0
LINE
  5
7E
330
79
100
AcDbEntity
  8
0
  6
CONTINUOUS
 62
     0
100
AcDbLine
 10
0.0
 20
0.125
 30
0.0
 11
-1.0
 21
0.125
 31
0.0
  0
ENDBLK
  5
7B
330
79
100
AcDbEntity
  8
0
100
AcDbBlockEnd
  0
BLOCK
  5
80
330
7F
100
AcDbEntity
  8
0
100
AcDbBlockBegin
  2
FXTIP_WHITEDOT_S
 70
     0
 71
     0
 10
0.0
 20
0.0
 30
0.0
  3
FXTIP_WHITEDOT_S
  1

  0
LINE
  5
82
330
7F
100
AcDbEntity
  8
0
  6
CONTINUOUS
 62
     0
100
AcDbLine
 10
0.0
 20
0.0
 30
0.0
 11
-1.0
 21
0.0
 31
0.0
  0
CIRCLE
  5
83
330
7F
100
AcDbEntity
  8
0
  6
CONTINUOUS
 62
     0
100
AcDbCircle
 10
0.0
 20
0.0
 30
0.0
 40
0.5
  0
ENDBLK
  5
81
330
7F
100
AcDbEntity
  8
0
100
AcDbBlockEnd
  0
BLOCK
  5
85
330
84
100
AcDbEntity
  8
0
100
AcDbBlockBegin
  2
FXTIP_WHITEDOT_E
 70
     0
 71
     0
 10
0.0
 20
0.0
 30
0.0
  3
FXTIP_WHITEDOT_E
  1

  0
LINE
  5
87
330
84
100
AcDbEntity
  8
0
  6
CONTINUOUS
 62
     0
100
AcDbLine
 10
0.0
 20
0.0
 30
0.0
 11
-1.0
 21
0.0
 31
0.0
  0
CIRCLE
  5
88
330
84
100
AcDbEntity
  8
0
  6
CONTINUOUS
 62
     0
100
AcDbCircle
 10
0.0
 20
0.0
 30
0.0
 40
0.5
  0
ENDBLK
  5
86
330
84
100
AcDbEntity
  8
0
100
AcDbBlockEnd
  0
BLOCK
  5
8A
330
89
100
AcDbEntity
  8
0
100
AcDbBlockBegin
  2
FXTIP_UPARROW_S
 70
     0
 71
     0
 10
0.0
 20
0.0
 30
0.0
  3
FXTIP_UPARROW_S
  1

  0
LINE
  5
8C
330
89
100
AcDbEntity
  8
0
  6
CONTINUOUS
 62
     0
100
AcDbLine
 10
0.0
 20
0.0
 30
0.0
 11
-1.0
 21
0.0
 31
0.0
  0
LINE
  5
8D
330
89
100
AcDbEntity
  8
0
  6
CONTINUOUS
 62
     0
100
AcDbLine
 10
0.0
 20
0.0
 30
0.0
 11
-0.965926
 21
-0.258819
 31
0.0
  0
ENDBLK
  5
8B
330
89
100
AcDbEntity
  8
0
100
AcDbBlockEnd
  0
BLOCK
  5
8F
330
8E
100
AcDbEntity
  8
0
100
AcDbBlockBegin
  2
FXTIP_UPARROW_E
 70
     0
 71
     0
 10
0.0
 20
0.0
 30
0.0
  3
FXTIP_UPARROW_E
  1

  0
LINE
  5
91
330
8E
100
AcDbEntity
  8
0
  6
CONTINUOUS
 62
     0
100
AcDbLine
 10
0.0
 20
0.0
 30
0.0
 11
-1.0
 21
0.0
 31
0.0
  0
LINE
  5
92
330
8E
100
AcDbEntity
  8
0
  6
CONTINUOUS
 62
     0
100
AcDbLine
 10
0.0
 20
0.0
 30
0.0
 11
-0.965926
 21
0.258819
 31
0.0
  0
ENDBLK
  5
90
330
8E
100
AcDbEntity
  8
0
100
AcDbBlockEnd
  0
BLOCK
  5
94
330
93
100
AcDbEntity
  8
0
100
AcDbBlockBegin
  2
FXTIP_DOWNARROW_S
 70
     0
 71
     0
 10
0.0
 20
0.0
 30
0.0
  3
FXTIP_DOWNARROW_S
  1

  0
LINE
  5
96
330
93
100
AcDbEntity
  8
0
  6
CONTINUOUS
 62
     0
100
AcDbLine
 10
0.0
 20
0.0
 30
0.0
 11
-1.0
 21
0.0
 31
0.0
  0
LINE
  5
97
330
93
100
AcDbEntity
  8
0
  6
CONTINUOUS
 62
     0
100
AcDbLine
 10
0.0
 20
0.0
 30
0.0
 11
-0.965926
 21
0.258819
 31
0.0
  0
ENDBLK
  5
95
330
93
100
AcDbEntity
  8
0
100
AcDbBlockEnd
  0
BLOCK
  5
99
330
98
100
AcDbEntity
  8
0
100
AcDbBlockBegin
  2
FXTIP_DOWNARROW_E
 70
     0
 71
     0
 10
0.0
 20
0.0
 30
0.0
  3
FXTIP_DOWNARROW_E
  1

  0
LINE
  5
9B
330
98
100
AcDbEntity
  8
0
  6
CONTINUOUS
 62
     0
100
AcDbLine
 10
0.0
 20
0.0
 30
0.0
 11
-1.0
 21
0.0
 31
0.0
  0
LINE
  5
9C
330
98
100
AcDbEntity
  8
0
  6
CONTINUOUS
 62
     0
100
AcDbLine
 10
0.0
 20
0.0
 30
0.0
 11
-0.965926
 21
-0.258819
 31
0.0
  0
ENDBLK
  5
9A
330
98
100
AcDbEntity
  8
0
100
AcDbBlockEnd
  0
BLOCK
  5
9E
330
9D
100
AcDbEntity
  8
0
100
AcDbBlockBegin
  2
FXTIP_BLACKTRIANGLE_S
 70
     0
 71
     0
 10
0.0
 20
0.0
 30
0.0
  3
FXTIP_BLACKTRIANGLE_S
  1

  0
LINE
  5
A0
330
9D
100
AcDbEntity
  8
0
  6
CONTINUOUS
 62
     0
100
AcDbLine
 10
0.0
 20
0.0
 30
0.0
 11
-1.0
 21
0.0
 31
0.0
  0
SOLID
  5
A1
330
9D
100
AcDbEntity
  8
0
  6
CONTINUOUS
 62
     0
100
AcDbTrace
 10
0.0
 20
0.0
 30
0.0
 11
-0.965926
 21
-0.258819
 31
0.0
 12
-0.965926
 22
0.258819
 32
0.0
 13
-0.965926
 23
0.258819
 33
0.0
  0
ENDBLK
  5
9F
330
9D
100
AcDbEntity
  8
0
100
AcDbBlockEnd
  0
BLOCK
  5
A3
330
A2
100
AcDbEntity
  8
0
100
AcDbBlockBegin
  2
FXTIP_BLACKTRIANGLE_E
 70
     0
 71
     0
 10
0.0
 20
0.0
 30
0.0
  3
FXTIP_BLACKTRIANGLE_E
  1

  0
LINE
  5
A5
330
A2
100
AcDbEntity
  8
0
  6
CONTINUOUS
 62
     0
100
AcDbLine
 10
0.0
 20
0.0
 30
0.0
 11
-1.0
 21
0.0
 31
0.0
  0
SOLID
  5
A6
330
A2
100
AcDbEntity
  8
0
  6
CONTINUOUS
 62
     0
100
AcDbTrace
 10
0.0
 20
0.0
 30
0.0
 11
-0.965926
 21
0.258819
 31
0.0
 12
-0.965926
 22
-0.258819
 32
0.0
 13
-0.965926
 23
-0.258819
 33
0.0
  0
ENDBLK
  5
A4
330
A2
100
AcDbEntity
  8
0
100
AcDbBlockEnd
  0
BLOCK
  5
BE
330
BD
100
AcDbEntity
  8
0
100
AcDbBlockBegin
  2
*D19
 70
     1
 71
     0
 10
0.0
 20
0.0
 30
0.0
  3
*D19
  1

  0
TEXT
  5
C0
330
BD
100
AcDbEntity
  8
LAYERGROUP-1
  6
CONTINUOUS
 62
     7
100
AcDbText
 10
310.478119
 20
212.510086
 30
0.0
 40
4.0
  1
35
 50
90.0
 41
0.851351
  7
FX_VECTOR
 72
     5
 11
310.478119
 21
218.510086
 31
0.0
100
AcDbText
  0
LINE
  5
C1
330
BD
100
AcDbEntity
  8
LAYERGROUP-1
  6
CONTINUOUS
 62
     7
100
AcDbLine
 10
311.478103
 20
198.010078
 30
0.0
 11
311.478103
 21
233.010078
 31
0.0
  0
INSERT
  5
C2
330
BD
100
AcDbEntity
  8
LAYERGROUP-1
  6
CONTINUOUS
 62
     7
100
AcDbBlockReference
  2
FXTIP_ARROW_S
 10
311.478103
 20
198.010078
 30
0.0
 41
4.0
 42
4.0
 50
270.0
  0
INSERT
  5
C3
330
BD
100
AcDbEntity
  8
LAYERGROUP-1
  6
CONTINUOUS
 62
     7
100
AcDbBlockReference
  2
FXTIP_ARROW_E
 10
311.478103
 20
233.010078
 30
0.0
 41
4.0
 42
4.0
 50
90.0
  0
LINE
  5
C4
330
BD
100
AcDbEntity
  8
LAYERGROUP-1
  6
CONTINUOUS
 62
     7
100
AcDbLine
 10
302.998536
 20
198.010078
 30
0.0
 11
312.478103
 21
198.010078
 31
0.0
  0
LINE
  5
C5
330
BD
100
AcDbEntity
  8
LAYERGROUP-1
  6
CONTINUOUS
 62
     7
100
AcDbLine
 10
302.998536
 20
233.010078
 30
0.0
 11
312.478103
 21
233.010078
 31
0.0
  0
ENDBLK
  5
BF
330
BD
100
AcDbEntity
  8
0
100
AcDbBlockEnd
  0
BLOCK
  5
C8
330
C7
100
AcDbEntity
  8
0
100
AcDbBlockBegin
  2
*D20
 70
     1
 71
     0
 10
0.0
 20
0.0
 30
0.0
  3
*D20
  1

  0
TEXT
  5
CA
330
C7
100
AcDbEntity
  8
LAYERGROUP-1
  6
CONTINUOUS
 62
     7
100
AcDbText
 10
319.489319
 20
212.510086
 30
0.0
 40
4.0
  1
47
 50
90.0
 41
0.851351
  7
FX_VECTOR
 72
     5
 11
319.489319
 21
218.510086
 31
0.0
100
AcDbText
  0
LINE
  5
CB
330
C7
100
AcDbEntity
  8
LAYERGROUP-1
  6
CONTINUOUS
 62
     7
100
AcDbLine
 10
320.489297
 20
192.010078
 30
0.0
 11
320.489297
 21
239.010078
 31
0.0
  0
INSERT
  5
CC
330
C7
100
AcDbEntity
  8
LAYERGROUP-1
  6
CONTINUOUS
 62
     7
100
AcDbBlockReference
  2
FXTIP_ARROW_S
 10
320.489297
 20
192.010078
 30
0.0
 41
4.0
 42
4.0
 50
270.0
  0
INSERT
  5
CD
330
C7
100
AcDbEntity
  8
LAYERGROUP-1
  6
CONTINUOUS
 62
     7
100
AcDbBlockReference
  2
FXTIP_ARROW_E
 10
320.489297
 20
239.010078
 30
0.0
 41
4.0
 42
4.0
 50
90.0
  0
LINE
  5
CE
330
C7
100
AcDbEntity
  8
LAYERGROUP-1
  6
CONTINUOUS
 62
     7
100
AcDbLine
 10
296.517796
 20
192.010078
 30
0.0
 11
321.489297
 21
192.010078
 31
0.0
  0
LINE
  5
CF
330
C7
100
AcDbEntity
  8
LAYERGROUP-1
  6
CONTINUOUS
 62
     7
100
AcDbLine
 10
296.517796
 20
239.010078
 30
0.0
 11
321.489297
 21
239.010078
 31
0.0
  0
ENDBLK
  5
C9
330
C7
100
AcDbEntity
  8
0
100
AcDbBlockEnd
  0
BLOCK
  5
F1
330
F0
100
AcDbEntity
  8
0
100
AcDbBlockBegin
  2
*D21
 70
     1
 71
     0
 10
0.0
 20
0.0
 30
0.0
  3
*D21
  1

  0
TEXT
  5
F3
330
F0
100
AcDbEntity
  8
LAYERGROUP-1
  6
CONTINUOUS
 62
     7
100
AcDbText
 10
319.489319
 20
107.214691
 30
0.0
 40
4.0
  1
65
 50
90.0
 41
0.851351
  7
FX_VECTOR
 72
     5
 11
319.489319
 21
113.214691
 31
0.0
100
AcDbText
  0
LINE
  5
F4
330
F0
100
AcDbEntity
  8
LAYERGROUP-1
  6
CONTINUOUS
 62
     7
100
AcDbLine
 10
320.489297
 20
77.714696
 30
0.0
 11
320.489297
 21
142.714696
 31
0.0
  0
INSERT
  5
F5
330
F0
100
AcDbEntity
  8
LAYERGROUP-1
  6
CONTINUOUS
 62
     7
100
AcDbBlockReference
  2
FXTIP_ARROW_S
 10
320.489297
 20
77.714696
 30
0.0
 41
4.0
 42
4.0
 50
270.0
  0
INSERT
  5
F6
330
F0
100
AcDbEntity
  8
LAYERGROUP-1
  6
CONTINUOUS
 62
     7
100
AcDbBlockReference
  2
FXTIP_ARROW_E
 10
320.489297
 20
142.714696
 30
0.0
 41
4.0
 42
4.0
 50
90.0
  0
LINE
  5
F7
330
F0
100
AcDbEntity
  8
LAYERGROUP-1
  6
CONTINUOUS
 62
     7
100
AcDbLine
 10
257.517796
 20
77.714696
 30
0.0
 11
321.489297
 21
77.714696
 31
0.0
  0
LINE
  5
F8
330
F0
100
AcDbEntity
  8
LAYERGROUP-1
  6
CONTINUOUS
 62
     7
100
AcDbLine
 10
300.517796
 20
142.714696
 30
0.0
 11
321.489297
 21
142.714696
 31
0.0
  0
ENDBLK
  5
F2
330
F0
100
AcDbEntity
  8
0
100
AcDbBlockEnd
  0
BLOCK
  5
14D
330
14C
100
AcDbEntity
  8
0
100
AcDbBlockBegin
  2
*D22
 70
     1
 71
     0
 10
0.0
 20
0.0
 30
0.0
  3
*D22
  1

  0
TEXT
  5
14F
330
14C
100
AcDbEntity
  8
LAYERGROUP-1
  6
CONTINUOUS
 62
     7
100
AcDbText
 10
112.45063
 20
98.214691
 30
0.0
 40
4.0
  1
%%c50
 50
90.0
 41
0.84375
  7
FX_VECTOR
 72
     5
 11
112.45063
 21
107.214691
 31
0.0
100
AcDbText
  0
LINE
  5
150
330
14C
100
AcDbEntity
  8
LAYERGROUP-1
  6
CONTINUOUS
 62
     7
100
AcDbLine
 10
113.450631
 20
77.715943
 30
0.0
 11
113.450631
 21
127.713449
 31
0.0
  0
INSERT
  5
151
330
14C
100
AcDbEntity
  8
LAYERGROUP-1
  6
CONTINUOUS
 62
     7
100
AcDbBlockReference
  2
FXTIP_ARROW_S
 10
113.450631
 20
77.715943
 30
0.0
 41
4.0
 42
4.0
 50
270.0
  0
INSERT
  5
152
330
14C
100
AcDbEntity
  8
LAYERGROUP-1
  6
CONTINUOUS
 62
     7
100
AcDbBlockReference
  2
FXTIP_ARROW_E
 10
113.450631
 20
127.713449
 30
0.0
 41
4.0
 42
4.0
 50
90.0
  0
LINE
  5
153
330
14C
100
AcDbEntity
  8
LAYERGROUP-1
  6
CONTINUOUS
 62
     7
100
AcDbLine
 10
142.754879
 20
77.715943
 30
0.0
 11
112.450631
 21
77.715943
 31
0.0
  0
LINE
  5
154
330
14C
100
AcDbEntity
  8
LAYERGROUP-1
  6
CONTINUOUS
 62
     7
100
AcDbLine
 10
142.754879
 20
127.713449
 30
0.0
 11
112.450631
 21
127.713449
 31
0.0
  0
ENDBLK
  5
14E
330
14C
100
AcDbEntity
  8
0
100
AcDbBlockEnd
  0
BLOCK
  5
158
330
157
100
AcDbEntity
  8
0
100
AcDbBlockBegin
  2
*D23
 70
     1
 71
     0
 10
0.0
 20
0.0
 30
0.0
  3
*D23
  1

  0
TEXT
  5
15A
330
157
100
AcDbEntity
  8
LAYERGROUP-1
  6
CONTINUOUS
 62
     7
100
AcDbText
 10
261.516296
 20
59.834099
 30
0.0
 40
4.0
  1
16
 41
0.851351
  7
FX_VECTOR
 72
     5
 11
267.516296
 21
59.834099
 31
0.0
100
AcDbText
  0
LINE
  5
15B
330
157
100
AcDbEntity
  8
LAYERGROUP-1
  6
CONTINUOUS
 62
     7
100
AcDbLine
 10
256.514796
 20
58.834099
 30
0.0
 11
272.517796
 21
58.834099
 31
0.0
  0
INSERT
  5
15C
330
157
100
AcDbEntity
  8
LAYERGROUP-1
  6
CONTINUOUS
 62
     7
100
AcDbBlockReference
  2
FXTIP_ARROW_S
 10
256.514796
 20
58.834099
 30
0.0
 41
4.0
 42
4.0
 50
180.0
  0
INSERT
  5
15D
330
157
100
AcDbEntity
  8
LAYERGROUP-1
  6
CONTINUOUS
 62
     7
100
AcDbBlockReference
  2
FXTIP_ARROW_E
 10
272.517796
 20
58.834099
 30
0.0
 41
4.0
 42
4.0
 50
360.0
  0
LINE
  5
15E
330
157
100
AcDbEntity
  8
LAYERGROUP-1
  6
CONTINUOUS
 62
     7
100
AcDbLine
 10
256.514796
 20
65.806462
 30
0.0
 11
256.514796
 21
57.834099
 31
0.0
  0
LINE
  5
15F
330
157
100
AcDbEntity
  8
LAYERGROUP-1
  6
CONTINUOUS
 62
     7
100
AcDbLine
 10
272.517796
 20
96.452593
 30
0.0
 11
272.517796
 21
57.834099
 31
0.0
  0
ENDBLK
  5
159
330
157
100
AcDbEntity
  8
0
100
AcDbBlockEnd
  0
BLOCK
  5
162
330
161
100
AcDbEntity
  8
0
100
AcDbBlockBegin
  2
*D24
 70
     1
 71
     0
 10
0.0
 20
0.0
 30
0.0
  3
*D24
  1

  0
TEXT
  5
164
330
161
100
AcDbEntity
  8
LAYERGROUP-1
  6
CONTINUOUS
 62
     7
100
AcDbText
 10
269.517792
 20
177.223923
 30
0.0
 40
4.0
  1
46
 41
0.851351
  7
FX_VECTOR
 72
     5
 11
275.517792
 21
177.223923
 31
0.0
100
AcDbText
  0
LINE
  5
165
330
161
100
AcDbEntity
  8
LAYERGROUP-1
  6
CONTINUOUS
 62
     7
100
AcDbLine
 10
249.517796
 20
176.223915
 30
0.0
 11
295.517796
 21
176.223915
 31
0.0
  0
INSERT
  5
166
330
161
100
AcDbEntity
  8
LAYERGROUP-1
  6
CONTINUOUS
 62
     7
100
AcDbBlockReference
  2
FXTIP_ARROW_S
 10
249.517796
 20
176.223915
 30
0.0
 41
4.0
 42
4.0
 50
180.0
  0
INSERT
  5
167
330
161
100
AcDbEntity
  8
LAYERGROUP-1
  6
CONTINUOUS
 62
     7
100
AcDbBlockReference
  2
FXTIP_ARROW_E
 10
295.517796
 20
176.223915
 30
0.0
 41
4.0
 42
4.0
 50
360.0
  0
LINE
  5
168
330
161
100
AcDbEntity
  8
LAYERGROUP-1
  6
CONTINUOUS
 62
     7
100
AcDbLine
 10
249.517796
 20
193.760078
 30
0.0
 11
249.517796
 21
175.223915
 31
0.0
  0
LINE
  5
169
330
161
100
AcDbEntity
  8
LAYERGROUP-1
  6
CONTINUOUS
 62
     7
100
AcDbLine
 10
295.517796
 20
191.010078
 30
0.0
 11
295.517796
 21
175.223915
 31
0.0
  0
ENDBLK
  5
163
330
161
100
AcDbEntity
  8
0
100
AcDbBlockEnd
  0
BLOCK
  5
16C
330
16B
100
AcDbEntity
  8
0
100
AcDbBlockBegin
  2
*D25
 70
     1
 71
     0
 10
0.0
 20
0.0
 30
0.0
  3
*D25
  1

  0
TEXT
  5
16E
330
16B
100
AcDbEntity
  8
LAYERGROUP-1
  6
CONTINUOUS
 62
     7
100
AcDbText
 10
269.517792
 20
169.212234
 30
0.0
 40
4.0
  1
59
 41
0.875
  7
FX_VECTOR
 72
     5
 11
275.517792
 21
169.212234
 31
0.0
100
AcDbText
  0
LINE
  5
16F
330
16B
100
AcDbEntity
  8
LAYERGROUP-1
  6
CONTINUOUS
 62
     7
100
AcDbLine
 10
243.017796
 20
168.212236
 30
0.0
 11
302.017796
 21
168.212236
 31
0.0
  0
INSERT
  5
170
330
16B
100
AcDbEntity
  8
LAYERGROUP-1
  6
CONTINUOUS
 62
     7
100
AcDbBlockReference
  2
FXTIP_ARROW_S
 10
243.017796
 20
168.212236
 30
0.0
 41
4.0
 42
4.0
 50
180.0
  0
INSERT
  5
171
330
16B
100
AcDbEntity
  8
LAYERGROUP-1
  6
CONTINUOUS
 62
     7
100
AcDbBlockReference
  2
FXTIP_ARROW_E
 10
302.017796
 20
168.212236
 30
0.0
 41
4.0
 42
4.0
 50
360.0
  0
LINE
  5
172
330
16B
100
AcDbEntity
  8
LAYERGROUP-1
  6
CONTINUOUS
 62
     7
100
AcDbLine
 10
243.017796
 20
197.510078
 30
0.0
 11
243.017796
 21
167.212236
 31
0.0
  0
LINE
  5
173
330
16B
100
AcDbEntity
  8
LAYERGROUP-1
  6
CONTINUOUS
 62
     7
100
AcDbLine
 10
302.017796
 20
197.510078
 30
0.0
 11
302.017796
 21
167.212236
 31
0.0
  0
ENDBLK
  5
16D
330
16B
100
AcDbEntity
  8
0
100
AcDbBlockEnd
  0
BLOCK
  5
18F
330
18E
100
AcDbEntity
  8
0
100
AcDbBlockBegin
  2
BLKF028
 70
     0
 71
     0
 10
0.0
 20
0.0
 30
0.0
  3
BLKF028
  1

  0
LINE
  5
192
330
18E
100
AcDbEntity
  8
1-1
  6
CONTINUOUS
 62
     3
100
AcDbLine
 10
175.406174
 20
119.9946
 30
0.0
 11
175.693672
 21
120.296541
 31
0.0
  0
LINE
  5
193
330
18E
100
AcDbEntity
  8
1-1
  6
CONTINUOUS
 62
     3
100
AcDbLine
 10
175.693672
 20
120.296541
 30
0.0
 11
175.9282
 21
120.616686
 31
0.0
  0
LINE
  5
194
330
18E
100
AcDbEntity
  8
1-1
  6
CONTINUOUS
 62
     3
100
AcDbLine
 10
175.9282
 20
120.616686
 30
0.0
 11
176.103127
 21
120.952013
 31
0.0
  0
LINE
  5
195
330
18E
100
AcDbEntity
  8
1-1
  6
CONTINUOUS
 62
     3
100
AcDbLine
 10
176.103127
 20
120.952013
 30
0.0
 11
176.212883
 21
121.298845
 31
0.0
  0
LINE
  5
196
330
18E
100
AcDbEntity
  8
1-1
  6
CONTINUOUS
 62
     3
100
AcDbLine
 10
176.212883
 20
121.298845
 30
0.0
 11
176.253319
 21
121.65291
 31
0.0
  0
LINE
  5
197
330
18E
100
AcDbEntity
  8
1-1
  6
CONTINUOUS
 62
     3
100
AcDbLine
 10
176.253319
 20
121.65291
 30
0.0
 11
176.221985
 21
122.00963
 31
0.0
  0
LINE
  5
198
330
18E
100
AcDbEntity
  8
1-1
  6
CONTINUOUS
 62
     3
100
AcDbLine
 10
176.221985
 20
122.00963
 30
0.0
 11
176.118325
 21
122.364137
 31
0.0
  0
LINE
  5
199
330
18E
100
AcDbEntity
  8
1-1
  6
CONTINUOUS
 62
     3
100
AcDbLine
 10
176.118325
 20
122.364137
 30
0.0
 11
175.943726
 21
122.711641
 31
0.0
  0
LINE
  5
19A
330
18E
100
AcDbEntity
  8
1-1
  6
CONTINUOUS
 62
     3
100
AcDbLine
 10
175.943726
 20
122.711641
 30
0.0
 11
175.701485
 21
123.047563
 31
0.0
  0
LINE
  5
19B
330
18E
100
AcDbEntity
  8
1-1
  6
CONTINUOUS
 62
     3
100
AcDbLine
 10
175.701485
 20
123.047563
 30
0.0
 11
175.396599
 21
123.367769
 31
0.0
  0
LINE
  5
19C
330
18E
100
AcDbEntity
  8
1-1
  6
CONTINUOUS
 62
     3
100
AcDbLine
 10
175.396599
 20
123.367769
 30
0.0
 11
175.035485
 21
123.668657
 31
0.0
  0
LINE
  5
19D
330
18E
100
AcDbEntity
  8
1-1
  6
CONTINUOUS
 62
     3
100
AcDbLine
 10
175.035485
 20
123.668657
 30
0.0
 11
174.625611
 21
123.947405
 31
0.0
  0
LINE
  5
19E
330
18E
100
AcDbEntity
  8
1-1
  6
CONTINUOUS
 62
     3
100
AcDbLine
 10
174.625611
 20
123.947405
 30
0.0
 11
174.17511
 21
124.201891
 31
0.0
  0
LINE
  5
19F
330
18E
100
AcDbEntity
  8
1-1
  6
CONTINUOUS
 62
     3
100
AcDbLine
 10
174.17511
 20
124.201891
 30
0.0
 11
173.679192
 21
124.436556
 31
0.0
  0
LINE
  5
1A0
330
18E
100
AcDbEntity
  8
1-1
  6
CONTINUOUS
 62
     3
100
AcDbLine
 10
173.679192
 20
124.436556
 30
0.0
 11
173.127991
 21
124.654604
 31
0.0
  0
LINE
  5
1A1
330
18E
100
AcDbEntity
  8
1-1
  6
CONTINUOUS
 62
     3
100
AcDbLine
 10
173.127991
 20
124.654604
 30
0.0
 11
172.525124
 21
124.852083
 31
0.0
  0
LINE
  5
1A2
330
18E
100
AcDbEntity
  8
1-1
  6
CONTINUOUS
 62
     3
100
AcDbLine
 10
172.525124
 20
124.852083
 30
0.0
 11
171.875893
 21
125.025194
 31
0.0
  0
LINE
  5
1A3
330
18E
100
AcDbEntity
  8
1-1
  6
CONTINUOUS
 62
     3
100
AcDbLine
 10
171.875893
 20
125.025194
 30
0.0
 11
171.187195
 21
125.17061
 31
0.0
  0
LINE
  5
1A4
330
18E
100
AcDbEntity
  8
1-1
  6
CONTINUOUS
 62
     3
100
AcDbLine
 10
171.187195
 20
125.17061
 30
0.0
 11
170.467324
 21
125.28557
 31
0.0
  0
LINE
  5
1A5
330
18E
100
AcDbEntity
  8
1-1
  6
CONTINUOUS
 62
     3
100
AcDbLine
 10
170.467324
 20
125.28557
 30
0.0
 11
169.725647
 21
125.368074
 31
0.0
  0
LINE
  5
1A6
330
18E
100
AcDbEntity
  8
1-1
  6
CONTINUOUS
 62
     3
100
AcDbLine
 10
169.725647
 20
125.368074
 30
0.0
 11
168.972222
 21
125.416994
 31
0.0
  0
LINE
  5
1A7
330
18E
100
AcDbEntity
  8
1-1
  6
CONTINUOUS
 62
     3
100
AcDbLine
 10
168.972222
 20
125.416994
 30
0.0
 11
168.217331
 21
125.432115
 31
0.0
  0
LINE
  5
1A8
330
18E
100
AcDbEntity
  8
1-1
  6
CONTINUOUS
 62
     3
100
AcDbLine
 10
168.217331
 20
125.432115
 30
0.0
 11
167.471039
 21
125.41411
 31
0.0
  0
LINE
  5
1A9
330
18E
100
AcDbEntity
  8
1-1
  6
CONTINUOUS
 62
     3
100
AcDbLine
 10
167.471039
 20
125.41411
 30
0.0
 11
166.742737
 21
125.364504
 31
0.0
  0
LINE
  5
1AA
330
18E
100
AcDbEntity
  8
1-1
  6
CONTINUOUS
 62
     3
100
AcDbLine
 10
166.742737
 20
125.364504
 30
0.0
 11
166.04081
 21
125.285539
 31
0.0
  0
LINE
  5
1AB
330
18E
100
AcDbEntity
  8
1-1
  6
CONTINUOUS
 62
     3
100
AcDbLine
 10
166.04081
 20
125.285539
 30
0.0
 11
165.372376
 21
125.179994
 31
0.0
  0
LINE
  5
1AC
330
18E
100
AcDbEntity
  8
1-1
  6
CONTINUOUS
 62
     3
100
AcDbLine
 10
165.372376
 20
125.179994
 30
0.0
 11
164.727669
 21
125.047518
 31
0.0
  0
LINE
  5
1AD
330
18E
100
AcDbEntity
  8
1-1
  6
CONTINUOUS
 62
     3
100
AcDbLine
 10
164.727669
 20
125.047518
 30
0.0
 11
164.095948
 21
124.884889
 31
0.0
  0
LINE
  5
1AE
330
18E
100
AcDbEntity
  8
1-1
  6
CONTINUOUS
 62
     3
100
AcDbLine
 10
164.095948
 20
124.884889
 30
0.0
 11
163.486412
 21
124.692217
 31
0.0
  0
LINE
  5
1AF
330
18E
100
AcDbEntity
  8
1-1
  6
CONTINUOUS
 62
     3
100
AcDbLine
 10
163.486412
 20
124.692217
 30
0.0
 11
162.90847
 21
124.470445
 31
0.0
  0
LINE
  5
1B0
330
18E
100
AcDbEntity
  8
1-1
  6
CONTINUOUS
 62
     3
100
AcDbLine
 10
162.90847
 20
124.470445
 30
0.0
 11
162.371254
 21
124.221407
 31
0.0
  0
LINE
  5
1B1
330
18E
100
AcDbEntity
  8
1-1
  6
CONTINUOUS
 62
     3
100
AcDbLine
 10
162.371254
 20
124.221407
 30
0.0
 11
161.883225
 21
123.947695
 31
0.0
  0
LINE
  5
1B2
330
18E
100
AcDbEntity
  8
1-1
  6
CONTINUOUS
 62
     3
100
AcDbLine
 10
161.883225
 20
123.947695
 30
0.0
 11
161.451752
 21
123.652712
 31
0.0
  0
LINE
  5
1B3
330
18E
100
AcDbEntity
  8
1-1
  6
CONTINUOUS
 62
     3
100
AcDbLine
 10
161.451752
 20
123.652712
 30
0.0
 11
161.082714
 21
123.340441
 31
0.0
  0
LINE
  5
1B4
330
18E
100
AcDbEntity
  8
1-1
  6
CONTINUOUS
 62
     3
100
AcDbLine
 10
161.082714
 20
123.340441
 30
0.0
 11
160.780293
 21
123.015306
 31
0.0
  0
LINE
  5
1B5
330
18E
100
AcDbEntity
  8
1-1
  6
CONTINUOUS
 62
     3
100
AcDbLine
 10
160.780293
 20
123.015306
 30
0.0
 11
160.54678
 21
122.681947
 31
0.0
  0
LINE
  5
1B6
330
18E
100
AcDbEntity
  8
1-1
  6
CONTINUOUS
 62
     3
100
AcDbLine
 10
160.54678
 20
122.681947
 30
0.0
 11
160.382565
 21
122.345033
 31
0.0
  0
LINE
  5
1B7
330
18E
100
AcDbEntity
  8
1-1
  6
CONTINUOUS
 62
     3
100
AcDbLine
 10
160.382565
 20
122.345033
 30
0.0
 11
160.286263
 21
122.009035
 31
0.0
  0
LINE
  5
1B8
330
18E
100
AcDbEntity
  8
1-1
  6
CONTINUOUS
 62
     3
100
AcDbLine
 10
160.286263
 20
122.009035
 30
0.0
 11
160.254883
 21
121.678102
 31
0.0
  0
ENDBLK
  5
190
330
18E
100
AcDbEntity
  8
0
100
AcDbBlockEnd
  0
BLOCK
  5
1BC
330
1BB
100
AcDbEntity
  8
0
100
AcDbBlockBegin
  2
BLKF029
 70
     0
 71
     0
 10
0.0
 20
0.0
 30
0.0
  3
BLKF029
  1

  0
LINE
  5
1BF
330
1BB
100
AcDbEntity
  8
1-1
  6
CONTINUOUS
 62
     3
100
AcDbLine
 10
161.841126
 20
112.395113
 30
0.0
 11
162.335434
 21
112.040331
 31
0.0
  0
LINE
  5
1C0
330
1BB
100
AcDbEntity
  8
1-1
  6
CONTINUOUS
 62
     3
100
AcDbLine
 10
162.335434
 20
112.040331
 30
0.0
 11
162.809021
 21
111.642168
 31
0.0
  0
LINE
  5
1C1
330
1BB
100
AcDbEntity
  8
1-1
  6
CONTINUOUS
 62
     3
100
AcDbLine
 10
162.809021
 20
111.642168
 30
0.0
 11
163.255654
 21
111.19388
 31
0.0
  0
LINE
  5
1C2
330
1BB
100
AcDbEntity
  8
1-1
  6
CONTINUOUS
 62
     3
100
AcDbLine
 10
163.255654
 20
111.19388
 30
0.0
 11
163.670502
 21
110.693117
 31
0.0
  0
LINE
  5
1C3
330
1BB
100
AcDbEntity
  8
1-1
  6
CONTINUOUS
 62
     3
100
AcDbLine
 10
163.670502
 20
110.693117
 30
0.0
 11
164.052132
 21
110.144289
 31
0.0
  0
ENDBLK
  5
1BD
330
1BB
100
AcDbEntity
  8
0
100
AcDbBlockEnd
  0
BLOCK
  5
1C7
330
1C6
100
AcDbEntity
  8
0
100
AcDbBlockBegin
  2
BLKF030
 70
     0
 71
     0
 10
0.0
 20
0.0
 30
0.0
  3
BLKF030
  1

  0
LINE
  5
1CA
330
1C6
100
AcDbEntity
  8
1-1
  6
CONTINUOUS
 62
     3
100
AcDbLine
 10
160.254883
 20
123.446062
 30
0.0
 11
160.294068
 21
123.814043
 31
0.0
  0
LINE
  5
1CB
330
1C6
100
AcDbEntity
  8
1-1
  6
CONTINUOUS
 62
     3
100
AcDbLine
 10
160.294068
 20
123.814043
 30
0.0
 11
160.40987
 21
124.178453
 31
0.0
  0
LINE
  5
1CC
330
1C6
100
AcDbEntity
  8
1-1
  6
CONTINUOUS
 62
     3
100
AcDbLine
 10
160.40987
 20
124.178453
 30
0.0
 11
160.601174
 21
124.535768
 31
0.0
  0
LINE
  5
1CD
330
1C6
100
AcDbEntity
  8
1-1
  6
CONTINUOUS
 62
     3
100
AcDbLine
 10
160.601174
 20
124.535768
 30
0.0
 11
160.866143
 21
124.882585
 31
0.0
  0
LINE
  5
1CE
330
1C6
100
AcDbEntity
  8
1-1
  6
CONTINUOUS
 62
     3
100
AcDbLine
 10
160.866143
 20
124.882585
 30
0.0
 11
161.202221
 21
125.215532
 31
0.0
  0
LINE
  5
1CF
330
1C6
100
AcDbEntity
  8
1-1
  6
CONTINUOUS
 62
     3
100
AcDbLine
 10
161.202221
 20
125.215532
 30
0.0
 11
161.606171
 21
125.53142
 31
0.0
  0
LINE
  5
1D0
330
1C6
100
AcDbEntity
  8
1-1
  6
CONTINUOUS
 62
     3
100
AcDbLine
 10
161.606171
 20
125.53142
 30
0.0
 11
162.07412
 21
125.827196
 31
0.0
  0
LINE
  5
1D1
330
1C6
100
AcDbEntity
  8
1-1
  6
CONTINUOUS
 62
     3
100
AcDbLine
 10
162.07412
 20
125.827196
 30
0.0
 11
162.60154
 21
126.100023
 31
0.0
  0
LINE
  5
1D2
330
1C6
100
AcDbEntity
  8
1-1
  6
CONTINUOUS
 62
     3
100
AcDbLine
 10
162.60154
 20
126.100023
 30
0.0
 11
163.18338
 21
126.347276
 31
0.0
  0
LINE
  5
1D3
330
1C6
100
AcDbEntity
  8
1-1
  6
CONTINUOUS
 62
     3
100
AcDbLine
 10
163.18338
 20
126.347276
 30
0.0
 11
163.814019
 21
126.566576
 31
0.0
  0
LINE
  5
1D4
330
1C6
100
AcDbEntity
  8
1-1
  6
CONTINUOUS
 62
     3
100
AcDbLine
 10
163.814019
 20
126.566576
 30
0.0
 11
164.487404
 21
126.755815
 31
0.0
  0
LINE
  5
1D5
330
1C6
100
AcDbEntity
  8
1-1
  6
CONTINUOUS
 62
     3
100
AcDbLine
 10
164.487404
 20
126.755815
 30
0.0
 11
165.197037
 21
126.913149
 31
0.0
  0
LINE
  5
1D6
330
1C6
100
AcDbEntity
  8
1-1
  6
CONTINUOUS
 62
     3
100
AcDbLine
 10
165.197037
 20
126.913149
 30
0.0
 11
165.936096
 21
127.037096
 31
0.0
  0
LINE
  5
1D7
330
1C6
100
AcDbEntity
  8
1-1
  6
CONTINUOUS
 62
     3
100
AcDbLine
 10
165.936096
 20
127.037096
 30
0.0
 11
166.697472
 21
127.126436
 31
0.0
  0
LINE
  5
1D8
330
1C6
100
AcDbEntity
  8
1-1
  6
CONTINUOUS
 62
     3
100
AcDbLine
 10
166.697472
 20
127.126436
 30
0.0
 11
167.473831
 21
127.18033
 31
0.0
  0
LINE
  5
1D9
330
1C6
100
AcDbEntity
  8
1-1
  6
CONTINUOUS
 62
     3
100
AcDbLine
 10
167.473831
 20
127.18033
 30
0.0
 11
168.257706
 21
127.198244
 31
0.0
  0
LINE
  5
1DA
330
1C6
100
AcDbEntity
  8
1-1
  6
CONTINUOUS
 62
     3
100
AcDbLine
 10
168.257706
 20
127.198244
 30
0.0
 11
169.041542
 21
127.18001
 31
0.0
  0
LINE
  5
1DB
330
1C6
100
AcDbEntity
  8
1-1
  6
CONTINUOUS
 62
     3
100
AcDbLine
 10
169.041542
 20
127.18001
 30
0.0
 11
169.817803
 21
127.12581
 31
0.0
  0
LINE
  5
1DC
330
1C6
100
AcDbEntity
  8
1-1
  6
CONTINUOUS
 62
     3
100
AcDbLine
 10
169.817803
 20
127.12581
 30
0.0
 11
170.57901
 21
127.03615
 31
0.0
  0
LINE
  5
1DD
330
1C6
100
AcDbEntity
  8
1-1
  6
CONTINUOUS
 62
     3
100
AcDbLine
 10
170.57901
 20
127.03615
 30
0.0
 11
171.317841
 21
126.911913
 31
0.0
  0
LINE
  5
1DE
330
1C6
100
AcDbEntity
  8
1-1
  6
CONTINUOUS
 62
     3
100
AcDbLine
 10
171.317841
 20
126.911913
 30
0.0
 11
172.027191
 21
126.754289
 31
0.0
  0
LINE
  5
1DF
330
1C6
100
AcDbEntity
  8
1-1
  6
CONTINUOUS
 62
     3
100
AcDbLine
 10
172.027191
 20
126.754289
 30
0.0
 11
172.700226
 21
126.56479
 31
0.0
  0
LINE
  5
1E0
330
1C6
100
AcDbEntity
  8
1-1
  6
CONTINUOUS
 62
     3
100
AcDbLine
 10
172.700226
 20
126.56479
 30
0.0
 11
173.33046
 21
126.345232
 31
0.0
  0
LINE
  5
1E1
330
1C6
100
AcDbEntity
  8
1-1
  6
CONTINUOUS
 62
     3
100
AcDbLine
 10
173.33046
 20
126.345232
 30
0.0
 11
173.911843
 21
126.097734
 31
0.0
  0
LINE
  5
1E2
330
1C6
100
AcDbEntity
  8
1-1
  6
CONTINUOUS
 62
     3
100
AcDbLine
 10
173.911843
 20
126.097734
 30
0.0
 11
174.438767
 21
125.824693
 31
0.0
  0
LINE
  5
1E3
330
1C6
100
AcDbEntity
  8
1-1
  6
CONTINUOUS
 62
     3
100
AcDbLine
 10
174.438767
 20
125.824693
 30
0.0
 11
174.906174
 21
125.528719
 31
0.0
  0
LINE
  5
1E4
330
1C6
100
AcDbEntity
  8
1-1
  6
CONTINUOUS
 62
     3
100
AcDbLine
 10
174.906174
 20
125.528719
 30
0.0
 11
175.309548
 21
125.212679
 31
0.0
  0
LINE
  5
1E5
330
1C6
100
AcDbEntity
  8
1-1
  6
CONTINUOUS
 62
     3
100
AcDbLine
 10
175.309548
 20
125.212679
 30
0.0
 11
175.645012
 21
124.879595
 31
0.0
  0
LINE
  5
1E6
330
1C6
100
AcDbEntity
  8
1-1
  6
CONTINUOUS
 62
     3
100
AcDbLine
 10
175.645012
 20
124.879595
 30
0.0
 11
175.90934
 21
124.532686
 31
0.0
  0
LINE
  5
1E7
330
1C6
100
AcDbEntity
  8
1-1
  6
CONTINUOUS
 62
     3
100
AcDbLine
 10
175.90934
 20
124.532686
 30
0.0
 11
176.099991
 21
124.175279
 31
0.0
  0
LINE
  5
1E8
330
1C6
100
AcDbEntity
  8
1-1
  6
CONTINUOUS
 62
     3
100
AcDbLine
 10
176.099991
 20
124.175279
 30
0.0
 11
176.215126
 21
123.810823
 31
0.0
  0
LINE
  5
1E9
330
1C6
100
AcDbEntity
  8
1-1
  6
CONTINUOUS
 62
     3
100
AcDbLine
 10
176.215126
 20
123.810823
 30
0.0
 11
176.25364
 21
123.442827
 31
0.0
  0
ENDBLK
  5
1C8
330
1C6
100
AcDbEntity
  8
0
100
AcDbBlockEnd
  0
BLOCK
  5
1EF
330
1EE
100
AcDbEntity
  8
0
100
AcDbBlockBegin
  2
BLKF031
 70
     0
 71
     0
 10
0.0
 20
0.0
 30
0.0
  3
BLKF031
  1

  0
LINE
  5
1F2
330
1EE
100
AcDbEntity
  8
1-1
  6
CONTINUOUS
 62
     3
100
AcDbLine
 10
170.754875
 20
105.018678
 30
0.0
 11
170.654488
 21
106.06946
 31
0.0
  0
LINE
  5
1F3
330
1EE
100
AcDbEntity
  8
1-1
  6
CONTINUOUS
 62
     3
100
AcDbLine
 10
170.654488
 20
106.06946
 30
0.0
 11
170.54438
 21
107.099031
 31
0.0
  0
LINE
  5
1F4
330
1EE
100
AcDbEntity
  8
1-1
  6
CONTINUOUS
 62
     3
100
AcDbLine
 10
170.54438
 20
107.099031
 30
0.0
 11
170.42556
 21
108.099169
 31
0.0
  0
LINE
  5
1F5
330
1EE
100
AcDbEntity
  8
1-1
  6
CONTINUOUS
 62
     3
100
AcDbLine
 10
170.42556
 20
108.099169
 30
0.0
 11
170.299057
 21
109.061662
 31
0.0
  0
LINE
  5
1F6
330
1EE
100
AcDbEntity
  8
1-1
  6
CONTINUOUS
 62
     3
100
AcDbLine
 10
170.299057
 20
109.061662
 30
0.0
 11
170.16581
 21
109.979341
 31
0.0
  0
LINE
  5
1F7
330
1EE
100
AcDbEntity
  8
1-1
  6
CONTINUOUS
 62
     3
100
AcDbLine
 10
170.16581
 20
109.979341
 30
0.0
 11
170.026688
 21
110.846971
 31
0.0
  0
LINE
  5
1F8
330
1EE
100
AcDbEntity
  8
1-1
  6
CONTINUOUS
 62
     3
100
AcDbLine
 10
170.026688
 20
110.846971
 30
0.0
 11
169.882531
 21
111.659471
 31
0.0
  0
LINE
  5
1F9
330
1EE
100
AcDbEntity
  8
1-1
  6
CONTINUOUS
 62
     3
100
AcDbLine
 10
169.882531
 20
111.659471
 30
0.0
 11
169.7342
 21
112.41176
 31
0.0
  0
LINE
  5
1FA
330
1EE
100
AcDbEntity
  8
1-1
  6
CONTINUOUS
 62
     3
100
AcDbLine
 10
169.7342
 20
112.41176
 30
0.0
 11
169.582764
 21
113.098619
 31
0.0
  0
LINE
  5
1FB
330
1EE
100
AcDbEntity
  8
1-1
  6
CONTINUOUS
 62
     3
100
AcDbLine
 10
169.582764
 20
113.098619
 30
0.0
 11
169.429436
 21
113.714723
 31
0.0
  0
LINE
  5
1FC
330
1EE
100
AcDbEntity
  8
1-1
  6
CONTINUOUS
 62
     3
100
AcDbLine
 10
169.429436
 20
113.714723
 30
0.0
 11
169.275437
 21
114.254717
 31
0.0
  0
ENDBLK
  5
1F0
330
1EE
100
AcDbEntity
  8
0
100
AcDbBlockEnd
  0
BLOCK
  5
200
330
1FF
100
AcDbEntity
  8
0
100
AcDbBlockBegin
  2
BLKF032
 70
     0
 71
     0
 10
0.0
 20
0.0
 30
0.0
  3
BLKF032
  1

  0
LINE
  5
203
330
1FF
100
AcDbEntity
  8
1-1
  6
CONTINUOUS
 62
     3
100
AcDbLine
 10
168.685463
 20
113.702348
 30
0.0
 11
168.804062
 21
113.576448
 31
0.0
  0
LINE
  5
204
330
1FF
100
AcDbEntity
  8
1-1
  6
CONTINUOUS
 62
     3
100
AcDbLine
 10
168.804062
 20
113.576448
 30
0.0
 11
168.925736
 21
113.382662
 31
0.0
  0
LINE
  5
205
330
1FF
100
AcDbEntity
  8
1-1
  6
CONTINUOUS
 62
     3
100
AcDbLine
 10
168.925736
 20
113.382662
 30
0.0
 11
169.049599
 21
113.122133
 31
0.0
  0
LINE
  5
206
330
1FF
100
AcDbEntity
  8
1-1
  6
CONTINUOUS
 62
     3
100
AcDbLine
 10
169.049599
 20
113.122133
 30
0.0
 11
169.174843
 21
112.796221
 31
0.0
  0
LINE
  5
207
330
1FF
100
AcDbEntity
  8
1-1
  6
CONTINUOUS
 62
     3
100
AcDbLine
 10
169.174843
 20
112.796221
 30
0.0
 11
169.300728
 21
112.406481
 31
0.0
  0
LINE
  5
208
330
1FF
100
AcDbEntity
  8
1-1
  6
CONTINUOUS
 62
     3
100
AcDbLine
 10
169.300728
 20
112.406481
 30
0.0
 11
169.426537
 21
111.954714
 31
0.0
  0
LINE
  5
209
330
1FF
100
AcDbEntity
  8
1-1
  6
CONTINUOUS
 62
     3
100
AcDbLine
 10
169.426537
 20
111.954714
 30
0.0
 11
169.551422
 21
111.444261
 31
0.0
  0
LINE
  5
20A
330
1FF
100
AcDbEntity
  8
1-1
  6
CONTINUOUS
 62
     3
100
AcDbLine
 10
169.551422
 20
111.444261
 30
0.0
 11
169.674446
 21
110.879549
 31
0.0
  0
ENDBLK
  5
201
330
1FF
100
AcDbEntity
  8
0
100
AcDbBlockEnd
  0
BLOCK
  5
20C
330
20B
100
AcDbEntity
  8
0
100
AcDbBlockBegin
  2
BLKF033
 70
     0
 71
     0
 10
0.0
 20
0.0
 30
0.0
  3
BLKF033
  1

  0
LINE
  5
20F
330
20B
100
AcDbEntity
  8
1-1
  6
CONTINUOUS
 62
     3
100
AcDbLine
 10
169.674446
 20
110.879549
 30
0.0
 11
169.814202
 21
110.159258
 31
0.0
  0
LINE
  5
210
330
20B
100
AcDbEntity
  8
1-1
  6
CONTINUOUS
 62
     3
100
AcDbLine
 10
169.814202
 20
110.159258
 30
0.0
 11
169.949684
 21
109.374544
 31
0.0
  0
LINE
  5
211
330
20B
100
AcDbEntity
  8
1-1
  6
CONTINUOUS
 62
     3
100
AcDbLine
 10
169.949684
 20
109.374544
 30
0.0
 11
170.079552
 21
108.532747
 31
0.0
  0
LINE
  5
212
330
20B
100
AcDbEntity
  8
1-1
  6
CONTINUOUS
 62
     3
100
AcDbLine
 10
170.079552
 20
108.532747
 30
0.0
 11
170.202545
 21
107.641206
 31
0.0
  0
LINE
  5
213
330
20B
100
AcDbEntity
  8
1-1
  6
CONTINUOUS
 62
     3
100
AcDbLine
 10
170.202545
 20
107.641206
 30
0.0
 11
170.317627
 21
106.707124
 31
0.0
  0
LINE
  5
214
330
20B
100
AcDbEntity
  8
1-1
  6
CONTINUOUS
 62
     3
100
AcDbLine
 10
170.317627
 20
106.707124
 30
0.0
 11
170.423806
 21
105.737932
 31
0.0
  0
LINE
  5
215
330
20B
100
AcDbEntity
  8
1-1
  6
CONTINUOUS
 62
     3
100
AcDbLine
 10
170.423806
 20
105.737932
 30
0.0
 11
170.520546
 21
104.742906
 31
0.0
  0
LINE
  5
216
330
20B
100
AcDbEntity
  8
1-1
  6
CONTINUOUS
 62
     3
100
AcDbLine
 10
170.520546
 20
104.742906
 30
0.0
 11
170.607605
 21
103.732439
 31
0.0
  0
ENDBLK
  5
20D
330
20B
100
AcDbEntity
  8
0
100
AcDbBlockEnd
  0
BLOCK
  5
21B
330
21A
100
AcDbEntity
  8
0
100
AcDbBlockBegin
  2
BLKF034
 70
     0
 71
     0
 10
0.0
 20
0.0
 30
0.0
  3
BLKF034
  1

  0
LINE
  5
21E
330
21A
100
AcDbEntity
  8
1-1
  6
CONTINUOUS
 62
     3
100
AcDbLine
 10
164.254875
 20
90.574846
 30
0.0
 11
163.122551
 21
91.001184
 31
0.0
  0
LINE
  5
21F
330
21A
100
AcDbEntity
  8
1-1
  6
CONTINUOUS
 62
     3
100
AcDbLine
 10
163.122551
 20
91.001184
 30
0.0
 11
162.020737
 21
91.5011
 31
0.0
  0
LINE
  5
220
330
21A
100
AcDbEntity
  8
1-1
  6
CONTINUOUS
 62
     3
100
AcDbLine
 10
162.020737
 20
91.5011
 30
0.0
 11
160.954201
 21
92.072443
 31
0.0
  0
ENDBLK
  5
21C
330
21A
100
AcDbEntity
  8
0
100
AcDbBlockEnd
  0
BLOCK
  5
223
330
222
100
AcDbEntity
  8
0
100
AcDbBlockBegin
  2
BLKF035
 70
     0
 71
     0
 10
0.0
 20
0.0
 30
0.0
  3
BLKF035
  1

  0
LINE
  5
226
330
222
100
AcDbEntity
  8
1-1
  6
CONTINUOUS
 62
     3
100
AcDbLine
 10
164.254875
 20
94.434427
 30
0.0
 11
164.297203
 21
94.083322
 31
0.0
  0
LINE
  5
227
330
222
100
AcDbEntity
  8
1-1
  6
CONTINUOUS
 62
     3
100
AcDbLine
 10
164.297203
 20
94.083322
 30
0.0
 11
164.404801
 21
93.735071
 31
0.0
  0
LINE
  5
228
330
222
100
AcDbEntity
  8
1-1
  6
CONTINUOUS
 62
     3
100
AcDbLine
 10
164.404801
 20
93.735071
 30
0.0
 11
164.583901
 21
93.393793
 31
0.0
  0
LINE
  5
229
330
222
100
AcDbEntity
  8
1-1
  6
CONTINUOUS
 62
     3
100
AcDbLine
 10
164.583901
 20
93.393793
 30
0.0
 11
164.827217
 21
93.061235
 31
0.0
  0
LINE
  5
22A
330
222
100
AcDbEntity
  8
1-1
  6
CONTINUOUS
 62
     3
100
AcDbLine
 10
164.827217
 20
93.061235
 30
0.0
 11
165.134056
 21
92.74
 31
0.0
  0
LINE
  5
22B
330
222
100
AcDbEntity
  8
1-1
  6
CONTINUOUS
 62
     3
100
AcDbLine
 10
165.134056
 20
92.74
 30
0.0
 11
165.505173
 21
92.434419
 31
0.0
  0
LINE
  5
22C
330
222
100
AcDbEntity
  8
1-1
  6
CONTINUOUS
 62
     3
100
AcDbLine
 10
165.505173
 20
92.434419
 30
0.0
 11
165.936653
 21
92.146982
 31
0.0
  0
LINE
  5
22D
330
222
100
AcDbEntity
  8
1-1
  6
CONTINUOUS
 62
     3
100
AcDbLine
 10
165.936653
 20
92.146982
 30
0.0
 11
166.42392
 21
91.879915
 31
0.0
  0
LINE
  5
22E
330
222
100
AcDbEntity
  8
1-1
  6
CONTINUOUS
 62
     3
100
AcDbLine
 10
166.42392
 20
91.879915
 30
0.0
 11
166.962387
 21
91.635439
 31
0.0
  0
LINE
  5
22F
330
222
100
AcDbEntity
  8
1-1
  6
CONTINUOUS
 62
     3
100
AcDbLine
 10
166.962387
 20
91.635439
 30
0.0
 11
167.547455
 21
91.415766
 31
0.0
  0
LINE
  5
230
330
222
100
AcDbEntity
  8
1-1
  6
CONTINUOUS
 62
     3
100
AcDbLine
 10
167.547455
 20
91.415766
 30
0.0
 11
168.174004
 21
91.22278
 31
0.0
  0
LINE
  5
231
330
222
100
AcDbEntity
  8
1-1
  6
CONTINUOUS
 62
     3
100
AcDbLine
 10
168.174004
 20
91.22278
 30
0.0
 11
168.836113
 21
91.057901
 31
0.0
  0
LINE
  5
232
330
222
100
AcDbEntity
  8
1-1
  6
CONTINUOUS
 62
     3
100
AcDbLine
 10
168.836113
 20
91.057901
 30
0.0
 11
169.527848
 21
90.92251
 31
0.0
  0
LINE
  5
233
330
222
100
AcDbEntity
  8
1-1
  6
CONTINUOUS
 62
     3
100
AcDbLine
 10
169.527848
 20
90.92251
 30
0.0
 11
170.243248
 21
90.81798
 31
0.0
  0
LINE
  5
234
330
222
100
AcDbEntity
  8
1-1
  6
CONTINUOUS
 62
     3
100
AcDbLine
 10
170.243248
 20
90.81798
 30
0.0
 11
170.976326
 21
90.745653
 31
0.0
  0
LINE
  5
235
330
222
100
AcDbEntity
  8
1-1
  6
CONTINUOUS
 62
     3
100
AcDbLine
 10
170.976326
 20
90.745653
 30
0.0
 11
171.720787
 21
90.70611
 31
0.0
  0
LINE
  5
236
330
222
100
AcDbEntity
  8
1-1
  6
CONTINUOUS
 62
     3
100
AcDbLine
 10
171.720787
 20
90.70611
 30
0.0
 11
172.469986
 21
90.699274
 31
0.0
  0
LINE
  5
237
330
222
100
AcDbEntity
  8
1-1
  6
CONTINUOUS
 62
     3
100
AcDbLine
 10
172.469986
 20
90.699274
 30
0.0
 11
173.217308
 21
90.725046
 31
0.0
  0
LINE
  5
238
330
222
100
AcDbEntity
  8
1-1
  6
CONTINUOUS
 62
     3
100
AcDbLine
 10
173.217308
 20
90.725046
 30
0.0
 11
173.956124
 21
90.783342
 31
0.0
  0
LINE
  5
239
330
222
100
AcDbEntity
  8
1-1
  6
CONTINUOUS
 62
     3
100
AcDbLine
 10
173.956124
 20
90.783342
 30
0.0
 11
174.679802
 21
90.874048
 31
0.0
  0
LINE
  5
23A
330
222
100
AcDbEntity
  8
1-1
  6
CONTINUOUS
 62
     3
100
AcDbLine
 10
174.679802
 20
90.874048
 30
0.0
 11
175.381989
 21
90.996599
 31
0.0
  0
LINE
  5
23B
330
222
100
AcDbEntity
  8
1-1
  6
CONTINUOUS
 62
     3
100
AcDbLine
 10
175.381989
 20
90.996599
 30
0.0
 11
176.056839
 21
91.14953
 31
0.0
  0
LINE
  5
23C
330
222
100
AcDbEntity
  8
1-1
  6
CONTINUOUS
 62
     3
100
AcDbLine
 10
176.056839
 20
91.14953
 30
0.0
 11
176.698571
 21
91.331262
 31
0.0
  0
LINE
  5
23D
330
222
100
AcDbEntity
  8
1-1
  6
CONTINUOUS
 62
     3
100
AcDbLine
 10
176.698571
 20
91.331262
 30
0.0
 11
177.301384
 21
91.540231
 31
0.0
  0
LINE
  5
23E
330
222
100
AcDbEntity
  8
1-1
  6
CONTINUOUS
 62
     3
100
AcDbLine
 10
177.301384
 20
91.540231
 30
0.0
 11
177.859536
 21
91.774851
 31
0.0
  0
LINE
  5
23F
330
222
100
AcDbEntity
  8
1-1
  6
CONTINUOUS
 62
     3
100
AcDbLine
 10
177.859536
 20
91.774851
 30
0.0
 11
178.36818
 21
92.033113
 31
0.0
  0
LINE
  5
240
330
222
100
AcDbEntity
  8
1-1
  6
CONTINUOUS
 62
     3
100
AcDbLine
 10
178.36818
 20
92.033113
 30
0.0
 11
178.82354
 21
92.312502
 31
0.0
  0
LINE
  5
241
330
222
100
AcDbEntity
  8
1-1
  6
CONTINUOUS
 62
     3
100
AcDbLine
 10
178.82354
 20
92.312502
 30
0.0
 11
179.221894
 21
92.610468
 31
0.0
  0
LINE
  5
242
330
222
100
AcDbEntity
  8
1-1
  6
CONTINUOUS
 62
     3
100
AcDbLine
 10
179.221894
 20
92.610468
 30
0.0
 11
179.55951
 21
92.924471
 31
0.0
  0
LINE
  5
243
330
222
100
AcDbEntity
  8
1-1
  6
CONTINUOUS
 62
     3
100
AcDbLine
 10
179.55951
 20
92.924471
 30
0.0
 11
179.832764
 21
93.25194
 31
0.0
  0
LINE
  5
244
330
222
100
AcDbEntity
  8
1-1
  6
CONTINUOUS
 62
     3
100
AcDbLine
 10
179.832764
 20
93.25194
 30
0.0
 11
180.039208
 21
93.590044
 31
0.0
  0
LINE
  5
245
330
222
100
AcDbEntity
  8
1-1
  6
CONTINUOUS
 62
     3
100
AcDbLine
 10
180.039208
 20
93.590044
 30
0.0
 11
180.177254
 21
93.935739
 31
0.0
  0
LINE
  5
246
330
222
100
AcDbEntity
  8
1-1
  6
CONTINUOUS
 62
     3
100
AcDbLine
 10
180.177254
 20
93.935739
 30
0.0
 11
180.245316
 21
94.285982
 31
0.0
  0
LINE
  5
247
330
222
100
AcDbEntity
  8
1-1
  6
CONTINUOUS
 62
     3
100
AcDbLine
 10
180.245316
 20
94.285982
 30
0.0
 11
180.241822
 21
94.63772
 31
0.0
  0
LINE
  5
248
330
222
100
AcDbEntity
  8
1-1
  6
CONTINUOUS
 62
     3
100
AcDbLine
 10
180.241822
 20
94.63772
 30
0.0
 11
180.166039
 21
94.987879
 31
0.0
  0
LINE
  5
249
330
222
100
AcDbEntity
  8
1-1
  6
CONTINUOUS
 62
     3
100
AcDbLine
 10
180.166039
 20
94.987879
 30
0.0
 11
180.023117
 21
95.333055
 31
0.0
  0
LINE
  5
24A
330
222
100
AcDbEntity
  8
1-1
  6
CONTINUOUS
 62
     3
100
AcDbLine
 10
180.023117
 20
95.333055
 30
0.0
 11
179.81527
 21
95.670778
 31
0.0
  0
LINE
  5
24B
330
222
100
AcDbEntity
  8
1-1
  6
CONTINUOUS
 62
     3
100
AcDbLine
 10
179.81527
 20
95.670778
 30
0.0
 11
179.538094
 21
95.997682
 31
0.0
  0
LINE
  5
24C
330
222
100
AcDbEntity
  8
1-1
  6
CONTINUOUS
 62
     3
100
AcDbLine
 10
179.538094
 20
95.997682
 30
0.0
 11
179.201233
 21
96.3118
 31
0.0
  0
ENDBLK
  5
224
330
222
100
AcDbEntity
  8
0
100
AcDbBlockEnd
  0
BLOCK
  5
24E
330
24D
100
AcDbEntity
  8
0
100
AcDbBlockBegin
  2
BLKF036
 70
     0
 71
     0
 10
0.0
 20
0.0
 30
0.0
  3
BLKF036
  1

  0
LINE
  5
251
330
24D
100
AcDbEntity
  8
1-1
  6
CONTINUOUS
 62
     3
100
AcDbLine
 10
179.201233
 20
98.077699
 30
0.0
 11
179.517914
 21
97.788957
 31
0.0
  0
LINE
  5
252
330
24D
100
AcDbEntity
  8
1-1
  6
CONTINUOUS
 62
     3
100
AcDbLine
 10
179.517914
 20
97.788957
 30
0.0
 11
179.780274
 21
97.488466
 31
0.0
  0
LINE
  5
253
330
24D
100
AcDbEntity
  8
1-1
  6
CONTINUOUS
 62
     3
100
AcDbLine
 10
179.780274
 20
97.488466
 30
0.0
 11
179.986351
 21
97.178446
 31
0.0
  0
LINE
  5
254
330
24D
100
AcDbEntity
  8
1-1
  6
CONTINUOUS
 62
     3
100
AcDbLine
 10
179.986351
 20
97.178446
 30
0.0
 11
180.134613
 21
96.861223
 31
0.0
  0
LINE
  5
255
330
24D
100
AcDbEntity
  8
1-1
  6
CONTINUOUS
 62
     3
100
AcDbLine
 10
180.134613
 20
96.861223
 30
0.0
 11
180.223938
 21
96.539179
 31
0.0
  0
LINE
  5
256
330
24D
100
AcDbEntity
  8
1-1
  6
CONTINUOUS
 62
     3
100
AcDbLine
 10
180.223938
 20
96.539179
 30
0.0
 11
180.253662
 21
96.214716
 31
0.0
  0
ENDBLK
  5
24F
330
24D
100
AcDbEntity
  8
0
100
AcDbBlockEnd
  0
BLOCK
  5
281
330
280
100
AcDbEntity
  8
0
100
AcDbBlockBegin
  2
*D35
 70
     1
 71
     0
 10
0.0
 20
0.0
 30
0.0
  3
*D35
  1

  0
TEXT
  5
283
330
280
100
AcDbEntity
  8
LAYERGROUP-1
  6
CONTINUOUS
 62
     7
100
AcDbText
 10
220.874969
 20
241.724457
 30
0.0
 40
4.0
  1
4-%%c6.5
 41
0.84375
  7
FX_VECTOR
 72
     5
 11
238.874969
 21
241.724457
 31
0.0
100
AcDbText
  0
LINE
  5
284
330
280
100
AcDbEntity
  8
LAYERGROUP-1
  6
CONTINUOUS
 62
     7
100
AcDbLine
 10
246.743478
 20
234.702905
 30
0.0
 11
252.292113
 21
231.317251
 31
0.0
  0
LINE
  5
285
330
280
100
AcDbEntity
  8
LAYERGROUP-1
  6
CONTINUOUS
 62
     7
100
AcDbLine
 10
246.743478
 20
234.702905
 30
0.0
 11
236.874954
 21
240.724461
 31
0.0
  0
INSERT
  5
286
330
280
100
AcDbEntity
  8
LAYERGROUP-1
  6
CONTINUOUS
 62
     7
100
AcDbBlockReference
  2
FXTIP_ARROW_S
 10
246.743478
 20
234.702905
 30
0.0
 41
4.0
 42
4.0
 50
328.609381
  0
LINE
  5
287
330
280
100
AcDbEntity
  8
LAYERGROUP-1
  6
CONTINUOUS
 62
     7
100
AcDbLine
 10
236.874954
 20
240.724461
 30
0.0
 11
222.874954
 21
240.724461
 31
0.0
  0
LINE
  5
288
330
280
100
AcDbEntity
  8
LAYERGROUP-1
  6
CONTINUOUS
 62
     7
100
AcDbLine
 10
252.292113
 20
231.317251
 30
0.0
 11
257.413929
 21
228.192032
 31
0.0
  0
INSERT
  5
289
330
280
100
AcDbEntity
  8
LAYERGROUP-1
  6
CONTINUOUS
 62
     7
100
AcDbBlockReference
  2
FXTIP_ARROW_S
 10
252.292113
 20
231.317251
 30
0.0
 41
4.0
 42
4.0
 50
148.609381
  0
ENDBLK
  5
282
330
280
100
AcDbEntity
  8
0
100
AcDbBlockEnd
  0
BLOCK
  5
28D
330
28C
100
AcDbEntity
  8
0
100
AcDbBlockBegin
  2
*D36
 70
     1
 71
     0
 10
0.0
 20
0.0
 30
0.0
  3
*D36
  1

  0
TEXT
  5
28F
330
28C
100
AcDbEntity
  8
LAYERGROUP-1
  6
CONTINUOUS
 62
     7
100
AcDbText
 10
306.726379
 20
119.714691
 30
0.0
 40
4.0
  1
40
 50
90.0
 41
0.851351
  7
FX_VECTOR
 72
     5
 11
306.726379
 21
125.714691
 31
0.0
100
AcDbText
  0
LINE
  5
290
330
28C
100
AcDbEntity
  8
LAYERGROUP-1
  6
CONTINUOUS
 62
     7
100
AcDbLine
 10
307.726385
 20
102.714696
 30
0.0
 11
307.726385
 21
142.714696
 31
0.0
  0
INSERT
  5
291
330
28C
100
AcDbEntity
  8
LAYERGROUP-1
  6
CONTINUOUS
 62
     7
100
AcDbBlockReference
  2
FXTIP_ARROW_S
 10
307.726385
 20
102.714696
 30
0.0
 41
4.0
 42
4.0
 50
270.0
  0
INSERT
  5
292
330
28C
100
AcDbEntity
  8
LAYERGROUP-1
  6
CONTINUOUS
 62
     7
100
AcDbBlockReference
  2
FXTIP_ARROW_E
 10
307.726385
 20
142.714696
 30
0.0
 41
4.0
 42
4.0
 50
90.0
  0
LINE
  5
293
330
28C
100
AcDbEntity
  8
LAYERGROUP-1
  6
CONTINUOUS
 62
     7
100
AcDbLine
 10
266.335885
 20
102.714696
 30
0.0
 11
308.726385
 21
102.714696
 31
0.0
  0
LINE
  5
294
330
28C
100
AcDbEntity
  8
LAYERGROUP-1
  6
CONTINUOUS
 62
     7
100
AcDbLine
 10
300.517796
 20
142.714696
 30
0.0
 11
308.726385
 21
142.714696
 31
0.0
  0
ENDBLK
  5
28E
330
28C
100
AcDbEntity
  8
0
100
AcDbBlockEnd
  0
BLOCK
  5
298
330
297
100
AcDbEntity
  8
0
100
AcDbBlockBegin
  2
*D37
 70
     1
 71
     0
 10
0.0
 20
0.0
 30
0.0
  3
*D37
  1

  0
TEXT
  5
29A
330
297
100
AcDbEntity
  8
LAYERGROUP-1
  6
CONTINUOUS
 62
     7
100
AcDbText
 10
205.591836
 20
196.979986
 30
0.0
 40
4.0
  1
R53
 50
16.30114
 41
0.814655
  7
FX_VECTOR
 72
     5
 11
214.230033
 21
199.506159
 31
0.0
100
AcDbText
  0
LINE
  5
29B
330
297
100
AcDbEntity
  8
LAYERGROUP-1
  6
CONTINUOUS
 62
     7
100
AcDbLine
 10
221.297711
 20
200.53117
 30
0.0
 11
272.517796
 21
215.510078
 31
0.0
  0
LINE
  5
29C
330
297
100
AcDbEntity
  8
LAYERGROUP-1
  6
CONTINUOUS
 62
     7
100
AcDbLine
 10
221.297711
 20
200.53117
 30
0.0
 11
199.085504
 21
194.035386
 31
0.0
  0
INSERT
  5
29D
330
297
100
AcDbEntity
  8
LAYERGROUP-1
  6
CONTINUOUS
 62
     7
100
AcDbBlockReference
  2
FXTIP_ARROW_S
 10
221.297711
 20
200.53117
 30
0.0
 41
4.0
 42
4.0
 50
16.301141
  0
ENDBLK
  5
299
330
297
100
AcDbEntity
  8
0
100
AcDbBlockEnd
  0
BLOCK
  5
2D4
330
2D3
100
AcDbEntity
  8
0
100
AcDbBlockBegin
  2
*D38
 70
     1
 71
     0
 10
0.0
 20
0.0
 30
0.0
  3
*D38
  1

  0
TEXT
  5
2D6
330
2D3
100
AcDbEntity
  8
LAYERGROUP-1
  6
CONTINUOUS
 62
     7
100
AcDbText
 10
140.754883
 20
50.665752
 30
0.0
 40
4.0
  1
25
 41
0.851351
  7
FX_VECTOR
 72
     5
 11
146.754883
 21
50.665752
 31
0.0
100
AcDbText
  0
LINE
  5
2D7
330
2D3
100
AcDbEntity
  8
LAYERGROUP-1
  6
CONTINUOUS
 62
     7
100
AcDbLine
 10
131.254879
 20
49.665753
 30
0.0
 11
156.254879
 21
49.665753
 31
0.0
  0
INSERT
  5
2D8
330
2D3
100
AcDbEntity
  8
LAYERGROUP-1
  6
CONTINUOUS
 62
     7
100
AcDbBlockReference
  2
FXTIP_ARROW_S
 10
131.254879
 20
49.665753
 30
0.0
 41
4.0
 42
4.0
 50
180.0
  0
INSERT
  5
2D9
330
2D3
100
AcDbEntity
  8
LAYERGROUP-1
  6
CONTINUOUS
 62
     7
100
AcDbBlockReference
  2
FXTIP_ARROW_E
 10
156.254879
 20
49.665753
 30
0.0
 41
4.0
 42
4.0
 50
360.0
  0
LINE
  5
2DA
330
2D3
100
AcDbEntity
  8
LAYERGROUP-1
  6
CONTINUOUS
 62
     7
100
AcDbLine
 10
131.254879
 20
94.160448
 30
0.0
 11
131.254879
 21
48.665753
 31
0.0
  0
LINE
  5
2DB
330
2D3
100
AcDbEntity
  8
LAYERGROUP-1
  6
CONTINUOUS
 62
     7
100
AcDbLine
 10
156.254879
 20
94.160448
 30
0.0
 11
156.254879
 21
48.665753
 31
0.0
  0
ENDBLK
  5
2D5
330
2D3
100
AcDbEntity
  8
0
100
AcDbBlockEnd
  0
BLOCK
  5
2F0
330
2EF
100
AcDbEntity
  8
0
100
AcDbBlockBegin
  2
*D39
 70
     1
 71
     0
 10
0.0
 20
0.0
 30
0.0
  3
*D39
  1

  0
TEXT
  5
2F2
330
2EF
100
AcDbEntity
  8
LAYERGROUP-1
  6
CONTINUOUS
 62
     7
100
AcDbText
 10
141.45488
 20
62.961521
 30
0.0
 40
4.0
  1
20
 41
0.851351
  7
FX_VECTOR
 72
     5
 11
147.45488
 21
62.961521
 31
0.0
100
AcDbText
  0
LINE
  5
2F3
330
2EF
100
AcDbEntity
  8
LAYERGROUP-1
  6
CONTINUOUS
 62
     7
100
AcDbLine
 10
134.454879
 20
61.96152
 30
0.0
 11
154.454879
 21
61.96152
 31
0.0
  0
INSERT
  5
2F4
330
2EF
100
AcDbEntity
  8
LAYERGROUP-1
  6
CONTINUOUS
 62
     7
100
AcDbBlockReference
  2
FXTIP_ARROW_S
 10
134.454879
 20
61.96152
 30
0.0
 41
4.0
 42
4.0
 50
180.0
  0
INSERT
  5
2F5
330
2EF
100
AcDbEntity
  8
LAYERGROUP-1
  6
CONTINUOUS
 62
     7
100
AcDbBlockReference
  2
FXTIP_ARROW_E
 10
154.454879
 20
61.96152
 30
0.0
 41
4.0
 42
4.0
 50
360.0
  0
LINE
  5
2F6
330
2EF
100
AcDbEntity
  8
LAYERGROUP-1
  6
CONTINUOUS
 62
     7
100
AcDbLine
 10
134.454879
 20
79.673855
 30
0.0
 11
134.454879
 21
60.96152
 31
0.0
  0
LINE
  5
2F7
330
2EF
100
AcDbEntity
  8
LAYERGROUP-1
  6
CONTINUOUS
 62
     7
100
AcDbLine
 10
154.454879
 20
79.673855
 30
0.0
 11
154.454879
 21
60.96152
 31
0.0
  0
ENDBLK
  5
2F1
330
2EF
100
AcDbEntity
  8
0
100
AcDbBlockEnd
  0
BLOCK
  5
311
330
310
100
AcDbEntity
  8
0
100
AcDbBlockBegin
  2
BLKF042
 70
     0
 71
     0
 10
0.0
 20
0.0
 30
0.0
  3
BLKF042
  1

  0
LINE
  5
314
330
310
100
AcDbEntity
  8
}}ﾊﾊGG血CCТ
  6
CONTINUOUS
 62
     7
100
AcDbLine
 10
10.0
 20
10.0
 30
0.0
 11
410.0
 21
10.0
 31
0.0
  0
LINE
  5
315
330
310
100
AcDbEntity
  8
}}ﾊﾊGG血CCТ
  6
CONTINUOUS
 62
     7
100
AcDbLine
 10
10.0
 20
10.0
 30
0.0
 11
10.0
 21
287.0
 31
0.0
  0
LINE
  5
316
330
310
100
AcDbEntity
  8
}}ﾊﾊGG血CCТ
  6
CONTINUOUS
 62
     7
100
AcDbLine
 10
10.0
 20
287.0
 30
0.0
 11
410.0
 21
287.0
 31
0.0
  0
LINE
  5
317
330
310
100
AcDbEntity
  8
}}ﾊﾊGG血CCТ
  6
CONTINUOUS
 62
     7
100
AcDbLine
 10
410.0
 20
287.0
 30
0.0
 11
410.0
 21
10.0
 31
0.0
  0
LINE
  5
318
330
310
100
AcDbEntity
  8
}}ﾊﾊGG血CCТ
  6
CONTINUOUS
 62
     7
100
AcDbLine
 10
153.0
 20
10.0
 30
0.0
 11
153.0
 21
20.0
 31
0.0
  0
TEXT
  5
319
330
310
100
AcDbEntity
  8
}}ﾊﾊGG血CCТ
  6
CONTINUOUS
 62
     7
100
AcDbText
 10
137.738815
 20
11.596879
 30
0.0
 40
6.648749
  1
品名
 41
1.083413
  7
FX_VECTOR
 72
     5
 11
149.058355
 21
11.596879
 31
0.0
100
AcDbText
  0
LINE
  5
31A
330
310
100
AcDbEntity
  8
}}ﾊﾊGG血CCТ
  6
CONTINUOUS
 62
     7
100
AcDbLine
 10
233.0
 20
20.0
 30
0.0
 11
233.0
 21
10.0
 31
0.0
  0
LINE
  5
31B
330
310
100
AcDbEntity
  8
}}ﾊﾊGG血CCТ
  6
CONTINUOUS
 62
     7
100
AcDbLine
 10
133.0
 20
20.0
 30
0.0
 11
410.0
 21
20.0
 31
0.0
  0
INSERT
  5
31F
330
310
100
AcDbEntity
  8
0
100
AcDbBlockReference
  2
BLKF043
 10
0.0
 20
0.0
 30
0.0
  0
INSERT
  5
328
330
310
100
AcDbEntity
  8
0
100
AcDbBlockReference
  2
BLKF044
 10
0.0
 20
0.0
 30
0.0
  0
HATCH
  5
338
330
310
100
AcDbEntity
  8
GR1-1
  6
CONTINUOUS
 62
     7
100
AcDbHatch
 10
0.0
 20
0.0
 30
0.0
210
0.0
220
0.0
230
1.0
  2

 70
     0
 71
     1
 91
        2
 92
        0
 93
        4
 72
     1
 10
338.8018997861325
 20
17.91346152
 11
344.8018997861325
 21
17.91346152
 72
     1
 10
344.8018997861325
 20
17.91346152
 11
344.8018997861325
 21
11.91346152
 72
     1
 10
344.8018997861325
 20
11.91346152
 11
338.8018997861325
 21
11.91346152
 72
     1
 10
338.8018997861325
 20
11.91346152
 11
338.8018997861325
 21
17.91346152
 97
        0
 92
        0
 93
       15
 72
     1
 10
341.8018997861325
 20
17.76923076000002
 11
338.9461305461325
 21
14.91346152
 72
     1
 10
338.9461305461325
 20
14.91346152
 11
341.8018997861325
 21
12.05769228000001
 72
     1
 10
341.8018997861325
 20
12.05769228000001
 11
343.3595920661325
 21
13.61538462
 72
     1
 10
343.3595920661325
 20
13.61538462
 11
343.3595920661325
 21
12.98076924
 72
     1
 10
343.3595920661325
 20
12.98076924
 11
344.2249766861325
 21
12.98076924
 72
     1
 10
344.2249766861325
 20
12.98076924
 11
344.2249766861325
 21
15.00000000000001
 72
     1
 10
344.2249766861325
 20
15.00000000000001
 11
341.8018997861325
 21
15.00000000000001
 72
     1
 10
341.8018997861325
 20
15.00000000000001
 11
341.8018997861325
 21
14.13461538000001
 72
     1
 10
341.8018997861325
 20
14.13461538000001
 11
342.2461305461325
 21
14.13461538000001
 72
     1
 10
342.2461305461325
 20
14.13461538000001
 11
341.8018997861325
 21
13.69038462
 72
     1
 10
341.8018997861325
 20
13.69038462
 11
340.5788228861325
 21
14.91346152
 72
     1
 10
340.5788228861325
 20
14.91346152
 11
341.8018997861325
 21
16.13653842000003
 72
     1
 10
341.8018997861325
 20
16.13653842000003
 11
342.5922844061325
 21
15.3461538
 72
     1
 10
342.5922844061325
 20
15.3461538
 11
344.2249766861325
 21
15.3461538
 72
     1
 10
344.2249766861325
 20
15.3461538
 11
341.8018997861325
 21
17.76923076000002
 97
        0
 75
     0
 76
     0
 52
45.0
 41
0.05
 77
     0
 78
     1
 53
45.0
 43
0.0
 44
0.0
 45
-0.0353553390593274
 46
0.0353553390593274
 79
     0
 98
        0
  0
TEXT
  5
339
330
310
100
AcDbEntity
  8
}}ﾊﾊGG血CCТ
  6
CONTINUOUS
 62
     7
100
AcDbText
 10
349.225769
 20
11.461285
 30
0.0
 40
7.170908
  1
GOLD CASTER
 41
0.63978
  7
FX_VECTOR
 72
     5
 11
395.977636
 21
11.461285
 31
0.0
100
AcDbText
  0
LINE
  5
33A
330
310
100
AcDbEntity
  8
}}ﾊﾊGG血CCТ
  6
CONTINUOUS
 62
     7
100
AcDbLine
 10
253.0
 20
10.0
 30
0.0
 11
253.0
 21
20.0
 31
0.0
  0
TEXT
  5
33B
330
310
100
AcDbEntity
  8
}}ﾊﾊGG血CCТ
  6
CONTINUOUS
 62
     7
100
AcDbText
 10
237.738815
 20
11.596879
 30
0.0
 40
6.648749
  1
図番
 41
1.083413
  7
FX_VECTOR
 72
     5
 11
249.058355
 21
11.596879
 31
0.0
100
AcDbText
  0
LINE
  5
33C
330
310
100
AcDbEntity
  8
}}ﾊﾊGG血CCТ
  6
CONTINUOUS
 62
     7
100
AcDbLine
 10
333.0
 20
20.0
 30
0.0
 11
333.0
 21
10.0
 31
0.0
  0
LINE
  5
33D
330
310
100
AcDbEntity
  8
}}ﾊﾊGG血CCТ
  6
CONTINUOUS
 62
     7
100
AcDbLine
 10
133.0
 20
20.0
 30
0.0
 11
133.0
 21
10.0
 31
0.0
  0
ENDBLK
  5
312
330
310
100
AcDbEntity
  8
0
100
AcDbBlockEnd
  0
BLOCK
  5
31D
330
31C
100
AcDbEntity
  8
0
100
AcDbBlockBegin
  2
BLKF043
 70
     0
 71
     0
 10
0.0
 20
0.0
 30
0.0
  3
BLKF043
  1

  0
LINE
  5
321
330
31C
100
AcDbEntity
  8
0-1
  6
CONTINUOUS
 62
     7
100
AcDbLine
 10
344.8019
 20
17.913462
 30
0.0
 11
338.8019
 21
17.913462
 31
0.0
  0
LINE
  5
322
330
31C
100
AcDbEntity
  8
0-1
  6
CONTINUOUS
 62
     7
100
AcDbLine
 10
338.8019
 20
17.913462
 30
0.0
 11
338.8019
 21
11.913462
 31
0.0
  0
LINE
  5
323
330
31C
100
AcDbEntity
  8
0-1
  6
CONTINUOUS
 62
     7
100
AcDbLine
 10
338.8019
 20
11.913462
 30
0.0
 11
344.8019
 21
11.913462
 31
0.0
  0
LINE
  5
324
330
31C
100
AcDbEntity
  8
0-1
  6
CONTINUOUS
 62
     7
100
AcDbLine
 10
344.8019
 20
11.913462
 30
0.0
 11
344.8019
 21
17.913462
 31
0.0
  0
ENDBLK
  5
31E
330
31C
100
AcDbEntity
  8
0
100
AcDbBlockEnd
  0
BLOCK
  5
326
330
325
100
AcDbEntity
  8
0
100
AcDbBlockBegin
  2
BLKF044
 70
     0
 71
     0
 10
0.0
 20
0.0
 30
0.0
  3
BLKF044
  1

  0
LINE
  5
329
330
325
100
AcDbEntity
  8
0-1
  6
CONTINUOUS
 62
     7
100
AcDbLine
 10
344.224977
 20
15.346154
 30
0.0
 11
341.8019
 21
17.769231
 31
0.0
  0
LINE
  5
32A
330
325
100
AcDbEntity
  8
0-1
  6
CONTINUOUS
 62
     7
100
AcDbLine
 10
341.8019
 20
17.769231
 30
0.0
 11
338.946131
 21
14.913462
 31
0.0
  0
LINE
  5
32B
330
325
100
AcDbEntity
  8
0-1
  6
CONTINUOUS
 62
     7
100
AcDbLine
 10
338.946131
 20
14.913462
 30
0.0
 11
341.8019
 21
12.057692
 31
0.0
  0
LINE
  5
32C
330
325
100
AcDbEntity
  8
0-1
  6
CONTINUOUS
 62
     7
100
AcDbLine
 10
341.8019
 20
12.057692
 30
0.0
 11
343.359592
 21
13.615385
 31
0.0
  0
LINE
  5
32D
330
325
100
AcDbEntity
  8
0-1
  6
CONTINUOUS
 62
     7
100
AcDbLine
 10
343.359592
 20
13.615385
 30
0.0
 11
343.359592
 21
12.980769
 31
0.0
  0
LINE
  5
32E
330
325
100
AcDbEntity
  8
0-1
  6
CONTINUOUS
 62
     7
100
AcDbLine
 10
343.359592
 20
12.980769
 30
0.0
 11
344.224977
 21
12.980769
 31
0.0
  0
LINE
  5
32F
330
325
100
AcDbEntity
  8
0-1
  6
CONTINUOUS
 62
     7
100
AcDbLine
 10
344.224977
 20
12.980769
 30
0.0
 11
344.224977
 21
15.0
 31
0.0
  0
LINE
  5
330
330
325
100
AcDbEntity
  8
0-1
  6
CONTINUOUS
 62
     7
100
AcDbLine
 10
344.224977
 20
15.0
 30
0.0
 11
341.8019
 21
15.0
 31
0.0
  0
LINE
  5
331
330
325
100
AcDbEntity
  8
0-1
  6
CONTINUOUS
 62
     7
100
AcDbLine
 10
341.8019
 20
15.0
 30
0.0
 11
341.8019
 21
14.134615
 31
0.0
  0
LINE
  5
332
330
325
100
AcDbEntity
  8
0-1
  6
CONTINUOUS
 62
     7
100
AcDbLine
 10
341.8019
 20
14.134615
 30
0.0
 11
342.246131
 21
14.134615
 31
0.0
  0
LINE
  5
333
330
325
100
AcDbEntity
  8
0-1
  6
CONTINUOUS
 62
     7
100
AcDbLine
 10
342.246131
 20
14.134615
 30
0.0
 11
341.8019
 21
13.690385
 31
0.0
  0
LINE
  5
334
330
325
100
AcDbEntity
  8
0-1
  6
CONTINUOUS
 62
     7
100
AcDbLine
 10
341.8019
 20
13.690385
 30
0.0
 11
340.578823
 21
14.913462
 31
0.0
  0
LINE
  5
335
330
325
100
AcDbEntity
  8
0-1
  6
CONTINUOUS
 62
     7
100
AcDbLine
 10
340.578823
 20
14.913462
 30
0.0
 11
341.8019
 21
16.136538
 31
0.0
  0
LINE
  5
336
330
325
100
AcDbEntity
  8
0-1
  6
CONTINUOUS
 62
     7
100
AcDbLine
 10
341.8019
 20
16.136538
 30
0.0
 11
342.592284
 21
15.346154
 31
0.0
  0
LINE
  5
337
330
325
100
AcDbEntity
  8
0-1
  6
CONTINUOUS
 62
     7
100
AcDbLine
 10
342.592284
 20
15.346154
 30
0.0
 11
344.224977
 21
15.346154
 31
0.0
  0
ENDBLK
  5
327
330
325
100
AcDbEntity
  8
0
100
AcDbBlockEnd
  0
ENDSEC
  0
SECTION
  2
ENTITIES
  0
TEXT
  5
A8
330
1F
100
AcDbEntity
  8
}}ﾊﾊGG血CCТ
  6
CONTINUOUS
 62
     7
100
AcDbText
 10
155.941055
 20
12.0
 30
0.0
 40
6.0
  1
ＴＪ－　５０　Ｒ　Ｓ
 41
0.79096
  7
FX_VECTOR
 72
     5
 11
195.941055
 21
12.0
 31
0.0
100
AcDbText
  0
TEXT
  5
A9
330
1F
100
AcDbEntity
  8
}}ﾊﾊGG血CCТ
  6
CONTINUOUS
 62
     7
100
AcDbText
 10
255.314117
 20
12.0
 30
0.0
 40
6.0
  1
TE20A1RAA-C02
 41
0.716535
  7
FX_VECTOR
 72
     5
 11
307.314117
 21
12.0
 31
0.0
100
AcDbText
  0
LINE
  5
AA
330
1F
100
AcDbEntity
  8
LAYERGROUP-1
  6
CENTER
 62
     6
100
AcDbLine
 10
304.217065
 20
215.510078
 30
0.0
 11
228.632675
 21
215.510078
 31
0.0
  0
CIRCLE
  5
AB
330
1F
100
AcDbEntity
  8
LAYERGROUP-1
  6
CONTINUOUS
 62
     3
100
AcDbCircle
 10
295.517796
 20
233.010078
 30
0.0
 40
3.25
  0
CIRCLE
  5
AC
330
1F
100
AcDbEntity
  8
LAYERGROUP-1
  6
CONTINUOUS
 62
     3
100
AcDbCircle
 10
249.517796
 20
233.010078
 30
0.0
 40
3.25
  0
CIRCLE
  5
AD
330
1F
100
AcDbEntity
  8
LAYERGROUP-1
  6
CONTINUOUS
 62
     3
100
AcDbCircle
 10
249.517796
 20
198.010078
 30
0.0
 40
3.25
  0
CIRCLE
  5
AE
330
1F
100
AcDbEntity
  8
LAYERGROUP-1
  6
CONTINUOUS
 62
     3
100
AcDbCircle
 10
295.517796
 20
198.010078
 30
0.0
 40
3.25
  0
ARC
  5
AF
330
1F
100
AcDbEntity
  8
LAYERGROUP-1
  6
CONTINUOUS
 62
     3
100
AcDbCircle
 10
352.067796
 20
215.510078
 30
0.0
 40
52.55000000000042
100
AcDbArc
 50
163.268228
 51
196.731772
  0
ARC
  5
B0
330
1F
100
AcDbEntity
  8
LAYERGROUP-1
  6
CONTINUOUS
 62
     3
100
AcDbCircle
 10
192.967796
 20
215.510078
 30
0.0
 40
52.55000000000032
100
AcDbArc
 50
-16.731772
 51
16.731772
  0
LINE
  5
B1
330
1F
100
AcDbEntity
  8
LAYERGROUP-1
  6
CONTINUOUS
 62
     3
100
AcDbLine
 10
295.517796
 20
239.010078
 30
0.0
 11
249.517796
 21
239.010078
 31
0.0
  0
LINE
  5
B2
330
1F
100
AcDbEntity
  8
LAYERGROUP-1
  6
CONTINUOUS
 62
     3
100
AcDbLine
 10
295.517796
 20
192.010078
 30
0.0
 11
249.517796
 21
192.010078
 31
0.0
  0
ARC
  5
B3
330
1F
100
AcDbEntity
  8
LAYERGROUP-1
  6
CONTINUOUS
 62
     3
100
AcDbCircle
 10
295.517796
 20
232.510078
 30
0.0
 40
6.5
100
AcDbArc
 50
-16.731772
 51
90.0
  0
ARC
  5
B4
330
1F
100
AcDbEntity
  8
LAYERGROUP-1
  6
CONTINUOUS
 62
     3
100
AcDbCircle
 10
249.517796
 20
232.510078
 30
0.0
 40
6.5
100
AcDbArc
 50
90.0
 51
196.731772
  0
ARC
  5
B5
330
1F
100
AcDbEntity
  8
LAYERGROUP-1
  6
CONTINUOUS
 62
     3
100
AcDbCircle
 10
249.517796
 20
198.510078
 30
0.0
 40
6.5
100
AcDbArc
 50
163.268228
 51
270.0
  0
ARC
  5
B6
330
1F
100
AcDbEntity
  8
LAYERGROUP-1
  6
CONTINUOUS
 62
     3
100
AcDbCircle
 10
295.517796
 20
198.510078
 30
0.0
 40
6.5
100
AcDbArc
 50
-90.0
 51
16.731772
  0
LINE
  5
B7
330
1F
100
AcDbEntity
  8
LAYERGROUP-1
  6
CENTER
 62
     6
100
AcDbLine
 10
289.292555
 20
233.010078
 30
0.0
 11
301.998536
 21
233.010078
 31
0.0
  0
LINE
  5
B8
330
1F
100
AcDbEntity
  8
LAYERGROUP-1
  6
CENTER
 62
     6
100
AcDbLine
 10
289.43655
 20
198.010078
 30
0.0
 11
301.998536
 21
198.010078
 31
0.0
  0
LINE
  5
B9
330
1F
100
AcDbEntity
  8
LAYERGROUP-1
  6
CENTER
 62
     6
100
AcDbLine
 10
243.037055
 20
233.010078
 30
0.0
 11
255.453783
 21
233.010078
 31
0.0
  0
LINE
  5
BA
330
1F
100
AcDbEntity
  8
LAYERGROUP-1
  6
CENTER
 62
     6
100
AcDbLine
 10
243.037055
 20
198.010078
 30
0.0
 11
255.597778
 21
198.010078
 31
0.0
  0
LINE
  5
BB
330
1F
100
AcDbEntity
  8
LAYERGROUP-1
  6
CENTER
 62
     6
100
AcDbLine
 10
249.517796
 20
192.010078
 30
0.0
 11
249.517796
 21
203.94221
 31
0.0
  0
DIMENSION
  5
BC
330
1F
100
AcDbEntity
  8
LAYERGROUP-1
100
AcDbDimension
  2
*D19
 10
311.478103
 20
233.010078
 30
0.0
 11
310.478119
 21
215.510086
 31
0.0
 70
    33
  3
FXDIMINFO
100
AcDbAlignedDimension
 13
301.998536
 23
198.010078
 33
0.0
 14
301.998536
 24
233.010078
 34
0.0
1001
ACAD
1000
DSTYLE
1002
{
1070
     7
1000
FXTIP_ARROW_E
1070
     6
1000
FXTIP_ARROW_S
1070
   173
1070
     1
1002
}
  0
DIMENSION
  5
C6
330
1F
100
AcDbEntity
  8
LAYERGROUP-1
100
AcDbDimension
  2
*D20
 10
320.489297
 20
239.010078
 30
0.0
 11
319.489319
 21
215.510086
 31
0.0
 70
    33
  3
FXDIMINFO
100
AcDbAlignedDimension
 13
295.517796
 23
192.010078
 33
0.0
 14
295.517796
 24
239.010078
 34
0.0
1001
ACAD
1000
DSTYLE
1002
{
1070
     7
1000
FXTIP_ARROW_E
1070
     6
1000
FXTIP_ARROW_S
1070
   173
1070
     1
1002
}
  0
LINE
  5
D0
330
1F
100
AcDbEntity
  8
LAYERGROUP-1
  6
CENTER
 62
     6
100
AcDbLine
 10
272.517796
 20
187.957066
 30
0.0
 11
272.517796
 21
247.714897
 31
0.0
  0
CIRCLE
  5
D1
330
1F
100
AcDbEntity
  8
LAYERGROUP-1
  6
CONTINUOUS
 62
     6
100
AcDbCircle
 10
272.517796
 20
215.510078
 30
0.0
 40
9.0
  0
CIRCLE
  5
D2
330
1F
100
AcDbEntity
  8
LAYERGROUP-1
  6
CONTINUOUS
 62
     6
100
AcDbCircle
 10
272.517796
 20
215.510078
 30
0.0
 40
17.4
  0
CIRCLE
  5
D3
330
1F
100
AcDbEntity
  8
LAYERGROUP-1
  6
CONTINUOUS
 62
     6
100
AcDbCircle
 10
272.517796
 20
215.510078
 30
0.0
 40
18.9
  0
LINE
  5
D4
330
1F
100
AcDbEntity
  8
LAYERGROUP-1
  6
CENTER
 62
     6
100
AcDbLine
 10
272.517796
 20
97.452593
 30
0.0
 11
272.517796
 21
145.520301
 31
0.0
  0
LINE
  5
D5
330
1F
100
AcDbEntity
  8
LAYERGROUP-1
  6
CONTINUOUS
 62
     3
100
AcDbLine
 10
283.118231
 20
125.801363
 30
0.0
 11
268.863954
 21
106.713011
 31
0.0
  0
ARC
  5
D6
330
1F
100
AcDbEntity
  8
LAYERGROUP-1
  6
CONTINUOUS
 62
     3
100
AcDbCircle
 10
289.528209
 20
121.014696
 30
0.0
 40
8.0
100
AcDbArc
 50
90.0
 51
143.249368
  0
LINE
  5
D7
330
1F
100
AcDbEntity
  8
LAYERGROUP-1
  6
CONTINUOUS
 62
     3
100
AcDbLine
 10
251.517796
 20
130.714696
 30
0.0
 11
250.117974
 21
115.226077
 31
0.0
  0
ARC
  5
D8
330
1F
100
AcDbEntity
  8
LAYERGROUP-1
  6
CONTINUOUS
 62
     3
100
AcDbCircle
 10
290.517796
 20
134.214696
 30
0.0
 40
2.5
100
AcDbArc
 50
0.0
 51
90.0
  0
LINE
  5
D9
330
1F
100
AcDbEntity
  8
LAYERGROUP-1
  6
CONTINUOUS
 62
     3
100
AcDbLine
 10
293.017796
 20
129.014696
 30
0.0
 11
293.017796
 21
134.214696
 31
0.0
  0
LINE
  5
DA
330
1F
100
AcDbEntity
  8
LAYERGROUP-1
  6
CONTINUOUS
 62
     3
100
AcDbLine
 10
250.517796
 20
132.714696
 30
0.0
 11
251.517796
 21
130.714696
 31
0.0
  0
ARC
  5
DB
330
1F
100
AcDbEntity
  8
LAYERGROUP-1
  6
CONTINUOUS
 62
     3
100
AcDbCircle
 10
255.55333
 20
134.214696
 30
0.0
 40
2.5
100
AcDbArc
 50
90.0
 51
135.0
  0
LINE
  5
DC
330
1F
100
AcDbEntity
  8
LAYERGROUP-1
  6
CONTINUOUS
 62
     3
100
AcDbLine
 10
293.017796
 20
129.014696
 30
0.0
 11
289.528209
 21
129.014696
 31
0.0
  0
ARC
  5
DD
330
1F
100
AcDbEntity
  8
LAYERGROUP-1
  6
CONTINUOUS
 62
     3
100
AcDbCircle
 10
254.517796
 20
134.214696
 30
0.0
 40
2.5
100
AcDbArc
 50
90.0
 51
180.0
  0
ARC
  5
DE
330
1F
100
AcDbEntity
  8
}}ﾊﾊGG血CCТ
  6
CONTINUOUS
 62
     3
100
AcDbCircle
 10
161.754879
 20
134.014696
 30
0.0
 40
2.5
100
AcDbArc
 50
0.0
 51
90.0
  0
LINE
  5
DF
330
1F
100
AcDbEntity
  8
}}ﾊﾊGG血CCТ
  6
CONTINUOUS
 62
     3
100
AcDbLine
 10
123.254879
 20
128.814696
 30
0.0
 11
123.254879
 21
134.014696
 31
0.0
  0
ARC
  5
E0
330
1F
100
AcDbEntity
  8
}}ﾊﾊGG血CCТ
  6
CONTINUOUS
 62
     3
100
AcDbCircle
 10
125.754879
 20
134.014696
 30
0.0
 40
2.5
100
AcDbArc
 50
90.0
 51
180.0
  0
ARC
  5
E1
330
1F
100
AcDbEntity
  8
LAYERGROUP-1
  6
CONTINUOUS
 62
     3
100
AcDbCircle
 10
130.754879
 20
112.113896
 30
0.0
 40
7.5
100
AcDbArc
 50
180.0
 51
245.165413
  0
LINE
  5
E2
330
1F
100
AcDbEntity
  8
LAYERGROUP-1
  6
CONTINUOUS
 62
     3
100
AcDbLine
 10
123.254879
 20
128.814696
 30
0.0
 11
123.254879
 21
112.113896
 31
0.0
  0
LINE
  5
E3
330
1F
100
AcDbEntity
  8
LAYERGROUP-1
  6
CENTER
 62
     6
100
AcDbLine
 10
120.598772
 20
102.714696
 30
0.0
 11
166.681327
 21
102.714696
 31
0.0
  0
LINE
  5
E4
330
1F
100
AcDbEntity
  8
LAYERGROUP-1
  6
CONTINUOUS
 62
     3
100
AcDbLine
 10
120.254879
 20
140.514696
 30
0.0
 11
167.254879
 21
140.514696
 31
0.0
  0
LINE
  5
E5
330
1F
100
AcDbEntity
  8
LAYERGROUP-1
  6
CONTINUOUS
 62
     3
100
AcDbLine
 10
165.254879
 20
140.514696
 30
0.0
 11
163.646006
 21
138.312771
 31
0.0
  0
ARC
  5
E6
330
1F
100
AcDbEntity
  8
LAYERGROUP-1
  6
CONTINUOUS
 62
     3
100
AcDbCircle
 10
162.031145
 20
139.492696
 30
0.0
 40
2.0
100
AcDbArc
 50
270.0
 51
323.845646
  0
LINE
  5
E7
330
1F
100
AcDbEntity
  8
LAYERGROUP-1
  6
CONTINUOUS
 62
     3
100
AcDbLine
 10
122.254879
 20
140.514696
 30
0.0
 11
123.863753
 21
138.312771
 31
0.0
  0
ARC
  5
E8
330
1F
100
AcDbEntity
  8
LAYERGROUP-1
  6
CONTINUOUS
 62
     3
100
AcDbCircle
 10
125.478614
 20
139.492696
 30
0.0
 40
2.0
100
AcDbArc
 50
216.154354
 51
270.0
  0
LINE
  5
E9
330
1F
100
AcDbEntity
  8
LAYERGROUP-1
  6
CONTINUOUS
 62
     3
100
AcDbLine
 10
120.254879
 20
142.514696
 30
0.0
 11
167.254879
 21
142.514696
 31
0.0
  0
LINE
  5
EA
330
1F
100
AcDbEntity
  8
LAYERGROUP-1
  6
CONTINUOUS
 62
     3
100
AcDbLine
 10
125.478614
 20
137.492696
 30
0.0
 11
162.031145
 21
137.492696
 31
0.0
  0
LINE
  5
EB
330
1F
100
AcDbEntity
  8
LAYERGROUP-1
  6
CONTINUOUS
 62
     3
100
AcDbLine
 10
167.254879
 20
142.514696
 30
0.0
 11
167.254879
 21
140.514696
 31
0.0
  0
LINE
  5
EC
330
1F
100
AcDbEntity
  8
LAYERGROUP-1
  6
CONTINUOUS
 62
     3
100
AcDbLine
 10
120.254879
 20
142.514696
 30
0.0
 11
120.254879
 21
140.514696
 31
0.0
  0
LINE
  5
ED
330
1F
100
AcDbEntity
  8
LAYERGROUP-1
  6
CENTER
 62
     6
100
AcDbLine
 10
265.335885
 20
102.714696
 30
0.0
 11
247.593049
 21
102.714696
 31
0.0
  0
LINE
  5
EE
330
1F
100
AcDbEntity
  8
LAYERGROUP-1
  6
CONTINUOUS
 62
     3
100
AcDbLine
 10
125.754879
 20
136.514696
 30
0.0
 11
161.754879
 21
136.514696
 31
0.0
  0
DIMENSION
  5
EF
330
1F
100
AcDbEntity
  8
LAYERGROUP-1
100
AcDbDimension
  2
*D21
 10
320.489297
 20
142.714696
 30
0.0
 11
319.489319
 21
110.214691
 31
0.0
 70
    32
  3
FXDIMINFO
100
AcDbAlignedDimension
 13
256.517796
 23
77.714696
 33
0.0
 14
299.517796
 24
142.714696
 34
0.0
 50
270.0
100
AcDbRotatedDimension
1001
ACAD
1000
DSTYLE
1002
{
1070
     7
1000
FXTIP_ARROW_E
1070
     6
1000
FXTIP_ARROW_S
1070
   173
1070
     1
1002
}
  0
LINE
  5
F9
330
1F
100
AcDbEntity
  8
LAYERGROUP-1
  6
CONTINUOUS
 62
     3
100
AcDbLine
 10
155.954879
 20
105.714696
 30
0.0
 11
156.254879
 21
105.714696
 31
0.0
  0
LINE
  5
FA
330
1F
100
AcDbEntity
  8
LAYERGROUP-1
  6
CONTINUOUS
 62
     3
100
AcDbLine
 10
155.954879
 20
99.714696
 30
0.0
 11
156.254879
 21
99.714696
 31
0.0
  0
ARC
  5
FB
330
1F
100
AcDbEntity
  8
LAYERGROUP-1
  6
CONTINUOUS
 62
     3
100
AcDbCircle
 10
272.517796
 20
215.510078
 30
0.0
 40
6.5
100
AcDbArc
 50
107.920213
 51
162.079787
  0
ARC
  5
FC
330
1F
100
AcDbEntity
  8
LAYERGROUP-1
  6
CONTINUOUS
 62
     3
100
AcDbCircle
 10
272.517796
 20
215.510078
 30
0.0
 40
6.5
100
AcDbArc
 50
17.920213
 51
72.079787
  0
ARC
  5
FD
330
1F
100
AcDbEntity
  8
LAYERGROUP-1
  6
CONTINUOUS
 62
     3
100
AcDbCircle
 10
272.517796
 20
215.510078
 30
0.0
 40
6.5
100
AcDbArc
 50
287.920213
 51
342.079787
  0
ARC
  5
FE
330
1F
100
AcDbEntity
  8
LAYERGROUP-1
  6
CONTINUOUS
 62
     3
100
AcDbCircle
 10
272.517796
 20
215.510078
 30
0.0
 40
6.5
100
AcDbArc
 50
197.920213
 51
252.079787
  0
ARC
  5
FF
330
1F
100
AcDbEntity
  8
LAYERGROUP-1
  6
CONTINUOUS
 62
     3
100
AcDbCircle
 10
275.100586
 20
216.728817
 30
0.0
 40
5.0
100
AcDbArc
 50
96.693497
 51
121.101651
  0
ARC
  5
100
330
1F
100
AcDbEntity
  8
LAYERGROUP-1
  6
CONTINUOUS
 62
     3
100
AcDbCircle
 10
269.935006
 20
216.728817
 30
0.0
 40
5.0
100
AcDbArc
 50
58.898349
 51
83.306503
  0
ARC
  5
101
330
1F
100
AcDbEntity
  8
LAYERGROUP-1
  6
CONTINUOUS
 62
     3
100
AcDbCircle
 10
273.736535
 20
212.927288
 30
0.0
 40
5.0
100
AcDbArc
 50
6.693497
 51
31.101651
  0
ARC
  5
102
330
1F
100
AcDbEntity
  8
LAYERGROUP-1
  6
CONTINUOUS
 62
     3
100
AcDbCircle
 10
273.736535
 20
218.092868
 30
0.0
 40
5.0
100
AcDbArc
 50
328.898349
 51
353.306503
  0
ARC
  5
103
330
1F
100
AcDbEntity
  8
LAYERGROUP-1
  6
CONTINUOUS
 62
     3
100
AcDbCircle
 10
269.935006
 20
214.291339
 30
0.0
 40
5.0
100
AcDbArc
 50
276.693497
 51
301.101651
  0
ARC
  5
104
330
1F
100
AcDbEntity
  8
LAYERGROUP-1
  6
CONTINUOUS
 62
     3
100
AcDbCircle
 10
275.100586
 20
214.291339
 30
0.0
 40
5.0
100
AcDbArc
 50
238.898349
 51
263.306503
  0
ARC
  5
105
330
1F
100
AcDbEntity
  8
LAYERGROUP-1
  6
CONTINUOUS
 62
     3
100
AcDbCircle
 10
271.299057
 20
218.092868
 30
0.0
 40
5.0
100
AcDbArc
 50
186.693497
 51
211.101651
  0
ARC
  5
106
330
1F
100
AcDbEntity
  8
LAYERGROUP-1
  6
CONTINUOUS
 62
     3
100
AcDbCircle
 10
271.299057
 20
212.927288
 30
0.0
 40
5.0
100
AcDbArc
 50
148.898349
 51
173.306503
  0
LINE
  5
107
330
1F
100
AcDbEntity
  8
LAYERGROUP-1
  6
CONTINUOUS
 62
     3
100
AcDbLine
 10
266.333137
 20
217.510078
 30
0.0
 11
270.517796
 21
217.510078
 31
0.0
  0
LINE
  5
108
330
1F
100
AcDbEntity
  8
LAYERGROUP-1
  6
CONTINUOUS
 62
     3
100
AcDbLine
 10
270.517796
 20
217.510078
 30
0.0
 11
270.517796
 21
221.694736
 31
0.0
  0
LINE
  5
109
330
1F
100
AcDbEntity
  8
LAYERGROUP-1
  6
CONTINUOUS
 62
     3
100
AcDbLine
 10
274.517796
 20
221.694736
 30
0.0
 11
274.517796
 21
217.510078
 31
0.0
  0
LINE
  5
10A
330
1F
100
AcDbEntity
  8
LAYERGROUP-1
  6
CONTINUOUS
 62
     3
100
AcDbLine
 10
274.517796
 20
217.510078
 30
0.0
 11
278.702454
 21
217.510078
 31
0.0
  0
LINE
  5
10B
330
1F
100
AcDbEntity
  8
LAYERGROUP-1
  6
CONTINUOUS
 62
     3
100
AcDbLine
 10
278.702454
 20
213.510078
 30
0.0
 11
274.517796
 21
213.510078
 31
0.0
  0
LINE
  5
10C
330
1F
100
AcDbEntity
  8
LAYERGROUP-1
  6
CONTINUOUS
 62
     3
100
AcDbLine
 10
274.517796
 20
213.510078
 30
0.0
 11
274.517796
 21
209.325419
 31
0.0
  0
LINE
  5
10D
330
1F
100
AcDbEntity
  8
LAYERGROUP-1
  6
CONTINUOUS
 62
     3
100
AcDbLine
 10
270.517796
 20
209.325419
 30
0.0
 11
270.517796
 21
213.510078
 31
0.0
  0
LINE
  5
10E
330
1F
100
AcDbEntity
  8
LAYERGROUP-1
  6
CONTINUOUS
 62
     3
100
AcDbLine
 10
270.517796
 20
213.510078
 30
0.0
 11
266.333137
 21
213.510078
 31
0.0
  0
LINE
  5
10F
330
1F
100
AcDbEntity
  8
LAYERGROUP-1
  6
CONTINUOUS
 62
     3
100
AcDbLine
 10
270.517796
 20
217.510078
 30
0.0
 11
274.517796
 21
213.510078
 31
0.0
  0
LINE
  5
110
330
1F
100
AcDbEntity
  8
LAYERGROUP-1
  6
CONTINUOUS
 62
     3
100
AcDbLine
 10
274.517796
 20
217.510078
 30
0.0
 11
270.517796
 21
213.510078
 31
0.0
  0
LINE
  5
111
330
1F
100
AcDbEntity
  8
LAYERGROUP-1
  6
CONTINUOUS
 62
     3
100
AcDbLine
 10
243.522067
 20
104.025414
 30
0.0
 11
242.947579
 21
104.330875
 31
0.0
  0
ARC
  5
112
330
1F
100
AcDbEntity
  8
LAYERGROUP-1
  6
CONTINUOUS
 62
     3
100
AcDbCircle
 10
261.628984
 20
112.518917
 30
0.0
 40
20.00000000000012
100
AcDbArc
 50
205.130102
 51
278.869898
  0
ARC
  5
113
330
1F
100
AcDbEntity
  8
LAYERGROUP-1
  6
CONTINUOUS
 62
     3
100
AcDbCircle
 10
254.684368
 20
126.404565
 30
0.0
 40
25.0
100
AcDbArc
 50
186.055798
 51
242.0
  0
ARC
  5
114
330
1F
100
AcDbEntity
  8
LAYERGROUP-1
  6
CONTINUOUS
 62
     3
100
AcDbCircle
 10
277.024087
 20
114.526325
 30
0.0
 40
25.0
100
AcDbArc
 50
242.0
 51
297.944202
  0
LINE
  5
115
330
1F
100
AcDbEntity
  8
LAYERGROUP-1
  6
CONTINUOUS
 62
     3
100
AcDbLine
 10
292.88963
 20
92.499626
 30
0.0
 11
270.28772
 21
104.517275
 31
0.0
  0
ARC
  5
116
330
1F
100
AcDbEntity
  8
LAYERGROUP-1
  6
CONTINUOUS
 62
     3
100
AcDbCircle
 10
256.464796
 20
102.806493
 30
0.0
 40
13.0
100
AcDbArc
 50
14.64231
 51
109.35769
  0
LINE
  5
117
330
1F
100
AcDbEntity
  8
LAYERGROUP-1
  6
CONTINUOUS
 62
     3
100
AcDbLine
 10
291.950687
 20
90.733731
 30
0.0
 11
269.348777
 21
102.751379
 31
0.0
  0
ARC
  5
118
330
1F
100
AcDbEntity
  8
LAYERGROUP-1
  6
CONTINUOUS
 62
     3
100
AcDbCircle
 10
256.464796
 20
102.806493
 30
0.0
 40
11.0
100
AcDbArc
 50
14.64231
 51
109.35769
  0
LINE
  5
119
330
1F
100
AcDbEntity
  8
LAYERGROUP-1
  6
CONTINUOUS
 62
     3
100
AcDbLine
 10
250.153417
 20
115.222873
 30
0.0
 11
227.551508
 21
127.240522
 31
0.0
  0
LINE
  5
11A
330
1F
100
AcDbEntity
  8
LAYERGROUP-1
  6
CONTINUOUS
 62
     3
100
AcDbLine
 10
249.214474
 20
113.456978
 30
0.0
 11
226.612565
 21
125.474627
 31
0.0
  0
LINE
  5
11B
330
1F
100
AcDbEntity
  8
LAYERGROUP-1
  6
CONTINUOUS
 62
     3
100
AcDbLine
 10
226.612565
 20
125.474627
 30
0.0
 11
227.551508
 21
127.240522
 31
0.0
  0
LINE
  5
11C
330
1F
100
AcDbEntity
  8
LAYERGROUP-1
  6
CONTINUOUS
 62
     3
100
AcDbLine
 10
291.950687
 20
90.733731
 30
0.0
 11
292.88963
 21
92.499626
 31
0.0
  0
LINE
  5
11D
330
1F
100
AcDbEntity
  8
LAYERGROUP-1
  6
CONTINUOUS
 62
     3
100
AcDbLine
 10
265.287298
 20
92.452636
 30
0.0
 11
264.71281
 21
92.758097
 31
0.0
  0
LINE
  5
11E
330
1F
100
AcDbEntity
  8
LAYERGROUP-1
  6
CONTINUOUS
 62
     3
100
AcDbLine
 10
266.777659
 20
91.722582
 30
0.0
 11
258.833717
 21
113.548384
 31
0.0
  0
LINE
  5
11F
330
1F
100
AcDbEntity
  8
LAYERGROUP-1
  6
DASHED
 62
     3
100
AcDbLine
 10
271.618488
 20
90.117731
 30
0.0
 11
264.127839
 21
110.69812
 31
0.0
  0
LINE
  5
120
330
1F
100
AcDbEntity
  8
LAYERGROUP-1
  6
CONTINUOUS
 62
     3
100
AcDbLine
 10
261.276228
 20
98.066227
 30
0.0
 11
260.947176
 21
98.970288
 31
0.0
  0
LINE
  5
121
330
1F
100
AcDbEntity
  8
LAYERGROUP-1
  6
CONTINUOUS
 62
     3
100
AcDbLine
 10
255.826011
 20
96.08251
 30
0.0
 11
255.48969
 21
97.006544
 31
0.0
  0
ARC
  5
122
330
1F
100
AcDbEntity
  8
LAYERGROUP-1
  6
CONTINUOUS
 62
     3
100
AcDbCircle
 10
254.378473
 20
108.538618
 30
0.0
 40
2.90000000000001
100
AcDbArc
 50
20.0
 51
200.0
  0
ARC
  5
123
330
1F
100
AcDbEntity
  8
LAYERGROUP-1
  6
CONTINUOUS
 62
     3
100
AcDbCircle
 10
258.551119
 20
97.074368
 30
0.0
 40
2.899999999999999
100
AcDbArc
 50
-160.0
 51
20.0
  0
LINE
  5
124
330
1F
100
AcDbEntity
  8
LAYERGROUP-1
  6
CONTINUOUS
 62
     3
100
AcDbLine
 10
274.803118
 20
93.261665
 30
0.0
 11
274.637501
 21
91.268534
 31
0.0
  0
LINE
  5
125
330
1F
100
AcDbEntity
  8
LAYERGROUP-1
  6
CONTINUOUS
 62
     3
100
AcDbLine
 10
270.816856
 20
93.592897
 30
0.0
 11
270.651239
 21
91.599766
 31
0.0
  0
LINE
  5
126
330
1F
100
AcDbEntity
  8
LAYERGROUP-1
  6
CONTINUOUS
 62
     3
100
AcDbLine
 10
278.78938
 20
92.930432
 30
0.0
 11
278.623763
 21
90.937301
 31
0.0
  0
LINE
  5
127
330
1F
100
AcDbEntity
  8
LAYERGROUP-1
  6
CONTINUOUS
 62
     3
100
AcDbLine
 10
270.816856
 20
93.592897
 30
0.0
 11
278.78938
 21
92.930432
 31
0.0
  0
LINE
  5
128
330
1F
100
AcDbEntity
  8
LAYERGROUP-1
  6
CONTINUOUS
 62
     3
100
AcDbLine
 10
270.651239
 20
91.599766
 30
0.0
 11
278.623763
 21
90.937301
 31
0.0
  0
ARC
  5
129
330
1F
100
AcDbEntity
  8
LAYERGROUP-1
  6
CONTINUOUS
 62
     3
100
AcDbCircle
 10
271.461399
 20
106.724644
 30
0.0
 40
2.5
100
AcDbArc
 50
194.64231
 51
242.0
  0
ARC
  5
12A
330
1F
100
AcDbEntity
  8
LAYERGROUP-1
  6
CONTINUOUS
 62
     3
100
AcDbCircle
 10
251.327096
 20
117.430242
 30
0.0
 40
2.5
100
AcDbArc
 50
242.0
 51
289.35769
  0
ARC
  5
12B
330
1F
100
AcDbEntity
  8
LAYERGROUP-1
  6
CONTINUOUS
 62
     3
100
AcDbCircle
 10
271.461399
 20
106.724644
 30
0.0
 40
4.5
100
AcDbArc
 50
194.64231
 51
242.0
  0
ARC
  5
12C
330
1F
100
AcDbEntity
  8
LAYERGROUP-1
  6
CONTINUOUS
 62
     3
100
AcDbCircle
 10
251.327096
 20
117.430242
 30
0.0
 40
4.5
100
AcDbArc
 50
242.0
 51
289.35769
  0
LINE
  5
12D
330
1F
100
AcDbEntity
  8
LAYERGROUP-1
  6
CONTINUOUS
 62
     3
100
AcDbLine
 10
249.127728
 20
113.503102
 30
0.0
 11
247.719314
 21
110.854259
 31
0.0
  0
LINE
  5
12E
330
1F
100
AcDbEntity
  8
LAYERGROUP-1
  6
CONTINUOUS
 62
     3
100
AcDbLine
 10
245.595938
 20
115.380988
 30
0.0
 11
244.187523
 21
112.732145
 31
0.0
  0
LINE
  5
12F
330
1F
100
AcDbEntity
  8
LAYERGROUP-1
  6
CONTINUOUS
 62
     3
100
AcDbLine
 10
247.719314
 20
110.854259
 30
0.0
 11
244.187523
 21
112.732145
 31
0.0
  0
CIRCLE
  5
130
330
1F
100
AcDbEntity
  8
LAYERGROUP-1
  6
CONTINUOUS
 62
     3
100
AcDbCircle
 10
256.517796
 20
102.714696
 30
0.0
 40
5.8
  0
LINE
  5
131
330
1F
100
AcDbEntity
  8
LAYERGROUP-1
  6
CONTINUOUS
 62
     3
100
AcDbLine
 10
257.504039
 20
108.430229
 30
0.0
 11
257.103582
 21
109.530477
 31
0.0
  0
LINE
  5
132
330
1F
100
AcDbEntity
  8
LAYERGROUP-1
  6
CONTINUOUS
 62
     3
100
AcDbLine
 10
252.061091
 20
106.42654
 30
0.0
 11
251.653365
 21
107.54676
 31
0.0
  0
LINE
  5
133
330
1F
100
AcDbEntity
  8
LAYERGROUP-1
  6
CONTINUOUS
 62
     3
100
AcDbLine
 10
162.231528
 20
109.430395
 30
0.0
 11
162.231528
 21
96.101058
 31
0.0
  0
LINE
  5
134
330
1F
100
AcDbEntity
  8
}}ﾊﾊGG血CCТ
  6
CONTINUOUS
 62
     3
100
AcDbLine
 10
164.254879
 20
126.690469
 30
0.0
 11
164.254879
 21
134.014696
 31
0.0
  0
LINE
  5
135
330
1F
100
AcDbEntity
  8
LAYERGROUP-1
  6
CONTINUOUS
 62
     3
100
AcDbLine
 10
162.7272
 20
108.514454
 30
0.0
 11
162.431528
 21
108.514454
 31
0.0
  0
LINE
  5
136
330
1F
100
AcDbEntity
  8
LAYERGROUP-1
  6
CONTINUOUS
 62
     3
100
AcDbLine
 10
162.7272
 20
96.914938
 30
0.0
 11
162.431528
 21
96.914938
 31
0.0
  0
ARC
  5
137
330
1F
100
AcDbEntity
  8
LAYERGROUP-1
  6
CONTINUOUS
 62
     3
100
AcDbCircle
 10
155.82223
 20
102.714696
 30
0.0
 40
9.409297768074168
100
AcDbArc
 50
-34.803796
 51
34.803796
  0
ARC
  5
138
330
1F
100
AcDbEntity
  8
LAYERGROUP-1
  6
CONTINUOUS
 62
     3
100
AcDbCircle
 10
162.7272
 20
107.514454
 30
0.0
 40
1.0
100
AcDbArc
 50
34.803796
 51
90.0
  0
ARC
  5
139
330
1F
100
AcDbEntity
  8
LAYERGROUP-1
  6
CONTINUOUS
 62
     3
100
AcDbCircle
 10
162.7272
 20
97.914938
 30
0.0
 40
1.0
100
AcDbArc
 50
270.0
 51
325.196204
  0
LINE
  5
13A
330
1F
100
AcDbEntity
  8
LAYERGROUP-1
  6
CONTINUOUS
 62
     3
100
AcDbLine
 10
127.604879
 20
106.014696
 30
0.0
 11
127.604879
 21
99.414696
 31
0.0
  0
LINE
  5
13B
330
1F
100
AcDbEntity
  8
LAYERGROUP-1
  6
CONTINUOUS
 62
     3
100
AcDbLine
 10
128.604879
 20
107.014696
 30
0.0
 11
129.054879
 21
107.014696
 31
0.0
  0
LINE
  5
13C
330
1F
100
AcDbEntity
  8
LAYERGROUP-1
  6
CONTINUOUS
 62
     3
100
AcDbLine
 10
128.604879
 20
98.414696
 30
0.0
 11
129.054879
 21
98.414696
 31
0.0
  0
ARC
  5
13D
330
1F
100
AcDbEntity
  8
LAYERGROUP-1
  6
CONTINUOUS
 62
     3
100
AcDbCircle
 10
128.604879
 20
99.414696
 30
0.0
 40
1.0
100
AcDbArc
 50
180.0
 51
270.0
  0
ARC
  5
13E
330
1F
100
AcDbEntity
  8
LAYERGROUP-1
  6
CONTINUOUS
 62
     3
100
AcDbCircle
 10
129.054879
 20
98.614696
 30
0.0
 40
0.2
100
AcDbArc
 50
270.0
 51
360.0
  0
ARC
  5
13F
330
1F
100
AcDbEntity
  8
LAYERGROUP-1
  6
CONTINUOUS
 62
     3
100
AcDbCircle
 10
128.604879
 20
106.014696
 30
0.0
 40
1.0
100
AcDbArc
 50
90.0
 51
180.0
  0
ARC
  5
140
330
1F
100
AcDbEntity
  8
LAYERGROUP-1
  6
CONTINUOUS
 62
     3
100
AcDbCircle
 10
129.054879
 20
106.814696
 30
0.0
 40
0.2
100
AcDbArc
 50
0.0
 51
90.0
  0
LINE
  5
141
330
1F
100
AcDbEntity
  8
LAYERGROUP-1
  6
CONTINUOUS
 62
     3
100
AcDbLine
 10
131.254879
 20
126.177872
 30
0.0
 11
131.254879
 21
95.160448
 31
0.0
  0
LINE
  5
142
330
1F
100
AcDbEntity
  8
LAYERGROUP-1
  6
CONTINUOUS
 62
     3
100
AcDbLine
 10
134.254879
 20
114.214696
 30
0.0
 11
134.254879
 21
91.214696
 31
0.0
  0
LINE
  5
143
330
1F
100
AcDbEntity
  8
LAYERGROUP-1
  6
CONTINUOUS
 62
     3
100
AcDbLine
 10
133.978486
 20
112.076499
 30
0.0
 11
131.807666
 21
110.991089
 31
0.0
  0
LINE
  5
144
330
1F
100
AcDbEntity
  8
LAYERGROUP-1
  6
CONTINUOUS
 62
     3
100
AcDbLine
 10
131.807666
 20
94.438303
 30
0.0
 11
133.978486
 21
93.352892
 31
0.0
  0
LINE
  5
145
330
1F
100
AcDbEntity
  8
LAYERGROUP-1
  6
CONTINUOUS
 62
     3
100
AcDbLine
 10
134.254879
 20
114.214696
 30
0.0
 11
134.454879
 21
114.214696
 31
0.0
  0
LINE
  5
146
330
1F
100
AcDbEntity
  8
LAYERGROUP-1
  6
CONTINUOUS
 62
     3
100
AcDbLine
 10
134.254879
 20
91.214696
 30
0.0
 11
134.454879
 21
91.214696
 31
0.0
  0
ARC
  5
147
330
1F
100
AcDbEntity
  8
LAYERGROUP-1
  6
CONTINUOUS
 62
     3
100
AcDbCircle
 10
132.254879
 20
110.096662
 30
0.0
 40
1.0
100
AcDbArc
 50
116.565051
 51
180.0
  0
ARC
  5
148
330
1F
100
AcDbEntity
  8
LAYERGROUP-1
  6
CONTINUOUS
 62
     3
100
AcDbCircle
 10
132.254879
 20
95.33273
 30
0.0
 40
1.0
100
AcDbArc
 50
180.0
 51
243.434949
  0
ARC
  5
149
330
1F
100
AcDbEntity
  8
LAYERGROUP-1
  6
CONTINUOUS
 62
     3
100
AcDbCircle
 10
133.754879
 20
92.905679
 30
0.0
 40
0.5
100
AcDbArc
 50
0.0
 51
63.434949
  0
ARC
  5
14A
330
1F
100
AcDbEntity
  8
LAYERGROUP-1
  6
CONTINUOUS
 62
     3
100
AcDbCircle
 10
133.754879
 20
112.523713
 30
0.0
 40
0.5
100
AcDbArc
 50
296.565051
 51
360.0
  0
DIMENSION
  5
14B
330
1F
100
AcDbEntity
  8
LAYERGROUP-1
100
AcDbDimension
  2
*D22
 10
113.450631
 20
127.713449
 30
0.0
 11
112.45063
 21
102.714691
 31
0.0
 70
    33
  3
FXDIMINFO
100
AcDbAlignedDimension
 13
143.754879
 23
77.715943
 33
0.0
 14
143.754879
 24
127.713449
 34
0.0
1001
ACAD
1000
DSTYLE
1002
{
1070
     7
1000
FXTIP_ARROW_E
1070
     6
1000
FXTIP_ARROW_S
1070
   173
1070
     1
1002
}
  0
LINE
  5
155
330
1F
100
AcDbEntity
  8
LAYERGROUP-1
  6
CENTER
 62
     6
100
AcDbLine
 10
256.514796
 20
66.806462
 30
0.0
 11
256.514796
 21
117.316583
 31
0.0
  0
DIMENSION
  5
156
330
1F
100
AcDbEntity
  8
LAYERGROUP-1
100
AcDbDimension
  2
*D23
 10
272.517796
 20
58.834099
 30
0.0
 11
264.516296
 21
59.834099
 31
0.0
 70
    32
  3
FXDIMINFO
100
AcDbAlignedDimension
 13
256.514796
 23
66.806462
 33
0.0
 14
272.517796
 24
97.452593
 34
0.0
 50
180.0
100
AcDbRotatedDimension
1001
ACAD
1000
DSTYLE
1002
{
1070
     7
1000
FXTIP_ARROW_E
1070
     6
1000
FXTIP_ARROW_S
1070
   173
1070
     1
1002
}
  0
DIMENSION
  5
160
330
1F
100
AcDbEntity
  8
LAYERGROUP-1
100
AcDbDimension
  2
*D24
 10
295.517796
 20
176.223915
 30
0.0
 11
272.517792
 21
177.223923
 31
0.0
 70
    32
  3
FXDIMINFO
100
AcDbAlignedDimension
 13
249.517796
 23
194.760078
 33
0.0
 14
295.517796
 24
192.010078
 34
0.0
 50
180.0
100
AcDbRotatedDimension
1001
ACAD
1000
DSTYLE
1002
{
1070
     7
1000
FXTIP_ARROW_E
1070
     6
1000
FXTIP_ARROW_S
1070
   173
1070
     1
1002
}
  0
DIMENSION
  5
16A
330
1F
100
AcDbEntity
  8
LAYERGROUP-1
100
AcDbDimension
  2
*D25
 10
302.017796
 20
168.212236
 30
0.0
 11
272.517792
 21
169.212234
 31
0.0
 70
    33
  3
FXDIMINFO
100
AcDbAlignedDimension
 13
243.017796
 23
198.510078
 33
0.0
 14
302.017796
 24
198.510078
 34
0.0
1001
ACAD
1000
DSTYLE
1002
{
1070
     7
1000
FXTIP_ARROW_E
1070
     6
1000
FXTIP_ARROW_S
1070
   173
1070
     1
1002
}
  0
LINE
  5
174
330
1F
100
AcDbEntity
  8
LAYERGROUP-1
  6
CONTINUOUS
 62
     3
100
AcDbLine
 10
284.887106
 20
94.489503
 30
0.0
 11
285.826049
 21
96.255399
 31
0.0
  0
LINE
  5
176
330
1F
100
AcDbEntity
  8
1-1
  6
CONTINUOUS
 62
     3
100
AcDbLine
 10
158.254879
 20
118.615785
 30
0.0
 11
158.254873
 21
93.663647
 31
0.0
  0
LINE
  5
177
330
1F
100
AcDbEntity
  8
1-1
  6
CONTINUOUS
 62
     3
100
AcDbLine
 10
160.254875
 20
103.984651
 30
0.0
 11
160.254879
 21
118.615785
 31
0.0
  0
LINE
  5
178
330
1F
100
AcDbEntity
  8
1-1
  6
CONTINUOUS
 62
     3
100
AcDbLine
 10
164.254875
 20
106.889067
 30
0.0
 11
164.254875
 21
109.813127
 31
0.0
  0
LINE
  5
179
330
1F
100
AcDbEntity
  8
1-1
  6
CONTINUOUS
 62
     3
100
AcDbLine
 10
164.254875
 20
109.809374
 30
0.0
 11
164.253075
 21
109.808779
 31
0.0
  0
LINE
  5
17A
330
1F
100
AcDbEntity
  8
1-1
  6
CONTINUOUS
 62
     3
100
AcDbLine
 10
160.255348
 20
113.765337
 30
0.0
 11
160.255348
 21
112.388399
 31
0.0
  0
LINE
  5
17B
330
1F
100
AcDbEntity
  8
1-1
  6
CONTINUOUS
 62
     3
100
AcDbLine
 10
160.255348
 20
112.388399
 30
0.0
 11
167.947953
 21
112.388353
 31
0.0
  0
LINE
  5
17C
330
1F
100
AcDbEntity
  8
1-1
  6
CONTINUOUS
 62
     3
100
AcDbLine
 10
167.947953
 20
112.388353
 30
0.0
 11
167.948639
 21
112.392534
 31
0.0
  0
LINE
  5
17D
330
1F
100
AcDbEntity
  8
1-1
  6
CONTINUOUS
 62
     3
100
AcDbLine
 10
167.948639
 20
112.392534
 30
0.0
 11
167.966103
 21
112.495104
 31
0.0
  0
LINE
  5
17E
330
1F
100
AcDbEntity
  8
1-1
  6
CONTINUOUS
 62
     3
100
AcDbLine
 10
167.966103
 20
112.495104
 30
0.0
 11
168.034043
 21
112.837709
 31
0.0
  0
LINE
  5
17F
330
1F
100
AcDbEntity
  8
1-1
  6
CONTINUOUS
 62
     3
100
AcDbLine
 10
168.034043
 20
112.837709
 30
0.0
 11
168.122765
 21
113.175539
 31
0.0
  0
LINE
  5
180
330
1F
100
AcDbEntity
  8
1-1
  6
CONTINUOUS
 62
     3
100
AcDbLine
 10
170.608895
 20
103.732225
 30
0.0
 11
165.176361
 21
103.732108
 31
0.0
  0
LINE
  5
181
330
1F
100
AcDbEntity
  8
1-1
  6
CONTINUOUS
 62
     3
100
AcDbLine
 10
160.254879
 20
123.913469
 30
0.0
 11
160.254879
 21
117.401903
 31
0.0
  0
LINE
  5
182
330
1F
100
AcDbEntity
  8
1-1
  6
CONTINUOUS
 62
     3
100
AcDbLine
 10
160.254879
 20
123.913469
 30
0.0
 11
158.254879
 21
123.913469
 31
0.0
  0
LINE
  5
183
330
1F
100
AcDbEntity
  8
1-1
  6
CONTINUOUS
 62
     3
100
AcDbLine
 10
179.201233
 20
98.077699
 30
0.0
 11
170.754875
 21
105.018663
 31
0.0
  0
LINE
  5
184
330
1F
100
AcDbEntity
  8
1-1
  6
CONTINUOUS
 62
     3
100
AcDbLine
 10
164.254875
 20
90.573335
 30
0.0
 11
164.254875
 21
98.540324
 31
0.0
  0
LINE
  5
185
330
1F
100
AcDbEntity
  8
1-1
  6
CONTINUOUS
 62
     3
100
AcDbLine
 10
160.254875
 20
93.917299
 30
0.0
 11
160.254875
 21
92.785735
 31
0.0
  0
LINE
  5
186
330
1F
100
AcDbEntity
  8
1-1
  6
CONTINUOUS
 62
     3
100
AcDbLine
 10
160.254879
 20
117.401903
 30
0.0
 11
160.254879
 21
92.783735
 31
0.0
  0
LINE
  5
187
330
1F
100
AcDbEntity
  8
1-1
  6
CONTINUOUS
 62
     3
100
AcDbLine
 10
170.755898
 20
103.252779
 30
0.0
 11
179.202248
 21
96.3118
 31
0.0
  0
LINE
  5
188
330
1F
100
AcDbEntity
  8
1-1
  6
CONTINUOUS
 62
     3
100
AcDbLine
 10
158.254879
 20
110.003923
 30
0.0
 11
158.254879
 21
123.913469
 31
0.0
  0
LINE
  5
189
330
1F
100
AcDbEntity
  8
1-1
  6
CONTINUOUS
 62
     3
100
AcDbLine
 10
179.201233
 20
96.3118
 30
0.0
 11
170.755898
 21
103.252779
 31
0.0
  0
LINE
  5
18A
330
1F
100
AcDbEntity
  8
1-1
  6
CONTINUOUS
 62
     3
100
AcDbLine
 10
170.755898
 20
103.252779
 30
0.0
 11
170.608658
 21
103.732225
 31
0.0
  0
LINE
  5
18B
330
1F
100
AcDbEntity
  8
1-1
  6
CONTINUOUS
 62
     3
100
AcDbLine
 10
170.608574
 20
103.7325
 30
0.0
 11
165.176318
 21
103.7325
 31
0.0
  0
LINE
  5
18C
330
1F
100
AcDbEntity
  8
1-1
  6
CONTINUOUS
 62
     3
100
AcDbLine
 10
160.254879
 20
112.391741
 30
0.0
 11
167.947701
 21
112.391741
 31
0.0
  0
LINE
  5
18D
330
1F
100
AcDbEntity
  8
1-1
  6
CONTINUOUS
 62
     3
100
AcDbLine
 10
168.119861
 20
113.173958
 30
0.0
 11
175.406174
 21
119.9946
 31
0.0
  0
INSERT
  5
191
330
1F
100
AcDbEntity
  8
0
100
AcDbBlockReference
  2
BLKF028
 10
0.0
 20
0.0
 30
0.0
  0
LINE
  5
1B9
330
1F
100
AcDbEntity
  8
1-1
  6
CONTINUOUS
 62
     3
100
AcDbLine
 10
160.254883
 20
121.678102
 30
0.0
 11
160.254971
 21
120.251848
 31
0.0
  0
LINE
  5
1BA
330
1F
100
AcDbEntity
  8
1-1
  6
CONTINUOUS
 62
     3
100
AcDbLine
 10
160.254971
 20
120.251848
 30
0.0
 11
160.254944
 21
118.143923
 31
0.0
  0
INSERT
  5
1BE
330
1F
100
AcDbEntity
  8
0
100
AcDbBlockReference
  2
BLKF029
 10
0.0
 20
0.0
 30
0.0
  0
LINE
  5
1C4
330
1F
100
AcDbEntity
  8
1-1
  6
CONTINUOUS
 62
     3
100
AcDbLine
 10
164.052132
 20
110.144289
 30
0.0
 11
164.254875
 21
109.813127
 31
0.0
  0
LINE
  5
1C5
330
1F
100
AcDbEntity
  8
1-1
  6
CONTINUOUS
 62
     3
100
AcDbLine
 10
160.254879
 20
123.444002
 30
0.0
 11
160.254883
 21
123.446062
 31
0.0
  0
INSERT
  5
1C9
330
1F
100
AcDbEntity
  8
0
100
AcDbBlockReference
  2
BLKF030
 10
0.0
 20
0.0
 30
0.0
  0
LINE
  5
1EA
330
1F
100
AcDbEntity
  8
1-1
  6
CONTINUOUS
 62
     3
100
AcDbLine
 10
176.253701
 20
121.676988
 30
0.0
 11
176.25364
 21
123.442827
 31
0.0
  0
LINE
  5
1EB
330
1F
100
AcDbEntity
  8
1-1
  6
CONTINUOUS
 62
     3
100
AcDbLine
 10
168.120438
 20
113.173342
 30
0.0
 11
175.406174
 21
119.9946
 31
0.0
  0
LINE
  5
1EC
330
1F
100
AcDbEntity
  8
1-1
  6
CONTINUOUS
 62
     3
100
AcDbLine
 10
170.754898
 20
103.252702
 30
0.0
 11
170.754898
 21
103.256014
 31
0.0
  0
LINE
  5
1ED
330
1F
100
AcDbEntity
  8
1-1
  6
CONTINUOUS
 62
     3
100
AcDbLine
 10
170.754875
 20
105.018663
 30
0.0
 11
170.754875
 21
105.018678
 31
0.0
  0
INSERT
  5
1F1
330
1F
100
AcDbEntity
  8
0
100
AcDbBlockReference
  2
BLKF031
 10
0.0
 20
0.0
 30
0.0
  0
LINE
  5
1FD
330
1F
100
AcDbEntity
  8
1-1
  6
CONTINUOUS
 62
     3
100
AcDbLine
 10
167.948838
 20
112.391893
 30
0.0
 11
168.021653
 21
112.785478
 31
0.0
  0
LINE
  5
1FE
330
1F
100
AcDbEntity
  8
1-1
  6
CONTINUOUS
 62
     3
100
AcDbLine
 10
168.021653
 20
112.785478
 30
0.0
 11
168.120438
 21
113.173342
 31
0.0
  0
INSERT
  5
202
330
1F
100
AcDbEntity
  8
0
100
AcDbBlockReference
  2
BLKF032
 10
0.0
 20
0.0
 30
0.0
  0
INSERT
  5
20E
330
1F
100
AcDbEntity
  8
0
100
AcDbBlockReference
  2
BLKF033
 10
0.0
 20
0.0
 30
0.0
  0
LINE
  5
217
330
1F
100
AcDbEntity
  8
1-1
  6
CONTINUOUS
 62
     3
100
AcDbLine
 10
170.607666
 20
103.732225
 30
0.0
 11
170.754898
 21
103.252702
 31
0.0
  0
LINE
  5
218
330
1F
100
AcDbEntity
  8
1-1
  6
CONTINUOUS
 62
     3
100
AcDbLine
 10
162.085082
 20
95.747505
 30
0.0
 11
160.254879
 21
93.917299
 31
0.0
  0
LINE
  5
219
330
1F
100
AcDbEntity
  8
1-1
  6
CONTINUOUS
 62
     3
100
AcDbLine
 10
162.085083
 20
109.783947
 30
0.0
 11
160.254879
 21
111.614168
 31
0.0
  0
INSERT
  5
21D
330
1F
100
AcDbEntity
  8
0
100
AcDbBlockReference
  2
BLKF034
 10
0.0
 20
0.0
 30
0.0
  0
LINE
  5
221
330
1F
100
AcDbEntity
  8
1-1
  6
CONTINUOUS
 62
     3
100
AcDbLine
 10
160.954201
 20
92.072443
 30
0.0
 11
160.486497
 21
92.360856
 31
0.0
  0
INSERT
  5
225
330
1F
100
AcDbEntity
  8
0
100
AcDbBlockReference
  2
BLKF035
 10
0.0
 20
0.0
 30
0.0
  0
INSERT
  5
250
330
1F
100
AcDbEntity
  8
0
100
AcDbBlockReference
  2
BLKF036
 10
0.0
 20
0.0
 30
0.0
  0
LINE
  5
257
330
1F
100
AcDbEntity
  8
1-1
  6
CONTINUOUS
 62
     3
100
AcDbLine
 10
180.252693
 20
94.444238
 30
0.0
 11
180.252716
 21
94.491884
 31
0.0
  0
LINE
  5
258
330
1F
100
AcDbEntity
  8
1-1
  6
CONTINUOUS
 62
     3
100
AcDbLine
 10
180.252716
 20
94.491884
 30
0.0
 11
180.253662
 21
96.214716
 31
0.0
  0
ARC
  5
259
330
1F
100
AcDbEntity
  8
LAYERGROUP-1
  6
CONTINUOUS
 62
     3
100
AcDbCircle
 10
161.731528
 20
96.101058
 30
0.0
 40
0.5
100
AcDbArc
 50
315.000057
 51
360.0
  0
ARC
  5
25A
330
1F
100
AcDbEntity
  8
LAYERGROUP-1
  6
CONTINUOUS
 62
     3
100
AcDbCircle
 10
161.731528
 20
109.430395
 30
0.0
 40
0.5
100
AcDbArc
 50
0.0
 51
44.999728
  0
ARC
  5
25B
330
1F
100
AcDbEntity
  8
LAYERGROUP-1
  6
CONTINUOUS
 62
     3
100
AcDbCircle
 10
162.431528
 20
108.314454
 30
0.0
 40
0.2
100
AcDbArc
 50
90.0
 51
180.0
  0
ARC
  5
25C
330
1F
100
AcDbEntity
  8
LAYERGROUP-1
  6
CONTINUOUS
 62
     3
100
AcDbCircle
 10
162.431528
 20
97.114938
 30
0.0
 40
0.2
100
AcDbArc
 50
180.0
 51
270.0
  0
LINE
  5
25D
330
1F
100
AcDbEntity
  8
LAYERGROUP-1
  6
CONTINUOUS
 62
     3
100
AcDbLine
 10
159.288972
 20
91.912355
 30
0.0
 11
159.441525
 21
91.828216
 31
0.0
  0
LINE
  5
25E
330
1F
100
AcDbEntity
  8
LAYERGROUP-1
  6
CONTINUOUS
 62
     3
100
AcDbLine
 10
159.441525
 20
91.828216
 30
0.0
 11
160.327716
 21
91.36871
 31
0.0
  0
LINE
  5
25F
330
1F
100
AcDbEntity
  8
LAYERGROUP-1
  6
CONTINUOUS
 62
     3
100
AcDbLine
 10
160.327716
 20
91.36871
 30
0.0
 11
160.984154
 21
91.007669
 31
0.0
  0
LINE
  5
260
330
1F
100
AcDbEntity
  8
LAYERGROUP-1
  6
CONTINUOUS
 62
     3
100
AcDbLine
 10
160.984154
 20
91.007669
 30
0.0
 11
161.739057
 21
90.646628
 31
0.0
  0
LINE
  5
261
330
1F
100
AcDbEntity
  8
LAYERGROUP-1
  6
CONTINUOUS
 62
     3
100
AcDbLine
 10
163.005283
 20
90.411206
 30
0.0
 11
164.254875
 21
90.574846
 31
0.0
  0
ARC
  5
262
330
1F
100
AcDbEntity
  8
LAYERGROUP-1
  6
CONTINUOUS
 62
     3
100
AcDbCircle
 10
160.754875
 20
92.785735
 30
0.0
 40
0.5
100
AcDbArc
 50
180.0
 51
237.717914
  0
ARC
  5
263
330
1F
100
AcDbEntity
  8
LAYERGROUP-1
  6
CONTINUOUS
 62
     3
100
AcDbCircle
 10
160.254879
 20
93.663647
 30
0.0
 40
2.0
100
AcDbArc
 50
180.0
 51
241.12152
  0
LINE
  5
264
330
1F
100
AcDbEntity
  8
LAYERGROUP-1
  6
CONTINUOUS
 62
     3
100
AcDbLine
 10
161.739057
 20
90.646628
 30
0.0
 11
161.978798
 21
90.547107
 31
0.0
  0
ARC
  5
265
330
1F
100
AcDbEntity
  8
LAYERGROUP-1
  6
CONTINUOUS
 62
     3
100
AcDbCircle
 10
162.745591
 20
92.394275
 30
0.0
 40
2.0
100
AcDbArc
 50
247.455758
 51
277.460685
  0
LINE
  5
266
330
1F
100
AcDbEntity
  8
LAYERGROUP-1
  6
CONTINUOUS
 62
     3
100
AcDbLine
 10
158.254879
 20
115.380988
 30
0.0
 11
155.231528
 21
115.380988
 31
0.0
  0
LINE
  5
267
330
1F
100
AcDbEntity
  8
LAYERGROUP-1
  6
CONTINUOUS
 62
     3
100
AcDbLine
 10
158.231528
 20
113.456978
 30
0.0
 11
155.231528
 21
113.456978
 31
0.0
  0
LINE
  5
268
330
1F
100
AcDbEntity
  8
LAYERGROUP-1
  6
CONTINUOUS
 62
     3
100
AcDbLine
 10
158.254879
 20
117.130988
 30
0.0
 11
155.231528
 21
117.130988
 31
0.0
  0
LINE
  5
269
330
1F
100
AcDbEntity
  8
LAYERGROUP-1
  6
CONTINUOUS
 62
     3
100
AcDbLine
 10
155.231528
 20
117.130988
 30
0.0
 11
155.231528
 21
113.456978
 31
0.0
  0
TEXT
  5
26A
330
1F
100
AcDbEntity
  8
LAYERGROUP-1
  6
CONTINUOUS
 62
     7
100
AcDbText
 10
279.989288
 20
196.138916
 30
0.0
 40
7.378211
  1
 FF
 50
270.0
 41
0.805398
  7
FX_VECTOR
 72
     5
 11
279.989288
 21
180.292528
 31
0.0
100
AcDbText
  0
TEXT
  5
26B
330
1F
100
AcDbEntity
  8
LAYERGROUP-1
  6
CONTINUOUS
 62
     7
100
AcDbText
 10
239.24144
 20
185.74234
 30
0.0
 40
7.378211
  1
NO
 50
90.0
 41
0.73337
  7
FX_VECTOR
 72
     5
 11
239.24144
 21
196.306599
 31
0.0
100
AcDbText
  0
ARC
  5
26C
330
1F
100
AcDbEntity
  8
LAYERGROUP-1
  6
CONTINUOUS
 62
     3
100
AcDbCircle
 10
283.93963
 20
187.510078
 30
0.0
 40
9.0
100
AcDbArc
 50
232.009543
 51
360.0
  0
LINE
  5
26D
330
1F
100
AcDbEntity
  8
LAYERGROUP-1
  6
CONTINUOUS
 62
     3
100
AcDbLine
 10
269.318089
 20
187.510078
 30
0.0
 11
278.399858
 21
180.417058
 31
0.0
  0
LINE
  5
26E
330
1F
100
AcDbEntity
  8
LAYERGROUP-1
  6
CONTINUOUS
 62
     3
100
AcDbLine
 10
251.223048
 20
191.010078
 30
0.0
 11
269.318089
 21
187.510078
 31
0.0
  0
ARC
  5
26F
330
1F
100
AcDbEntity
  8
LAYERGROUP-1
  6
CONTINUOUS
 62
     3
100
AcDbCircle
 10
235.601508
 20
190.510078
 30
0.0
 40
8.0
100
AcDbArc
 50
119.596866
 51
302.620466
  0
LINE
  5
270
330
1F
100
AcDbEntity
  8
LAYERGROUP-1
  6
CONTINUOUS
 62
     3
100
AcDbLine
 10
251.223048
 20
191.010078
 30
0.0
 11
239.914081
 21
183.771999
 31
0.0
  0
ARC
  5
271
330
1F
100
AcDbEntity
  8
LAYERGROUP-1
  6
CONTINUOUS
 62
     3
100
AcDbCircle
 10
234.662565
 20
190.510078
 30
0.0
 40
8.0
100
AcDbArc
 50
113.578178
 51
270.0
  0
LINE
  5
272
330
1F
100
AcDbEntity
  8
LAYERGROUP-1
  6
CONTINUOUS
 62
     3
100
AcDbLine
 10
232.662565
 20
200.510078
 30
0.0
 11
232.662565
 21
199.205297
 31
0.0
  0
ARC
  5
273
330
1F
100
AcDbEntity
  8
LAYERGROUP-1
  6
CONTINUOUS
 62
     3
100
AcDbCircle
 10
230.662565
 20
199.205297
 30
0.0
 40
2.0
100
AcDbArc
 50
299.596866
 51
360.0
  0
ARC
  5
274
330
1F
100
AcDbEntity
  8
LAYERGROUP-1
  6
CONTINUOUS
 62
     3
100
AcDbCircle
 10
230.662565
 20
199.675229
 30
0.0
 40
2.0
100
AcDbArc
 50
293.578178
 51
360.0
  0
LINE
  5
275
330
1F
100
AcDbEntity
  8
LAYERGROUP-1
  6
CONTINUOUS
 62
     3
100
AcDbLine
 10
232.662565
 20
200.510078
 30
0.0
 11
243.331498
 21
200.510078
 31
0.0
  0
ARC
  5
276
330
1F
100
AcDbEntity
  8
LAYERGROUP-1
  6
CONTINUOUS
 62
     3
100
AcDbCircle
 10
282.93963
 20
187.901108
 30
0.0
 40
10.0
100
AcDbArc
 50
0.0
 51
24.261196
  0
LINE
  5
277
330
1F
100
AcDbEntity
  8
LAYERGROUP-1
  6
CONTINUOUS
 62
     7
100
AcDbLine
 10
251.223048
 20
191.010078
 30
0.0
 11
251.223048
 21
192.010078
 31
0.0
  0
LINE
  5
278
330
1F
100
AcDbEntity
  8
LAYERGROUP-1
  6
CONTINUOUS
 62
     3
100
AcDbLine
 10
292.93963
 20
187.901108
 30
0.0
 11
292.93963
 21
187.510078
 31
0.0
  0
LINE
  5
279
330
1F
100
AcDbEntity
  8
LAYERGROUP-1
  6
CONTINUOUS
 62
     7
100
AcDbLine
 10
269.318089
 20
192.010078
 30
0.0
 11
269.318089
 21
187.510078
 31
0.0
  0
ARC
  5
27A
330
1F
100
AcDbEntity
  8
LAYERGROUP-1
  6
CONTINUOUS
 62
     3
100
AcDbCircle
 10
272.157153
 20
214.760078
 30
0.0
 40
40.64152112133066
100
AcDbArc
 50
167.457678
 51
192.542322
  0
ARC
  5
27B
330
1F
100
AcDbEntity
  8
LAYERGROUP-1
  6
CONTINUOUS
 62
     3
100
AcDbCircle
 10
233.949711
 20
223.260078
 30
0.0
 40
1.5
100
AcDbArc
 50
90.0
 51
167.457678
  0
ARC
  5
27C
330
1F
100
AcDbEntity
  8
LAYERGROUP-1
  6
CONTINUOUS
 62
     3
100
AcDbCircle
 10
233.949711
 20
206.260078
 30
0.0
 40
1.5
100
AcDbArc
 50
192.542322
 51
270.0
  0
LINE
  5
27D
330
1F
100
AcDbEntity
  8
LAYERGROUP-1
  6
CONTINUOUS
 62
     3
100
AcDbLine
 10
244.557548
 20
224.760078
 30
0.0
 11
233.949711
 21
224.760078
 31
0.0
  0
LINE
  5
27E
330
1F
100
AcDbEntity
  8
LAYERGROUP-1
  6
CONTINUOUS
 62
     3
100
AcDbLine
 10
244.557548
 20
204.760078
 30
0.0
 11
233.949711
 21
204.760078
 31
0.0
  0
DIMENSION
  5
27F
330
1F
100
AcDbEntity
  8
LAYERGROUP-1
100
AcDbDimension
  2
*D35
 10
252.292113
 20
231.317251
 30
0.0
 11
229.874969
 21
241.724457
 31
0.0
 70
   163
  3
FXDIMINFO
100
AcDbDiametricDimension
 15
246.743478
 25
234.702905
 35
0.0
 40
0.0
  0
LINE
  5
28A
330
1F
100
AcDbEntity
  8
LAYERGROUP-1
  6
CONTINUOUS
 62
     3
100
AcDbLine
 10
253.785563
 20
135.982463
 30
0.0
 11
250.517796
 21
132.714696
 31
0.0
  0
DIMENSION
  5
28B
330
1F
100
AcDbEntity
  8
LAYERGROUP-1
100
AcDbDimension
  2
*D36
 10
307.726385
 20
142.714696
 30
0.0
 11
306.726379
 21
122.714691
 31
0.0
 70
    32
  3
FXDIMINFO
100
AcDbAlignedDimension
 13
265.335885
 23
102.714696
 33
0.0
 14
299.517796
 24
142.714696
 34
0.0
 50
270.0
100
AcDbRotatedDimension
1001
ACAD
1000
DSTYLE
1002
{
1070
     7
1000
FXTIP_ARROW_E
1070
     6
1000
FXTIP_ARROW_S
1070
   173
1070
     1
1002
}
  0
ARC
  5
295
330
1F
100
AcDbEntity
  8
LAYERGROUP-1
  6
CENTER
 62
     7
100
AcDbCircle
 10
272.517796
 20
215.510078
 30
0.0
 40
53.36538884162918
100
AcDbArc
 50
191.876409
 51
224.612406
  0
DIMENSION
  5
296
330
1F
100
AcDbEntity
  8
LAYERGROUP-1
100
AcDbDimension
  2
*D37
 10
272.517796
 20
215.510078
 30
0.0
 11
209.910934
 21
198.243073
 31
0.0
 70
   164
  3
FXDIMINFO
100
AcDbRadialDimension
 15
221.297711
 25
200.53117
 35
0.0
 40
0.0
  0
LINE
  5
29E
330
1F
100
AcDbEntity
  8
LAYERGROUP-1
  6
CENTER
 62
     6
100
AcDbLine
 10
295.517796
 20
227.557353
 30
0.0
 11
295.517796
 21
239.010078
 31
0.0
  0
LINE
  5
29F
330
1F
100
AcDbEntity
  8
LAYERGROUP-1
  6
CENTER
 62
     6
100
AcDbLine
 10
249.517796
 20
227.557353
 30
0.0
 11
249.517796
 21
239.010078
 31
0.0
  0
LINE
  5
2A0
330
1F
100
AcDbEntity
  8
LAYERGROUP-1
  6
CENTER
 62
     6
100
AcDbLine
 10
295.484331
 20
192.010078
 30
0.0
 11
295.484331
 21
204.2302
 31
0.0
  0
LINE
  5
2A1
330
1F
100
AcDbEntity
  8
LAYERGROUP-1
  6
CENTER
 62
     6
100
AcDbLine
 10
143.754879
 20
72.241749
 30
0.0
 11
143.754879
 21
148.160005
 31
0.0
  0
LINE
  5
2A2
330
1F
100
AcDbEntity
  8
LAYERGROUP-1
  6
CONTINUOUS
 62
     6
100
AcDbLine
 10
158.254879
 20
127.760448
 30
0.0
 11
158.254879
 21
133.514696
 31
0.0
  0
LINE
  5
2A3
330
1F
100
AcDbEntity
  8
LAYERGROUP-1
  6
CENTER
 62
     6
100
AcDbLine
 10
161.254879
 20
144.430886
 30
0.0
 11
161.254879
 21
138.93573
 31
0.0
  0
LINE
  5
2A4
330
1F
100
AcDbEntity
  8
LAYERGROUP-1
  6
CENTER
 62
     6
100
AcDbLine
 10
126.254879
 20
144.430886
 30
0.0
 11
126.254879
 21
138.93573
 31
0.0
  0
LINE
  5
2A5
330
1F
100
AcDbEntity
  8
LAYERGROUP-1
  6
CONTINUOUS
 62
     3
100
AcDbLine
 10
129.254879
 20
95.160448
 30
0.0
 11
131.254879
 21
95.160448
 31
0.0
  0
LINE
  5
2A6
330
1F
100
AcDbEntity
  8
LAYERGROUP-1
  6
CONTINUOUS
 62
     3
100
AcDbLine
 10
158.254879
 20
95.160448
 30
0.0
 11
156.254879
 21
95.160448
 31
0.0
  0
LINE
  5
2A7
330
1F
100
AcDbEntity
  8
LAYERGROUP-1
  6
CONTINUOUS
 62
     3
100
AcDbLine
 10
154.454879
 20
124.64704
 30
0.0
 11
154.454879
 21
80.673855
 31
0.0
  0
LINE
  5
2A8
330
1F
100
AcDbEntity
  8
LAYERGROUP-1
  6
CONTINUOUS
 62
     3
100
AcDbLine
 10
134.454879
 20
124.64704
 30
0.0
 11
134.454879
 21
80.673855
 31
0.0
  0
ARC
  5
2A9
330
1F
100
AcDbEntity
  8
LAYERGROUP-1
  6
CONTINUOUS
 62
     3
100
AcDbCircle
 10
144.454879
 20
93.577114
 30
0.0
 40
34.08333333333371
100
AcDbArc
 50
75.56091
 51
104.43909
  0
ARC
  5
2AA
330
1F
100
AcDbEntity
  8
LAYERGROUP-1
  6
CONTINUOUS
 62
     3
100
AcDbCircle
 10
136.454879
 20
124.64704
 30
0.0
 40
2.0
100
AcDbArc
 50
104.43909
 51
180.0
  0
ARC
  5
2AB
330
1F
100
AcDbEntity
  8
LAYERGROUP-1
  6
CONTINUOUS
 62
     3
100
AcDbCircle
 10
152.454879
 20
124.64704
 30
0.0
 40
2.0
100
AcDbArc
 50
0.0
 51
75.56091
  0
ARC
  5
2AC
330
1F
100
AcDbEntity
  8
LAYERGROUP-1
  6
CONTINUOUS
 62
     3
100
AcDbCircle
 10
144.454879
 20
111.743781
 30
0.0
 40
34.08333333333344
100
AcDbArc
 50
255.56091
 51
284.43909
  0
ARC
  5
2AD
330
1F
100
AcDbEntity
  8
LAYERGROUP-1
  6
CONTINUOUS
 62
     3
100
AcDbCircle
 10
152.454879
 20
80.673855
 30
0.0
 40
2.0
100
AcDbArc
 50
284.43909
 51
360.0
  0
ARC
  5
2AE
330
1F
100
AcDbEntity
  8
LAYERGROUP-1
  6
CONTINUOUS
 62
     3
100
AcDbCircle
 10
136.454879
 20
80.673855
 30
0.0
 40
2.0
100
AcDbArc
 50
180.0
 51
255.56091
  0
LINE
  5
2AF
330
1F
100
AcDbEntity
  8
LAYERGROUP-1
  6
CONTINUOUS
 62
     3
100
AcDbLine
 10
154.454879
 20
111.017591
 30
0.0
 11
155.199088
 21
110.592329
 31
0.0
  0
LINE
  5
2B0
330
1F
100
AcDbEntity
  8
LAYERGROUP-1
  6
CONTINUOUS
 62
     3
100
AcDbLine
 10
154.454879
 20
94.303305
 30
0.0
 11
155.199088
 21
94.728567
 31
0.0
  0
ARC
  5
2B1
330
1F
100
AcDbEntity
  8
LAYERGROUP-1
  6
CONTINUOUS
 62
     3
100
AcDbCircle
 10
154.454879
 20
109.289964
 30
0.0
 40
1.5
100
AcDbArc
 50
0.0
 51
60.255119
  0
ARC
  5
2B2
330
1F
100
AcDbEntity
  8
LAYERGROUP-1
  6
CONTINUOUS
 62
     3
100
AcDbCircle
 10
154.454879
 20
96.030932
 30
0.0
 40
1.5
100
AcDbArc
 50
299.744881
 51
360.0
  0
LINE
  5
2B3
330
1F
100
AcDbEntity
  8
LAYERGROUP-1
  6
CONTINUOUS
 62
     3
100
AcDbLine
 10
155.954879
 20
109.289964
 30
0.0
 11
155.954879
 21
96.030932
 31
0.0
  0
LINE
  5
2B4
330
1F
100
AcDbEntity
  8
LAYERGROUP-1
  6
CONTINUOUS
 62
     3
100
AcDbLine
 10
136.254879
 20
128.760448
 30
0.0
 11
151.254879
 21
128.760448
 31
0.0
  0
LINE
  5
2B5
330
1F
100
AcDbEntity
  8
LAYERGROUP-1
  6
CONTINUOUS
 62
     3
100
AcDbLine
 10
156.254879
 20
126.177872
 30
0.0
 11
156.254879
 21
117.130988
 31
0.0
  0
LINE
  5
2B6
330
1F
100
AcDbEntity
  8
LAYERGROUP-1
  6
CONTINUOUS
 62
     3
100
AcDbLine
 10
158.254879
 20
95.160448
 30
0.0
 11
158.254879
 21
127.760448
 31
0.0
  0
ARC
  5
2B7
330
1F
100
AcDbEntity
  8
LAYERGROUP-1
  6
CONTINUOUS
 62
     3
100
AcDbCircle
 10
132.254879
 20
127.760448
 30
0.0
 40
3.0
100
AcDbArc
 50
36.869898
 51
180.0
  0
ARC
  5
2B8
330
1F
100
AcDbEntity
  8
LAYERGROUP-1
  6
CONTINUOUS
 62
     3
100
AcDbCircle
 10
136.254879
 20
130.760448
 30
0.0
 40
2.0
100
AcDbArc
 50
216.869898
 51
270.0
  0
ARC
  5
2B9
330
1F
100
AcDbEntity
  8
LAYERGROUP-1
  6
CONTINUOUS
 62
     3
100
AcDbCircle
 10
134.254879
 20
126.177872
 30
0.0
 40
3.0
100
AcDbArc
 50
66.421822
 51
180.0
  0
ARC
  5
2BA
330
1F
100
AcDbEntity
  8
LAYERGROUP-1
  6
CONTINUOUS
 62
     3
100
AcDbCircle
 10
155.254879
 20
127.760448
 30
0.0
 40
3.0
100
AcDbArc
 50
0.0
 51
143.130102
  0
ARC
  5
2BB
330
1F
100
AcDbEntity
  8
LAYERGROUP-1
  6
CONTINUOUS
 62
     3
100
AcDbCircle
 10
151.254879
 20
130.760448
 30
0.0
 40
2.0
100
AcDbArc
 50
270.0
 51
323.130102
  0
ARC
  5
2BC
330
1F
100
AcDbEntity
  8
LAYERGROUP-1
  6
CONTINUOUS
 62
     3
100
AcDbCircle
 10
153.254879
 20
126.177872
 30
0.0
 40
3.0
100
AcDbArc
 50
0.0
 51
113.578178
  0
LINE
  5
2BD
330
1F
100
AcDbEntity
  8
LAYERGROUP-1
  6
CONTINUOUS
 62
     3
100
AcDbLine
 10
129.254879
 20
95.160448
 30
0.0
 11
129.254879
 21
127.760448
 31
0.0
  0
LINE
  5
2BE
330
1F
100
AcDbEntity
  8
LAYERGROUP-1
  6
CONTINUOUS
 62
     3
100
AcDbLine
 10
156.254879
 20
113.456978
 30
0.0
 11
156.254879
 21
95.160448
 31
0.0
  0
ARC
  5
2BF
330
1F
100
AcDbEntity
  8
LAYERGROUP-1
  6
CONTINUOUS
 62
     3
100
AcDbCircle
 10
130.754879
 20
137.492696
 30
0.0
 40
2.778
100
AcDbArc
 50
179.546249
 51
200.612866
  0
ARC
  5
2C0
330
1F
100
AcDbEntity
  8
LAYERGROUP-1
  6
CONTINUOUS
 62
     3
100
AcDbCircle
 10
137.017422
 20
137.492696
 30
0.0
 40
2.778
100
AcDbArc
 50
-20.612866
 51
0.453751
  0
ARC
  5
2C1
330
1F
100
AcDbEntity
  8
LAYERGROUP-1
  6
CONTINUOUS
 62
     3
100
AcDbCircle
 10
142.573248
 20
137.492696
 30
0.0
 40
2.778
100
AcDbArc
 50
179.546249
 51
200.612866
  0
ARC
  5
2C2
330
1F
100
AcDbEntity
  8
LAYERGROUP-1
  6
CONTINUOUS
 62
     3
100
AcDbCircle
 10
137.254792
 20
137.492696
 30
0.0
 40
2.778
100
AcDbArc
 50
179.546249
 51
200.612866
  0
ARC
  5
2C3
330
1F
100
AcDbEntity
  8
LAYERGROUP-1
  6
CONTINUOUS
 62
     3
100
AcDbCircle
 10
133.105816
 20
137.492696
 30
0.0
 40
2.778
100
AcDbArc
 50
179.546249
 51
200.612866
  0
ARC
  5
2C4
330
1F
100
AcDbEntity
  8
LAYERGROUP-1
  6
CONTINUOUS
 62
     3
100
AcDbCircle
 10
156.754879
 20
137.492696
 30
0.0
 40
2.778
100
AcDbArc
 50
-20.612866
 51
0.453751
  0
ARC
  5
2C5
330
1F
100
AcDbEntity
  8
LAYERGROUP-1
  6
CONTINUOUS
 62
     3
100
AcDbCircle
 10
150.492336
 20
137.492696
 30
0.0
 40
2.778
100
AcDbArc
 50
179.546249
 51
200.612866
  0
ARC
  5
2C6
330
1F
100
AcDbEntity
  8
LAYERGROUP-1
  6
CONTINUOUS
 62
     3
100
AcDbCircle
 10
144.936511
 20
137.492696
 30
0.0
 40
2.778
100
AcDbArc
 50
-20.612866
 51
0.453751
  0
ARC
  5
2C7
330
1F
100
AcDbEntity
  8
LAYERGROUP-1
  6
CONTINUOUS
 62
     3
100
AcDbCircle
 10
150.254967
 20
137.492696
 30
0.0
 40
2.778
100
AcDbArc
 50
-20.612866
 51
0.453751
  0
ARC
  5
2C8
330
1F
100
AcDbEntity
  8
LAYERGROUP-1
  6
CONTINUOUS
 62
     3
100
AcDbCircle
 10
154.403943
 20
137.492696
 30
0.0
 40
2.778
100
AcDbArc
 50
-20.612866
 51
0.453751
  0
LINE
  5
2C9
330
1F
100
AcDbEntity
  8
LAYERGROUP-1
  6
CONTINUOUS
 62
     6
100
AcDbLine
 10
136.254879
 20
131.920742
 30
0.0
 11
136.254879
 21
128.814696
 31
0.0
  0
LINE
  5
2CA
330
1F
100
AcDbEntity
  8
LAYERGROUP-1
  6
CONTINUOUS
 62
     6
100
AcDbLine
 10
136.754879
 20
130.920742
 30
0.0
 11
136.754879
 21
128.802912
 31
0.0
  0
LINE
  5
2CB
330
1F
100
AcDbEntity
  8
LAYERGROUP-1
  6
CONTINUOUS
 62
     6
100
AcDbLine
 10
135.754879
 20
130.920742
 30
0.0
 11
135.754879
 21
128.878204
 31
0.0
  0
ARC
  5
2CC
330
1F
100
AcDbEntity
  8
LAYERGROUP-1
  6
CONTINUOUS
 62
     6
100
AcDbCircle
 10
135.254879
 20
130.514696
 30
0.0
 40
6.0
100
AcDbArc
 50
90.0
 51
180.0
  0
LINE
  5
2CD
330
1F
100
AcDbEntity
  8
LAYERGROUP-1
  6
CONTINUOUS
 62
     6
100
AcDbLine
 10
129.254879
 20
133.514696
 30
0.0
 11
129.254879
 21
127.814696
 31
0.0
  0
LINE
  5
2CE
330
1F
100
AcDbEntity
  8
LAYERGROUP-1
  6
CONTINUOUS
 62
     6
100
AcDbLine
 10
151.254879
 20
131.920742
 30
0.0
 11
151.254879
 21
128.814696
 31
0.0
  0
LINE
  5
2CF
330
1F
100
AcDbEntity
  8
LAYERGROUP-1
  6
CONTINUOUS
 62
     6
100
AcDbLine
 10
150.754879
 20
130.920742
 30
0.0
 11
150.754879
 21
128.802912
 31
0.0
  0
LINE
  5
2D0
330
1F
100
AcDbEntity
  8
LAYERGROUP-1
  6
CONTINUOUS
 62
     6
100
AcDbLine
 10
151.754879
 20
130.920742
 30
0.0
 11
151.754879
 21
128.878204
 31
0.0
  0
ARC
  5
2D1
330
1F
100
AcDbEntity
  8
LAYERGROUP-1
  6
CONTINUOUS
 62
     6
100
AcDbCircle
 10
152.254879
 20
130.514696
 30
0.0
 40
6.0
100
AcDbArc
 50
0.0
 51
90.0
  0
DIMENSION
  5
2D2
330
1F
100
AcDbEntity
  8
LAYERGROUP-1
100
AcDbDimension
  2
*D38
 10
156.254879
 20
49.665753
 30
0.0
 11
143.754883
 21
50.665752
 31
0.0
 70
    33
  3
FXDIMINFO
100
AcDbAlignedDimension
 13
131.254879
 23
95.160448
 33
0.0
 14
156.254879
 24
95.160448
 34
0.0
1001
ACAD
1000
DSTYLE
1002
{
1070
     7
1000
FXTIP_ARROW_E
1070
     6
1000
FXTIP_ARROW_S
1070
   173
1070
     1
1002
}
  0
ARC
  5
2DC
330
1F
100
AcDbEntity
  8
LAYERGROUP-1
  6
CONTINUOUS
 62
     3
100
AcDbCircle
 10
256.514796
 20
102.714696
 30
0.0
 40
25.0
100
AcDbArc
 50
102.286212
 51
133.197733
  0
ARC
  5
2DE
330
1F
100
AcDbEntity
  8
GR1-1
  6
CONTINUOUS
 62
     6
100
AcDbCircle
 10
256.514796
 20
102.714696
 30
0.0
 40
16.5
100
AcDbArc
 50
111.859832
 51
122.768591
  0
ARC
  5
2DF
330
1F
100
AcDbEntity
  8
GR1-1
  6
CONTINUOUS
 62
     6
100
AcDbCircle
 10
256.514796
 20
102.714696
 30
0.0
 40
17.0
100
AcDbArc
 50
111.003536
 51
123.707352
  0
TEXT
  5
2E0
330
1F
100
AcDbEntity
  8
GR1-1
  6
CONTINUOUS
 62
     7
100
AcDbText
 10
253.231583
 20
91.778915
 30
0.0
 40
3.624641
  1
D
 50
154.853439
 41
1.076987
  7
FX_VECTOR
 72
     5
 11
250.202685
 21
93.200757
 31
0.0
100
AcDbText
  0
TEXT
  5
2E1
330
1F
100
AcDbEntity
  8
GR1-1
  6
CONTINUOUS
 62
     7
100
AcDbText
 10
256.970795
 20
91.305809
 30
0.0
 40
3.624641
  1
L
 50
173.853439
 41
1.21161
  7
FX_VECTOR
 72
     5
 11
253.64401
 21
91.664074
 31
0.0
100
AcDbText
  0
TEXT
  5
2E2
330
1F
100
AcDbEntity
  8
GR1-1
  6
CONTINUOUS
 62
     7
100
AcDbText
 10
260.097839
 20
91.873459
 30
0.0
 40
3.624641
  1
O
 50
189.853439
 41
1.020303
  7
FX_VECTOR
 72
     5
 11
256.801177
 21
91.300859
 31
0.0
100
AcDbText
  0
TEXT
  5
2E3
330
1F
100
AcDbEntity
  8
GR1-1
  6
CONTINUOUS
 62
     7
100
AcDbText
 10
263.272614
 20
93.511292
 30
0.0
 40
3.624641
  1
G
 50
207.853439
 41
1.076987
  7
FX_VECTOR
 72
     5
 11
260.314244
 21
91.947992
 31
0.0
100
AcDbText
  0
TEXT
  5
2E4
330
1F
100
AcDbEntity
  8
GR1-1
  6
CONTINUOUS
 62
     7
100
AcDbText
 10
248.917526
 20
94.191063
 30
0.0
 40
3.624641
  1
C
 50
129.853439
 41
1.076987
  7
FX_VECTOR
 72
     5
 11
246.773309
 21
96.759757
 31
0.0
100
AcDbText
  0
TEXT
  5
2E5
330
1F
100
AcDbEntity
  8
GR1-1
  6
CONTINUOUS
 62
     7
100
AcDbText
 10
246.556412
 20
97.128876
 30
0.0
 40
3.624641
  1
A
 50
110.853447
 41
1.140339
  7
FX_VECTOR
 72
     5
 11
245.365299
 21
100.255712
 31
0.0
100
AcDbText
  0
ARC
  5
2E6
330
1F
100
AcDbEntity
  8
LAYERGROUP-1
  6
CONTINUOUS
 62
     3
100
AcDbCircle
 10
256.514796
 20
102.714696
 30
0.0
 40
25.0
100
AcDbArc
 50
-9.197733
 51
35.785992
  0
ARC
  5
2E7
330
1F
100
AcDbEntity
  8
GR1-1
  6
CONTINUOUS
 62
     6
100
AcDbCircle
 10
256.514796
 20
102.714696
 30
0.0
 40
17.0
100
AcDbArc
 50
0.292648
 51
27.061374
  0
ARC
  5
2E8
330
1F
100
AcDbEntity
  8
GR1-1
  6
CONTINUOUS
 62
     6
100
AcDbCircle
 10
256.514796
 20
102.714696
 30
0.0
 40
16.5
100
AcDbArc
 50
1.231409
 51
26.204307
  0
ARC
  5
2E9
330
1F
100
AcDbEntity
  8
LAYERGROUP-1
  6
CONTINUOUS
 62
     3
100
AcDbCircle
 10
256.514796
 20
102.714696
 30
0.0
 40
25.0
100
AcDbArc
 50
156.045257
 51
328.190167
  0
ARC
  5
2EA
330
1F
100
AcDbEntity
  8
GR1-1
  6
CONTINUOUS
 62
     6
100
AcDbCircle
 10
256.514796
 20
102.714696
 30
0.0
 40
17.0
100
AcDbArc
 50
167.983574
 51
316.111925
  0
ARC
  5
2EB
330
1F
100
AcDbEntity
  8
GR1-1
  6
CONTINUOUS
 62
     6
100
AcDbCircle
 10
256.514796
 20
102.714696
 30
0.0
 40
16.5
100
AcDbArc
 50
168.746057
 51
315.337561
  0
SPLINE
  5
2EC
330
1F
100
AcDbEntity
  8
LAYERGROUP-1
  6
CONTINUOUS
 62
     7
100
AcDbSpline
210
0.0
220
0.0
230
1.0
 70
    12
 71
     2
 72
    14
 73
    11
 74
     0
 42
0.0000000001
 43
0.0000000001
 40
0.0
 40
0.0
 40
0.0
 40
1.0
 40
2.0
 40
3.0
 40
4.0
 40
5.0
 40
6.0
 40
7.0
 40
8.0
 40
8.397753479330198
 40
8.397753479330198
 40
8.397753479330198
 10
244.5024920099743
 20
100.5411303752823
 30
0.0
 41
1.0
 10
244.5430754938485
 20
100.5816211919735
 30
0.0
 41
1.0
 10
244.6242424615968
 20
100.6626028253559
 30
0.0
 41
1.0
 10
244.7069641268734
 20
100.7718273049638
 30
0.0
 41
1.0
 10
244.7531504002367
 20
100.8815266058456
 30
0.0
 41
1.0
 10
244.7997903422314
 20
101.0090875979091
 30
0.0
 41
1.0
 10
244.8590977734324
 20
101.1456174567468
 30
0.0
 41
1.0
 10
244.8824549990006
 20
101.309120359824
 30
0.0
 41
1.0
 10
244.9067129253993
 20
101.3714598712126
 30
0.0
 41
1.0
 10
244.911788006054
 20
101.5009960825335
 30
0.0
 41
1.0
 10
244.9132322027726
 20
101.5378577176602
 30
0.0
 41
1.0
  0
SPLINE
  5
2ED
330
1F
100
AcDbEntity
  8
LAYERGROUP-1
  6
CONTINUOUS
 62
     7
100
AcDbSpline
210
0.0
220
0.0
230
1.0
 70
    12
 71
     2
 72
    37
 73
    34
 74
     0
 42
0.0000000001
 43
0.0000000001
 40
0.5137749290696106
 40
0.5137749290696106
 40
0.5137749290696106
 40
1.0
 40
2.0
 40
3.0
 40
4.0
 40
5.0
 40
6.0
 40
7.0
 40
8.0
 40
9.0
 40
10.0
 40
11.0
 40
12.0
 40
13.0
 40
14.0
 40
15.0
 40
16.0
 40
17.0
 40
18.0
 40
19.0
 40
20.0
 40
21.0
 40
22.0
 40
23.0
 40
24.0
 40
25.0
 40
26.0
 40
27.0
 40
28.0
 40
29.0
 40
30.0
 40
31.0
 40
32.0
 40
32.0
 40
32.0
 10
244.1334462418778
 20
102.828396896719
 30
0.0
 41
1.0
 10
244.0923883405623
 20
102.8323210689916
 30
0.0
 41
1.0
 10
243.9668882667424
 20
102.8443159321997
 30
0.0
 41
1.0
 10
243.7682684058534
 20
102.7498867307818
 30
0.0
 41
1.0
 10
243.6420567072928
 20
102.6731325965058
 30
0.0
 41
1.0
 10
243.5312279793606
 20
102.5515780025818
 30
0.0
 41
1.0
 10
243.45592706928
 20
102.3425360438696
 30
0.0
 41
1.0
 10
243.371432720995
 20
102.1298027098201
 30
0.0
 41
1.0
 10
243.338393026233
 20
101.8256243376675
 30
0.0
 41
1.0
 10
243.3455190398984
 20
101.5989952248014
 30
0.0
 41
1.0
 10
243.3685662126236
 20
101.3666567684585
 30
0.0
 41
1.0
 10
243.3250779965188
 20
101.1734014878975
 30
0.0
 41
1.0
 10
243.2638709126392
 20
100.934467335717
 30
0.0
 41
1.0
 10
243.1526108725215
 20
100.8201978415501
 30
0.0
 41
1.0
 10
243.105483824104
 20
100.7427903315288
 30
0.0
 41
1.0
 10
242.9932464198793
 20
100.6614510945966
 30
0.0
 41
1.0
 10
242.891831391393
 20
100.6235403988491
 30
0.0
 41
1.0
 10
242.7766142797393
 20
100.5856401847948
 30
0.0
 41
1.0
 10
242.6678811481158
 20
100.592149525035
 30
0.0
 41
1.0
 10
242.5928673134821
 20
100.5885468191841
 30
0.0
 41
1.0
 10
242.4804716643935
 20
100.6255129100508
 30
0.0
 41
1.0
 10
242.3936574261942
 20
100.6772206829834
 30
0.0
 41
1.0
 10
242.3078345654613
 20
100.7370655974863
 30
0.0
 41
1.0
 10
242.2103697355641
 20
100.8374694478487
 30
0.0
 41
1.0
 10
242.1473664858955
 20
100.9797610854983
 30
0.0
 41
1.0
 10
242.0695345564221
 20
101.0774359935913
 30
0.0
 41
1.0
 10
242.0226666991883
 20
101.2908182676657
 30
0.0
 41
1.0
 10
241.9865824546057
 20
101.44865878455
 30
0.0
 41
1.0
 10
241.9743591153069
 20
101.7304180134963
 30
0.0
 41
1.0
 10
241.9962203134579
 20
101.8953296986063
 30
0.0
 41
1.0
 10
242.0753978966245
 20
102.1188311105849
 30
0.0
 41
1.0
 10
242.1296786063313
 20
102.2331217588466
 30
0.0
 41
1.0
 10
242.2503544520988
 20
102.4141189518127
 30
0.0
 41
1.0
 10
242.3106923749825
 20
102.5046175482958
 30
0.0
 41
1.0
  0
DIMENSION
  5
2EE
330
1F
100
AcDbEntity
  8
LAYERGROUP-1
100
AcDbDimension
  2
*D39
 10
154.454879
 20
61.96152
 30
0.0
 11
144.45488
 21
62.961521
 31
0.0
 70
    33
  3
FXDIMINFO
100
AcDbAlignedDimension
 13
134.454879
 23
80.673855
 33
0.0
 14
154.454879
 24
80.673855
 34
0.0
1001
ACAD
1000
DSTYLE
1002
{
1070
     7
1000
FXTIP_ARROW_E
1070
     6
1000
FXTIP_ARROW_S
1070
   173
1070
     1
1002
}
  0
LINE
  5
2F8
330
1F
100
AcDbEntity
  8
LAYERGROUP-1
  6
CONTINUOUS
 62
     6
100
AcDbLine
 10
258.547796
 20
135.165714
 30
0.0
 11
258.547796
 21
118.714696
 31
0.0
  0
ARC
  5
2F9
330
1F
100
AcDbEntity
  8
LAYERGROUP-1
  6
CONTINUOUS
 62
     6
100
AcDbCircle
 10
273.547796
 20
118.714696
 30
0.0
 40
15.0
100
AcDbArc
 50
180.0
 51
192.061107
  0
LINE
  5
2FA
330
1F
100
AcDbEntity
  8
LAYERGROUP-1
  6
CONTINUOUS
 62
     3
100
AcDbLine
 10
299.514796
 20
140.714696
 30
0.0
 11
245.514796
 21
140.714696
 31
0.0
  0
LINE
  5
2FB
330
1F
100
AcDbEntity
  8
LAYERGROUP-1
  6
CONTINUOUS
 62
     3
100
AcDbLine
 10
299.514796
 20
140.714696
 30
0.0
 11
299.514796
 21
142.714696
 31
0.0
  0
LINE
  5
2FC
330
1F
100
AcDbEntity
  8
LAYERGROUP-1
  6
CONTINUOUS
 62
     3
100
AcDbLine
 10
291.086893
 20
137.714696
 30
0.0
 11
253.9427
 21
137.714696
 31
0.0
  0
LINE
  5
2FD
330
1F
100
AcDbEntity
  8
LAYERGROUP-1
  6
CONTINUOUS
 62
     3
100
AcDbLine
 10
294.014796
 20
140.714696
 30
0.0
 11
292.405923
 21
138.512771
 31
0.0
  0
ARC
  5
2FE
330
1F
100
AcDbEntity
  8
LAYERGROUP-1
  6
CONTINUOUS
 62
     3
100
AcDbCircle
 10
290.791062
 20
139.692696
 30
0.0
 40
2.0
100
AcDbArc
 50
278.506147
 51
323.845646
  0
LINE
  5
2FF
330
1F
100
AcDbEntity
  8
LAYERGROUP-1
  6
CONTINUOUS
 62
     3
100
AcDbLine
 10
299.514796
 20
142.714696
 30
0.0
 11
245.514796
 21
142.714696
 31
0.0
  0
ARC
  5
300
330
1F
100
AcDbEntity
  8
LAYERGROUP-1
  6
CONTINUOUS
 62
     3
100
AcDbCircle
 10
285.514796
 20
137.692696
 30
0.0
 40
2.778
100
AcDbArc
 50
-20.612866
 51
0.453751
  0
ARC
  5
301
330
1F
100
AcDbEntity
  8
LAYERGROUP-1
  6
CONTINUOUS
 62
     3
100
AcDbCircle
 10
279.252253
 20
137.692696
 30
0.0
 40
2.778
100
AcDbArc
 50
179.546249
 51
200.612866
  0
ARC
  5
302
330
1F
100
AcDbEntity
  8
LAYERGROUP-1
  6
CONTINUOUS
 62
     3
100
AcDbCircle
 10
273.696428
 20
137.692696
 30
0.0
 40
2.778
100
AcDbArc
 50
-20.612866
 51
0.453751
  0
ARC
  5
303
330
1F
100
AcDbEntity
  8
LAYERGROUP-1
  6
CONTINUOUS
 62
     3
100
AcDbCircle
 10
279.014883
 20
137.692696
 30
0.0
 40
2.778
100
AcDbArc
 50
-20.612866
 51
0.453751
  0
ARC
  5
304
330
1F
100
AcDbEntity
  8
LAYERGROUP-1
  6
CONTINUOUS
 62
     3
100
AcDbCircle
 10
283.16386
 20
137.692696
 30
0.0
 40
2.778
100
AcDbArc
 50
-20.612866
 51
0.453751
  0
LINE
  5
305
330
1F
100
AcDbEntity
  8
LAYERGROUP-1
  6
CONTINUOUS
 62
     3
100
AcDbLine
 10
245.514796
 20
140.714696
 30
0.0
 11
245.514796
 21
142.714696
 31
0.0
  0
LINE
  5
306
330
1F
100
AcDbEntity
  8
LAYERGROUP-1
  6
CONTINUOUS
 62
     3
100
AcDbLine
 10
251.014796
 20
140.714696
 30
0.0
 11
252.62367
 21
138.512771
 31
0.0
  0
ARC
  5
307
330
1F
100
AcDbEntity
  8
LAYERGROUP-1
  6
CONTINUOUS
 62
     3
100
AcDbCircle
 10
254.238531
 20
139.692696
 30
0.0
 40
2.0
100
AcDbArc
 50
216.154354
 51
261.493853
  0
ARC
  5
308
330
1F
100
AcDbEntity
  8
LAYERGROUP-1
  6
CONTINUOUS
 62
     3
100
AcDbCircle
 10
259.514796
 20
137.692696
 30
0.0
 40
2.778
100
AcDbArc
 50
179.546249
 51
200.612866
  0
ARC
  5
309
330
1F
100
AcDbEntity
  8
LAYERGROUP-1
  6
CONTINUOUS
 62
     3
100
AcDbCircle
 10
265.777339
 20
137.692696
 30
0.0
 40
2.778
100
AcDbArc
 50
-20.612866
 51
0.453751
  0
ARC
  5
30A
330
1F
100
AcDbEntity
  8
LAYERGROUP-1
  6
CONTINUOUS
 62
     3
100
AcDbCircle
 10
271.333165
 20
137.692696
 30
0.0
 40
2.778
100
AcDbArc
 50
179.546249
 51
200.612866
  0
ARC
  5
30B
330
1F
100
AcDbEntity
  8
LAYERGROUP-1
  6
CONTINUOUS
 62
     3
100
AcDbCircle
 10
266.014709
 20
137.692696
 30
0.0
 40
2.778
100
AcDbArc
 50
179.546249
 51
200.612866
  0
ARC
  5
30C
330
1F
100
AcDbEntity
  8
LAYERGROUP-1
  6
CONTINUOUS
 62
     3
100
AcDbCircle
 10
261.865733
 20
137.692696
 30
0.0
 40
2.778
100
AcDbArc
 50
179.546249
 51
200.612866
  0
LINE
  5
30D
330
1F
100
AcDbEntity
  8
LAYERGROUP-1
  6
CENTER
 62
     6
100
AcDbLine
 10
295.514796
 20
144.987671
 30
0.0
 11
295.514796
 21
138.989978
 31
0.0
  0
LINE
  5
30E
330
1F
100
AcDbEntity
  8
LAYERGROUP-1
  6
CENTER
 62
     6
100
AcDbLine
 10
249.514796
 20
144.987671
 30
0.0
 11
249.514796
 21
138.989978
 31
0.0
  0
LINE
  5
30F
330
1F
100
AcDbEntity
  8
LAYERGROUP-1
  6
CONTINUOUS
 62
     3
100
AcDbLine
 10
290.517796
 20
136.714696
 30
0.0
 11
254.517796
 21
136.714696
 31
0.0
  0
INSERT
  5
313
330
1F
100
AcDbEntity
  8
0
100
AcDbBlockReference
  2
BLKF042
 10
0.0
 20
0.0
 30
0.0
  0
LINE
  5
33E
330
1F
100
AcDbEntity
  8
LAYERGROUP-1
  6
CONTINUOUS
 62
    66
100
AcDbLine
 10
302.017796
 20
233.010078
 30
0.0
 11
289.292555
 21
233.010078
 31
0.0
  0
LINE
  5
33F
330
1F
100
AcDbEntity
  8
LAYERGROUP-1
  6
CONTINUOUS
 62
    66
100
AcDbLine
 10
301.998536
 20
198.010078
 30
0.0
 11
289.43655
 21
198.010078
 31
0.0
  0
LINE
  5
340
330
1F
100
AcDbEntity
  8
LAYERGROUP-1
  6
CONTINUOUS
 62
    66
100
AcDbLine
 10
295.517796
 20
229.760078
 30
0.0
 11
295.517796
 21
239.010078
 31
0.0
  0
ENDSEC
  0
SECTION
  2
OBJECTS
  0
DICTIONARY
  5
C
330
0
100
AcDbDictionary
  3
ACAD_GROUP
350
D
  3
ACAD_LAYOUT
350
1A
  3
ACAD_MLINESTYLE
350
17
  3
ACAD_PLOTSETTINGS
350
19
  3
ACDBHEADERROUNDTRIPXREC
350
341
  0
DICTIONARY
  5
D
102
{ACAD_REACTORS
330
C
102
}
330
C
100
AcDbDictionary
  0
DICTIONARY
  5
1A
102
{ACAD_REACTORS
330
C
102
}
330
C
100
AcDbDictionary
  0
DICTIONARY
  5
17
102
{ACAD_REACTORS
330
C
102
}
330
C
100
AcDbDictionary
  3
STANDARD
350
18
  0
DICTIONARY
  5
19
102
{ACAD_REACTORS
330
C
102
}
330
C
100
AcDbDictionary
  0
DICTIONARY
  5
341
102
{ACAD_REACTORS
330
C
102
}
330
C
100
AcDbDictionary
  3
CEPSNTYPE
350
34A
  3
DIMSTYLEDATA
350
360
  3
FINGERPRINTGUID
350
34B
  3
HYPERLINKBASE
350
344
  3
INSUNITS
350
349
  3
LAYOUTDICT
350
346
  3
LWETCUNION
350
348
  3
PLOTSETDICT
350
347
  3
PSVPSCALE
350
34D
  3
PUCSBASE
350
350
  3
PUCSORGBACK
350
356
  3
PUCSORGBOTTOM
350
352
  3
PUCSORGFRONT
350
355
  3
PUCSORGLEFT
350
353
  3
PUCSORGRIGHT
350
354
  3
PUCSORGTOP
350
351
  3
PUCSORTHOREF
350
34E
  3
PUCSORTHOVIEW
350
34F
  3
STYLESHEET
350
345
  3
TSTACKALIGN
350
342
  3
TSTACKSIZE
350
343
  3
UCSBASE
350
359
  3
UCSORGBACK
350
35F
  3
UCSORGBOTTOM
350
35B
  3
UCSORGFRONT
350
35E
  3
UCSORGLEFT
350
35C
  3
UCSORGRIGHT
350
35D
  3
UCSORGTOP
350
35A
  3
UCSORTHOREF
350
357
  3
UCSORTHOVIEW
350
358
  3
VERSIONGUID
350
34C
  0
MLINESTYLE
  5
18
102
{ACAD_REACTORS
330
17
102
}
330
17
100
AcDbMlineStyle
  2
Standard
 70
     0
  3

 62
   256
 51
90.0
 52
90.0
 71
     2
 49
0.5
 62
   256
  6
BYLAYER
 49
-0.5
 62
   256
  6
BYLAYER
  0
XRECORD
  5
34A
102
{ACAD_REACTORS
330
341
102
}
330
341
100
AcDbXrecord
 90
        0
  0
XRECORD
  5
360
102
{ACAD_REACTORS
330
341
102
}
330
341
100
AcDbXrecord
1000
DSTYLE
1002
{
1070
   179
 70
     2
1070
   171
 70
     3
1070
   143
 40
0.03937
1070
   274
 70
     3
1070
    41
 40
4.0
1070
   343
340
41
1070
   344
340
47
1070
   141
 40
2.5
1070
   176
 70
     7
1070
   177
 70
     7
1070
   178
 70
     7
1070
   271
 70
     2
1070
    46
 40
6.0
1070
    43
 40
10.0
1070
    44
 40
1.0
1070
    42
 40
1.0
1070
   147
 40
1.0
1070
   341
340
41
1070
   173
 70
     1
1070
    77
 70
     1
1070
   272
 70
     2
1070
    73
 70
     0
1070
   172
 70
     1
1070
    74
 70
     0
1070
   283
 70
     0
1070
   340
340
3F
1070
   140
 40
4.0
1070
   284
 70
     8
1070
    78
 70
     8
1002
}
  0
XRECORD
  5
34B
102
{ACAD_REACTORS
330
341
102
}
330
341
100
AcDbXrecord
  1
{DEE29E82-8D1C-4629-BEA0-CC50A41F8D72}
  0
XRECORD
  5
344
102
{ACAD_REACTORS
330
341
102
}
330
341
100
AcDbXrecord
  1

  0
XRECORD
  5
349
102
{ACAD_REACTORS
330
341
102
}
330
341
100
AcDbXrecord
 90
        1
  0
XRECORD
  5
346
102
{ACAD_REACTORS
330
341
102
}
330
341
100
AcDbXrecord
340
1A
  0
XRECORD
  5
348
102
{ACAD_REACTORS
330
341
102
}
330
341
100
AcDbXrecord
 90
    10781
  0
XRECORD
  5
347
102
{ACAD_REACTORS
330
341
102
}
330
341
100
AcDbXrecord
340
19
  0
XRECORD
  5
34D
102
{ACAD_REACTORS
330
341
102
}
330
341
100
AcDbXrecord
 40
0.0
  0
XRECORD
  5
350
102
{ACAD_REACTORS
330
341
102
}
330
341
100
AcDbXrecord
340
0
  0
XRECORD
  5
356
102
{ACAD_REACTORS
330
341
102
}
330
341
100
AcDbXrecord
 10
0.0
 20
0.0
 30
0.0
  0
XRECORD
  5
352
102
{ACAD_REACTORS
330
341
102
}
330
341
100
AcDbXrecord
 10
0.0
 20
0.0
 30
0.0
  0
XRECORD
  5
355
102
{ACAD_REACTORS
330
341
102
}
330
341
100
AcDbXrecord
 10
0.0
 20
0.0
 30
0.0
  0
XRECORD
  5
353
102
{ACAD_REACTORS
330
341
102
}
330
341
100
AcDbXrecord
 10
0.0
 20
0.0
 30
0.0
  0
XRECORD
  5
354
102
{ACAD_REACTORS
330
341
102
}
330
341
100
AcDbXrecord
 10
0.0
 20
0.0
 30
0.0
  0
XRECORD
  5
351
102
{ACAD_REACTORS
330
341
102
}
330
341
100
AcDbXrecord
 10
0.0
 20
0.0
 30
0.0
  0
XRECORD
  5
34E
102
{ACAD_REACTORS
330
341
102
}
330
341
100
AcDbXrecord
340
0
  0
XRECORD
  5
34F
102
{ACAD_REACTORS
330
341
102
}
330
341
100
AcDbXrecord
 70
     0
  0
XRECORD
  5
345
102
{ACAD_REACTORS
330
341
102
}
330
341
100
AcDbXrecord
  1

  0
XRECORD
  5
342
102
{ACAD_REACTORS
330
341
102
}
330
341
100
AcDbXrecord
 90
        1
  0
XRECORD
  5
343
102
{ACAD_REACTORS
330
341
102
}
330
341
100
AcDbXrecord
 90
       70
  0
XRECORD
  5
359
102
{ACAD_REACTORS
330
341
102
}
330
341
100
AcDbXrecord
340
0
  0
XRECORD
  5
35F
102
{ACAD_REACTORS
330
341
102
}
330
341
100
AcDbXrecord
 10
0.0
 20
0.0
 30
0.0
  0
XRECORD
  5
35B
102
{ACAD_REACTORS
330
341
102
}
330
341
100
AcDbXrecord
 10
0.0
 20
0.0
 30
0.0
  0
XRECORD
  5
35E
102
{ACAD_REACTORS
330
341
102
}
330
341
100
AcDbXrecord
 10
0.0
 20
0.0
 30
0.0
  0
XRECORD
  5
35C
102
{ACAD_REACTORS
330
341
102
}
330
341
100
AcDbXrecord
 10
0.0
 20
0.0
 30
0.0
  0
XRECORD
  5
35D
102
{ACAD_REACTORS
330
341
102
}
330
341
100
AcDbXrecord
 10
0.0
 20
0.0
 30
0.0
  0
XRECORD
  5
35A
102
{ACAD_REACTORS
330
341
102
}
330
341
100
AcDbXrecord
 10
0.0
 20
0.0
 30
0.0
  0
XRECORD
  5
357
102
{ACAD_REACTORS
330
341
102
}
330
341
100
AcDbXrecord
340
0
  0
XRECORD
  5
358
102
{ACAD_REACTORS
330
341
102
}
330
341
100
AcDbXrecord
 70
     0
  0
XRECORD
  5
34C
102
{ACAD_REACTORS
330
341
102
}
330
341
100
AcDbXrecord
  1
{FAEB1C32-E019-11D5-929B-00C0DF256EC4}
  0
ENDSEC
  0
EOF
