  0
SECTION
  2
HEADER
  9
$ACADVER
  1
AC1014
  9
$ACADMAINTVER
 70
     9
  9
$DWGCODEPAGE
  3
ANSI_932
  9
$INSBASE
 10
0.0
 20
0.0
 30
0.0
  9
$EXTMIN
 10
0.0
 20
0.0
 30
0.0
  9
$EXTMAX
 10
420.0
 20
297.0
 30
0.0
  9
$LIMMIN
 10
0.0
 20
0.0
  9
$LIMMAX
 10
420.0
 20
297.0
  9
$ORTHOMODE
 70
     0
  9
$REGENMODE
 70
     1
  9
$FILLMODE
 70
     1
  9
$QTEXTMODE
 70
     0
  9
$MIRRTEXT
 70
     1
  9
$DRAGMODE
 70
     2
  9
$LTSCALE
 40
1.0
  9
$OSMODE
 70
    37
  9
$ATTMODE
 70
     1
  9
$TEXTSIZE
 40
0.2
  9
$TRACEWID
 40
0.05
  9
$TEXTSTYLE
  7
STYLE1
  9
$CLAYER
  8
0
  9
$CELTYPE
  6
BYLAYER
  9
$CECOLOR
 62
   256
  9
$CELTSCALE
 40
1.0
  9
$DELOBJ
 70
     1
  9
$DISPSILH
 70
     0
  9
$DIMSCALE
 40
1.0
  9
$DIMASZ
 40
4.0
  9
$DIMEXO
 40
1.0
  9
$DIMDLI
 40
10.0
  9
$DIMRND
 40
0.0
  9
$DIMDLE
 40
6.0
  9
$DIMEXE
 40
1.0
  9
$DIMTP
 40
0.0
  9
$DIMTM
 40
0.0
  9
$DIMTXT
 40
4.0
  9
$DIMCEN
 40
2.5
  9
$DIMTSZ
 40
0.0
  9
$DIMTOL
 70
     0
  9
$DIMLIM
 70
     0
  9
$DIMTIH
 70
     0
  9
$DIMTOH
 70
     0
  9
$DIMSE1
 70
     0
  9
$DIMSE2
 70
     0
  9
$DIMTAD
 70
     1
  9
$DIMZIN
 70
     8
  9
$DIMBLK
  1

  9
$DIMASO
 70
     1
  9
$DIMSHO
 70
     1
  9
$DIMPOST
  1

  9
$DIMAPOST
  1

  9
$DIMALT
 70
     0
  9
$DIMALTD
 70
     3
  9
$DIMALTF
 40
0.03937
  9
$DIMLFAC
 40
1.0
  9
$DIMTOFL
 70
     1
  9
$DIMTVP
 40
0.0
  9
$DIMTIX
 70
     0
  9
$DIMSOXD
 70
     0
  9
$DIMSAH
 70
     1
  9
$DIMBLK1
  1
FXTIP_ARROW_S
  9
$DIMBLK2
  1
FXTIP_ARROW_E
  9
$DIMSTYLE
  2
FXDIMINFO
  9
$DIMCLRD
 70
     7
  9
$DIMCLRE
 70
     7
  9
$DIMCLRT
 70
     7
  9
$DIMTFAC
 40
1.0
  9
$DIMGAP
 40
1.0
  9
$DIMJUST
 70
     0
  9
$DIMSD1
 70
     0
  9
$DIMSD2
 70
     0
  9
$DIMTOLJ
 70
     0
  9
$DIMTZIN
 70
     8
  9
$DIMALTZ
 70
     0
  9
$DIMALTTZ
 70
     0
  9
$DIMFIT
 70
     3
  9
$DIMUPT
 70
     0
  9
$DIMUNIT
 70
     2
  9
$DIMDEC
 70
     2
  9
$DIMTDEC
 70
     2
  9
$DIMALTU
 70
     2
  9
$DIMALTTD
 70
     3
  9
$DIMTXSTY
  7
STYLE1
  9
$DIMAUNIT
 70
     0
  9
$LUNITS
 70
     2
  9
$LUPREC
 70
     4
  9
$SKETCHINC
 40
0.1
  9
$FILLETRAD
 40
0.5
  9
$AUNITS
 70
     0
  9
$AUPREC
 70
     0
  9
$MENU
  1
.
  9
$ELEVATION
 40
0.0
  9
$PELEVATION
 40
0.0
  9
$THICKNESS
 40
0.0
  9
$LIMCHECK
 70
     0
  9
$CHAMFERA
 40
0.5
  9
$CHAMFERB
 40
0.5
  9
$CHAMFERC
 40
1.0
  9
$CHAMFERD
 40
0.0
  9
$SKPOLY
 70
     0
  9
$TDCREATE
 40
2455308.352562951
  9
$TDUPDATE
 40
2455308.352562963
  9
$TDINDWG
 40
0.0000000116
  9
$TDUSRTIMER
 40
0.0000000116
  9
$USRTIMER
 70
     1
  9
$ANGBASE
 50
0.0
  9
$ANGDIR
 70
     0
  9
$PDMODE
 70
     0
  9
$PDSIZE
 40
0.0
  9
$PLINEWID
 40
0.0
  9
$COORDS
 70
     1
  9
$SPLFRAME
 70
     0
  9
$SPLINETYPE
 70
     6
  9
$SPLINESEGS
 70
     8
  9
$ATTDIA
 70
     0
  9
$ATTREQ
 70
     1
  9
$HANDLING
 70
     1
  9
$HANDSEED
  5
2D1
  9
$SURFTAB1
 70
     6
  9
$SURFTAB2
 70
     6
  9
$SURFTYPE
 70
     6
  9
$SURFU
 70
     6
  9
$SURFV
 70
     6
  9
$UCSNAME
  2

  9
$UCSORG
 10
0.0
 20
0.0
 30
0.0
  9
$UCSXDIR
 10
1.0
 20
0.0
 30
0.0
  9
$UCSYDIR
 10
0.0
 20
1.0
 30
0.0
  9
$PUCSNAME
  2

  9
$PUCSORG
 10
0.0
 20
0.0
 30
0.0
  9
$PUCSXDIR
 10
1.0
 20
0.0
 30
0.0
  9
$PUCSYDIR
 10
0.0
 20
1.0
 30
0.0
  9
$USERI1
 70
     0
  9
$USERI2
 70
     0
  9
$USERI3
 70
     0
  9
$USERI4
 70
     0
  9
$USERI5
 70
     0
  9
$USERR1
 40
0.0
  9
$USERR2
 40
0.0
  9
$USERR3
 40
0.0
  9
$USERR4
 40
0.0
  9
$USERR5
 40
0.0
  9
$WORLDVIEW
 70
     1
  9
$SHADEDGE
 70
     3
  9
$SHADEDIF
 70
    70
  9
$TILEMODE
 70
     1
  9
$MAXACTVP
 70
    64
  9
$PINSBASE
 10
0.0
 20
0.0
 30
0.0
  9
$PLIMCHECK
 70
     0
  9
$PEXTMIN
 10
1.000000E+20
 20
1.000000E+20
 30
1.000000E+20
  9
$PEXTMAX
 10
-1.000000E+20
 20
-1.000000E+20
 30
-1.000000E+20
  9
$PLIMMIN
 10
0.0
 20
0.0
  9
$PLIMMAX
 10
12.0
 20
9.0
  9
$UNITMODE
 70
     0
  9
$VISRETAIN
 70
     1
  9
$PLINEGEN
 70
     0
  9
$PSLTSCALE
 70
     1
  9
$TREEDEPTH
 70
  3020
  9
$PICKSTYLE
 70
     1
  9
$CMLSTYLE
  2
STANDARD
  9
$CMLJUST
 70
     0
  9
$CMLSCALE
 40
1.0
  9
$PROXYGRAPHICS
 70
     1
  9
$MEASUREMENT
 70
     0
  0
ENDSEC
  0
SECTION
  2
CLASSES
  0
CLASS
  1
ACDBDICTIONARYWDFLT
  2
AcDbDictionaryWithDefault
  3
ObjectDBX Classes
 90
        0
280
     0
281
     0
  0
CLASS
  1
XRECORD
  2
AcDbXrecord
  3
AutoCAD 2000
 90
        0
280
     0
281
     0
  0
CLASS
  1
LWPOLYLINE
  2
AcDbPolyline
  3
AutoCAD 2000
 90
        0
280
     0
281
     1
  0
CLASS
  1
HATCH
  2
AcDbHatch
  3
AutoCAD 2000
 90
        0
280
     0
281
     1
  0
CLASS
  1
ACDBPLACEHOLDER
  2
AcDbPlaceHolder
  3
ObjectDBX Classes
 90
        0
280
     0
281
     0
  0
CLASS
  1
LAYOUT
  2
AcDbLayout
  3
ObjectDBX Classes
 90
        0
280
     0
281
     0
  0
ENDSEC
  0
SECTION
  2
TABLES
  0
TABLE
  2
VPORT
  5
8
330
0
100
AcDbSymbolTable
 70
     1
  0
VPORT
  5
29
330
8
100
AcDbSymbolTableRecord
100
AcDbViewportTableRecord
  2
*ACTIVE
 70
     0
 10
0.0
 20
0.0
 11
1.0
 21
1.0
 12
210.0
 22
148.5
 13
0.0
 23
0.0
 14
0.5
 24
0.5
 15
0.5
 25
0.5
 16
0.0
 26
0.0
 36
1.0
 17
0.0
 27
0.0
 37
0.0
 40
297.0
 41
1.414141
 42
50.0
 43
0.0
 44
0.0
 50
0.0
 51
0.0
 71
     0
 72
   100
 73
     1
 74
     3
 75
     0
 76
     0
 77
     0
 78
     0
  0
ENDTAB
  0
TABLE
  2
LTYPE
  5
5
330
0
100
AcDbSymbolTable
 70
     4
  0
LTYPE
  5
14
330
5
100
AcDbSymbolTableRecord
100
AcDbLinetypeTableRecord
  2
BYBLOCK
 70
     0
  3

 72
    65
 73
     0
 40
0.0
  0
LTYPE
  5
15
330
5
100
AcDbSymbolTableRecord
100
AcDbLinetypeTableRecord
  2
BYLAYER
 70
     0
  3

 72
    65
 73
     0
 40
0.0
  0
LTYPE
  5
16
330
5
100
AcDbSymbolTableRecord
100
AcDbLinetypeTableRecord
  2
CONTINUOUS
 70
     0
  3
--------------------
 72
    65
 73
     0
 40
0.0
  0
LTYPE
  5
2A
330
5
100
AcDbSymbolTableRecord
100
AcDbLinetypeTableRecord
  2
CENTER
 70
     0
  3
Center ____ _ ____ _ ____ _ ____ _ ____ _ ____
 72
    65
 73
     4
 40
13.0
 49
10.0
 74
     0
 49
-1.0
 74
     0
 49
1.0
 74
     0
 49
-1.0
 74
     0
  0
ENDTAB
  0
TABLE
  2
LAYER
  5
2
330
0
100
AcDbSymbolTable
 70
    21
  0
LAYER
  5
10
330
2
100
AcDbSymbolTableRecord
100
AcDbLayerTableRecord
  2
0
 70
     0
 62
     7
  6
CONTINUOUS
  0
LAYER
  5
2D
330
2
100
AcDbSymbolTableRecord
100
AcDbLayerTableRecord
  2
LAYERGROUP-1
 70
     0
 62
     3
  6
CONTINUOUS
  0
LAYER
  5
3D
330
2
100
AcDbSymbolTableRecord
100
AcDbLayerTableRecord
  2
}}ﾊﾊGG血CCТ
 70
     0
 62
     3
  6
CONTINUOUS
  0
LAYER
  5
B3
330
2
100
AcDbSymbolTableRecord
100
AcDbLayerTableRecord
  2
3-1
 70
     0
 62
     7
  6
CONTINUOUS
  0
LAYER
  5
CD
330
2
100
AcDbSymbolTableRecord
100
AcDbLayerTableRecord
  2
GR1-1
 70
     0
 62
     7
  6
CONTINUOUS
  0
LAYER
  5
1DE
330
2
100
AcDbSymbolTableRecord
100
AcDbLayerTableRecord
  2
0-1
 70
     0
 62
     7
  6
CONTINUOUS
  0
ENDTAB
  0
TABLE
  2
STYLE
  5
3
330
0
100
AcDbSymbolTable
 70
     4
  0
STYLE
  5
11
330
3
100
AcDbSymbolTableRecord
100
AcDbTextStyleTableRecord
  2
STANDARD
 70
     0
 40
0.0
 41
1.0
 50
0.0
 71
     0
 42
0.2
  3
txt
  4

  0
STYLE
  5
3F
330
3
100
AcDbSymbolTableRecord
100
AcDbTextStyleTableRecord
  2
STYLE1
 70
     0
 40
0.0
 41
1.0
 50
0.0
 71
     0
 42
0.2
  3
MONOTXT.SHX
  4
extfont.shx
  0
STYLE
  5
40
330
3
100
AcDbSymbolTableRecord
100
AcDbTextStyleTableRecord
  2
FX_VECTOR
 70
     0
 40
0.0
 41
1.0
 50
0.0
 71
     0
 42
0.2
  3
MONOTXT.SHX
  4
BIGFONT.SHX
  0
ENDTAB
  0
TABLE
  2
VIEW
  5
6
330
0
100
AcDbSymbolTable
 70
     0
  0
ENDTAB
  0
TABLE
  2
UCS
  5
7
330
0
100
AcDbSymbolTable
 70
     0
  0
ENDTAB
  0
TABLE
  2
APPID
  5
9
330
0
100
AcDbSymbolTable
 70
     1
  0
APPID
  5
12
330
9
100
AcDbSymbolTableRecord
100
AcDbRegAppTableRecord
  2
ACAD
 70
     0
  0
ENDTAB
  0
TABLE
  2
DIMSTYLE
  5
A
330
0
100
AcDbSymbolTable
 70
     2
  0
DIMSTYLE
105
27
330
A
100
AcDbSymbolTableRecord
100
AcDbDimStyleTableRecord
  2
STANDARD
 70
     0
  3

  4

  5

  6

  7

 40
1.0
 41
0.18
 42
0.0625
 43
0.38
 44
0.18
 45
0.0
 46
0.0
 47
0.0
 48
0.0
140
0.18
141
0.09
142
0.0
143
25.4
144
1.0
145
0.0
146
1.0
147
0.09
 71
     0
 72
     0
 73
     1
 74
     1
 75
     0
 76
     0
 77
     0
 78
     0
170
     0
171
     2
172
     0
173
     0
174
     0
175
     0
176
     0
177
     0
178
     0
270
     2
271
     4
272
     4
273
     2
274
     2
340
11
275
     0
280
     0
281
     0
282
     0
283
     1
284
     0
285
     0
286
     0
287
     3
288
     0
  0
DIMSTYLE
105
A7
102
{ACAD_REACTORS
330
E5
330
EF
330
121
330
155
330
15F
330
168
330
182
330
18C
330
19A
330
1B9
330
1C3
102
}
330
A
100
AcDbSymbolTableRecord
100
AcDbDimStyleTableRecord
  2
FXDIMINFO
 70
     0
  3

  4

  5

  6
FXTIP_ARROW_S
  7
FXTIP_ARROW_E
 40
1.0
 41
4.0
 42
1.0
 43
10.0
 44
1.0
 45
0.0
 46
6.0
 47
0.0
 48
0.0
140
4.0
141
2.5
142
0.0
143
0.03937
144
1.0
145
0.0
146
1.0
147
1.0
 71
     0
 72
     0
 73
     0
 74
     0
 75
     0
 76
     0
 77
     1
 78
     8
170
     0
171
     3
172
     1
173
     1
174
     0
175
     0
176
     7
177
     7
178
     7
179
     2
270
     2
271
     2
272
     2
273
     2
274
     3
340
3F
275
     0
280
     0
281
     0
282
     0
283
     0
284
     8
285
     0
286
     0
287
     3
288
     0
  0
ENDTAB
  0
TABLE
  2
BLOCK_RECORD
  5
1
330
0
100
AcDbSymbolTable
 70
    35
  0
BLOCK_RECORD
  5
1F
330
1
100
AcDbSymbolTableRecord
100
AcDbBlockTableRecord
  2
*MODEL_SPACE
  0
BLOCK_RECORD
  5
1B
330
1
100
AcDbSymbolTableRecord
100
AcDbBlockTableRecord
  2
*PAPER_SPACE
  0
BLOCK_RECORD
  5
41
330
1
100
AcDbSymbolTableRecord
100
AcDbBlockTableRecord
  2
FXTIP_ARROW_S
  0
BLOCK_RECORD
  5
47
330
1
100
AcDbSymbolTableRecord
100
AcDbBlockTableRecord
  2
FXTIP_ARROW_E
  0
BLOCK_RECORD
  5
4D
330
1
100
AcDbSymbolTableRecord
100
AcDbBlockTableRecord
  2
FXTIP_BLACKDOT_S
  0
BLOCK_RECORD
  5
53
330
1
100
AcDbSymbolTableRecord
100
AcDbBlockTableRecord
  2
FXTIP_BLACKDOT_E
  0
BLOCK_RECORD
  5
59
330
1
100
AcDbSymbolTableRecord
100
AcDbBlockTableRecord
  2
FXTIP_TRIANGLE_S
  0
BLOCK_RECORD
  5
60
330
1
100
AcDbSymbolTableRecord
100
AcDbBlockTableRecord
  2
FXTIP_TRIANGLE_E
  0
BLOCK_RECORD
  5
67
330
1
100
AcDbSymbolTableRecord
100
AcDbBlockTableRecord
  2
FXTIP_ARCHITECT_S
  0
BLOCK_RECORD
  5
6D
330
1
100
AcDbSymbolTableRecord
100
AcDbBlockTableRecord
  2
FXTIP_ARCHITECT_E
  0
BLOCK_RECORD
  5
73
330
1
100
AcDbSymbolTableRecord
100
AcDbBlockTableRecord
  2
FXTIP_CIVIL_S
  0
BLOCK_RECORD
  5
79
330
1
100
AcDbSymbolTableRecord
100
AcDbBlockTableRecord
  2
FXTIP_CIVIL_E
  0
BLOCK_RECORD
  5
7F
330
1
100
AcDbSymbolTableRecord
100
AcDbBlockTableRecord
  2
FXTIP_WHITEDOT_S
  0
BLOCK_RECORD
  5
84
330
1
100
AcDbSymbolTableRecord
100
AcDbBlockTableRecord
  2
FXTIP_WHITEDOT_E
  0
BLOCK_RECORD
  5
89
330
1
100
AcDbSymbolTableRecord
100
AcDbBlockTableRecord
  2
FXTIP_UPARROW_S
  0
BLOCK_RECORD
  5
8E
330
1
100
AcDbSymbolTableRecord
100
AcDbBlockTableRecord
  2
FXTIP_UPARROW_E
  0
BLOCK_RECORD
  5
93
330
1
100
AcDbSymbolTableRecord
100
AcDbBlockTableRecord
  2
FXTIP_DOWNARROW_S
  0
BLOCK_RECORD
  5
98
330
1
100
AcDbSymbolTableRecord
100
AcDbBlockTableRecord
  2
FXTIP_DOWNARROW_E
  0
BLOCK_RECORD
  5
9D
330
1
100
AcDbSymbolTableRecord
100
AcDbBlockTableRecord
  2
FXTIP_BLACKTRIANGLE_S
  0
BLOCK_RECORD
  5
A2
330
1
100
AcDbSymbolTableRecord
100
AcDbBlockTableRecord
  2
FXTIP_BLACKTRIANGLE_E
  0
BLOCK_RECORD
  5
E6
330
1
100
AcDbSymbolTableRecord
100
AcDbBlockTableRecord
  2
*D19
  0
BLOCK_RECORD
  5
F0
330
1
100
AcDbSymbolTableRecord
100
AcDbBlockTableRecord
  2
*D20
  0
BLOCK_RECORD
  5
122
330
1
100
AcDbSymbolTableRecord
100
AcDbBlockTableRecord
  2
*D21
  0
BLOCK_RECORD
  5
156
330
1
100
AcDbSymbolTableRecord
100
AcDbBlockTableRecord
  2
*D22
  0
BLOCK_RECORD
  5
160
330
1
100
AcDbSymbolTableRecord
100
AcDbBlockTableRecord
  2
*D23
  0
BLOCK_RECORD
  5
169
330
1
100
AcDbSymbolTableRecord
100
AcDbBlockTableRecord
  2
*D24
  0
BLOCK_RECORD
  5
183
330
1
100
AcDbSymbolTableRecord
100
AcDbBlockTableRecord
  2
*D25
  0
BLOCK_RECORD
  5
18D
330
1
100
AcDbSymbolTableRecord
100
AcDbBlockTableRecord
  2
*D26
  0
BLOCK_RECORD
  5
19B
330
1
100
AcDbSymbolTableRecord
100
AcDbBlockTableRecord
  2
*D27
  0
BLOCK_RECORD
  5
1BA
330
1
100
AcDbSymbolTableRecord
100
AcDbBlockTableRecord
  2
*D28
  0
BLOCK_RECORD
  5
1C4
330
1
100
AcDbSymbolTableRecord
100
AcDbBlockTableRecord
  2
*D29
  0
BLOCK_RECORD
  5
1CE
330
1
100
AcDbSymbolTableRecord
100
AcDbBlockTableRecord
  2
BLKF032
  0
BLOCK_RECORD
  5
1DA
330
1
100
AcDbSymbolTableRecord
100
AcDbBlockTableRecord
  2
BLKF033
  0
BLOCK_RECORD
  5
1E3
330
1
100
AcDbSymbolTableRecord
100
AcDbBlockTableRecord
  2
BLKF034
  0
BLOCK_RECORD
  5
1FC
330
1
100
AcDbSymbolTableRecord
100
AcDbBlockTableRecord
  2
BLKF035
  0
BLOCK_RECORD
  5
219
330
1
100
AcDbSymbolTableRecord
100
AcDbBlockTableRecord
  2
BLKF036
  0
ENDTAB
  0
ENDSEC
  0
SECTION
  2
BLOCKS
  0
BLOCK
  5
20
330
1F
100
AcDbEntity
  8
0
100
AcDbBlockBegin
  2
*MODEL_SPACE
 70
     0
 71
     0
 10
0.0
 20
0.0
 30
0.0
  3
*MODEL_SPACE
  1

  0
ENDBLK
  5
21
330
1F
100
AcDbEntity
  8
0
100
AcDbBlockEnd
  0
BLOCK
  5
1C
330
1B
100
AcDbEntity
 67
     1
  8
0
100
AcDbBlockBegin
  2
*PAPER_SPACE
 70
     0
 71
     0
 10
0.0
 20
0.0
 30
0.0
  3
*PAPER_SPACE
  1

  0
ENDBLK
  5
1D
330
1B
100
AcDbEntity
 67
     1
  8
0
100
AcDbBlockEnd
  0
BLOCK
  5
42
330
41
100
AcDbEntity
  8
0
100
AcDbBlockBegin
  2
FXTIP_ARROW_S
 70
     0
 71
     0
 10
0.0
 20
0.0
 30
0.0
  3
FXTIP_ARROW_S
  1

  0
LINE
  5
44
330
41
100
AcDbEntity
  8
0
  6
CONTINUOUS
 62
     0
100
AcDbLine
 10
0.0
 20
0.0
 30
0.0
 11
-1.0
 21
0.0
 31
0.0
  0
LINE
  5
45
330
41
100
AcDbEntity
  8
0
  6
CONTINUOUS
 62
     0
100
AcDbLine
 10
0.0
 20
0.0
 30
0.0
 11
-0.965926
 21
-0.258819
 31
0.0
  0
LINE
  5
46
330
41
100
AcDbEntity
  8
0
  6
CONTINUOUS
 62
     0
100
AcDbLine
 10
0.0
 20
0.0
 30
0.0
 11
-0.965926
 21
0.258819
 31
0.0
  0
ENDBLK
  5
43
330
41
100
AcDbEntity
  8
0
100
AcDbBlockEnd
  0
BLOCK
  5
48
330
47
100
AcDbEntity
  8
0
100
AcDbBlockBegin
  2
FXTIP_ARROW_E
 70
     0
 71
     0
 10
0.0
 20
0.0
 30
0.0
  3
FXTIP_ARROW_E
  1

  0
LINE
  5
4A
330
47
100
AcDbEntity
  8
0
  6
CONTINUOUS
 62
     0
100
AcDbLine
 10
0.0
 20
0.0
 30
0.0
 11
-1.0
 21
0.0
 31
0.0
  0
LINE
  5
4B
330
47
100
AcDbEntity
  8
0
  6
CONTINUOUS
 62
     0
100
AcDbLine
 10
0.0
 20
0.0
 30
0.0
 11
-0.965926
 21
0.258819
 31
0.0
  0
LINE
  5
4C
330
47
100
AcDbEntity
  8
0
  6
CONTINUOUS
 62
     0
100
AcDbLine
 10
0.0
 20
0.0
 30
0.0
 11
-0.965926
 21
-0.258819
 31
0.0
  0
ENDBLK
  5
49
330
47
100
AcDbEntity
  8
0
100
AcDbBlockEnd
  0
BLOCK
  5
4E
330
4D
100
AcDbEntity
  8
0
100
AcDbBlockBegin
  2
FXTIP_BLACKDOT_S
 70
     0
 71
     0
 10
0.0
 20
0.0
 30
0.0
  3
FXTIP_BLACKDOT_S
  1

  0
LINE
  5
50
330
4D
100
AcDbEntity
  8
0
  6
CONTINUOUS
 62
     0
100
AcDbLine
 10
0.0
 20
0.0
 30
0.0
 11
-1.0
 21
0.0
 31
0.0
  0
LWPOLYLINE
  5
51
330
4D
100
AcDbEntity
  8
0
  6
CONTINUOUS
 62
     0
100
AcDbPolyline
 90
        2
 70
     1
 10
-0.25
 20
0.0
 40
0.5
 41
0.5
 42
1.0
 10
0.25
 20
0.0
 40
0.5
 41
0.5
 42
1.0
  0
CIRCLE
  5
52
330
4D
100
AcDbEntity
  8
0
  6
CONTINUOUS
 62
     0
100
AcDbCircle
 10
0.0
 20
0.0
 30
0.0
 40
0.5
  0
ENDBLK
  5
4F
330
4D
100
AcDbEntity
  8
0
100
AcDbBlockEnd
  0
BLOCK
  5
54
330
53
100
AcDbEntity
  8
0
100
AcDbBlockBegin
  2
FXTIP_BLACKDOT_E
 70
     0
 71
     0
 10
0.0
 20
0.0
 30
0.0
  3
FXTIP_BLACKDOT_E
  1

  0
LINE
  5
56
330
53
100
AcDbEntity
  8
0
  6
CONTINUOUS
 62
     0
100
AcDbLine
 10
0.0
 20
0.0
 30
0.0
 11
-1.0
 21
0.0
 31
0.0
  0
LWPOLYLINE
  5
57
330
53
100
AcDbEntity
  8
0
  6
CONTINUOUS
 62
     0
100
AcDbPolyline
 90
        2
 70
     1
 10
-0.25
 20
0.0
 40
0.5
 41
0.5
 42
1.0
 10
0.25
 20
0.0
 40
0.5
 41
0.5
 42
1.0
  0
CIRCLE
  5
58
330
53
100
AcDbEntity
  8
0
  6
CONTINUOUS
 62
     0
100
AcDbCircle
 10
0.0
 20
0.0
 30
0.0
 40
0.5
  0
ENDBLK
  5
55
330
53
100
AcDbEntity
  8
0
100
AcDbBlockEnd
  0
BLOCK
  5
5A
330
59
100
AcDbEntity
  8
0
100
AcDbBlockBegin
  2
FXTIP_TRIANGLE_S
 70
     0
 71
     0
 10
0.0
 20
0.0
 30
0.0
  3
FXTIP_TRIANGLE_S
  1

  0
LINE
  5
5C
330
59
100
AcDbEntity
  8
0
  6
CONTINUOUS
 62
     0
100
AcDbLine
 10
0.0
 20
0.0
 30
0.0
 11
-1.0
 21
0.0
 31
0.0
  0
LINE
  5
5D
330
59
100
AcDbEntity
  8
0
  6
CONTINUOUS
 62
     0
100
AcDbLine
 10
0.0
 20
0.0
 30
0.0
 11
-0.965926
 21
-0.258819
 31
0.0
  0
LINE
  5
5E
330
59
100
AcDbEntity
  8
0
  6
CONTINUOUS
 62
     0
100
AcDbLine
 10
0.0
 20
0.0
 30
0.0
 11
-0.965926
 21
0.258819
 31
0.0
  0
LINE
  5
5F
330
59
100
AcDbEntity
  8
0
  6
CONTINUOUS
 62
     0
100
AcDbLine
 10
-0.965926
 20
-0.258819
 30
0.0
 11
-0.965926
 21
0.258819
 31
0.0
  0
ENDBLK
  5
5B
330
59
100
AcDbEntity
  8
0
100
AcDbBlockEnd
  0
BLOCK
  5
61
330
60
100
AcDbEntity
  8
0
100
AcDbBlockBegin
  2
FXTIP_TRIANGLE_E
 70
     0
 71
     0
 10
0.0
 20
0.0
 30
0.0
  3
FXTIP_TRIANGLE_E
  1

  0
LINE
  5
63
330
60
100
AcDbEntity
  8
0
  6
CONTINUOUS
 62
     0
100
AcDbLine
 10
0.0
 20
0.0
 30
0.0
 11
-1.0
 21
0.0
 31
0.0
  0
LINE
  5
64
330
60
100
AcDbEntity
  8
0
  6
CONTINUOUS
 62
     0
100
AcDbLine
 10
0.0
 20
0.0
 30
0.0
 11
-0.965926
 21
0.258819
 31
0.0
  0
LINE
  5
65
330
60
100
AcDbEntity
  8
0
  6
CONTINUOUS
 62
     0
100
AcDbLine
 10
0.0
 20
0.0
 30
0.0
 11
-0.965926
 21
-0.258819
 31
0.0
  0
LINE
  5
66
330
60
100
AcDbEntity
  8
0
  6
CONTINUOUS
 62
     0
100
AcDbLine
 10
-0.965926
 20
0.258819
 30
0.0
 11
-0.965926
 21
-0.258819
 31
0.0
  0
ENDBLK
  5
62
330
60
100
AcDbEntity
  8
0
100
AcDbBlockEnd
  0
BLOCK
  5
68
330
67
100
AcDbEntity
  8
0
100
AcDbBlockBegin
  2
FXTIP_ARCHITECT_S
 70
     0
 71
     0
 10
0.0
 20
0.0
 30
0.0
  3
FXTIP_ARCHITECT_S
  1

  0
LINE
  5
6A
330
67
100
AcDbEntity
  8
0
  6
CONTINUOUS
 62
     0
100
AcDbLine
 10
0.0
 20
0.0
 30
0.0
 11
-1.0
 21
0.0
 31
0.0
  0
LINE
  5
6B
330
67
100
AcDbEntity
  8
0
  6
CONTINUOUS
 62
     0
100
AcDbLine
 10
0.0
 20
0.0
 30
0.0
 11
-0.707107
 21
-0.707107
 31
0.0
  0
LINE
  5
6C
330
67
100
AcDbEntity
  8
0
  6
CONTINUOUS
 62
     0
100
AcDbLine
 10
0.0
 20
0.0
 30
0.0
 11
0.707107
 21
0.707107
 31
0.0
  0
ENDBLK
  5
69
330
67
100
AcDbEntity
  8
0
100
AcDbBlockEnd
  0
BLOCK
  5
6E
330
6D
100
AcDbEntity
  8
0
100
AcDbBlockBegin
  2
FXTIP_ARCHITECT_E
 70
     0
 71
     0
 10
0.0
 20
0.0
 30
0.0
  3
FXTIP_ARCHITECT_E
  1

  0
LINE
  5
70
330
6D
100
AcDbEntity
  8
0
  6
CONTINUOUS
 62
     0
100
AcDbLine
 10
0.0
 20
0.0
 30
0.0
 11
-1.0
 21
0.0
 31
0.0
  0
LINE
  5
71
330
6D
100
AcDbEntity
  8
0
  6
CONTINUOUS
 62
     0
100
AcDbLine
 10
0.0
 20
0.0
 30
0.0
 11
0.707107
 21
0.707107
 31
0.0
  0
LINE
  5
72
330
6D
100
AcDbEntity
  8
0
  6
CONTINUOUS
 62
     0
100
AcDbLine
 10
0.0
 20
0.0
 30
0.0
 11
-0.707107
 21
-0.707107
 31
0.0
  0
ENDBLK
  5
6F
330
6D
100
AcDbEntity
  8
0
100
AcDbBlockEnd
  0
BLOCK
  5
74
330
73
100
AcDbEntity
  8
0
100
AcDbBlockBegin
  2
FXTIP_CIVIL_S
 70
     0
 71
     0
 10
0.0
 20
0.0
 30
0.0
  3
FXTIP_CIVIL_S
  1

  0
LINE
  5
76
330
73
100
AcDbEntity
  8
0
  6
CONTINUOUS
 62
     0
100
AcDbLine
 10
0.0
 20
0.0
 30
0.0
 11
-1.0
 21
0.0
 31
0.0
  0
LINE
  5
77
330
73
100
AcDbEntity
  8
0
  6
CONTINUOUS
 62
     0
100
AcDbLine
 10
0.0
 20
-0.0625
 30
0.0
 11
-1.0
 21
-0.0625
 31
0.0
  0
LINE
  5
78
330
73
100
AcDbEntity
  8
0
  6
CONTINUOUS
 62
     0
100
AcDbLine
 10
0.0
 20
-0.125
 30
0.0
 11
-1.0
 21
-0.125
 31
0.0
  0
ENDBLK
  5
75
330
73
100
AcDbEntity
  8
0
100
AcDbBlockEnd
  0
BLOCK
  5
7A
330
79
100
AcDbEntity
  8
0
100
AcDbBlockBegin
  2
FXTIP_CIVIL_E
 70
     0
 71
     0
 10
0.0
 20
0.0
 30
0.0
  3
FXTIP_CIVIL_E
  1

  0
LINE
  5
7C
330
79
100
AcDbEntity
  8
0
  6
CONTINUOUS
 62
     0
100
AcDbLine
 10
0.0
 20
0.0
 30
0.0
 11
-1.0
 21
0.0
 31
0.0
  0
LINE
  5
7D
330
79
100
AcDbEntity
  8
0
  6
CONTINUOUS
 62
     0
100
AcDbLine
 10
0.0
 20
0.0625
 30
0.0
 11
-1.0
 21
0.0625
 31
0.0
  0
LINE
  5
7E
330
79
100
AcDbEntity
  8
0
  6
CONTINUOUS
 62
     0
100
AcDbLine
 10
0.0
 20
0.125
 30
0.0
 11
-1.0
 21
0.125
 31
0.0
  0
ENDBLK
  5
7B
330
79
100
AcDbEntity
  8
0
100
AcDbBlockEnd
  0
BLOCK
  5
80
330
7F
100
AcDbEntity
  8
0
100
AcDbBlockBegin
  2
FXTIP_WHITEDOT_S
 70
     0
 71
     0
 10
0.0
 20
0.0
 30
0.0
  3
FXTIP_WHITEDOT_S
  1

  0
LINE
  5
82
330
7F
100
AcDbEntity
  8
0
  6
CONTINUOUS
 62
     0
100
AcDbLine
 10
0.0
 20
0.0
 30
0.0
 11
-1.0
 21
0.0
 31
0.0
  0
CIRCLE
  5
83
330
7F
100
AcDbEntity
  8
0
  6
CONTINUOUS
 62
     0
100
AcDbCircle
 10
0.0
 20
0.0
 30
0.0
 40
0.5
  0
ENDBLK
  5
81
330
7F
100
AcDbEntity
  8
0
100
AcDbBlockEnd
  0
BLOCK
  5
85
330
84
100
AcDbEntity
  8
0
100
AcDbBlockBegin
  2
FXTIP_WHITEDOT_E
 70
     0
 71
     0
 10
0.0
 20
0.0
 30
0.0
  3
FXTIP_WHITEDOT_E
  1

  0
LINE
  5
87
330
84
100
AcDbEntity
  8
0
  6
CONTINUOUS
 62
     0
100
AcDbLine
 10
0.0
 20
0.0
 30
0.0
 11
-1.0
 21
0.0
 31
0.0
  0
CIRCLE
  5
88
330
84
100
AcDbEntity
  8
0
  6
CONTINUOUS
 62
     0
100
AcDbCircle
 10
0.0
 20
0.0
 30
0.0
 40
0.5
  0
ENDBLK
  5
86
330
84
100
AcDbEntity
  8
0
100
AcDbBlockEnd
  0
BLOCK
  5
8A
330
89
100
AcDbEntity
  8
0
100
AcDbBlockBegin
  2
FXTIP_UPARROW_S
 70
     0
 71
     0
 10
0.0
 20
0.0
 30
0.0
  3
FXTIP_UPARROW_S
  1

  0
LINE
  5
8C
330
89
100
AcDbEntity
  8
0
  6
CONTINUOUS
 62
     0
100
AcDbLine
 10
0.0
 20
0.0
 30
0.0
 11
-1.0
 21
0.0
 31
0.0
  0
LINE
  5
8D
330
89
100
AcDbEntity
  8
0
  6
CONTINUOUS
 62
     0
100
AcDbLine
 10
0.0
 20
0.0
 30
0.0
 11
-0.965926
 21
-0.258819
 31
0.0
  0
ENDBLK
  5
8B
330
89
100
AcDbEntity
  8
0
100
AcDbBlockEnd
  0
BLOCK
  5
8F
330
8E
100
AcDbEntity
  8
0
100
AcDbBlockBegin
  2
FXTIP_UPARROW_E
 70
     0
 71
     0
 10
0.0
 20
0.0
 30
0.0
  3
FXTIP_UPARROW_E
  1

  0
LINE
  5
91
330
8E
100
AcDbEntity
  8
0
  6
CONTINUOUS
 62
     0
100
AcDbLine
 10
0.0
 20
0.0
 30
0.0
 11
-1.0
 21
0.0
 31
0.0
  0
LINE
  5
92
330
8E
100
AcDbEntity
  8
0
  6
CONTINUOUS
 62
     0
100
AcDbLine
 10
0.0
 20
0.0
 30
0.0
 11
-0.965926
 21
0.258819
 31
0.0
  0
ENDBLK
  5
90
330
8E
100
AcDbEntity
  8
0
100
AcDbBlockEnd
  0
BLOCK
  5
94
330
93
100
AcDbEntity
  8
0
100
AcDbBlockBegin
  2
FXTIP_DOWNARROW_S
 70
     0
 71
     0
 10
0.0
 20
0.0
 30
0.0
  3
FXTIP_DOWNARROW_S
  1

  0
LINE
  5
96
330
93
100
AcDbEntity
  8
0
  6
CONTINUOUS
 62
     0
100
AcDbLine
 10
0.0
 20
0.0
 30
0.0
 11
-1.0
 21
0.0
 31
0.0
  0
LINE
  5
97
330
93
100
AcDbEntity
  8
0
  6
CONTINUOUS
 62
     0
100
AcDbLine
 10
0.0
 20
0.0
 30
0.0
 11
-0.965926
 21
0.258819
 31
0.0
  0
ENDBLK
  5
95
330
93
100
AcDbEntity
  8
0
100
AcDbBlockEnd
  0
BLOCK
  5
99
330
98
100
AcDbEntity
  8
0
100
AcDbBlockBegin
  2
FXTIP_DOWNARROW_E
 70
     0
 71
     0
 10
0.0
 20
0.0
 30
0.0
  3
FXTIP_DOWNARROW_E
  1

  0
LINE
  5
9B
330
98
100
AcDbEntity
  8
0
  6
CONTINUOUS
 62
     0
100
AcDbLine
 10
0.0
 20
0.0
 30
0.0
 11
-1.0
 21
0.0
 31
0.0
  0
LINE
  5
9C
330
98
100
AcDbEntity
  8
0
  6
CONTINUOUS
 62
     0
100
AcDbLine
 10
0.0
 20
0.0
 30
0.0
 11
-0.965926
 21
-0.258819
 31
0.0
  0
ENDBLK
  5
9A
330
98
100
AcDbEntity
  8
0
100
AcDbBlockEnd
  0
BLOCK
  5
9E
330
9D
100
AcDbEntity
  8
0
100
AcDbBlockBegin
  2
FXTIP_BLACKTRIANGLE_S
 70
     0
 71
     0
 10
0.0
 20
0.0
 30
0.0
  3
FXTIP_BLACKTRIANGLE_S
  1

  0
LINE
  5
A0
330
9D
100
AcDbEntity
  8
0
  6
CONTINUOUS
 62
     0
100
AcDbLine
 10
0.0
 20
0.0
 30
0.0
 11
-1.0
 21
0.0
 31
0.0
  0
SOLID
  5
A1
330
9D
100
AcDbEntity
  8
0
  6
CONTINUOUS
 62
     0
100
AcDbTrace
 10
0.0
 20
0.0
 30
0.0
 11
-0.965926
 21
-0.258819
 31
0.0
 12
-0.965926
 22
0.258819
 32
0.0
 13
-0.965926
 23
0.258819
 33
0.0
  0
ENDBLK
  5
9F
330
9D
100
AcDbEntity
  8
0
100
AcDbBlockEnd
  0
BLOCK
  5
A3
330
A2
100
AcDbEntity
  8
0
100
AcDbBlockBegin
  2
FXTIP_BLACKTRIANGLE_E
 70
     0
 71
     0
 10
0.0
 20
0.0
 30
0.0
  3
FXTIP_BLACKTRIANGLE_E
  1

  0
LINE
  5
A5
330
A2
100
AcDbEntity
  8
0
  6
CONTINUOUS
 62
     0
100
AcDbLine
 10
0.0
 20
0.0
 30
0.0
 11
-1.0
 21
0.0
 31
0.0
  0
SOLID
  5
A6
330
A2
100
AcDbEntity
  8
0
  6
CONTINUOUS
 62
     0
100
AcDbTrace
 10
0.0
 20
0.0
 30
0.0
 11
-0.965926
 21
0.258819
 31
0.0
 12
-0.965926
 22
-0.258819
 32
0.0
 13
-0.965926
 23
-0.258819
 33
0.0
  0
ENDBLK
  5
A4
330
A2
100
AcDbEntity
  8
0
100
AcDbBlockEnd
  0
BLOCK
  5
E7
330
E6
100
AcDbEntity
  8
0
100
AcDbBlockBegin
  2
*D19
 70
     1
 71
     0
 10
0.0
 20
0.0
 30
0.0
  3
*D19
  1

  0
TEXT
  5
E9
330
E6
100
AcDbEntity
  8
GR1-1
  6
CONTINUOUS
 62
     7
100
AcDbText
 10
241.051727
 20
182.402985
 30
0.0
 40
4.0
  1
70
 41
0.851351
  7
FX_VECTOR
 72
     5
 11
247.051727
 21
182.402985
 31
0.0
100
AcDbText
  0
LINE
  5
EA
330
E6
100
AcDbEntity
  8
GR1-1
  6
CONTINUOUS
 62
     7
100
AcDbLine
 10
209.051724
 20
181.402985
 30
0.0
 11
279.051724
 21
181.402985
 31
0.0
  0
INSERT
  5
EB
330
E6
100
AcDbEntity
  8
GR1-1
  6
CONTINUOUS
 62
     7
100
AcDbBlockReference
  2
FXTIP_ARROW_S
 10
209.051724
 20
181.402985
 30
0.0
 41
4.0
 42
4.0
 50
180.0
  0
INSERT
  5
EC
330
E6
100
AcDbEntity
  8
GR1-1
  6
CONTINUOUS
 62
     7
100
AcDbBlockReference
  2
FXTIP_ARROW_E
 10
279.051724
 20
181.402985
 30
0.0
 41
4.0
 42
4.0
 50
360.0
  0
LINE
  5
ED
330
E6
100
AcDbEntity
  8
GR1-1
  6
CONTINUOUS
 62
     7
100
AcDbLine
 10
209.051724
 20
208.402985
 30
0.0
 11
209.051724
 21
180.402985
 31
0.0
  0
LINE
  5
EE
330
E6
100
AcDbEntity
  8
GR1-1
  6
CONTINUOUS
 62
     7
100
AcDbLine
 10
279.051724
 20
208.402985
 30
0.0
 11
279.051724
 21
180.402985
 31
0.0
  0
ENDBLK
  5
E8
330
E6
100
AcDbEntity
  8
0
100
AcDbBlockEnd
  0
BLOCK
  5
F1
330
F0
100
AcDbEntity
  8
0
100
AcDbBlockBegin
  2
*D20
 70
     1
 71
     0
 10
0.0
 20
0.0
 30
0.0
  3
*D20
  1

  0
TEXT
  5
F3
330
F0
100
AcDbEntity
  8
GR1-1
  6
CONTINUOUS
 62
     7
100
AcDbText
 10
241.051727
 20
192.402985
 30
0.0
 40
4.0
  1
55
 41
0.851351
  7
FX_VECTOR
 72
     5
 11
247.051727
 21
192.402985
 31
0.0
100
AcDbText
  0
LINE
  5
F4
330
F0
100
AcDbEntity
  8
GR1-1
  6
CONTINUOUS
 62
     7
100
AcDbLine
 10
216.551724
 20
191.402985
 30
0.0
 11
271.551724
 21
191.402985
 31
0.0
  0
INSERT
  5
F5
330
F0
100
AcDbEntity
  8
GR1-1
  6
CONTINUOUS
 62
     7
100
AcDbBlockReference
  2
FXTIP_ARROW_S
 10
216.551724
 20
191.402985
 30
0.0
 41
4.0
 42
4.0
 50
180.0
  0
INSERT
  5
F6
330
F0
100
AcDbEntity
  8
GR1-1
  6
CONTINUOUS
 62
     7
100
AcDbBlockReference
  2
FXTIP_ARROW_E
 10
271.551724
 20
191.402985
 30
0.0
 41
4.0
 42
4.0
 50
360.0
  0
LINE
  5
F7
330
F0
100
AcDbEntity
  8
GR1-1
  6
CONTINUOUS
 62
     7
100
AcDbLine
 10
216.551724
 20
200.402985
 30
0.0
 11
216.551724
 21
190.402985
 31
0.0
  0
LINE
  5
F8
330
F0
100
AcDbEntity
  8
GR1-1
  6
CONTINUOUS
 62
     7
100
AcDbLine
 10
271.551724
 20
200.402985
 30
0.0
 11
271.551724
 21
190.402985
 31
0.0
  0
ENDBLK
  5
F2
330
F0
100
AcDbEntity
  8
0
100
AcDbBlockEnd
  0
BLOCK
  5
123
330
122
100
AcDbEntity
  8
0
100
AcDbBlockBegin
  2
*D21
 70
     1
 71
     0
 10
0.0
 20
0.0
 30
0.0
  3
*D21
  1

  0
TEXT
  5
125
330
122
100
AcDbEntity
  8
LAYERGROUP-1
  6
CONTINUOUS
 62
     7
100
AcDbText
 10
193.854486
 20
269.401569
 30
0.0
 40
4.0
  1
4-%%c8.8
 50
323.564449
 41
0.84375
  7
FX_VECTOR
 72
     5
 11
208.335944
 21
258.711041
 31
0.0
100
AcDbText
  0
LINE
  5
126
330
122
100
AcDbEntity
  8
LAYERGROUP-1
  6
CONTINUOUS
 62
     7
100
AcDbLine
 10
213.011812
 20
254.016225
 30
0.0
 11
220.091636
 21
248.789745
 31
0.0
  0
LINE
  5
127
330
122
100
AcDbEntity
  8
LAYERGROUP-1
  6
CONTINUOUS
 62
     7
100
AcDbLine
 10
213.011812
 20
254.016225
 30
0.0
 11
187.990771
 21
272.487304
 31
0.0
  0
INSERT
  5
128
330
122
100
AcDbEntity
  8
LAYERGROUP-1
  6
CONTINUOUS
 62
     7
100
AcDbBlockReference
  2
FXTIP_ARROW_S
 10
213.011812
 20
254.016225
 30
0.0
 41
4.0
 42
4.0
 50
323.564447
  0
LINE
  5
129
330
122
100
AcDbEntity
  8
LAYERGROUP-1
  6
CONTINUOUS
 62
     7
100
AcDbLine
 10
220.091636
 20
248.789745
 30
0.0
 11
224.918789
 21
245.226236
 31
0.0
  0
INSERT
  5
12A
330
122
100
AcDbEntity
  8
LAYERGROUP-1
  6
CONTINUOUS
 62
     7
100
AcDbBlockReference
  2
FXTIP_ARROW_S
 10
220.091636
 20
248.789745
 30
0.0
 41
4.0
 42
4.0
 50
143.564447
  0
ENDBLK
  5
124
330
122
100
AcDbEntity
  8
0
100
AcDbBlockEnd
  0
BLOCK
  5
157
330
156
100
AcDbEntity
  8
0
100
AcDbBlockBegin
  2
*D22
 70
     1
 71
     0
 10
0.0
 20
0.0
 30
0.0
  3
*D22
  1

  0
TEXT
  5
159
330
156
100
AcDbEntity
  8
LAYERGROUP-1
  6
CONTINUOUS
 62
     7
100
AcDbText
 10
304.108276
 20
105.5
 30
0.0
 40
4.0
  1
80
 50
90.0
 41
0.851351
  7
FX_VECTOR
 72
     5
 11
304.108276
 21
111.5
 31
0.0
100
AcDbText
  0
LINE
  5
15A
330
156
100
AcDbEntity
  8
LAYERGROUP-1
  6
CONTINUOUS
 62
     7
100
AcDbLine
 10
305.108273
 20
68.5
 30
0.0
 11
305.108273
 21
148.5
 31
0.0
  0
INSERT
  5
15B
330
156
100
AcDbEntity
  8
LAYERGROUP-1
  6
CONTINUOUS
 62
     7
100
AcDbBlockReference
  2
FXTIP_ARROW_S
 10
305.108273
 20
68.5
 30
0.0
 41
4.0
 42
4.0
 50
270.0
  0
INSERT
  5
15C
330
156
100
AcDbEntity
  8
LAYERGROUP-1
  6
CONTINUOUS
 62
     7
100
AcDbBlockReference
  2
FXTIP_ARROW_E
 10
305.108273
 20
148.5
 30
0.0
 41
4.0
 42
4.0
 50
90.0
  0
LINE
  5
15D
330
156
100
AcDbEntity
  8
LAYERGROUP-1
  6
CONTINUOUS
 62
     7
100
AcDbLine
 10
224.051724
 20
68.5
 30
0.0
 11
306.108273
 21
68.5
 31
0.0
  0
LINE
  5
15E
330
156
100
AcDbEntity
  8
LAYERGROUP-1
  6
CONTINUOUS
 62
     7
100
AcDbLine
 10
280.051724
 20
148.5
 30
0.0
 11
306.108273
 21
148.5
 31
0.0
  0
ENDBLK
  5
158
330
156
100
AcDbEntity
  8
0
100
AcDbBlockEnd
  0
BLOCK
  5
161
330
160
100
AcDbEntity
  8
0
100
AcDbBlockBegin
  2
*D23
 70
     1
 71
     0
 10
0.0
 20
0.0
 30
0.0
  3
*D23
  1

  0
TEXT
  5
163
330
160
100
AcDbEntity
  8
LAYERGROUP-1
  6
CONTINUOUS
 62
     7
100
AcDbText
 10
294.108276
 20
118.75
 30
0.0
 40
4.0
  1
47.5
 50
90.0
 41
0.940299
  7
FX_VECTOR
 72
     5
 11
294.108276
 21
130.75
 31
0.0
100
AcDbText
  0
LINE
  5
164
330
160
100
AcDbEntity
  8
LAYERGROUP-1
  6
CONTINUOUS
 62
     7
100
AcDbLine
 10
295.108273
 20
101.0
 30
0.0
 11
295.108273
 21
148.5
 31
0.0
  0
INSERT
  5
165
330
160
100
AcDbEntity
  8
LAYERGROUP-1
  6
CONTINUOUS
 62
     7
100
AcDbBlockReference
  2
FXTIP_ARROW_S
 10
295.108273
 20
101.0
 30
0.0
 41
4.0
 42
4.0
 50
270.0
  0
INSERT
  5
166
330
160
100
AcDbEntity
  8
LAYERGROUP-1
  6
CONTINUOUS
 62
     7
100
AcDbBlockReference
  2
FXTIP_ARROW_E
 10
295.108273
 20
148.5
 30
0.0
 41
4.0
 42
4.0
 50
90.0
  0
LINE
  5
167
330
160
100
AcDbEntity
  8
LAYERGROUP-1
  6
CONTINUOUS
 62
     7
100
AcDbLine
 10
258.809457
 20
101.0
 30
0.0
 11
296.108273
 21
101.0
 31
0.0
  0
ENDBLK
  5
162
330
160
100
AcDbEntity
  8
0
100
AcDbBlockEnd
  0
BLOCK
  5
16A
330
169
100
AcDbEntity
  8
0
100
AcDbBlockBegin
  2
*D24
 70
     1
 71
     0
 10
0.0
 20
0.0
 30
0.0
  3
*D24
  1

  0
TEXT
  5
16C
330
169
100
AcDbEntity
  8
LAYERGROUP-1
  6
CONTINUOUS
 62
     7
100
AcDbText
 10
230.551727
 20
59.5
 30
0.0
 40
4.0
  1
21
 41
1.016129
  7
FX_VECTOR
 72
     5
 11
236.551727
 21
59.5
 31
0.0
100
AcDbText
  0
LINE
  5
16D
330
169
100
AcDbEntity
  8
LAYERGROUP-1
  6
CONTINUOUS
 62
     7
100
AcDbLine
 10
223.051724
 20
58.5
 30
0.0
 11
244.051724
 21
58.5
 31
0.0
  0
INSERT
  5
16E
330
169
100
AcDbEntity
  8
LAYERGROUP-1
  6
CONTINUOUS
 62
     7
100
AcDbBlockReference
  2
FXTIP_ARROW_S
 10
223.051724
 20
58.5
 30
0.0
 41
4.0
 42
4.0
 50
180.0
  0
INSERT
  5
16F
330
169
100
AcDbEntity
  8
LAYERGROUP-1
  6
CONTINUOUS
 62
     7
100
AcDbBlockReference
  2
FXTIP_ARROW_E
 10
244.051724
 20
58.5
 30
0.0
 41
4.0
 42
4.0
 50
360.0
  0
LINE
  5
170
330
169
100
AcDbEntity
  8
LAYERGROUP-1
  6
CONTINUOUS
 62
     7
100
AcDbLine
 10
223.051724
 20
64.855691
 30
0.0
 11
223.051724
 21
57.5
 31
0.0
  0
LINE
  5
171
330
169
100
AcDbEntity
  8
LAYERGROUP-1
  6
CONTINUOUS
 62
     7
100
AcDbLine
 10
244.051724
 20
108.820081
 30
0.0
 11
244.051724
 21
57.5
 31
0.0
  0
ENDBLK
  5
16B
330
169
100
AcDbEntity
  8
0
100
AcDbBlockEnd
  0
BLOCK
  5
184
330
183
100
AcDbEntity
  8
0
100
AcDbBlockBegin
  2
*D25
 70
     1
 71
     0
 10
0.0
 20
0.0
 30
0.0
  3
*D25
  1

  0
TEXT
  5
186
330
183
100
AcDbEntity
  8
LAYERGROUP-1
  6
CONTINUOUS
 62
     7
100
AcDbText
 10
118.551727
 20
49.5
 30
0.0
 40
4.0
  1
30
 41
0.851351
  7
FX_VECTOR
 72
     5
 11
124.551727
 21
49.5
 31
0.0
100
AcDbText
  0
LINE
  5
187
330
183
100
AcDbEntity
  8
LAYERGROUP-1
  6
CONTINUOUS
 62
     7
100
AcDbLine
 10
106.551724
 20
48.5
 30
0.0
 11
136.551724
 21
48.5
 31
0.0
  0
INSERT
  5
188
330
183
100
AcDbEntity
  8
LAYERGROUP-1
  6
CONTINUOUS
 62
     7
100
AcDbBlockReference
  2
FXTIP_ARROW_S
 10
106.551724
 20
48.5
 30
0.0
 41
4.0
 42
4.0
 50
180.0
  0
INSERT
  5
189
330
183
100
AcDbEntity
  8
LAYERGROUP-1
  6
CONTINUOUS
 62
     7
100
AcDbBlockReference
  2
FXTIP_ARROW_E
 10
136.551724
 20
48.5
 30
0.0
 41
4.0
 42
4.0
 50
360.0
  0
LINE
  5
18A
330
183
100
AcDbEntity
  8
LAYERGROUP-1
  6
CONTINUOUS
 62
     7
100
AcDbLine
 10
106.551724
 20
89.0
 30
0.0
 11
106.551724
 21
47.5
 31
0.0
  0
LINE
  5
18B
330
183
100
AcDbEntity
  8
LAYERGROUP-1
  6
CONTINUOUS
 62
     7
100
AcDbLine
 10
136.551724
 20
89.0
 30
0.0
 11
136.551724
 21
47.5
 31
0.0
  0
ENDBLK
  5
185
330
183
100
AcDbEntity
  8
0
100
AcDbBlockEnd
  0
BLOCK
  5
18E
330
18D
100
AcDbEntity
  8
0
100
AcDbBlockBegin
  2
*D26
 70
     1
 71
     0
 10
0.0
 20
0.0
 30
0.0
  3
*D26
  1

  0
TEXT
  5
190
330
18D
100
AcDbEntity
  8
LAYERGROUP-1
  6
CONTINUOUS
 62
     7
100
AcDbText
 10
118.551727
 20
59.5
 30
0.0
 40
4.0
  1
25
 41
0.851351
  7
FX_VECTOR
 72
     5
 11
124.551727
 21
59.5
 31
0.0
100
AcDbText
  0
LINE
  5
191
330
18D
100
AcDbEntity
  8
LAYERGROUP-1
  6
CONTINUOUS
 62
     7
100
AcDbLine
 10
109.051724
 20
58.5
 30
0.0
 11
134.051724
 21
58.5
 31
0.0
  0
INSERT
  5
192
330
18D
100
AcDbEntity
  8
LAYERGROUP-1
  6
CONTINUOUS
 62
     7
100
AcDbBlockReference
  2
FXTIP_ARROW_S
 10
109.051724
 20
58.5
 30
0.0
 41
4.0
 42
4.0
 50
180.0
  0
INSERT
  5
193
330
18D
100
AcDbEntity
  8
LAYERGROUP-1
  6
CONTINUOUS
 62
     7
100
AcDbBlockReference
  2
FXTIP_ARROW_E
 10
134.051724
 20
58.5
 30
0.0
 41
4.0
 42
4.0
 50
360.0
  0
LINE
  5
194
330
18D
100
AcDbEntity
  8
LAYERGROUP-1
  6
CONTINUOUS
 62
     7
100
AcDbLine
 10
109.051724
 20
70.979458
 30
0.0
 11
109.051724
 21
57.5
 31
0.0
  0
LINE
  5
195
330
18D
100
AcDbEntity
  8
LAYERGROUP-1
  6
CONTINUOUS
 62
     7
100
AcDbLine
 10
134.051724
 20
70.979458
 30
0.0
 11
134.051724
 21
57.5
 31
0.0
  0
ENDBLK
  5
18F
330
18D
100
AcDbEntity
  8
0
100
AcDbBlockEnd
  0
BLOCK
  5
19C
330
19B
100
AcDbEntity
  8
0
100
AcDbBlockBegin
  2
*D27
 70
     1
 71
     0
 10
0.0
 20
0.0
 30
0.0
  3
*D27
  1

  0
TEXT
  5
19E
330
19B
100
AcDbEntity
  8
LAYERGROUP-1
  6
CONTINUOUS
 62
     7
100
AcDbText
 10
151.578629
 20
96.5
 30
0.0
 40
4.0
  1
%%c65
 50
90.0
 41
0.84375
  7
FX_VECTOR
 72
     5
 11
151.578629
 21
105.5
 31
0.0
100
AcDbText
  0
LINE
  5
19F
330
19B
100
AcDbEntity
  8
LAYERGROUP-1
  6
CONTINUOUS
 62
     7
100
AcDbLine
 10
152.57863
 20
68.5
 30
0.0
 11
152.57863
 21
133.5
 31
0.0
  0
INSERT
  5
1A0
330
19B
100
AcDbEntity
  8
LAYERGROUP-1
  6
CONTINUOUS
 62
     7
100
AcDbBlockReference
  2
FXTIP_ARROW_S
 10
152.57863
 20
68.5
 30
0.0
 41
4.0
 42
4.0
 50
270.0
  0
INSERT
  5
1A1
330
19B
100
AcDbEntity
  8
LAYERGROUP-1
  6
CONTINUOUS
 62
     7
100
AcDbBlockReference
  2
FXTIP_ARROW_E
 10
152.57863
 20
133.5
 30
0.0
 41
4.0
 42
4.0
 50
90.0
  0
LINE
  5
1A2
330
19B
100
AcDbEntity
  8
LAYERGROUP-1
  6
CONTINUOUS
 62
     7
100
AcDbLine
 10
122.551724
 20
68.5
 30
0.0
 11
153.57863
 21
68.5
 31
0.0
  0
LINE
  5
1A3
330
19B
100
AcDbEntity
  8
LAYERGROUP-1
  6
CONTINUOUS
 62
     7
100
AcDbLine
 10
122.551724
 20
133.5
 30
0.0
 11
153.57863
 21
133.5
 31
0.0
  0
ENDBLK
  5
19D
330
19B
100
AcDbEntity
  8
0
100
AcDbBlockEnd
  0
BLOCK
  5
1BB
330
1BA
100
AcDbEntity
  8
0
100
AcDbBlockBegin
  2
*D28
 70
     1
 71
     0
 10
0.0
 20
0.0
 30
0.0
  3
*D28
  1

  0
TEXT
  5
1BD
330
1BA
100
AcDbEntity
  8
LAYERGROUP-1
  6
CONTINUOUS
 62
     7
100
AcDbText
 10
294.108276
 20
227.402985
 30
0.0
 40
4.0
  1
42
 50
90.0
 41
0.851351
  7
FX_VECTOR
 72
     5
 11
294.108276
 21
233.402985
 31
0.0
100
AcDbText
  0
LINE
  5
1BE
330
1BA
100
AcDbEntity
  8
LAYERGROUP-1
  6
CONTINUOUS
 62
     7
100
AcDbLine
 10
295.108273
 20
209.402985
 30
0.0
 11
295.108273
 21
251.402985
 31
0.0
  0
INSERT
  5
1BF
330
1BA
100
AcDbEntity
  8
LAYERGROUP-1
  6
CONTINUOUS
 62
     7
100
AcDbBlockReference
  2
FXTIP_ARROW_S
 10
295.108273
 20
209.402985
 30
0.0
 41
4.0
 42
4.0
 50
270.0
  0
INSERT
  5
1C0
330
1BA
100
AcDbEntity
  8
LAYERGROUP-1
  6
CONTINUOUS
 62
     7
100
AcDbBlockReference
  2
FXTIP_ARROW_E
 10
295.108273
 20
251.402985
 30
0.0
 41
4.0
 42
4.0
 50
90.0
  0
LINE
  5
1C1
330
1BA
100
AcDbEntity
  8
LAYERGROUP-1
  6
CONTINUOUS
 62
     7
100
AcDbLine
 10
278.846394
 20
209.402985
 30
0.0
 11
296.108273
 21
209.402985
 31
0.0
  0
LINE
  5
1C2
330
1BA
100
AcDbEntity
  8
LAYERGROUP-1
  6
CONTINUOUS
 62
     7
100
AcDbLine
 10
278.846394
 20
251.402985
 30
0.0
 11
296.108273
 21
251.402985
 31
0.0
  0
ENDBLK
  5
1BC
330
1BA
100
AcDbEntity
  8
0
100
AcDbBlockEnd
  0
BLOCK
  5
1C5
330
1C4
100
AcDbEntity
  8
0
100
AcDbBlockBegin
  2
*D29
 70
     1
 71
     0
 10
0.0
 20
0.0
 30
0.0
  3
*D29
  1

  0
TEXT
  5
1C7
330
1C4
100
AcDbEntity
  8
LAYERGROUP-1
  6
CONTINUOUS
 62
     7
100
AcDbText
 10
304.108276
 20
227.402985
 30
0.0
 40
4.0
  1
58
 50
90.0
 41
0.851351
  7
FX_VECTOR
 72
     5
 11
304.108276
 21
233.402985
 31
0.0
100
AcDbText
  0
LINE
  5
1C8
330
1C4
100
AcDbEntity
  8
LAYERGROUP-1
  6
CONTINUOUS
 62
     7
100
AcDbLine
 10
305.108273
 20
201.402985
 30
0.0
 11
305.108273
 21
259.402985
 31
0.0
  0
INSERT
  5
1C9
330
1C4
100
AcDbEntity
  8
LAYERGROUP-1
  6
CONTINUOUS
 62
     7
100
AcDbBlockReference
  2
FXTIP_ARROW_S
 10
305.108273
 20
201.402985
 30
0.0
 41
4.0
 42
4.0
 50
270.0
  0
INSERT
  5
1CA
330
1C4
100
AcDbEntity
  8
LAYERGROUP-1
  6
CONTINUOUS
 62
     7
100
AcDbBlockReference
  2
FXTIP_ARROW_E
 10
305.108273
 20
259.402985
 30
0.0
 41
4.0
 42
4.0
 50
90.0
  0
LINE
  5
1CB
330
1C4
100
AcDbEntity
  8
LAYERGROUP-1
  6
CONTINUOUS
 62
     7
100
AcDbLine
 10
272.051724
 20
201.402985
 30
0.0
 11
306.108273
 21
201.402985
 31
0.0
  0
LINE
  5
1CC
330
1C4
100
AcDbEntity
  8
LAYERGROUP-1
  6
CONTINUOUS
 62
     7
100
AcDbLine
 10
272.051724
 20
259.402985
 30
0.0
 11
306.108273
 21
259.402985
 31
0.0
  0
ENDBLK
  5
1C6
330
1C4
100
AcDbEntity
  8
0
100
AcDbBlockEnd
  0
BLOCK
  5
1CF
330
1CE
100
AcDbEntity
  8
0
100
AcDbBlockBegin
  2
BLKF032
 70
     0
 71
     0
 10
0.0
 20
0.0
 30
0.0
  3
BLKF032
  1

  0
LINE
  5
1D2
330
1CE
100
AcDbEntity
  8
}}ﾊﾊGG血CCТ
  6
CONTINUOUS
 62
     7
100
AcDbLine
 10
10.0
 20
10.0
 30
0.0
 11
410.0
 21
10.0
 31
0.0
  0
LINE
  5
1D3
330
1CE
100
AcDbEntity
  8
}}ﾊﾊGG血CCТ
  6
CONTINUOUS
 62
     7
100
AcDbLine
 10
10.0
 20
10.0
 30
0.0
 11
10.0
 21
287.0
 31
0.0
  0
LINE
  5
1D4
330
1CE
100
AcDbEntity
  8
}}ﾊﾊGG血CCТ
  6
CONTINUOUS
 62
     7
100
AcDbLine
 10
10.0
 20
287.0
 30
0.0
 11
410.0
 21
287.0
 31
0.0
  0
LINE
  5
1D5
330
1CE
100
AcDbEntity
  8
}}ﾊﾊGG血CCТ
  6
CONTINUOUS
 62
     7
100
AcDbLine
 10
410.0
 20
287.0
 30
0.0
 11
410.0
 21
10.0
 31
0.0
  0
LINE
  5
1D6
330
1CE
100
AcDbEntity
  8
}}ﾊﾊGG血CCТ
  6
CONTINUOUS
 62
     7
100
AcDbLine
 10
153.0
 20
10.0
 30
0.0
 11
153.0
 21
20.0
 31
0.0
  0
TEXT
  5
1D7
330
1CE
100
AcDbEntity
  8
}}ﾊﾊGG血CCТ
  6
CONTINUOUS
 62
     7
100
AcDbText
 10
137.738815
 20
11.596879
 30
0.0
 40
6.648749
  1
品名
 41
1.083413
  7
FX_VECTOR
 72
     5
 11
149.058355
 21
11.596879
 31
0.0
100
AcDbText
  0
LINE
  5
1D8
330
1CE
100
AcDbEntity
  8
}}ﾊﾊGG血CCТ
  6
CONTINUOUS
 62
     7
100
AcDbLine
 10
233.0
 20
20.0
 30
0.0
 11
233.0
 21
10.0
 31
0.0
  0
LINE
  5
1D9
330
1CE
100
AcDbEntity
  8
}}ﾊﾊGG血CCТ
  6
CONTINUOUS
 62
     7
100
AcDbLine
 10
133.0
 20
20.0
 30
0.0
 11
410.0
 21
20.0
 31
0.0
  0
INSERT
  5
1DD
330
1CE
100
AcDbEntity
  8
0
100
AcDbBlockReference
  2
BLKF033
 10
0.0
 20
0.0
 30
0.0
  0
INSERT
  5
1E6
330
1CE
100
AcDbEntity
  8
0
100
AcDbBlockReference
  2
BLKF034
 10
0.0
 20
0.0
 30
0.0
  0
HATCH
  5
1F6
330
1CE
100
AcDbEntity
  8
GR1-1
  6
CONTINUOUS
 62
     7
100
AcDbHatch
 10
0.0
 20
0.0
 30
0.0
210
0.0
220
0.0
230
1.0
  2

 70
     0
 71
     1
 91
        2
 92
        0
 93
        4
 72
     1
 10
338.8018997861325
 20
17.91346152
 11
344.8018997861325
 21
17.91346152
 72
     1
 10
344.8018997861325
 20
17.91346152
 11
344.8018997861325
 21
11.91346152
 72
     1
 10
344.8018997861325
 20
11.91346152
 11
338.8018997861325
 21
11.91346152
 72
     1
 10
338.8018997861325
 20
11.91346152
 11
338.8018997861325
 21
17.91346152
 97
        0
 92
        0
 93
       15
 72
     1
 10
341.8018997861325
 20
17.76923076000002
 11
338.9461305461325
 21
14.91346152
 72
     1
 10
338.9461305461325
 20
14.91346152
 11
341.8018997861325
 21
12.05769228000001
 72
     1
 10
341.8018997861325
 20
12.05769228000001
 11
343.3595920661325
 21
13.61538462
 72
     1
 10
343.3595920661325
 20
13.61538462
 11
343.3595920661325
 21
12.98076924
 72
     1
 10
343.3595920661325
 20
12.98076924
 11
344.2249766861325
 21
12.98076924
 72
     1
 10
344.2249766861325
 20
12.98076924
 11
344.2249766861325
 21
15.00000000000001
 72
     1
 10
344.2249766861325
 20
15.00000000000001
 11
341.8018997861325
 21
15.00000000000001
 72
     1
 10
341.8018997861325
 20
15.00000000000001
 11
341.8018997861325
 21
14.13461538000001
 72
     1
 10
341.8018997861325
 20
14.13461538000001
 11
342.2461305461325
 21
14.13461538000001
 72
     1
 10
342.2461305461325
 20
14.13461538000001
 11
341.8018997861325
 21
13.69038462
 72
     1
 10
341.8018997861325
 20
13.69038462
 11
340.5788228861325
 21
14.91346152
 72
     1
 10
340.5788228861325
 20
14.91346152
 11
341.8018997861325
 21
16.13653842000003
 72
     1
 10
341.8018997861325
 20
16.13653842000003
 11
342.5922844061325
 21
15.3461538
 72
     1
 10
342.5922844061325
 20
15.3461538
 11
344.2249766861325
 21
15.3461538
 72
     1
 10
344.2249766861325
 20
15.3461538
 11
341.8018997861325
 21
17.76923076000002
 97
        0
 75
     0
 76
     0
 52
45.0
 41
0.05
 77
     0
 78
     1
 53
45.0
 43
0.0
 44
0.0
 45
-0.0353553390593274
 46
0.0353553390593274
 79
     0
 98
        0
  0
TEXT
  5
1F7
330
1CE
100
AcDbEntity
  8
}}ﾊﾊGG血CCТ
  6
CONTINUOUS
 62
     7
100
AcDbText
 10
349.225769
 20
11.461285
 30
0.0
 40
7.170908
  1
GOLD CASTER
 41
0.63978
  7
FX_VECTOR
 72
     5
 11
395.977636
 21
11.461285
 31
0.0
100
AcDbText
  0
LINE
  5
1F8
330
1CE
100
AcDbEntity
  8
}}ﾊﾊGG血CCТ
  6
CONTINUOUS
 62
     7
100
AcDbLine
 10
253.0
 20
10.0
 30
0.0
 11
253.0
 21
20.0
 31
0.0
  0
TEXT
  5
1F9
330
1CE
100
AcDbEntity
  8
}}ﾊﾊGG血CCТ
  6
CONTINUOUS
 62
     7
100
AcDbText
 10
237.738815
 20
11.596879
 30
0.0
 40
6.648749
  1
図番
 41
1.083413
  7
FX_VECTOR
 72
     5
 11
249.058355
 21
11.596879
 31
0.0
100
AcDbText
  0
LINE
  5
1FA
330
1CE
100
AcDbEntity
  8
}}ﾊﾊGG血CCТ
  6
CONTINUOUS
 62
     7
100
AcDbLine
 10
333.0
 20
20.0
 30
0.0
 11
333.0
 21
10.0
 31
0.0
  0
LINE
  5
1FB
330
1CE
100
AcDbEntity
  8
}}ﾊﾊGG血CCТ
  6
CONTINUOUS
 62
     7
100
AcDbLine
 10
133.0
 20
20.0
 30
0.0
 11
133.0
 21
10.0
 31
0.0
  0
ENDBLK
  5
1D0
330
1CE
100
AcDbEntity
  8
0
100
AcDbBlockEnd
  0
BLOCK
  5
1DB
330
1DA
100
AcDbEntity
  8
0
100
AcDbBlockBegin
  2
BLKF033
 70
     0
 71
     0
 10
0.0
 20
0.0
 30
0.0
  3
BLKF033
  1

  0
LINE
  5
1DF
330
1DA
100
AcDbEntity
  8
0-1
  6
CONTINUOUS
 62
     7
100
AcDbLine
 10
344.8019
 20
17.913462
 30
0.0
 11
338.8019
 21
17.913462
 31
0.0
  0
LINE
  5
1E0
330
1DA
100
AcDbEntity
  8
0-1
  6
CONTINUOUS
 62
     7
100
AcDbLine
 10
338.8019
 20
17.913462
 30
0.0
 11
338.8019
 21
11.913462
 31
0.0
  0
LINE
  5
1E1
330
1DA
100
AcDbEntity
  8
0-1
  6
CONTINUOUS
 62
     7
100
AcDbLine
 10
338.8019
 20
11.913462
 30
0.0
 11
344.8019
 21
11.913462
 31
0.0
  0
LINE
  5
1E2
330
1DA
100
AcDbEntity
  8
0-1
  6
CONTINUOUS
 62
     7
100
AcDbLine
 10
344.8019
 20
11.913462
 30
0.0
 11
344.8019
 21
17.913462
 31
0.0
  0
ENDBLK
  5
1DC
330
1DA
100
AcDbEntity
  8
0
100
AcDbBlockEnd
  0
BLOCK
  5
1E4
330
1E3
100
AcDbEntity
  8
0
100
AcDbBlockBegin
  2
BLKF034
 70
     0
 71
     0
 10
0.0
 20
0.0
 30
0.0
  3
BLKF034
  1

  0
LINE
  5
1E7
330
1E3
100
AcDbEntity
  8
0-1
  6
CONTINUOUS
 62
     7
100
AcDbLine
 10
344.224977
 20
15.346154
 30
0.0
 11
341.8019
 21
17.769231
 31
0.0
  0
LINE
  5
1E8
330
1E3
100
AcDbEntity
  8
0-1
  6
CONTINUOUS
 62
     7
100
AcDbLine
 10
341.8019
 20
17.769231
 30
0.0
 11
338.946131
 21
14.913462
 31
0.0
  0
LINE
  5
1E9
330
1E3
100
AcDbEntity
  8
0-1
  6
CONTINUOUS
 62
     7
100
AcDbLine
 10
338.946131
 20
14.913462
 30
0.0
 11
341.8019
 21
12.057692
 31
0.0
  0
LINE
  5
1EA
330
1E3
100
AcDbEntity
  8
0-1
  6
CONTINUOUS
 62
     7
100
AcDbLine
 10
341.8019
 20
12.057692
 30
0.0
 11
343.359592
 21
13.615385
 31
0.0
  0
LINE
  5
1EB
330
1E3
100
AcDbEntity
  8
0-1
  6
CONTINUOUS
 62
     7
100
AcDbLine
 10
343.359592
 20
13.615385
 30
0.0
 11
343.359592
 21
12.980769
 31
0.0
  0
LINE
  5
1EC
330
1E3
100
AcDbEntity
  8
0-1
  6
CONTINUOUS
 62
     7
100
AcDbLine
 10
343.359592
 20
12.980769
 30
0.0
 11
344.224977
 21
12.980769
 31
0.0
  0
LINE
  5
1ED
330
1E3
100
AcDbEntity
  8
0-1
  6
CONTINUOUS
 62
     7
100
AcDbLine
 10
344.224977
 20
12.980769
 30
0.0
 11
344.224977
 21
15.0
 31
0.0
  0
LINE
  5
1EE
330
1E3
100
AcDbEntity
  8
0-1
  6
CONTINUOUS
 62
     7
100
AcDbLine
 10
344.224977
 20
15.0
 30
0.0
 11
341.8019
 21
15.0
 31
0.0
  0
LINE
  5
1EF
330
1E3
100
AcDbEntity
  8
0-1
  6
CONTINUOUS
 62
     7
100
AcDbLine
 10
341.8019
 20
15.0
 30
0.0
 11
341.8019
 21
14.134615
 31
0.0
  0
LINE
  5
1F0
330
1E3
100
AcDbEntity
  8
0-1
  6
CONTINUOUS
 62
     7
100
AcDbLine
 10
341.8019
 20
14.134615
 30
0.0
 11
342.246131
 21
14.134615
 31
0.0
  0
LINE
  5
1F1
330
1E3
100
AcDbEntity
  8
0-1
  6
CONTINUOUS
 62
     7
100
AcDbLine
 10
342.246131
 20
14.134615
 30
0.0
 11
341.8019
 21
13.690385
 31
0.0
  0
LINE
  5
1F2
330
1E3
100
AcDbEntity
  8
0-1
  6
CONTINUOUS
 62
     7
100
AcDbLine
 10
341.8019
 20
13.690385
 30
0.0
 11
340.578823
 21
14.913462
 31
0.0
  0
LINE
  5
1F3
330
1E3
100
AcDbEntity
  8
0-1
  6
CONTINUOUS
 62
     7
100
AcDbLine
 10
340.578823
 20
14.913462
 30
0.0
 11
341.8019
 21
16.136538
 31
0.0
  0
LINE
  5
1F4
330
1E3
100
AcDbEntity
  8
0-1
  6
CONTINUOUS
 62
     7
100
AcDbLine
 10
341.8019
 20
16.136538
 30
0.0
 11
342.592284
 21
15.346154
 31
0.0
  0
LINE
  5
1F5
330
1E3
100
AcDbEntity
  8
0-1
  6
CONTINUOUS
 62
     7
100
AcDbLine
 10
342.592284
 20
15.346154
 30
0.0
 11
344.224977
 21
15.346154
 31
0.0
  0
ENDBLK
  5
1E5
330
1E3
100
AcDbEntity
  8
0
100
AcDbBlockEnd
  0
BLOCK
  5
1FD
330
1FC
100
AcDbEntity
  8
0
100
AcDbBlockBegin
  2
BLKF035
 70
     0
 71
     0
 10
0.0
 20
0.0
 30
0.0
  3
BLKF035
  1

  0
ARC
  5
200
330
1FC
100
AcDbEntity
  8
GR1-1
  6
CONTINUOUS
 62
     3
100
AcDbCircle
 10
132.051724
 20
130.790038
 30
0.0
 40
2.0
100
AcDbArc
 50
0.0
 51
82.26362
  0
ARC
  5
201
330
1FC
100
AcDbEntity
  8
GR1-1
  6
CONTINUOUS
 62
     3
100
AcDbCircle
 10
121.551724
 20
53.5
 30
0.0
 40
80.0
100
AcDbArc
 50
82.26362
 51
97.73638
  0
ARC
  5
202
330
1FC
100
AcDbEntity
  8
GR1-1
  6
CONTINUOUS
 62
     3
100
AcDbCircle
 10
111.051724
 20
130.790038
 30
0.0
 40
2.0
100
AcDbArc
 50
97.73638
 51
180.0
  0
LINE
  5
203
330
1FC
100
AcDbEntity
  8
GR1-1
  6
CONTINUOUS
 62
     3
100
AcDbLine
 10
109.051724
 20
111.051035
 30
0.0
 11
109.051724
 21
109.5
 31
0.0
  0
LINE
  5
204
330
1FC
100
AcDbEntity
  8
GR1-1
  6
CONTINUOUS
 62
     3
100
AcDbLine
 10
108.051724
 20
108.5
 30
0.0
 11
107.551724
 21
108.5
 31
0.0
  0
ARC
  5
205
330
1FC
100
AcDbEntity
  8
GR1-1
  6
CONTINUOUS
 62
     3
100
AcDbCircle
 10
107.551724
 20
107.5
 30
0.0
 40
1.0
100
AcDbArc
 50
90.0
 51
180.0
  0
LINE
  5
206
330
1FC
100
AcDbEntity
  8
GR1-1
  6
CONTINUOUS
 62
     3
100
AcDbLine
 10
106.551724
 20
107.5
 30
0.0
 11
106.551724
 21
106.0
 31
0.0
  0
ARC
  5
207
330
1FC
100
AcDbEntity
  8
GR1-1
  6
CONTINUOUS
 62
     3
100
AcDbCircle
 10
108.051724
 20
109.5
 30
0.0
 40
1.0
100
AcDbArc
 50
270.0
 51
360.0
  0
ARC
  5
208
330
1FC
100
AcDbEntity
  8
GR1-1
  6
CONTINUOUS
 62
     3
100
AcDbCircle
 10
132.051724
 20
71.209962
 30
0.0
 40
2.0
100
AcDbArc
 50
277.73638
 51
360.0
  0
ARC
  5
209
330
1FC
100
AcDbEntity
  8
GR1-1
  6
CONTINUOUS
 62
     3
100
AcDbCircle
 10
108.051724
 20
92.5
 30
0.0
 40
1.0
100
AcDbArc
 50
0.0
 51
90.0
  0
LINE
  5
20A
330
1FC
100
AcDbEntity
  8
GR1-1
  6
CONTINUOUS
 62
     3
100
AcDbLine
 10
108.051724
 20
93.5
 30
0.0
 11
107.551724
 21
93.5
 31
0.0
  0
ARC
  5
20B
330
1FC
100
AcDbEntity
  8
GR1-1
  6
CONTINUOUS
 62
     3
100
AcDbCircle
 10
107.551724
 20
94.5
 30
0.0
 40
1.0
100
AcDbArc
 50
180.0
 51
270.0
  0
LINE
  5
20C
330
1FC
100
AcDbEntity
  8
GR1-1
  6
CONTINUOUS
 62
     3
100
AcDbLine
 10
106.551724
 20
94.5
 30
0.0
 11
106.551724
 21
106.0
 31
0.0
  0
ARC
  5
20D
330
1FC
100
AcDbEntity
  8
GR1-1
  6
CONTINUOUS
 62
     3
100
AcDbCircle
 10
111.051724
 20
71.209962
 30
0.0
 40
2.0
100
AcDbArc
 50
180.0
 51
262.26362
  0
ARC
  5
20E
330
1FC
100
AcDbEntity
  8
GR1-1
  6
CONTINUOUS
 62
     3
100
AcDbCircle
 10
121.551724
 20
148.5
 30
0.0
 40
80.0
100
AcDbArc
 50
262.26362
 51
277.73638
  0
LINE
  5
20F
330
1FC
100
AcDbEntity
  8
GR1-1
  6
CONTINUOUS
 62
     3
100
AcDbLine
 10
109.051724
 20
130.790038
 30
0.0
 11
109.051724
 21
71.209962
 31
0.0
  0
LINE
  5
210
330
1FC
100
AcDbEntity
  8
GR1-1
  6
CONTINUOUS
 62
     3
100
AcDbLine
 10
135.051724
 20
108.5
 30
0.0
 11
135.551724
 21
108.5
 31
0.0
  0
ARC
  5
211
330
1FC
100
AcDbEntity
  8
GR1-1
  6
CONTINUOUS
 62
     3
100
AcDbCircle
 10
135.551724
 20
107.5
 30
0.0
 40
1.0
100
AcDbArc
 50
0.0
 51
90.0
  0
LINE
  5
212
330
1FC
100
AcDbEntity
  8
GR1-1
  6
CONTINUOUS
 62
     3
100
AcDbLine
 10
136.551724
 20
107.5
 30
0.0
 11
136.551724
 21
106.0
 31
0.0
  0
ARC
  5
213
330
1FC
100
AcDbEntity
  8
GR1-1
  6
CONTINUOUS
 62
     3
100
AcDbCircle
 10
135.051724
 20
109.5
 30
0.0
 40
1.0
100
AcDbArc
 50
180.0
 51
270.0
  0
ARC
  5
214
330
1FC
100
AcDbEntity
  8
GR1-1
  6
CONTINUOUS
 62
     3
100
AcDbCircle
 10
135.051724
 20
92.5
 30
0.0
 40
1.0
100
AcDbArc
 50
90.0
 51
180.0
  0
LINE
  5
215
330
1FC
100
AcDbEntity
  8
GR1-1
  6
CONTINUOUS
 62
     3
100
AcDbLine
 10
135.051724
 20
93.5
 30
0.0
 11
135.551724
 21
93.5
 31
0.0
  0
ARC
  5
216
330
1FC
100
AcDbEntity
  8
GR1-1
  6
CONTINUOUS
 62
     3
100
AcDbCircle
 10
135.551724
 20
94.5
 30
0.0
 40
1.0
100
AcDbArc
 50
270.0
 51
360.0
  0
LINE
  5
217
330
1FC
100
AcDbEntity
  8
GR1-1
  6
CONTINUOUS
 62
     3
100
AcDbLine
 10
136.551724
 20
94.5
 30
0.0
 11
136.551724
 21
106.0
 31
0.0
  0
LINE
  5
218
330
1FC
100
AcDbEntity
  8
GR1-1
  6
CONTINUOUS
 62
     3
100
AcDbLine
 10
134.051724
 20
130.790038
 30
0.0
 11
134.051724
 21
71.209962
 31
0.0
  0
ENDBLK
  5
1FE
330
1FC
100
AcDbEntity
  8
0
100
AcDbBlockEnd
  0
BLOCK
  5
21A
330
219
100
AcDbEntity
  8
0
100
AcDbBlockBegin
  2
BLKF036
 70
     0
 71
     0
 10
0.0
 20
0.0
 30
0.0
  3
BLKF036
  1

  0
LINE
  5
21D
330
219
100
AcDbEntity
  8
GR1-1
  6
CONTINUOUS
 62
     7
100
AcDbLine
 10
213.684008
 20
116.391156
 30
0.0
 11
213.71887
 21
116.789634
 31
0.0
  0
LINE
  5
21E
330
219
100
AcDbEntity
  8
GR1-1
  6
CONTINUOUS
 62
     7
100
AcDbLine
 10
213.467337
 20
116.209348
 30
0.0
 11
213.537062
 21
117.006304
 31
0.0
  0
LINE
  5
21F
330
219
100
AcDbEntity
  8
GR1-1
  6
CONTINUOUS
 62
     7
100
AcDbLine
 10
213.250667
 20
116.027541
 30
0.0
 11
213.355254
 21
117.222974
 31
0.0
  0
LINE
  5
220
330
219
100
AcDbEntity
  8
GR1-1
  6
CONTINUOUS
 62
     7
100
AcDbLine
 10
213.033997
 20
115.845733
 30
0.0
 11
213.173447
 21
117.439644
 31
0.0
  0
LINE
  5
221
330
219
100
AcDbEntity
  8
GR1-1
  6
CONTINUOUS
 62
     7
100
AcDbLine
 10
212.817327
 20
115.663925
 30
0.0
 11
212.937586
 21
117.038493
 31
0.0
  0
LINE
  5
222
330
219
100
AcDbEntity
  8
GR1-1
  6
CONTINUOUS
 62
     7
100
AcDbLine
 10
212.970491
 20
117.414597
 30
0.0
 11
212.991639
 21
117.656314
 31
0.0
  0
LINE
  5
223
330
219
100
AcDbEntity
  8
GR1-1
  6
CONTINUOUS
 62
     7
100
AcDbLine
 10
212.600657
 20
115.482117
 30
0.0
 11
212.720916
 21
116.856686
 31
0.0
  0
LINE
  5
224
330
219
100
AcDbEntity
  8
GR1-1
  6
CONTINUOUS
 62
     7
100
AcDbLine
 10
212.788683
 20
117.631267
 30
0.0
 11
212.809831
 21
117.872985
 31
0.0
  0
LINE
  5
225
330
219
100
AcDbEntity
  8
GR1-1
  6
CONTINUOUS
 62
     7
100
AcDbLine
 10
212.383987
 20
115.300309
 30
0.0
 11
212.504246
 21
116.674878
 31
0.0
  0
LINE
  5
226
330
219
100
AcDbEntity
  8
GR1-1
  6
CONTINUOUS
 62
     7
100
AcDbLine
 10
212.606876
 20
117.847937
 30
0.0
 11
212.628023
 21
118.089655
 31
0.0
  0
LINE
  5
227
330
219
100
AcDbEntity
  8
GR1-1
  6
CONTINUOUS
 62
     7
100
AcDbLine
 10
212.167317
 20
115.118502
 30
0.0
 11
212.301811
 21
116.655775
 31
0.0
  0
LINE
  5
228
330
219
100
AcDbEntity
  8
GR1-1
  6
CONTINUOUS
 62
     7
100
AcDbLine
 10
212.425068
 20
118.064607
 30
0.0
 11
212.446215
 21
118.306325
 31
0.0
  0
LINE
  5
229
330
219
100
AcDbEntity
  8
GR1-1
  6
CONTINUOUS
 62
     7
100
AcDbLine
 10
211.950647
 20
114.936694
 30
0.0
 11
212.120003
 21
116.872445
 31
0.0
  0
LINE
  5
22A
330
219
100
AcDbEntity
  8
GR1-1
  6
CONTINUOUS
 62
     7
100
AcDbLine
 10
212.24326
 20
118.281277
 30
0.0
 11
212.264408
 21
118.522995
 31
0.0
  0
LINE
  5
22B
330
219
100
AcDbEntity
  8
GR1-1
  6
CONTINUOUS
 62
     7
100
AcDbLine
 10
211.733977
 20
114.754886
 30
0.0
 11
211.938195
 21
117.089115
 31
0.0
  0
LINE
  5
22C
330
219
100
AcDbEntity
  8
GR1-1
  6
CONTINUOUS
 62
     7
100
AcDbLine
 10
212.061452
 20
118.497947
 30
0.0
 11
212.0826
 21
118.739665
 31
0.0
  0
LINE
  5
22D
330
219
100
AcDbEntity
  8
GR1-1
  6
CONTINUOUS
 62
     7
100
AcDbLine
 10
211.517307
 20
114.573078
 30
0.0
 11
211.746202
 21
117.189364
 31
0.0
  0
LINE
  5
22E
330
219
100
AcDbEntity
  8
GR1-1
  6
CONTINUOUS
 62
     7
100
AcDbLine
 10
211.879644
 20
118.714618
 30
0.0
 11
211.900792
 21
118.956335
 31
0.0
  0
LINE
  5
22F
330
219
100
AcDbEntity
  8
GR1-1
  6
CONTINUOUS
 62
     7
100
AcDbLine
 10
211.300637
 20
114.39127
 30
0.0
 11
211.335499
 21
114.789748
 31
0.0
  0
LINE
  5
230
330
219
100
AcDbEntity
  8
GR1-1
  6
CONTINUOUS
 62
     7
100
AcDbLine
 10
211.670407
 20
118.617767
 30
0.0
 11
211.718984
 21
119.173005
 31
0.0
  0
LINE
  5
231
330
219
100
AcDbEntity
  8
GR1-1
  6
CONTINUOUS
 62
     7
100
AcDbLine
 10
211.083967
 20
114.209463
 30
0.0
 11
211.13626
 21
114.80718
 31
0.0
  0
LINE
  5
232
330
219
100
AcDbEntity
  8
GR1-1
  6
CONTINUOUS
 62
     7
100
AcDbLine
 10
211.453737
 20
118.435959
 30
0.0
 11
211.537176
 21
119.389675
 31
0.0
  0
LINE
  5
233
330
219
100
AcDbEntity
  8
GR1-1
  6
CONTINUOUS
 62
     7
100
AcDbLine
 10
210.867296
 20
114.027655
 30
0.0
 11
210.937021
 21
114.824611
 31
0.0
  0
LINE
  5
234
330
219
100
AcDbEntity
  8
GR1-1
  6
CONTINUOUS
 62
     7
100
AcDbLine
 10
211.237067
 20
118.254151
 30
0.0
 11
211.274044
 21
118.676801
 31
0.0
  0
LINE
  5
235
330
219
100
AcDbEntity
  8
GR1-1
  6
CONTINUOUS
 62
     7
100
AcDbLine
 10
211.285644
 20
118.809389
 30
0.0
 11
211.355369
 21
119.606345
 31
0.0
  0
LINE
  5
236
330
219
100
AcDbEntity
  8
GR1-1
  6
CONTINUOUS
 62
     7
100
AcDbLine
 10
210.650626
 20
113.845847
 30
0.0
 11
210.737782
 21
114.842042
 31
0.0
  0
LINE
  5
237
330
219
100
AcDbEntity
  8
GR1-1
  6
CONTINUOUS
 62
     7
100
AcDbLine
 10
211.020397
 20
118.072343
 30
0.0
 11
211.057374
 21
118.494993
 31
0.0
  0
LINE
  5
238
330
219
100
AcDbEntity
  8
GR1-1
  6
CONTINUOUS
 62
     7
100
AcDbLine
 10
211.086405
 20
118.826821
 30
0.0
 11
211.173561
 21
119.823015
 31
0.0
  0
LINE
  5
239
330
219
100
AcDbEntity
  8
GR1-1
  6
CONTINUOUS
 62
     7
100
AcDbLine
 10
210.433956
 20
113.664039
 30
0.0
 11
210.538543
 21
114.859473
 31
0.0
  0
LINE
  5
23A
330
219
100
AcDbEntity
  8
GR1-1
  6
CONTINUOUS
 62
     7
100
AcDbLine
 10
210.803727
 20
117.890535
 30
0.0
 11
210.840704
 21
118.313185
 31
0.0
  0
LINE
  5
23B
330
219
100
AcDbEntity
  8
GR1-1
  6
CONTINUOUS
 62
     7
100
AcDbLine
 10
210.887166
 20
118.844252
 30
0.0
 11
210.991753
 21
120.039685
 31
0.0
  0
LINE
  5
23C
330
219
100
AcDbEntity
  8
GR1-1
  6
CONTINUOUS
 62
     7
100
AcDbLine
 10
210.217286
 20
113.482232
 30
0.0
 11
210.339304
 21
114.876904
 31
0.0
  0
LINE
  5
23D
330
219
100
AcDbEntity
  8
GR1-1
  6
CONTINUOUS
 62
     7
100
AcDbLine
 10
210.42646
 20
115.873099
 30
0.0
 11
210.525241
 21
117.002172
 31
0.0
  0
LINE
  5
23E
330
219
100
AcDbEntity
  8
GR1-1
  6
CONTINUOUS
 62
     7
100
AcDbLine
 10
210.587057
 20
117.708728
 30
0.0
 11
210.624034
 21
118.131377
 31
0.0
  0
LINE
  5
23F
330
219
100
AcDbEntity
  8
GR1-1
  6
CONTINUOUS
 62
     7
100
AcDbLine
 10
210.687927
 20
118.861683
 30
0.0
 11
210.809945
 21
120.256355
 31
0.0
  0
LINE
  5
240
330
219
100
AcDbEntity
  8
GR1-1
  6
CONTINUOUS
 62
     7
100
AcDbLine
 10
210.000616
 20
113.300424
 30
0.0
 11
210.140065
 21
114.894335
 31
0.0
  0
LINE
  5
241
330
219
100
AcDbEntity
  8
GR1-1
  6
CONTINUOUS
 62
     7
100
AcDbLine
 10
210.227221
 20
115.89053
 30
0.0
 11
210.308758
 21
116.822504
 31
0.0
  0
LINE
  5
242
330
219
100
AcDbEntity
  8
GR1-1
  6
CONTINUOUS
 62
     7
100
AcDbLine
 10
210.370387
 20
117.52692
 30
0.0
 11
210.407364
 21
117.94957
 31
0.0
  0
LINE
  5
243
330
219
100
AcDbEntity
  8
GR1-1
  6
CONTINUOUS
 62
     7
100
AcDbLine
 10
210.488688
 20
118.879114
 30
0.0
 11
210.628137
 21
120.473026
 31
0.0
  0
LINE
  5
244
330
219
100
AcDbEntity
  8
GR1-1
  6
CONTINUOUS
 62
     7
100
AcDbLine
 10
209.783946
 20
113.118616
 30
0.0
 11
209.940826
 21
114.911766
 31
0.0
  0
LINE
  5
245
330
219
100
AcDbEntity
  8
GR1-1
  6
CONTINUOUS
 62
     7
100
AcDbLine
 10
210.027982
 20
115.907961
 30
0.0
 11
210.092088
 21
116.640696
 31
0.0
  0
LINE
  5
246
330
219
100
AcDbEntity
  8
GR1-1
  6
CONTINUOUS
 62
     7
100
AcDbLine
 10
210.153717
 20
117.345112
 30
0.0
 11
210.202294
 21
117.90035
 31
0.0
  0
LINE
  5
247
330
219
100
AcDbEntity
  8
GR1-1
  6
CONTINUOUS
 62
     7
100
AcDbLine
 10
210.289449
 20
118.896545
 30
0.0
 11
210.44633
 21
120.689696
 31
0.0
  0
LINE
  5
248
330
219
100
AcDbEntity
  8
GR1-1
  6
CONTINUOUS
 62
     7
100
AcDbLine
 10
209.567276
 20
112.936808
 30
0.0
 11
209.741587
 21
114.929198
 31
0.0
  0
LINE
  5
249
330
219
100
AcDbEntity
  8
GR1-1
  6
CONTINUOUS
 62
     7
100
AcDbLine
 10
209.828743
 20
115.925392
 30
0.0
 11
209.894751
 21
116.67987
 31
0.0
  0
LINE
  5
24A
330
219
100
AcDbEntity
  8
GR1-1
  6
CONTINUOUS
 62
     7
100
AcDbLine
 10
209.937046
 20
117.163304
 30
0.0
 11
210.003055
 21
117.917782
 31
0.0
  0
LINE
  5
24B
330
219
100
AcDbEntity
  8
GR1-1
  6
CONTINUOUS
 62
     7
100
AcDbLine
 10
210.09021
 20
118.913976
 30
0.0
 11
210.264522
 21
120.906366
 31
0.0
  0
LINE
  5
24C
330
219
100
AcDbEntity
  8
GR1-1
  6
CONTINUOUS
 62
     7
100
AcDbLine
 10
209.350606
 20
112.755
 30
0.0
 11
209.542348
 21
114.946629
 31
0.0
  0
LINE
  5
24D
330
219
100
AcDbEntity
  8
GR1-1
  6
CONTINUOUS
 62
     7
100
AcDbLine
 10
209.629504
 20
115.942823
 30
0.0
 11
209.712944
 21
116.89654
 31
0.0
  0
LINE
  5
24E
330
219
100
AcDbEntity
  8
GR1-1
  6
CONTINUOUS
 62
     7
100
AcDbLine
 10
209.720376
 20
116.981497
 30
0.0
 11
209.803816
 21
117.935213
 31
0.0
  0
LINE
  5
24F
330
219
100
AcDbEntity
  8
GR1-1
  6
CONTINUOUS
 62
     7
100
AcDbLine
 10
209.890971
 20
118.931407
 30
0.0
 11
210.082714
 21
121.123036
 31
0.0
  0
LINE
  5
250
330
219
100
AcDbEntity
  8
GR1-1
  6
CONTINUOUS
 62
     7
100
AcDbLine
 10
209.161365
 20
112.886714
 30
0.0
 11
209.34311
 21
114.96406
 31
0.0
  0
LINE
  5
251
330
219
100
AcDbEntity
  8
GR1-1
  6
CONTINUOUS
 62
     7
100
AcDbLine
 10
209.430265
 20
115.960255
 30
0.0
 11
209.604577
 21
117.952644
 31
0.0
  0
LINE
  5
252
330
219
100
AcDbEntity
  8
GR1-1
  6
CONTINUOUS
 62
     7
100
AcDbLine
 10
209.691732
 20
118.948839
 30
0.0
 11
209.873477
 21
121.026185
 31
0.0
  0
LINE
  5
253
330
219
100
AcDbEntity
  8
GR1-1
  6
CONTINUOUS
 62
     7
100
AcDbLine
 10
208.979557
 20
113.103384
 30
0.0
 11
209.143871
 21
114.981491
 31
0.0
  0
LINE
  5
254
330
219
100
AcDbEntity
  8
GR1-1
  6
CONTINUOUS
 62
     7
100
AcDbLine
 10
209.231026
 20
115.977686
 30
0.0
 11
209.405338
 21
117.970075
 31
0.0
  0
LINE
  5
255
330
219
100
AcDbEntity
  8
GR1-1
  6
CONTINUOUS
 62
     7
100
AcDbLine
 10
209.492494
 20
118.96627
 30
0.0
 11
209.656807
 21
120.844377
 31
0.0
  0
LINE
  5
256
330
219
100
AcDbEntity
  8
GR1-1
  6
CONTINUOUS
 62
     7
100
AcDbLine
 10
208.79775
 20
113.320054
 30
0.0
 11
208.944632
 21
114.998922
 31
0.0
  0
LINE
  5
257
330
219
100
AcDbEntity
  8
GR1-1
  6
CONTINUOUS
 62
     7
100
AcDbLine
 10
209.031787
 20
115.995117
 30
0.0
 11
209.206099
 21
117.987506
 31
0.0
  0
LINE
  5
258
330
219
100
AcDbEntity
  8
GR1-1
  6
CONTINUOUS
 62
     7
100
AcDbLine
 10
209.293255
 20
118.983701
 30
0.0
 11
209.440137
 21
120.662569
 31
0.0
  0
LINE
  5
259
330
219
100
AcDbEntity
  8
GR1-1
  6
CONTINUOUS
 62
     7
100
AcDbLine
 10
208.615942
 20
113.536724
 30
0.0
 11
208.745393
 21
115.016353
 31
0.0
  0
LINE
  5
25A
330
219
100
AcDbEntity
  8
GR1-1
  6
CONTINUOUS
 62
     7
100
AcDbLine
 10
208.832548
 20
116.012548
 30
0.0
 11
209.00686
 21
118.004937
 31
0.0
  0
LINE
  5
25B
330
219
100
AcDbEntity
  8
GR1-1
  6
CONTINUOUS
 62
     7
100
AcDbLine
 10
209.094016
 20
119.001132
 30
0.0
 11
209.223466
 21
120.480762
 31
0.0
  0
LINE
  5
25C
330
219
100
AcDbEntity
  8
GR1-1
  6
CONTINUOUS
 62
     7
100
AcDbLine
 10
208.434134
 20
113.753394
 30
0.0
 11
208.546154
 21
115.033784
 31
0.0
  0
LINE
  5
25D
330
219
100
AcDbEntity
  8
GR1-1
  6
CONTINUOUS
 62
     7
100
AcDbLine
 10
208.63331
 20
116.029979
 30
0.0
 11
208.807621
 21
118.022369
 31
0.0
  0
LINE
  5
25E
330
219
100
AcDbEntity
  8
GR1-1
  6
CONTINUOUS
 62
     7
100
AcDbLine
 10
208.894777
 20
119.018563
 30
0.0
 11
209.006796
 21
120.298954
 31
0.0
  0
LINE
  5
25F
330
219
100
AcDbEntity
  8
GR1-1
  6
CONTINUOUS
 62
     7
100
AcDbLine
 10
208.252326
 20
113.970064
 30
0.0
 11
208.346915
 21
115.051216
 31
0.0
  0
LINE
  5
260
330
219
100
AcDbEntity
  8
GR1-1
  6
CONTINUOUS
 62
     7
100
AcDbLine
 10
208.695538
 20
119.035994
 30
0.0
 11
208.790126
 21
120.117146
 31
0.0
  0
LINE
  5
261
330
219
100
AcDbEntity
  8
GR1-1
  6
CONTINUOUS
 62
     7
100
AcDbLine
 10
208.070519
 20
114.186734
 30
0.0
 11
208.147676
 21
115.068647
 31
0.0
  0
LINE
  5
262
330
219
100
AcDbEntity
  8
GR1-1
  6
CONTINUOUS
 62
     7
100
AcDbLine
 10
208.496299
 20
119.053426
 30
0.0
 11
208.573456
 21
119.935338
 31
0.0
  0
LINE
  5
263
330
219
100
AcDbEntity
  8
GR1-1
  6
CONTINUOUS
 62
     7
100
AcDbLine
 10
207.888711
 20
114.403404
 30
0.0
 11
207.948437
 21
115.086078
 31
0.0
  0
LINE
  5
264
330
219
100
AcDbEntity
  8
GR1-1
  6
CONTINUOUS
 62
     7
100
AcDbLine
 10
208.29706
 20
119.070857
 30
0.0
 11
208.356786
 21
119.75353
 31
0.0
  0
LINE
  5
265
330
219
100
AcDbEntity
  8
GR1-1
  6
CONTINUOUS
 62
     7
100
AcDbLine
 10
207.706903
 20
114.620074
 30
0.0
 11
207.749198
 21
115.103509
 31
0.0
  0
LINE
  5
266
330
219
100
AcDbEntity
  8
GR1-1
  6
CONTINUOUS
 62
     7
100
AcDbLine
 10
208.097821
 20
119.088288
 30
0.0
 11
208.140116
 21
119.571723
 31
0.0
  0
LINE
  5
267
330
219
100
AcDbEntity
  8
GR1-1
  6
CONTINUOUS
 62
     7
100
AcDbLine
 10
207.525095
 20
114.836744
 30
0.0
 11
207.549959
 21
115.12094
 31
0.0
  0
LINE
  5
268
330
219
100
AcDbEntity
  8
GR1-1
  6
CONTINUOUS
 62
     7
100
AcDbLine
 10
207.898582
 20
119.105719
 30
0.0
 11
207.923446
 21
119.389915
 31
0.0
  0
LINE
  5
269
330
219
100
AcDbEntity
  8
GR1-1
  6
CONTINUOUS
 62
     7
100
AcDbLine
 10
207.343287
 20
115.053414
 30
0.0
 11
207.706776
 21
119.208107
 31
0.0
  0
LINE
  5
26A
330
219
100
AcDbEntity
  8
GR1-1
  6
CONTINUOUS
 62
     7
100
AcDbLine
 10
207.16148
 20
115.270085
 30
0.0
 11
207.490106
 21
119.026299
 31
0.0
  0
LINE
  5
26B
330
219
100
AcDbEntity
  8
GR1-1
  6
CONTINUOUS
 62
     7
100
AcDbLine
 10
206.979672
 20
115.486755
 30
0.0
 11
207.273436
 21
118.844491
 31
0.0
  0
LINE
  5
26C
330
219
100
AcDbEntity
  8
GR1-1
  6
CONTINUOUS
 62
     7
100
AcDbLine
 10
206.797864
 20
115.703425
 30
0.0
 11
207.056766
 21
118.662684
 31
0.0
  0
LINE
  5
26D
330
219
100
AcDbEntity
  8
GR1-1
  6
CONTINUOUS
 62
     7
100
AcDbLine
 10
206.616056
 20
115.920095
 30
0.0
 11
206.840096
 21
118.480876
 31
0.0
  0
LINE
  5
26E
330
219
100
AcDbEntity
  8
GR1-1
  6
CONTINUOUS
 62
     7
100
AcDbLine
 10
206.434248
 20
116.136765
 30
0.0
 11
206.623425
 21
118.299068
 31
0.0
  0
LINE
  5
26F
330
219
100
AcDbEntity
  8
GR1-1
  6
CONTINUOUS
 62
     7
100
AcDbLine
 10
206.252441
 20
116.353435
 30
0.0
 11
206.406755
 21
118.11726
 31
0.0
  0
LINE
  5
270
330
219
100
AcDbEntity
  8
GR1-1
  6
CONTINUOUS
 62
     7
100
AcDbLine
 10
206.070633
 20
116.570105
 30
0.0
 11
206.190085
 21
117.935452
 31
0.0
  0
LINE
  5
271
330
219
100
AcDbEntity
  8
GR1-1
  6
CONTINUOUS
 62
     7
100
AcDbLine
 10
205.888825
 20
116.786775
 30
0.0
 11
205.973415
 21
117.753645
 31
0.0
  0
LINE
  5
272
330
219
100
AcDbEntity
  8
GR1-1
  6
CONTINUOUS
 62
     7
100
AcDbLine
 10
205.707017
 20
117.003445
 30
0.0
 11
205.756745
 21
117.571837
 31
0.0
  0
LINE
  5
273
330
219
100
AcDbEntity
  8
GR1-1
  6
CONTINUOUS
 62
     7
100
AcDbLine
 10
205.525209
 20
117.220115
 30
0.0
 11
205.540075
 21
117.390029
 31
0.0
  0
ENDBLK
  5
21B
330
219
100
AcDbEntity
  8
0
100
AcDbBlockEnd
  0
ENDSEC
  0
SECTION
  2
ENTITIES
  0
TEXT
  5
A8
330
1F
100
AcDbEntity
  8
}}ﾊﾊGG血CCТ
  6
CONTINUOUS
 62
     7
100
AcDbText
 10
155.0
 20
12.000001
 30
0.0
 40
6.0
  1
ＴＪ－　６５　Ｎ
 41
0.794326
  7
FX_VECTOR
 72
     5
 11
187.0
 21
12.000001
 31
0.0
100
AcDbText
  0
ARC
  5
A9
330
1F
100
AcDbEntity
  8
LAYERGROUP-1
  6
CONTINUOUS
 62
     3
100
AcDbCircle
 10
265.851724
 20
137.41
 30
0.0
 40
3.0
100
AcDbArc
 50
0.0
 51
90.0
  0
LINE
  5
AA
330
1F
100
AcDbEntity
  8
LAYERGROUP-1
  6
CONTINUOUS
 62
     3
100
AcDbLine
 10
266.726724
 20
133.41
 30
0.0
 11
269.026724
 21
133.41
 31
0.0
  0
ARC
  5
AB
330
1F
100
AcDbEntity
  8
LAYERGROUP-1
  6
CONTINUOUS
 62
     3
100
AcDbCircle
 10
222.251724
 20
137.41
 30
0.0
 40
3.0
100
AcDbArc
 50
90.0
 51
177.57719
  0
LINE
  5
AC
330
1F
100
AcDbEntity
  8
LAYERGROUP-1
  6
CONTINUOUS
 62
     3
100
AcDbLine
 10
222.251724
 20
140.41
 30
0.0
 11
265.851724
 21
140.41
 31
0.0
  0
LINE
  5
AD
330
1F
100
AcDbEntity
  8
LAYERGROUP-1
  6
CONTINUOUS
 62
     3
100
AcDbLine
 10
268.851724
 20
137.41
 30
0.0
 11
269.026724
 21
133.41
 31
0.0
  0
LINE
  5
AE
330
1F
100
AcDbEntity
  8
LAYERGROUP-1
  6
CONTINUOUS
 62
     3
100
AcDbLine
 10
219.151724
 20
135.11
 30
0.0
 11
220.662642
 21
135.11
 31
0.0
  0
LINE
  5
AF
330
1F
100
AcDbEntity
  8
LAYERGROUP-1
  6
CONTINUOUS
 62
     3
100
AcDbLine
 10
143.026724
 20
140.41
 30
0.0
 11
99.576724
 21
140.41
 31
0.0
  0
LINE
  5
B0
330
1F
100
AcDbEntity
  8
LAYERGROUP-1
  6
CONTINUOUS
 62
     3
100
AcDbLine
 10
136.051724
 20
134.61
 30
0.0
 11
137.551724
 21
129.91
 31
0.0
  0
LINE
  5
B1
330
1F
100
AcDbEntity
  8
LAYERGROUP-1
  6
CONTINUOUS
 62
     3
100
AcDbLine
 10
138.24284
 20
135.309292
 30
0.0
 11
139.472998
 21
131.454799
 31
0.0
  0
ARC
  5
B2
330
1F
100
AcDbEntity
  8
LAYERGROUP-1
  6
CONTINUOUS
 62
     3
100
AcDbCircle
 10
131.851724
 20
129.022477
 30
0.0
 40
8.0
100
AcDbArc
 50
0.0
 51
17.700428
  0
ARC
  5
B4
330
1F
100
AcDbEntity
  8
3-1
  6
CONTINUOUS
 62
     3
100
AcDbCircle
 10
234.404128
 20
126.914174
 30
0.0
 40
16.0
100
AcDbArc
 50
149.186907
 51
169.300248
  0
LINE
  5
B5
330
1F
100
AcDbEntity
  8
LAYERGROUP-1
  6
CENTER
 62
     6
100
AcDbLine
 10
188.966106
 20
230.402985
 30
0.0
 11
280.186721
 21
230.402985
 31
0.0
  0
ARC
  5
B6
330
1F
100
AcDbEntity
  8
LAYERGROUP-1
  6
CONTINUOUS
 62
     3
100
AcDbCircle
 10
131.681983
 20
137.01
 30
0.0
 40
2.5
100
AcDbArc
 50
260.969295
 51
308.739425
  0
ARC
  5
B7
330
1F
100
AcDbEntity
  8
LAYERGROUP-1
  6
CONTINUOUS
 62
     3
100
AcDbCircle
 10
121.551724
 20
73.271154
 30
0.0
 40
62.0388455490074
100
AcDbArc
 50
80.969295
 51
99.030705
  0
LINE
  5
B8
330
1F
100
AcDbEntity
  8
LAYERGROUP-1
  6
CONTINUOUS
 62
     6
100
AcDbLine
 10
138.24284
 20
135.309292
 30
0.0
 11
136.051724
 21
134.61
 31
0.0
  0
LINE
  5
B9
330
1F
100
AcDbEntity
  8
LAYERGROUP-1
  6
CONTINUOUS
 62
     3
100
AcDbLine
 10
133.246432
 20
135.06
 30
0.0
 11
136.051724
 21
134.61
 31
0.0
  0
ARC
  5
BA
330
1F
100
AcDbEntity
  8
LAYERGROUP-1
  6
CONTINUOUS
 62
     6
100
AcDbCircle
 10
131.315499
 20
136.647922
 30
0.0
 40
2.5
100
AcDbArc
 50
-39.432513
 51
6.017435
  0
ARC
  5
BB
330
1F
100
AcDbEntity
  8
LAYERGROUP-1
  6
CONTINUOUS
 62
     6
100
AcDbCircle
 10
134.801724
 20
136.91
 30
0.0
 40
1.0
100
AcDbArc
 50
135.572996
 51
180.0
  0
ARC
  5
BC
330
1F
100
AcDbEntity
  8
LAYERGROUP-1
  6
CONTINUOUS
 62
     6
100
AcDbCircle
 10
138.372438
 20
133.41
 30
0.0
 40
6.0
100
AcDbArc
 50
85.741191
 51
135.572996
  0
ARC
  5
BD
330
1F
100
AcDbEntity
  8
LAYERGROUP-1
  6
CONTINUOUS
 62
     6
100
AcDbCircle
 10
140.701402
 20
149.091726
 30
0.0
 40
14.0
100
AcDbArc
 50
240.472969
 51
266.53474
  0
ARC
  5
BE
330
1F
100
AcDbEntity
  8
LAYERGROUP-1
  6
CONTINUOUS
 62
     3
100
AcDbCircle
 10
143.026724
 20
136.91
 30
0.0
 40
3.5
100
AcDbArc
 50
0.0
 51
90.0
  0
ARC
  5
BF
330
1F
100
AcDbEntity
  8
LAYERGROUP-1
  6
CONTINUOUS
 62
     3
100
AcDbCircle
 10
136.351724
 20
136.91
 30
0.0
 40
3.5
100
AcDbArc
 50
0.0
 51
90.0
  0
LINE
  5
C0
330
1F
100
AcDbEntity
  8
LAYERGROUP-1
  6
CONTINUOUS
 62
     3
100
AcDbLine
 10
107.051724
 20
134.61
 30
0.0
 11
105.551724
 21
129.91
 31
0.0
  0
LINE
  5
C1
330
1F
100
AcDbEntity
  8
LAYERGROUP-1
  6
CONTINUOUS
 62
     3
100
AcDbLine
 10
104.860608
 20
135.309292
 30
0.0
 11
103.63045
 21
131.454799
 31
0.0
  0
ARC
  5
C2
330
1F
100
AcDbEntity
  8
LAYERGROUP-1
  6
CONTINUOUS
 62
     3
100
AcDbCircle
 10
111.251724
 20
129.022477
 30
0.0
 40
8.0
100
AcDbArc
 50
162.299572
 51
180.0
  0
ARC
  5
C3
330
1F
100
AcDbEntity
  8
LAYERGROUP-1
  6
CONTINUOUS
 62
     3
100
AcDbCircle
 10
111.421465
 20
137.01
 30
0.0
 40
2.5
100
AcDbArc
 50
231.260575
 51
279.030705
  0
LINE
  5
C4
330
1F
100
AcDbEntity
  8
LAYERGROUP-1
  6
CONTINUOUS
 62
     6
100
AcDbLine
 10
104.860608
 20
135.309292
 30
0.0
 11
107.051724
 21
134.61
 31
0.0
  0
LINE
  5
C5
330
1F
100
AcDbEntity
  8
LAYERGROUP-1
  6
CONTINUOUS
 62
     3
100
AcDbLine
 10
109.857016
 20
135.06
 30
0.0
 11
107.051724
 21
134.61
 31
0.0
  0
ARC
  5
C6
330
1F
100
AcDbEntity
  8
LAYERGROUP-1
  6
CONTINUOUS
 62
     6
100
AcDbCircle
 10
111.787949
 20
136.647922
 30
0.0
 40
2.5
100
AcDbArc
 50
173.982565
 51
219.432513
  0
ARC
  5
C7
330
1F
100
AcDbEntity
  8
LAYERGROUP-1
  6
CONTINUOUS
 62
     6
100
AcDbCircle
 10
108.301724
 20
136.91
 30
0.0
 40
1.0
100
AcDbArc
 50
0.0
 51
44.427004
  0
ARC
  5
C8
330
1F
100
AcDbEntity
  8
LAYERGROUP-1
  6
CONTINUOUS
 62
     6
100
AcDbCircle
 10
104.73101
 20
133.41
 30
0.0
 40
6.0
100
AcDbArc
 50
44.427004
 51
94.258809
  0
ARC
  5
C9
330
1F
100
AcDbEntity
  8
LAYERGROUP-1
  6
CONTINUOUS
 62
     6
100
AcDbCircle
 10
102.402046
 20
149.091726
 30
0.0
 40
14.0
100
AcDbArc
 50
273.46526
 51
299.527031
  0
ARC
  5
CA
330
1F
100
AcDbEntity
  8
LAYERGROUP-1
  6
CONTINUOUS
 62
     3
100
AcDbCircle
 10
100.076724
 20
136.91
 30
0.0
 40
3.5
100
AcDbArc
 50
90.0
 51
180.0
  0
ARC
  5
CB
330
1F
100
AcDbEntity
  8
LAYERGROUP-1
  6
CONTINUOUS
 62
     3
100
AcDbCircle
 10
106.751724
 20
136.91
 30
0.0
 40
3.5
100
AcDbArc
 50
90.0
 51
180.0
  0
LINE
  5
CC
330
1F
100
AcDbEntity
  8
LAYERGROUP-1
  6
CONTINUOUS
 62
     3
100
AcDbLine
 10
219.151724
 20
135.11
 30
0.0
 11
219.254406
 21
137.53682
 31
0.0
  0
LINE
  5
CE
330
1F
100
AcDbEntity
  8
GR1-1
  6
CONTINUOUS
 62
     3
100
AcDbLine
 10
209.051724
 20
146.2
 30
0.0
 11
209.051724
 21
148.5
 31
0.0
  0
LINE
  5
CF
330
1F
100
AcDbEntity
  8
GR1-1
  6
CONTINUOUS
 62
     3
100
AcDbLine
 10
209.051724
 20
148.5
 30
0.0
 11
279.051724
 21
148.5
 31
0.0
  0
LINE
  5
D0
330
1F
100
AcDbEntity
  8
GR1-1
  6
CONTINUOUS
 62
     3
100
AcDbLine
 10
279.051724
 20
146.2
 30
0.0
 11
209.051724
 21
146.2
 31
0.0
  0
ARC
  5
D1
330
1F
100
AcDbEntity
  8
LAYERGROUP-1
  6
CONTINUOUS
 62
     3
100
AcDbCircle
 10
215.551724
 20
144.7
 30
0.0
 40
1.5
100
AcDbArc
 50
19.980982
 51
90.0
  0
ARC
  5
D2
330
1F
100
AcDbEntity
  8
LAYERGROUP-1
  6
CONTINUOUS
 62
     3
100
AcDbCircle
 10
220.751724
 20
144.9
 30
0.0
 40
3.0
100
AcDbArc
 50
231.96215
 51
270.0
  0
ARC
  5
D3
330
1F
100
AcDbEntity
  8
LAYERGROUP-1
  6
CONTINUOUS
 62
     3
100
AcDbCircle
 10
222.60027
 20
147.262812
 30
0.0
 40
6.0
100
AcDbArc
 50
199.980982
 51
231.96215
  0
LINE
  5
D4
330
1F
100
AcDbEntity
  8
GR1-1
  6
CONTINUOUS
 62
     3
100
AcDbLine
 10
279.051724
 20
146.2
 30
0.0
 11
279.051724
 21
148.5
 31
0.0
  0
ARC
  5
D5
330
1F
100
AcDbEntity
  8
LAYERGROUP-1
  6
CONTINUOUS
 62
     3
100
AcDbCircle
 10
267.351724
 20
144.9
 30
0.0
 40
3.0
100
AcDbArc
 50
270.0
 51
308.03785
  0
ARC
  5
D6
330
1F
100
AcDbEntity
  8
LAYERGROUP-1
  6
CONTINUOUS
 62
     3
100
AcDbCircle
 10
265.503178
 20
147.262812
 30
0.0
 40
6.0
100
AcDbArc
 50
308.03785
 51
340.019018
  0
ARC
  5
D7
330
1F
100
AcDbEntity
  8
GR1-1
  6
CONTINUOUS
 62
     3
100
AcDbCircle
 10
271.051724
 20
251.402985
 30
0.0
 40
8.0
100
AcDbArc
 50
-13.806071
 51
90.0
  0
LINE
  5
D8
330
1F
100
AcDbEntity
  8
GR1-1
  6
CONTINUOUS
 62
     3
100
AcDbLine
 10
271.051724
 20
259.402985
 30
0.0
 11
217.051724
 21
259.402985
 31
0.0
  0
ARC
  5
D9
330
1F
100
AcDbEntity
  8
GR1-1
  6
CONTINUOUS
 62
     3
100
AcDbCircle
 10
217.051724
 20
251.402985
 30
0.0
 40
8.0
100
AcDbArc
 50
90.0
 51
193.806071
  0
CIRCLE
  5
DA
330
1F
100
AcDbEntity
  8
GR1-1
  6
CONTINUOUS
 62
     3
100
AcDbCircle
 10
216.551724
 20
251.402985
 30
0.0
 40
4.4
  0
CIRCLE
  5
DB
330
1F
100
AcDbEntity
  8
GR1-1
  6
CONTINUOUS
 62
     3
100
AcDbCircle
 10
271.551724
 20
209.402985
 30
0.0
 40
4.4
  0
ARC
  5
DC
330
1F
100
AcDbEntity
  8
GR1-1
  6
CONTINUOUS
 62
     3
100
AcDbCircle
 10
271.051724
 20
209.402985
 30
0.0
 40
8.0
100
AcDbArc
 50
-90.0
 51
13.806071
  0
LINE
  5
DD
330
1F
100
AcDbEntity
  8
GR1-1
  6
CONTINUOUS
 62
     3
100
AcDbLine
 10
271.051724
 20
201.402985
 30
0.0
 11
217.051724
 21
201.402985
 31
0.0
  0
CIRCLE
  5
DE
330
1F
100
AcDbEntity
  8
GR1-1
  6
CONTINUOUS
 62
     3
100
AcDbCircle
 10
216.551724
 20
209.402985
 30
0.0
 40
4.4
  0
ARC
  5
DF
330
1F
100
AcDbEntity
  8
GR1-1
  6
CONTINUOUS
 62
     3
100
AcDbCircle
 10
131.594132
 20
230.402985
 30
0.0
 40
80.0
100
AcDbArc
 50
-13.806071
 51
13.806071
  0
ARC
  5
E0
330
1F
100
AcDbEntity
  8
GR1-1
  6
CONTINUOUS
 62
     3
100
AcDbCircle
 10
217.051724
 20
209.402985
 30
0.0
 40
8.0
100
AcDbArc
 50
166.193929
 51
270.0
  0
CIRCLE
  5
E1
330
1F
100
AcDbEntity
  8
GR1-1
  6
CONTINUOUS
 62
     3
100
AcDbCircle
 10
271.551724
 20
251.402985
 30
0.0
 40
4.4
  0
ARC
  5
E2
330
1F
100
AcDbEntity
  8
GR1-1
  6
CONTINUOUS
 62
     3
100
AcDbCircle
 10
356.509316
 20
230.402985
 30
0.0
 40
80.0
100
AcDbArc
 50
166.193929
 51
193.806071
  0
LINE
  5
E3
330
1F
100
AcDbEntity
  8
GR1-1
  6
CENTER
 62
     6
100
AcDbLine
 10
244.051724
 20
261.676941
 30
0.0
 11
244.051724
 21
198.296596
 31
0.0
  0
CIRCLE
  5
E4
330
1F
100
AcDbEntity
  8
GR1-1
  6
CONTINUOUS
 62
     6
100
AcDbCircle
 10
244.051724
 20
230.402985
 30
0.0
 40
12.49999999999999
  0
DIMENSION
  5
E5
330
1F
100
AcDbEntity
  8
GR1-1
100
AcDbDimension
  2
*D19
 10
279.051724
 20
181.402985
 30
0.0
 11
244.051727
 21
182.402985
 31
0.0
 70
    33
  3
FXDIMINFO
100
AcDbAlignedDimension
 13
209.051724
 23
209.402985
 33
0.0
 14
279.051724
 24
209.402985
 34
0.0
1001
ACAD
1000
DSTYLE
1002
{
1070
     7
1000
FXTIP_ARROW_E
1070
     6
1000
FXTIP_ARROW_S
1070
   173
1070
     1
1002
}
  0
DIMENSION
  5
EF
330
1F
100
AcDbEntity
  8
GR1-1
100
AcDbDimension
  2
*D20
 10
271.551724
 20
191.402985
 30
0.0
 11
244.051727
 21
192.402985
 31
0.0
 70
    33
  3
FXDIMINFO
100
AcDbAlignedDimension
 13
216.551724
 23
201.402985
 33
0.0
 14
271.551724
 24
201.402985
 34
0.0
1001
ACAD
1000
DSTYLE
1002
{
1070
     7
1000
FXTIP_ARROW_E
1070
     6
1000
FXTIP_ARROW_S
1070
   173
1070
     1
1002
}
  0
CIRCLE
  5
F9
330
1F
100
AcDbEntity
  8
LAYERGROUP-1
  6
CONTINUOUS
 62
     6
100
AcDbCircle
 10
244.051724
 20
230.402985
 30
0.0
 40
22.29999999999998
  0
CIRCLE
  5
FA
330
1F
100
AcDbEntity
  8
LAYERGROUP-1
  6
CONTINUOUS
 62
     6
100
AcDbCircle
 10
244.051724
 20
230.402985
 30
0.0
 40
24.29999999999998
  0
LINE
  5
FB
330
1F
100
AcDbEntity
  8
GR1-1
  6
CONTINUOUS
 62
     3
100
AcDbLine
 10
92.551724
 20
148.5
 30
0.0
 11
150.551724
 21
148.5
 31
0.0
  0
LINE
  5
FC
330
1F
100
AcDbEntity
  8
GR1-1
  6
CONTINUOUS
 62
     3
100
AcDbLine
 10
92.551724
 20
146.2
 30
0.0
 11
150.551724
 21
146.2
 31
0.0
  0
ARC
  5
FD
330
1F
100
AcDbEntity
  8
LAYERGROUP-1
  6
CONTINUOUS
 62
     3
100
AcDbCircle
 10
93.051724
 20
144.7
 30
0.0
 40
1.5
100
AcDbArc
 50
19.980982
 51
90.0
  0
ARC
  5
FE
330
1F
100
AcDbEntity
  8
LAYERGROUP-1
  6
CONTINUOUS
 62
     3
100
AcDbCircle
 10
98.251724
 20
144.9
 30
0.0
 40
3.0
100
AcDbArc
 50
231.96215
 51
270.0
  0
ARC
  5
FF
330
1F
100
AcDbEntity
  8
LAYERGROUP-1
  6
CONTINUOUS
 62
     3
100
AcDbCircle
 10
100.10027
 20
147.262812
 30
0.0
 40
6.0
100
AcDbArc
 50
199.980982
 51
231.96215
  0
LINE
  5
100
330
1F
100
AcDbEntity
  8
LAYERGROUP-1
  6
CONTINUOUS
 62
     3
100
AcDbLine
 10
98.251724
 20
141.9
 30
0.0
 11
144.851724
 21
141.9
 31
0.0
  0
LINE
  5
101
330
1F
100
AcDbEntity
  8
LAYERGROUP-1
  6
CONTINUOUS
 62
     3
100
AcDbLine
 10
92.551724
 20
148.5
 30
0.0
 11
92.551724
 21
146.2
 31
0.0
  0
ARC
  5
102
330
1F
100
AcDbEntity
  8
LAYERGROUP-1
  6
CONTINUOUS
 62
     3
100
AcDbCircle
 10
150.051724
 20
144.7
 30
0.0
 40
1.5
100
AcDbArc
 50
90.0
 51
160.019018
  0
ARC
  5
103
330
1F
100
AcDbEntity
  8
LAYERGROUP-1
  6
CONTINUOUS
 62
     3
100
AcDbCircle
 10
144.851724
 20
144.9
 30
0.0
 40
3.0
100
AcDbArc
 50
270.0
 51
308.03785
  0
ARC
  5
104
330
1F
100
AcDbEntity
  8
LAYERGROUP-1
  6
CONTINUOUS
 62
     3
100
AcDbCircle
 10
143.003178
 20
147.262812
 30
0.0
 40
6.0
100
AcDbArc
 50
308.03785
 51
340.019018
  0
LINE
  5
105
330
1F
100
AcDbEntity
  8
LAYERGROUP-1
  6
CONTINUOUS
 62
     3
100
AcDbLine
 10
150.551724
 20
148.5
 30
0.0
 11
150.551724
 21
146.2
 31
0.0
  0
LINE
  5
106
330
1F
100
AcDbEntity
  8
LAYERGROUP-1
  6
CONTINUOUS
 62
     3
100
AcDbLine
 10
132.301724
 20
133.95
 30
0.0
 11
132.301724
 21
134.588034
 31
0.0
  0
LINE
  5
107
330
1F
100
AcDbEntity
  8
LAYERGROUP-1
  6
CONTINUOUS
 62
     3
100
AcDbLine
 10
110.801724
 20
133.95
 30
0.0
 11
110.801724
 21
134.588034
 31
0.0
  0
LINE
  5
108
330
1F
100
AcDbEntity
  8
GR1-1
  6
CONTINUOUS
 62
     3
100
AcDbLine
 10
132.301724
 20
133.95
 30
0.0
 11
110.801724
 21
133.95
 31
0.0
  0
ARC
  5
109
330
1F
100
AcDbEntity
  8
LAYERGROUP-1
  6
CONTINUOUS
 62
     3
100
AcDbCircle
 10
242.313081
 20
232.141628
 30
0.0
 40
5.541187189562158
100
AcDbArc
 50
71.713589
 51
198.286411
  0
ARC
  5
10A
330
1F
100
AcDbEntity
  8
LAYERGROUP-1
  6
CONTINUOUS
 62
     3
100
AcDbCircle
 10
245.790367
 20
232.141628
 30
0.0
 40
5.541187189562158
100
AcDbArc
 50
-18.286411
 51
108.286411
  0
ARC
  5
10B
330
1F
100
AcDbEntity
  8
LAYERGROUP-1
  6
CONTINUOUS
 62
     3
100
AcDbCircle
 10
242.313081
 20
228.664342
 30
0.0
 40
5.541187189562158
100
AcDbArc
 50
161.713589
 51
288.286411
  0
ARC
  5
10C
330
1F
100
AcDbEntity
  8
LAYERGROUP-1
  6
CONTINUOUS
 62
     3
100
AcDbCircle
 10
245.790367
 20
228.664342
 30
0.0
 40
5.541187189562158
100
AcDbArc
 50
-108.286411
 51
18.286411
  0
LINE
  5
10D
330
1F
100
AcDbEntity
  8
LAYERGROUP-1
  6
CONTINUOUS
 62
     6
100
AcDbLine
 10
242.651724
 20
231.802985
 30
0.0
 11
245.451724
 21
229.002985
 31
0.0
  0
ARC
  5
10E
330
1F
100
AcDbEntity
  8
LAYERGROUP-1
  6
CONTINUOUS
 62
     6
100
AcDbCircle
 10
240.901724
 20
232.771231
 30
0.0
 40
2.0
100
AcDbArc
 50
331.044976
 51
360.0
  0
LINE
  5
10F
330
1F
100
AcDbEntity
  8
LAYERGROUP-1
  6
CONTINUOUS
 62
     6
100
AcDbLine
 10
242.901724
 20
232.771231
 30
0.0
 11
242.151724
 21
237.680466
 31
0.0
  0
LINE
  5
110
330
1F
100
AcDbEntity
  8
LAYERGROUP-1
  6
CONTINUOUS
 62
     6
100
AcDbLine
 10
244.051724
 20
237.402985
 30
0.0
 11
244.051724
 21
223.402985
 31
0.0
  0
LINE
  5
111
330
1F
100
AcDbEntity
  8
LAYERGROUP-1
  6
CONTINUOUS
 62
     6
100
AcDbLine
 10
251.051724
 20
230.402985
 30
0.0
 11
237.051724
 21
230.402985
 31
0.0
  0
LINE
  5
112
330
1F
100
AcDbEntity
  8
LAYERGROUP-1
  6
CONTINUOUS
 62
     6
100
AcDbLine
 10
245.451724
 20
231.802985
 30
0.0
 11
242.651724
 21
229.002985
 31
0.0
  0
ARC
  5
113
330
1F
100
AcDbEntity
  8
LAYERGROUP-1
  6
CONTINUOUS
 62
     6
100
AcDbCircle
 10
247.201724
 20
232.771231
 30
0.0
 40
2.0
100
AcDbArc
 50
180.0
 51
208.955024
  0
LINE
  5
114
330
1F
100
AcDbEntity
  8
LAYERGROUP-1
  6
CONTINUOUS
 62
     6
100
AcDbLine
 10
245.201724
 20
232.771231
 30
0.0
 11
245.951724
 21
237.680466
 31
0.0
  0
ARC
  5
115
330
1F
100
AcDbEntity
  8
LAYERGROUP-1
  6
CONTINUOUS
 62
     6
100
AcDbCircle
 10
240.901724
 20
228.034739
 30
0.0
 40
2.0
100
AcDbArc
 50
0.0
 51
28.955024
  0
LINE
  5
116
330
1F
100
AcDbEntity
  8
LAYERGROUP-1
  6
CONTINUOUS
 62
     6
100
AcDbLine
 10
242.901724
 20
228.034739
 30
0.0
 11
242.151724
 21
223.125504
 31
0.0
  0
ARC
  5
117
330
1F
100
AcDbEntity
  8
LAYERGROUP-1
  6
CONTINUOUS
 62
     6
100
AcDbCircle
 10
247.201724
 20
228.034739
 30
0.0
 40
2.0
100
AcDbArc
 50
151.044976
 51
180.0
  0
LINE
  5
118
330
1F
100
AcDbEntity
  8
LAYERGROUP-1
  6
CONTINUOUS
 62
     6
100
AcDbLine
 10
245.201724
 20
228.034739
 30
0.0
 11
245.951724
 21
223.125504
 31
0.0
  0
ARC
  5
119
330
1F
100
AcDbEntity
  8
LAYERGROUP-1
  6
CONTINUOUS
 62
     6
100
AcDbCircle
 10
241.683478
 20
227.252985
 30
0.0
 40
2.0
100
AcDbArc
 50
61.044976
 51
90.0
  0
LINE
  5
11A
330
1F
100
AcDbEntity
  8
LAYERGROUP-1
  6
CONTINUOUS
 62
     6
100
AcDbLine
 10
241.683478
 20
229.252985
 30
0.0
 11
236.774244
 21
228.502985
 31
0.0
  0
ARC
  5
11B
330
1F
100
AcDbEntity
  8
LAYERGROUP-1
  6
CONTINUOUS
 62
     6
100
AcDbCircle
 10
241.683478
 20
233.552985
 30
0.0
 40
2.0
100
AcDbArc
 50
270.0
 51
298.955024
  0
LINE
  5
11C
330
1F
100
AcDbEntity
  8
LAYERGROUP-1
  6
CONTINUOUS
 62
     6
100
AcDbLine
 10
241.683478
 20
231.552985
 30
0.0
 11
236.774244
 21
232.302985
 31
0.0
  0
ARC
  5
11D
330
1F
100
AcDbEntity
  8
LAYERGROUP-1
  6
CONTINUOUS
 62
     6
100
AcDbCircle
 10
246.41997
 20
227.252985
 30
0.0
 40
2.0
100
AcDbArc
 50
90.0
 51
118.955024
  0
LINE
  5
11E
330
1F
100
AcDbEntity
  8
LAYERGROUP-1
  6
CONTINUOUS
 62
     6
100
AcDbLine
 10
246.41997
 20
229.252985
 30
0.0
 11
251.329205
 21
228.502985
 31
0.0
  0
ARC
  5
11F
330
1F
100
AcDbEntity
  8
LAYERGROUP-1
  6
CONTINUOUS
 62
     6
100
AcDbCircle
 10
246.41997
 20
233.552985
 30
0.0
 40
2.0
100
AcDbArc
 50
241.044976
 51
270.0
  0
LINE
  5
120
330
1F
100
AcDbEntity
  8
LAYERGROUP-1
  6
CONTINUOUS
 62
     6
100
AcDbLine
 10
246.41997
 20
231.552985
 30
0.0
 11
251.329205
 21
232.302985
 31
0.0
  0
DIMENSION
  5
121
330
1F
100
AcDbEntity
  8
LAYERGROUP-1
100
AcDbDimension
  2
*D21
 10
220.091636
 20
248.789745
 30
0.0
 11
201.095215
 21
264.056305
 31
0.0
 70
   163
  3
FXDIMINFO
100
AcDbDiametricDimension
 15
213.011812
 25
254.016225
 35
0.0
 40
0.0
  0
ARC
  5
12B
330
1F
100
AcDbEntity
  8
LAYERGROUP-1
  6
CONTINUOUS
 62
     3
100
AcDbCircle
 10
121.551724
 20
141.985
 30
0.0
 40
3.175
100
AcDbArc
 50
330.26013
 51
358.466464
  0
ARC
  5
12C
330
1F
100
AcDbEntity
  8
LAYERGROUP-1
  6
CONTINUOUS
 62
     3
100
AcDbCircle
 10
127.798139
 20
141.985
 30
0.0
 40
3.175
100
AcDbArc
 50
330.26013
 51
358.466464
  0
ARC
  5
12D
330
1F
100
AcDbEntity
  8
LAYERGROUP-1
  6
CONTINUOUS
 62
     3
100
AcDbCircle
 10
133.236037
 20
141.985
 30
0.0
 40
3.175
100
AcDbArc
 50
330.26013
 51
358.466464
  0
ARC
  5
12E
330
1F
100
AcDbEntity
  8
LAYERGROUP-1
  6
CONTINUOUS
 62
     3
100
AcDbCircle
 10
137.161554
 20
141.985
 30
0.0
 40
3.175
100
AcDbArc
 50
330.26013
 51
358.465914
  0
ARC
  5
12F
330
1F
100
AcDbEntity
  8
LAYERGROUP-1
  6
CONTINUOUS
 62
     3
100
AcDbCircle
 10
139.066584
 20
141.985
 30
0.0
 40
3.175
100
AcDbArc
 50
330.26013
 51
360.0
  0
ARC
  5
130
330
1F
100
AcDbEntity
  8
LAYERGROUP-1
  6
CONTINUOUS
 62
     3
100
AcDbCircle
 10
127.798139
 20
141.985
 30
0.0
 40
3.175
100
AcDbArc
 50
190.36316
 51
209.73987
  0
ARC
  5
131
330
1F
100
AcDbEntity
  8
LAYERGROUP-1
  6
CONTINUOUS
 62
     3
100
AcDbCircle
 10
121.551724
 20
141.985
 30
0.0
 40
3.175
100
AcDbArc
 50
181.533536
 51
209.73987
  0
ARC
  5
132
330
1F
100
AcDbEntity
  8
LAYERGROUP-1
  6
CONTINUOUS
 62
     3
100
AcDbCircle
 10
115.30531
 20
141.985
 30
0.0
 40
3.175
100
AcDbArc
 50
181.533536
 51
209.73987
  0
ARC
  5
133
330
1F
100
AcDbEntity
  8
LAYERGROUP-1
  6
CONTINUOUS
 62
     3
100
AcDbCircle
 10
109.867411
 20
141.985
 30
0.0
 40
3.175
100
AcDbArc
 50
181.533536
 51
209.73987
  0
ARC
  5
134
330
1F
100
AcDbEntity
  8
LAYERGROUP-1
  6
CONTINUOUS
 62
     3
100
AcDbCircle
 10
105.941894
 20
141.985
 30
0.0
 40
3.175
100
AcDbArc
 50
181.534086
 51
209.73987
  0
ARC
  5
135
330
1F
100
AcDbEntity
  8
LAYERGROUP-1
  6
CONTINUOUS
 62
     3
100
AcDbCircle
 10
104.036865
 20
141.985
 30
0.0
 40
3.175
100
AcDbArc
 50
180.0
 51
209.73987
  0
ARC
  5
136
330
1F
100
AcDbEntity
  8
LAYERGROUP-1
  6
CONTINUOUS
 62
     3
100
AcDbCircle
 10
115.30531
 20
141.985
 30
0.0
 40
3.175
100
AcDbArc
 50
330.26013
 51
349.63684
  0
LINE
  5
137
330
1F
100
AcDbEntity
  8
LAYERGROUP-1
  6
CONTINUOUS
 62
     3
100
AcDbLine
 10
267.351724
 20
141.9
 30
0.0
 11
220.751724
 21
141.9
 31
0.0
  0
ARC
  5
138
330
1F
100
AcDbEntity
  8
LAYERGROUP-1
  6
CONTINUOUS
 62
     3
100
AcDbCircle
 10
272.551724
 20
144.7
 30
0.0
 40
1.5
100
AcDbArc
 50
90.0
 51
160.019018
  0
ARC
  5
139
330
1F
100
AcDbEntity
  8
LAYERGROUP-1
  6
CONTINUOUS
 62
     3
100
AcDbCircle
 10
244.051724
 20
141.985
 30
0.0
 40
3.175
100
AcDbArc
 50
330.26013
 51
358.466464
  0
ARC
  5
13A
330
1F
100
AcDbEntity
  8
LAYERGROUP-1
  6
CONTINUOUS
 62
     3
100
AcDbCircle
 10
250.298139
 20
141.985
 30
0.0
 40
3.175
100
AcDbArc
 50
330.26013
 51
358.466464
  0
ARC
  5
13B
330
1F
100
AcDbEntity
  8
LAYERGROUP-1
  6
CONTINUOUS
 62
     3
100
AcDbCircle
 10
255.736037
 20
141.985
 30
0.0
 40
3.175
100
AcDbArc
 50
330.26013
 51
358.466464
  0
ARC
  5
13C
330
1F
100
AcDbEntity
  8
LAYERGROUP-1
  6
CONTINUOUS
 62
     3
100
AcDbCircle
 10
259.661554
 20
141.985
 30
0.0
 40
3.175
100
AcDbArc
 50
330.26013
 51
358.465914
  0
ARC
  5
13D
330
1F
100
AcDbEntity
  8
LAYERGROUP-1
  6
CONTINUOUS
 62
     3
100
AcDbCircle
 10
261.566584
 20
141.985
 30
0.0
 40
3.175
100
AcDbArc
 50
330.26013
 51
360.0
  0
ARC
  5
13E
330
1F
100
AcDbEntity
  8
LAYERGROUP-1
  6
CONTINUOUS
 62
     3
100
AcDbCircle
 10
250.298139
 20
141.985
 30
0.0
 40
3.175
100
AcDbArc
 50
190.36316
 51
209.73987
  0
ARC
  5
13F
330
1F
100
AcDbEntity
  8
LAYERGROUP-1
  6
CONTINUOUS
 62
     3
100
AcDbCircle
 10
244.051724
 20
141.985
 30
0.0
 40
3.175
100
AcDbArc
 50
181.533536
 51
209.73987
  0
ARC
  5
140
330
1F
100
AcDbEntity
  8
LAYERGROUP-1
  6
CONTINUOUS
 62
     3
100
AcDbCircle
 10
237.80531
 20
141.985
 30
0.0
 40
3.175
100
AcDbArc
 50
181.533536
 51
209.73987
  0
ARC
  5
141
330
1F
100
AcDbEntity
  8
LAYERGROUP-1
  6
CONTINUOUS
 62
     3
100
AcDbCircle
 10
232.367411
 20
141.985
 30
0.0
 40
3.175
100
AcDbArc
 50
181.533536
 51
209.73987
  0
ARC
  5
142
330
1F
100
AcDbEntity
  8
LAYERGROUP-1
  6
CONTINUOUS
 62
     3
100
AcDbCircle
 10
228.441894
 20
141.985
 30
0.0
 40
3.175
100
AcDbArc
 50
181.534086
 51
209.73987
  0
ARC
  5
143
330
1F
100
AcDbEntity
  8
LAYERGROUP-1
  6
CONTINUOUS
 62
     3
100
AcDbCircle
 10
226.536865
 20
141.985
 30
0.0
 40
3.175
100
AcDbArc
 50
180.0
 51
209.73987
  0
ARC
  5
144
330
1F
100
AcDbEntity
  8
LAYERGROUP-1
  6
CONTINUOUS
 62
     3
100
AcDbCircle
 10
237.80531
 20
141.985
 30
0.0
 40
3.175
100
AcDbArc
 50
330.26013
 51
349.63684
  0
ARC
  5
145
330
1F
100
AcDbEntity
  8
LAYERGROUP-1
  6
CONTINUOUS
 62
     6
100
AcDbCircle
 10
222.953311
 20
137.809292
 30
0.0
 40
2.5
100
AcDbArc
 50
270.0
 51
360.0
  0
LINE
  5
146
330
1F
100
AcDbEntity
  8
LAYERGROUP-1
  6
CONTINUOUS
 62
     6
100
AcDbLine
 10
220.662642
 20
135.11
 30
0.0
 11
222.953311
 21
135.309292
 31
0.0
  0
ARC
  5
147
330
1F
100
AcDbEntity
  8
LAYERGROUP-1
  6
CONTINUOUS
 62
     6
100
AcDbCircle
 10
224.336782
 20
135.393433
 30
0.0
 40
4.0
100
AcDbArc
 50
88.33131
 51
157.719464
  0
ARC
  5
148
330
1F
100
AcDbEntity
  8
LAYERGROUP-1
  6
CONTINUOUS
 62
     6
100
AcDbCircle
 10
224.453311
 20
138.393433
 30
0.0
 40
1.0
100
AcDbArc
 50
0.0
 51
90.0
  0
LINE
  5
149
330
1F
100
AcDbEntity
  8
LAYERGROUP-1
  6
CONTINUOUS
 62
     6
100
AcDbLine
 10
225.453311
 20
138.393433
 30
0.0
 11
225.453311
 21
137.809292
 31
0.0
  0
LINE
  5
14A
330
1F
100
AcDbEntity
  8
LAYERGROUP-1
  6
CONTINUOUS
 62
     6
100
AcDbLine
 10
220.635428
 20
136.91
 30
0.0
 11
220.635428
 21
135.11
 31
0.0
  0
LINE
  5
14B
330
1F
100
AcDbEntity
  8
LAYERGROUP-1
  6
CENTER
 62
     6
100
AcDbLine
 10
244.051724
 20
151.453245
 30
0.0
 11
244.051724
 21
109.820081
 31
0.0
  0
LINE
  5
14C
330
1F
100
AcDbEntity
  8
LAYERGROUP-1
  6
CENTER
 62
     6
100
AcDbLine
 10
188.231143
 20
101.0
 30
0.0
 11
257.809457
 21
101.0
 31
0.0
  0
LINE
  5
14D
330
1F
100
AcDbEntity
  8
LAYERGROUP-1
  6
CENTER
 62
     6
100
AcDbLine
 10
223.051724
 20
114.083753
 30
0.0
 11
223.051724
 21
65.855691
 31
0.0
  0
CIRCLE
  5
14E
330
1F
100
AcDbEntity
  8
LAYERGROUP-1
  6
CONTINUOUS
 62
     3
100
AcDbCircle
 10
223.051724
 20
101.0
 30
0.0
 40
6.0
  0
CIRCLE
  5
14F
330
1F
100
AcDbEntity
  8
LAYERGROUP-1
  6
CONTINUOUS
 62
     6
100
AcDbCircle
 10
223.051724
 20
101.0
 30
0.0
 40
2.25
  0
CIRCLE
  5
150
330
1F
100
AcDbEntity
  8
LAYERGROUP-1
  6
CONTINUOUS
 62
     3
100
AcDbCircle
 10
223.051724
 20
101.0
 30
0.0
 40
1.5
  0
ARC
  5
151
330
1F
100
AcDbEntity
  8
3-1
  6
CONTINUOUS
 62
     3
100
AcDbCircle
 10
562.690588
 20
65.395334
 30
0.0
 40
350.0
100
AcDbArc
 50
169.382294
 51
174.015487
  0
ARC
  5
152
330
1F
100
AcDbEntity
  8
3-1
  6
CONTINUOUS
 62
     3
100
AcDbCircle
 10
64.436461
 20
255.607401
 30
0.0
 40
230.0000000000001
100
AcDbArc
 50
315.733092
 51
318.2351
  0
ARC
  5
153
330
1F
100
AcDbEntity
  8
3-1
  6
CONTINUOUS
 62
     3
100
AcDbCircle
 10
223.051724
 20
101.0
 30
0.0
 40
8.5
100
AcDbArc
 50
174.01553
 51
315.733092
  0
LINE
  5
154
330
1F
100
AcDbEntity
  8
LAYERGROUP-1
  6
CONTINUOUS
 62
     3
100
AcDbLine
 10
256.188405
 20
129.41
 30
0.0
 11
235.989824
 21
102.41
 31
0.0
  0
DIMENSION
  5
155
330
1F
100
AcDbEntity
  8
LAYERGROUP-1
100
AcDbDimension
  2
*D22
 10
305.108273
 20
148.5
 30
0.0
 11
304.108276
 21
108.5
 31
0.0
 70
    32
  3
FXDIMINFO
100
AcDbAlignedDimension
 13
223.051724
 23
68.5
 33
0.0
 14
279.051724
 24
148.5
 34
0.0
 50
270.0
100
AcDbRotatedDimension
1001
ACAD
1000
DSTYLE
1002
{
1070
     7
1000
FXTIP_ARROW_E
1070
     6
1000
FXTIP_ARROW_S
1070
   173
1070
     1
1002
}
  0
DIMENSION
  5
15F
330
1F
100
AcDbEntity
  8
LAYERGROUP-1
100
AcDbDimension
  2
*D23
 10
295.108273
 20
148.5
 30
0.0
 11
294.108276
 21
124.75
 31
0.0
 70
    32
  3
FXDIMINFO
100
AcDbAlignedDimension
 13
257.809457
 23
101.0
 33
0.0
 14
279.051724
 24
148.5
 34
0.0
 50
270.0
100
AcDbRotatedDimension
1001
ACAD
1000
DSTYLE
1002
{
1070
     7
1000
FXTIP_ARROW_E
1070
     6
1000
FXTIP_ARROW_S
1070
   173
1070
     1
1002
}
  0
DIMENSION
  5
168
330
1F
100
AcDbEntity
  8
LAYERGROUP-1
100
AcDbDimension
  2
*D24
 10
244.051724
 20
58.5
 30
0.0
 11
233.551727
 21
59.5
 31
0.0
 70
    32
  3
FXDIMINFO
100
AcDbAlignedDimension
 13
223.051724
 23
65.855691
 33
0.0
 14
244.051724
 24
109.820081
 34
0.0
 50
180.0
100
AcDbRotatedDimension
1001
ACAD
1000
DSTYLE
1002
{
1070
     7
1000
FXTIP_ARROW_E
1070
     6
1000
FXTIP_ARROW_S
1070
   173
1070
     1
1002
}
  0
ARC
  5
172
330
1F
100
AcDbEntity
  8
LAYERGROUP-1
  6
CONTINUOUS
 62
     3
100
AcDbCircle
 10
121.551724
 20
17.357657
 30
0.0
 40
116.0523426889993
100
AcDbArc
 50
82.472981
 51
88.365371
  0
LINE
  5
173
330
1F
100
AcDbEntity
  8
LAYERGROUP-1
  6
CENTER
 62
     6
100
AcDbLine
 10
98.414677
 20
101.0
 30
0.0
 11
144.755533
 21
101.0
 31
0.0
  0
ARC
  5
174
330
1F
100
AcDbEntity
  8
LAYERGROUP-1
  6
CONTINUOUS
 62
     3
100
AcDbCircle
 10
103.251724
 20
105.4
 30
0.0
 40
1.6
100
AcDbArc
 50
90.0
 51
180.0
  0
ARC
  5
175
330
1F
100
AcDbEntity
  8
LAYERGROUP-1
  6
CONTINUOUS
 62
     3
100
AcDbCircle
 10
103.251724
 20
96.6
 30
0.0
 40
1.6
100
AcDbArc
 50
180.0
 51
270.0
  0
LINE
  5
176
330
1F
100
AcDbEntity
  8
LAYERGROUP-1
  6
CONTINUOUS
 62
     3
100
AcDbLine
 10
101.651724
 20
105.4
 30
0.0
 11
101.651724
 21
96.6
 31
0.0
  0
ARC
  5
177
330
1F
100
AcDbEntity
  8
LAYERGROUP-1
  6
CONTINUOUS
 62
     3
100
AcDbCircle
 10
141.351724
 20
104.5
 30
0.0
 40
2.5
100
AcDbArc
 50
53.130102
 51
126.869898
  0
ARC
  5
178
330
1F
100
AcDbEntity
  8
LAYERGROUP-1
  6
CONTINUOUS
 62
     3
100
AcDbCircle
 10
141.351724
 20
97.5
 30
0.0
 40
2.5
100
AcDbArc
 50
233.130102
 51
306.869898
  0
LINE
  5
179
330
1F
100
AcDbEntity
  8
LAYERGROUP-1
  6
CONTINUOUS
 62
     3
100
AcDbLine
 10
142.851724
 20
106.5
 30
0.0
 11
142.851724
 21
95.5
 31
0.0
  0
LINE
  5
17A
330
1F
100
AcDbEntity
  8
LAYERGROUP-1
  6
CONTINUOUS
 62
     3
100
AcDbLine
 10
105.551724
 20
105.0
 30
0.0
 11
106.551724
 21
105.0
 31
0.0
  0
LINE
  5
17B
330
1F
100
AcDbEntity
  8
LAYERGROUP-1
  6
CONTINUOUS
 62
     3
100
AcDbLine
 10
105.551724
 20
97.0
 30
0.0
 11
106.551724
 21
97.0
 31
0.0
  0
LINE
  5
17C
330
1F
100
AcDbEntity
  8
LAYERGROUP-1
  6
CONTINUOUS
 62
     3
100
AcDbLine
 10
137.551724
 20
92.5
 30
0.0
 11
139.851724
 21
92.5
 31
0.0
  0
LINE
  5
17D
330
1F
100
AcDbEntity
  8
LAYERGROUP-1
  6
CONTINUOUS
 62
     3
100
AcDbLine
 10
139.851724
 20
92.5
 30
0.0
 11
139.851724
 21
136.91
 31
0.0
  0
LINE
  5
17E
330
1F
100
AcDbEntity
  8
LAYERGROUP-1
  6
CONTINUOUS
 62
     3
100
AcDbLine
 10
137.551724
 20
92.5
 30
0.0
 11
137.551724
 21
129.91
 31
0.0
  0
LINE
  5
17F
330
1F
100
AcDbEntity
  8
LAYERGROUP-1
  6
CONTINUOUS
 62
     3
100
AcDbLine
 10
105.551724
 20
92.5
 30
0.0
 11
103.251724
 21
92.5
 31
0.0
  0
LINE
  5
180
330
1F
100
AcDbEntity
  8
LAYERGROUP-1
  6
CONTINUOUS
 62
     3
100
AcDbLine
 10
105.551724
 20
92.5
 30
0.0
 11
105.551724
 21
129.91
 31
0.0
  0
LINE
  5
181
330
1F
100
AcDbEntity
  8
LAYERGROUP-1
  6
CONTINUOUS
 62
     3
100
AcDbLine
 10
103.251724
 20
92.5
 30
0.0
 11
103.251724
 21
136.91
 31
0.0
  0
DIMENSION
  5
182
330
1F
100
AcDbEntity
  8
LAYERGROUP-1
100
AcDbDimension
  2
*D25
 10
136.551724
 20
48.5
 30
0.0
 11
121.551727
 21
49.5
 31
0.0
 70
    33
  3
FXDIMINFO
100
AcDbAlignedDimension
 13
106.551724
 23
90.0
 33
0.0
 14
136.551724
 24
90.0
 34
0.0
1001
ACAD
1000
DSTYLE
1002
{
1070
     7
1000
FXTIP_ARROW_E
1070
     6
1000
FXTIP_ARROW_S
1070
   173
1070
     1
1002
}
  0
DIMENSION
  5
18C
330
1F
100
AcDbEntity
  8
LAYERGROUP-1
100
AcDbDimension
  2
*D26
 10
134.051724
 20
58.5
 30
0.0
 11
121.551727
 21
59.5
 31
0.0
 70
    33
  3
FXDIMINFO
100
AcDbAlignedDimension
 13
109.051724
 23
71.979458
 33
0.0
 14
134.051724
 24
71.979458
 34
0.0
1001
ACAD
1000
DSTYLE
1002
{
1070
     7
1000
FXTIP_ARROW_E
1070
     6
1000
FXTIP_ARROW_S
1070
   173
1070
     1
1002
}
  0
ARC
  5
196
330
1F
100
AcDbEntity
  8
LAYERGROUP-1
  6
CONTINUOUS
 62
     3
100
AcDbCircle
 10
121.551724
 20
17.357657
 30
0.0
 40
116.0523426889993
100
AcDbArc
 50
91.634629
 51
97.527019
  0
LINE
  5
197
330
1F
100
AcDbEntity
  8
LAYERGROUP-1
  6
CONTINUOUS
 62
     3
100
AcDbLine
 10
136.551724
 20
105.0
 30
0.0
 11
137.551724
 21
105.0
 31
0.0
  0
LINE
  5
198
330
1F
100
AcDbEntity
  8
LAYERGROUP-1
  6
CONTINUOUS
 62
     3
100
AcDbLine
 10
136.551724
 20
97.0
 30
0.0
 11
137.551724
 21
97.0
 31
0.0
  0
LINE
  5
199
330
1F
100
AcDbEntity
  8
LAYERGROUP-1
  6
CENTER
 62
     6
100
AcDbLine
 10
121.551724
 20
150.818777
 30
0.0
 11
121.551724
 21
65.577189
 31
0.0
  0
DIMENSION
  5
19A
330
1F
100
AcDbEntity
  8
LAYERGROUP-1
100
AcDbDimension
  2
*D27
 10
152.57863
 20
133.5
 30
0.0
 11
151.578629
 21
101.0
 31
0.0
 70
    33
  3
FXDIMINFO
100
AcDbAlignedDimension
 13
121.551724
 23
68.5
 33
0.0
 14
121.551724
 24
133.5
 34
0.0
1001
ACAD
1000
DSTYLE
1002
{
1070
     7
1000
FXTIP_ARROW_E
1070
     6
1000
FXTIP_ARROW_S
1070
   173
1070
     1
1002
}
  0
ARC
  5
1A4
330
1F
100
AcDbEntity
  8
LAYERGROUP-1
  6
CONTINUOUS
 62
     3
100
AcDbCircle
 10
265.217047
 20
121.505342
 30
0.0
 40
12.0
100
AcDbArc
 50
82.772674
 51
138.797562
  0
ARC
  5
1A5
330
1F
100
AcDbEntity
  8
LAYERGROUP-1
  6
CONTINUOUS
 62
     6
100
AcDbCircle
 10
243.051724
 20
117.31
 30
0.0
 40
17.0
100
AcDbArc
 50
180.0
 51
244.132454
  0
LINE
  5
1A6
330
1F
100
AcDbEntity
  8
LAYERGROUP-1
  6
CONTINUOUS
 62
     6
100
AcDbLine
 10
226.051724
 20
136.628476
 30
0.0
 11
226.051724
 21
117.31
 31
0.0
  0
LINE
  5
1A7
330
1F
100
AcDbEntity
  8
LAYERGROUP-1
  6
CONTINUOUS
 62
     3
100
AcDbLine
 10
146.526724
 20
136.91
 30
0.0
 11
146.526724
 21
115.525126
 31
0.0
  0
LINE
  5
1A8
330
1F
100
AcDbEntity
  8
LAYERGROUP-1
  6
CONTINUOUS
 62
     3
100
AcDbLine
 10
142.385933
 20
106.776052
 30
0.0
 11
145.715932
 21
112.513129
 31
0.0
  0
ARC
  5
1A9
330
1F
100
AcDbEntity
  8
LAYERGROUP-1
  6
CONTINUOUS
 62
     3
100
AcDbCircle
 10
140.526724
 20
115.525126
 30
0.0
 40
6.0
100
AcDbArc
 50
329.86763
 51
360.0
  0
LINE
  5
1AA
330
1F
100
AcDbEntity
  8
LAYERGROUP-1
  6
CONTINUOUS
 62
     3
100
AcDbLine
 10
96.576724
 20
136.91
 30
0.0
 11
96.576724
 21
115.525126
 31
0.0
  0
LINE
  5
1AB
330
1F
100
AcDbEntity
  8
LAYERGROUP-1
  6
CONTINUOUS
 62
     3
100
AcDbLine
 10
101.651724
 20
105.166554
 30
0.0
 11
97.387516
 21
112.513129
 31
0.0
  0
ARC
  5
1AC
330
1F
100
AcDbEntity
  8
LAYERGROUP-1
  6
CONTINUOUS
 62
     3
100
AcDbCircle
 10
102.576724
 20
115.525126
 30
0.0
 40
6.0
100
AcDbArc
 50
180.0
 51
210.13237
  0
LINE
  5
1AD
330
1F
100
AcDbEntity
  8
LAYERGROUP-1
  6
CENTER
 62
     6
100
AcDbLine
 10
271.551724
 20
258.618624
 30
0.0
 11
271.551724
 21
245.102005
 31
0.0
  0
LINE
  5
1AE
330
1F
100
AcDbEntity
  8
LAYERGROUP-1
  6
CENTER
 62
     6
100
AcDbLine
 10
277.846394
 20
251.402985
 30
0.0
 11
265.461122
 21
251.402985
 31
0.0
  0
LINE
  5
1AF
330
1F
100
AcDbEntity
  8
LAYERGROUP-1
  6
CENTER
 62
     6
100
AcDbLine
 10
216.551724
 20
258.618624
 30
0.0
 11
216.551724
 21
245.102005
 31
0.0
  0
LINE
  5
1B0
330
1F
100
AcDbEntity
  8
LAYERGROUP-1
  6
CENTER
 62
     6
100
AcDbLine
 10
210.257055
 20
251.402985
 30
0.0
 11
222.642327
 21
251.402985
 31
0.0
  0
LINE
  5
1B1
330
1F
100
AcDbEntity
  8
LAYERGROUP-1
  6
CENTER
 62
     6
100
AcDbLine
 10
271.551724
 20
202.187346
 30
0.0
 11
271.551724
 21
215.703965
 31
0.0
  0
LINE
  5
1B2
330
1F
100
AcDbEntity
  8
LAYERGROUP-1
  6
CENTER
 62
     6
100
AcDbLine
 10
277.846394
 20
209.402985
 30
0.0
 11
265.461122
 21
209.402985
 31
0.0
  0
LINE
  5
1B3
330
1F
100
AcDbEntity
  8
LAYERGROUP-1
  6
CENTER
 62
     6
100
AcDbLine
 10
216.551724
 20
202.187346
 30
0.0
 11
216.551724
 21
215.703965
 31
0.0
  0
LINE
  5
1B4
330
1F
100
AcDbEntity
  8
LAYERGROUP-1
  6
CENTER
 62
     6
100
AcDbLine
 10
210.257055
 20
209.402985
 30
0.0
 11
222.642327
 21
209.402985
 31
0.0
  0
LINE
  5
1B5
330
1F
100
AcDbEntity
  8
LAYERGROUP-1
  6
CENTER
 62
     6
100
AcDbLine
 10
271.551724
 20
151.411404
 30
0.0
 11
271.551724
 21
143.258449
 31
0.0
  0
LINE
  5
1B6
330
1F
100
AcDbEntity
  8
LAYERGROUP-1
  6
CENTER
 62
     6
100
AcDbLine
 10
216.551724
 20
151.411404
 30
0.0
 11
216.551724
 21
143.258449
 31
0.0
  0
LINE
  5
1B7
330
1F
100
AcDbEntity
  8
LAYERGROUP-1
  6
CENTER
 62
     6
100
AcDbLine
 10
100.551724
 20
150.818777
 30
0.0
 11
100.551724
 21
143.258449
 31
0.0
  0
LINE
  5
1B8
330
1F
100
AcDbEntity
  8
LAYERGROUP-1
  6
CENTER
 62
     6
100
AcDbLine
 10
142.551724
 20
150.818777
 30
0.0
 11
142.551724
 21
143.258449
 31
0.0
  0
DIMENSION
  5
1B9
330
1F
100
AcDbEntity
  8
LAYERGROUP-1
100
AcDbDimension
  2
*D28
 10
295.108273
 20
251.402985
 30
0.0
 11
294.108276
 21
230.402985
 31
0.0
 70
    33
  3
FXDIMINFO
100
AcDbAlignedDimension
 13
277.846394
 23
209.402985
 33
0.0
 14
277.846394
 24
251.402985
 34
0.0
1001
ACAD
1000
DSTYLE
1002
{
1070
     7
1000
FXTIP_ARROW_E
1070
     6
1000
FXTIP_ARROW_S
1070
   173
1070
     1
1002
}
  0
DIMENSION
  5
1C3
330
1F
100
AcDbEntity
  8
LAYERGROUP-1
100
AcDbDimension
  2
*D29
 10
305.108273
 20
259.402985
 30
0.0
 11
304.108276
 21
230.402985
 31
0.0
 70
    33
  3
FXDIMINFO
100
AcDbAlignedDimension
 13
271.051724
 23
201.402985
 33
0.0
 14
271.051724
 24
259.402985
 34
0.0
1001
ACAD
1000
DSTYLE
1002
{
1070
     7
1000
FXTIP_ARROW_E
1070
     6
1000
FXTIP_ARROW_S
1070
   173
1070
     1
1002
}
  0
TEXT
  5
1CD
330
1F
100
AcDbEntity
  8
LAYERGROUP-1
  6
CONTINUOUS
 62
     7
100
AcDbText
 10
255.000015
 20
12.000001
 30
0.0
 40
6.0
  1
TE23A0UAA-C01
 41
0.730924
  7
FX_VECTOR
 72
     5
 11
307.000015
 21
12.000001
 31
0.0
100
AcDbText
  0
INSERT
  5
1D1
330
1F
100
AcDbEntity
  8
0
100
AcDbBlockReference
  2
BLKF032
 10
0.0
 20
0.0
 30
0.0
  0
INSERT
  5
1FF
330
1F
100
AcDbEntity
  8
0
100
AcDbBlockReference
  2
BLKF035
 10
0.0
 20
0.0
 30
0.0
  0
INSERT
  5
21C
330
1F
100
AcDbEntity
  8
0
100
AcDbBlockReference
  2
BLKF036
 10
0.0
 20
0.0
 30
0.0
  0
ARC
  5
274
330
1F
100
AcDbEntity
  8
GR1-1
  6
CONTINUOUS
 62
     3
100
AcDbCircle
 10
223.051724
 20
101.0
 30
0.0
 40
32.5
100
AcDbArc
 50
-264.164749
 51
36.175592
  0
TEXT
  5
275
330
1F
100
AcDbEntity
  8
GR1-1
  6
CONTINUOUS
 62
     7
100
AcDbText
 10
243.844498
 20
98.569733
 30
0.0
 40
3.429564
  1
X
 50
259.0
 41
1.12305
  7
FX_VECTOR
 72
     5
 11
243.249567
 21
95.509079
 31
0.0
100
AcDbText
  0
TEXT
  5
276
330
1F
100
AcDbEntity
  8
GR1-1
  6
CONTINUOUS
 62
     7
100
AcDbText
 10
243.106644
 20
94.996033
 30
0.0
 40
3.429564
  1
2
 50
249.0
 41
1.12305
  7
FX_VECTOR
 72
     5
 11
241.989274
 21
92.085186
 31
0.0
100
AcDbText
  0
TEXT
  5
277
330
1F
100
AcDbEntity
  8
GR1-1
  6
CONTINUOUS
 62
     7
100
AcDbText
 10
241.759354
 20
91.604736
 30
0.0
 40
3.429564
  1
5
 50
239.0
 41
1.12305
  7
FX_VECTOR
 72
     5
 11
240.153496
 21
88.932141
 31
0.0
100
AcDbText
  0
TEXT
  5
278
330
1F
100
AcDbEntity
  8
GR1-1
  6
CONTINUOUS
 62
     7
100
AcDbText
 10
243.950638
 20
102.2173
 30
0.0
 40
3.429564
  1
5
 50
269.0
 41
1.12305
  7
FX_VECTOR
 72
     5
 11
243.896222
 21
99.099836
 31
0.0
100
AcDbText
  0
TEXT
  5
279
330
1F
100
AcDbEntity
  8
GR1-1
  6
CONTINUOUS
 62
     7
100
AcDbText
 10
243.421768
 20
105.827866
 30
0.0
 40
3.429564
  1
6
 50
279.0
 41
1.12305
  7
FX_VECTOR
 72
     5
 11
243.909521
 21
102.748314
 31
0.0
100
AcDbText
  0
LINE
  5
27A
330
1F
100
AcDbEntity
  8
GR1-1
  6
CONTINUOUS
 62
     7
100
AcDbLine
 10
213.900678
 20
116.572964
 30
0.0
 11
209.304411
 21
112.716238
 31
0.0
  0
LINE
  5
27B
330
1F
100
AcDbEntity
  8
GR1-1
  6
CONTINUOUS
 62
     7
100
AcDbLine
 10
209.304411
 20
112.716238
 30
0.0
 11
205.447685
 21
117.312505
 31
0.0
  0
LINE
  5
27C
330
1F
100
AcDbEntity
  8
GR1-1
  6
CONTINUOUS
 62
     7
100
AcDbLine
 10
205.447685
 20
117.312505
 30
0.0
 11
210.043952
 21
121.169231
 31
0.0
  0
LINE
  5
27D
330
1F
100
AcDbEntity
  8
GR1-1
  6
CONTINUOUS
 62
     7
100
AcDbLine
 10
210.043952
 20
121.169231
 30
0.0
 11
213.900678
 21
116.572964
 31
0.0
  0
LINE
  5
27E
330
1F
100
AcDbEntity
  8
GR1-1
  6
CONTINUOUS
 62
     7
100
AcDbLine
 10
213.142091
 20
117.210093
 30
0.0
 11
211.840882
 21
118.760812
 31
0.0
  0
LINE
  5
27F
330
1F
100
AcDbEntity
  8
GR1-1
  6
CONTINUOUS
 62
     7
100
AcDbLine
 10
211.840882
 20
118.760812
 30
0.0
 11
209.674182
 21
116.942734
 31
0.0
  0
LINE
  5
280
330
1F
100
AcDbEntity
  8
GR1-1
  6
CONTINUOUS
 62
     7
100
AcDbLine
 10
209.674182
 20
116.942734
 30
0.0
 11
209.995575
 21
116.559712
 31
0.0
  0
LINE
  5
281
330
1F
100
AcDbEntity
  8
GR1-1
  6
CONTINUOUS
 62
     7
100
AcDbLine
 10
209.995575
 20
116.559712
 30
0.0
 11
210.510964
 21
116.992175
 31
0.0
  0
ARC
  5
282
330
1F
100
AcDbEntity
  8
GR1-1
  6
CONTINUOUS
 62
     7
100
AcDbCircle
 10
210.575243
 20
116.91557
 30
0.0
 40
0.1
100
AcDbArc
 50
-5.0
 51
130.0
  0
LINE
  5
283
330
1F
100
AcDbEntity
  8
GR1-1
  6
CONTINUOUS
 62
     7
100
AcDbLine
 10
210.674862
 20
116.906855
 30
0.0
 11
210.58322
 21
115.859384
 31
0.0
  0
LINE
  5
284
330
1F
100
AcDbEntity
  8
GR1-1
  6
CONTINUOUS
 62
     7
100
AcDbLine
 10
210.58322
 20
115.859384
 30
0.0
 11
208.590831
 21
116.033696
 31
0.0
  0
LINE
  5
285
330
1F
100
AcDbEntity
  8
GR1-1
  6
CONTINUOUS
 62
     7
100
AcDbLine
 10
208.590831
 20
116.033696
 30
0.0
 11
208.765143
 21
118.026085
 31
0.0
  0
LINE
  5
286
330
1F
100
AcDbEntity
  8
GR1-1
  6
CONTINUOUS
 62
     7
100
AcDbLine
 10
208.765143
 20
118.026085
 30
0.0
 11
210.334882
 21
117.88875
 31
0.0
  0
LINE
  5
287
330
1F
100
AcDbEntity
  8
GR1-1
  6
CONTINUOUS
 62
     7
100
AcDbLine
 10
210.334882
 20
117.88875
 30
0.0
 11
211.418233
 21
118.797789
 31
0.0
  0
LINE
  5
288
330
1F
100
AcDbEntity
  8
GR1-1
  6
CONTINUOUS
 62
     7
100
AcDbLine
 10
211.418233
 20
118.797789
 30
0.0
 11
207.856104
 21
119.109435
 31
0.0
  0
LINE
  5
289
330
1F
100
AcDbEntity
  8
GR1-1
  6
CONTINUOUS
 62
     7
100
AcDbLine
 10
207.856104
 20
119.109435
 30
0.0
 11
207.507481
 21
115.124657
 31
0.0
  0
LINE
  5
28A
330
1F
100
AcDbEntity
  8
GR1-1
  6
CONTINUOUS
 62
     7
100
AcDbLine
 10
207.507481
 20
115.124657
 30
0.0
 11
211.492259
 21
114.776034
 31
0.0
  0
LINE
  5
28B
330
1F
100
AcDbEntity
  8
GR1-1
  6
CONTINUOUS
 62
     7
100
AcDbLine
 10
211.492259
 20
114.776034
 30
0.0
 11
211.696584
 21
117.111478
 31
0.0
  0
LINE
  5
28C
330
1F
100
AcDbEntity
  8
GR1-1
  6
CONTINUOUS
 62
     7
100
AcDbLine
 10
211.872808
 20
117.167041
 30
0.0
 11
212.376046
 21
116.567305
 31
0.0
  0
LINE
  5
28D
330
1F
100
AcDbEntity
  8
GR1-1
  6
CONTINUOUS
 62
     7
100
AcDbLine
 10
212.376046
 20
116.567305
 30
0.0
 11
213.142091
 21
117.210093
 31
0.0
  0
ARC
  5
28E
330
1F
100
AcDbEntity
  8
GR1-1
  6
CONTINUOUS
 62
     7
100
AcDbCircle
 10
211.796204
 20
117.102762
 30
0.0
 40
0.1
100
AcDbArc
 50
40.0
 51
175.0
  0
ARC
  5
28F
330
1F
100
AcDbEntity
  8
GR1-1
  6
CONTINUOUS
 62
     6
100
AcDbCircle
 10
223.051724
 20
101.0
 30
0.0
 40
27.5
100
AcDbArc
 50
-260.161063
 51
32.956439
  0
ARC
  5
290
330
1F
100
AcDbEntity
  8
GR1-1
  6
CONTINUOUS
 62
     6
100
AcDbCircle
 10
223.051724
 20
101.0
 30
0.0
 40
26.249999999979
100
AcDbArc
 50
-259.162116
 51
31.946906
  0
ARC
  5
291
330
1F
100
AcDbEntity
  8
GR1-1
  6
CONTINUOUS
 62
     6
100
AcDbCircle
 10
242.557094
 20
111.705282
 30
0.0
 40
4.0
100
AcDbArc
 50
28.759639
 51
48.762671
  0
ARC
  5
292
330
1F
100
AcDbEntity
  8
GR1-1
  6
CONTINUOUS
 62
     6
100
AcDbCircle
 10
218.897887
 20
122.858823
 30
0.0
 40
4.0
100
AcDbArc
 50
100.759639
 51
169.363292
  0
ARC
  5
293
330
1F
100
AcDbEntity
  8
GR1-1
  6
CONTINUOUS
 62
     6
100
AcDbCircle
 10
223.051724
 20
101.0
 30
0.0
 40
24.0
100
AcDbArc
 50
109.686866
 51
161.390459
  0
ARC
  5
294
330
1F
100
AcDbEntity
  8
GR1-1
  6
CONTINUOUS
 62
     6
100
AcDbCircle
 10
200.979142
 20
103.804214
 30
0.0
 40
4.0
100
AcDbArc
 50
172.759639
 51
241.363292
  0
ARC
  5
295
330
1F
100
AcDbEntity
  8
GR1-1
  6
CONTINUOUS
 62
     6
100
AcDbCircle
 10
223.051724
 20
101.0
 30
0.0
 40
24.0
100
AcDbArc
 50
181.686866
 51
233.390459
  0
ARC
  5
296
330
1F
100
AcDbEntity
  8
GR1-1
  6
CONTINUOUS
 62
     6
100
AcDbCircle
 10
213.563955
 20
80.874277
 30
0.0
 40
4.0
100
AcDbArc
 50
244.759639
 51
313.363292
  0
ARC
  5
297
330
1F
100
AcDbEntity
  8
GR1-1
  6
CONTINUOUS
 62
     6
100
AcDbCircle
 10
223.051724
 20
101.0
 30
0.0
 40
24.0
100
AcDbArc
 50
253.686866
 51
305.390459
  0
ARC
  5
298
330
1F
100
AcDbEntity
  8
GR1-1
  6
CONTINUOUS
 62
     6
100
AcDbCircle
 10
239.260543
 20
85.757405
 30
0.0
 40
4.0
100
AcDbArc
 50
-43.240361
 51
25.363292
  0
ARC
  5
299
330
1F
100
AcDbEntity
  8
GR1-1
  6
CONTINUOUS
 62
     6
100
AcDbCircle
 10
223.051724
 20
101.0
 30
0.0
 40
11.0
100
AcDbArc
 50
134.03279
 51
356.028234
  0
ARC
  5
29A
330
1F
100
AcDbEntity
  8
GR1-1
  6
CONTINUOUS
 62
     6
100
AcDbCircle
 10
208.527925
 20
145.699656
 30
0.0
 40
53.0
100
AcDbArc
 50
298.598994
 51
317.667132
  0
ARC
  5
29B
330
1F
100
AcDbEntity
  8
GR1-1
  6
CONTINUOUS
 62
     6
100
AcDbCircle
 10
223.051724
 20
101.0
 30
0.0
 40
13.0
100
AcDbArc
 50
124.027609
 51
141.347422
  0
LINE
  5
29C
330
1F
100
AcDbEntity
  8
GR1-1
  6
CONTINUOUS
 62
     6
100
AcDbLine
 10
213.869864
 20
107.057511
 30
0.0
 11
210.36099
 21
101.738826
 31
0.0
  0
ARC
  5
29D
330
1F
100
AcDbEntity
  8
GR1-1
  6
CONTINUOUS
 62
     6
100
AcDbCircle
 10
223.051724
 20
101.0
 30
0.0
 40
13.0
100
AcDbArc
 50
178.045387
 51
213.347422
  0
LINE
  5
29E
330
1F
100
AcDbEntity
  8
GR1-1
  6
CONTINUOUS
 62
     6
100
AcDbLine
 10
214.453338
 20
94.139406
 30
0.0
 11
218.427406
 21
89.158704
 31
0.0
  0
ARC
  5
29F
330
1F
100
AcDbEntity
  8
GR1-1
  6
CONTINUOUS
 62
     6
100
AcDbCircle
 10
223.051724
 20
101.0
 30
0.0
 40
13.0
100
AcDbArc
 50
250.045387
 51
285.347422
  0
LINE
  5
2A0
330
1F
100
AcDbEntity
  8
GR1-1
  6
CONTINUOUS
 62
     6
100
AcDbLine
 10
226.91949
 20
90.702409
 30
0.0
 11
232.884473
 21
92.942851
 31
0.0
  0
ARC
  5
2A1
330
1F
100
AcDbEntity
  8
GR1-1
  6
CONTINUOUS
 62
     6
100
AcDbCircle
 10
223.051724
 20
101.0
 30
0.0
 40
13.0
100
AcDbArc
 50
322.045387
 51
357.347422
  0
ARC
  5
2A2
330
1F
100
AcDbEntity
  8
GR1-1
  6
CONTINUOUS
 62
     6
100
AcDbCircle
 10
176.051724
 20
101.0
 30
0.0
 40
45.0
100
AcDbArc
 50
24.675323
 51
30.14293
  0
ARC
  5
2A3
330
1F
100
AcDbEntity
  8
GR1-1
  6
CONTINUOUS
 62
     6
100
AcDbCircle
 10
208.527925
 20
56.300344
 30
0.0
 40
53.0
100
AcDbArc
 50
82.598994
 51
101.667132
  0
ARC
  5
2A4
330
1F
100
AcDbEntity
  8
GR1-1
  6
CONTINUOUS
 62
     6
100
AcDbCircle
 10
208.527925
 20
56.300344
 30
0.0
 40
45.0
100
AcDbArc
 50
88.756398
 51
102.14293
  0
ARC
  5
2A5
330
1F
100
AcDbEntity
  8
GR1-1
  6
CONTINUOUS
 62
     6
100
AcDbCircle
 10
209.526275
 20
102.289509
 30
0.0
 40
1.0
100
AcDbArc
 50
268.756398
 51
326.586131
  0
ARC
  5
2A6
330
1F
100
AcDbEntity
  8
GR1-1
  6
CONTINUOUS
 62
     6
100
AcDbCircle
 10
261.075523
 20
73.374093
 30
0.0
 40
53.0
100
AcDbArc
 50
154.598994
 51
173.667132
  0
ARC
  5
2A7
330
1F
100
AcDbEntity
  8
GR1-1
  6
CONTINUOUS
 62
     6
100
AcDbCircle
 10
261.075523
 20
73.374093
 30
0.0
 40
45.0
100
AcDbArc
 50
160.756398
 51
174.14293
  0
ARC
  5
2A8
330
1F
100
AcDbEntity
  8
GR1-1
  6
CONTINUOUS
 62
     6
100
AcDbCircle
 10
217.645735
 20
88.535014
 30
0.0
 40
1.0
100
AcDbArc
 50
-19.243602
 51
38.586131
  0
ARC
  5
2A9
330
1F
100
AcDbEntity
  8
GR1-1
  6
CONTINUOUS
 62
     6
100
AcDbCircle
 10
261.075523
 20
128.625907
 30
0.0
 40
53.0
100
AcDbArc
 50
226.598994
 51
245.667132
  0
ARC
  5
2AA
330
1F
100
AcDbEntity
  8
GR1-1
  6
CONTINUOUS
 62
     6
100
AcDbCircle
 10
261.075523
 20
128.625907
 30
0.0
 40
45.0
100
AcDbArc
 50
232.756398
 51
246.14293
  0
ARC
  5
2AB
330
1F
100
AcDbEntity
  8
GR1-1
  6
CONTINUOUS
 62
     6
100
AcDbCircle
 10
233.236088
 20
92.006706
 30
0.0
 40
1.0
100
AcDbArc
 50
52.756398
 51
110.586131
  0
ARC
  5
2AC
330
1F
100
AcDbEntity
  8
GR1-1
  6
CONTINUOUS
 62
     3
100
AcDbCircle
 10
193.261686
 20
219.902985
 30
0.0
 40
2.0
100
AcDbArc
 50
187.73638
 51
270.0
  0
ARC
  5
2AD
330
1F
100
AcDbEntity
  8
GR1-1
  6
CONTINUOUS
 62
     3
100
AcDbCircle
 10
193.261686
 20
240.902985
 30
0.0
 40
2.0
100
AcDbArc
 50
90.0
 51
172.26362
  0
ARC
  5
2AE
330
1F
100
AcDbEntity
  8
GR1-1
  6
CONTINUOUS
 62
     3
100
AcDbCircle
 10
270.551724
 20
230.402985
 30
0.0
 40
80.0
100
AcDbArc
 50
172.26362
 51
187.73638
  0
LINE
  5
2AF
330
1F
100
AcDbEntity
  8
GR1-1
  6
CONTINUOUS
 62
     3
100
AcDbLine
 10
210.611535
 20
242.902985
 30
0.0
 11
193.261686
 21
242.902985
 31
0.0
  0
LINE
  5
2B0
330
1F
100
AcDbEntity
  8
GR1-1
  6
CONTINUOUS
 62
     3
100
AcDbLine
 10
210.611535
 20
217.902985
 30
0.0
 11
193.261686
 21
217.902985
 31
0.0
  0
ENDSEC
  0
SECTION
  2
OBJECTS
  0
DICTIONARY
  5
C
330
0
100
AcDbDictionary
  3
ACAD_GROUP
350
D
  3
ACAD_LAYOUT
350
1A
  3
ACAD_MLINESTYLE
350
17
  3
ACAD_PLOTSETTINGS
350
19
  3
ACDBHEADERROUNDTRIPXREC
350
2B1
  0
DICTIONARY
  5
D
102
{ACAD_REACTORS
330
C
102
}
330
C
100
AcDbDictionary
  0
DICTIONARY
  5
1A
102
{ACAD_REACTORS
330
C
102
}
330
C
100
AcDbDictionary
  0
DICTIONARY
  5
17
102
{ACAD_REACTORS
330
C
102
}
330
C
100
AcDbDictionary
  3
STANDARD
350
18
  0
DICTIONARY
  5
19
102
{ACAD_REACTORS
330
C
102
}
330
C
100
AcDbDictionary
  0
DICTIONARY
  5
2B1
102
{ACAD_REACTORS
330
C
102
}
330
C
100
AcDbDictionary
  3
CEPSNTYPE
350
2BA
  3
DIMSTYLEDATA
350
2D0
  3
FINGERPRINTGUID
350
2BB
  3
HYPERLINKBASE
350
2B4
  3
INSUNITS
350
2B9
  3
LAYOUTDICT
350
2B6
  3
LWETCUNION
350
2B8
  3
PLOTSETDICT
350
2B7
  3
PSVPSCALE
350
2BD
  3
PUCSBASE
350
2C0
  3
PUCSORGBACK
350
2C6
  3
PUCSORGBOTTOM
350
2C2
  3
PUCSORGFRONT
350
2C5
  3
PUCSORGLEFT
350
2C3
  3
PUCSORGRIGHT
350
2C4
  3
PUCSORGTOP
350
2C1
  3
PUCSORTHOREF
350
2BE
  3
PUCSORTHOVIEW
350
2BF
  3
STYLESHEET
350
2B5
  3
TSTACKALIGN
350
2B2
  3
TSTACKSIZE
350
2B3
  3
UCSBASE
350
2C9
  3
UCSORGBACK
350
2CF
  3
UCSORGBOTTOM
350
2CB
  3
UCSORGFRONT
350
2CE
  3
UCSORGLEFT
350
2CC
  3
UCSORGRIGHT
350
2CD
  3
UCSORGTOP
350
2CA
  3
UCSORTHOREF
350
2C7
  3
UCSORTHOVIEW
350
2C8
  3
VERSIONGUID
350
2BC
  0
MLINESTYLE
  5
18
102
{ACAD_REACTORS
330
17
102
}
330
17
100
AcDbMlineStyle
  2
Standard
 70
     0
  3

 62
   256
 51
90.0
 52
90.0
 71
     2
 49
0.5
 62
   256
  6
BYLAYER
 49
-0.5
 62
   256
  6
BYLAYER
  0
XRECORD
  5
2BA
102
{ACAD_REACTORS
330
2B1
102
}
330
2B1
100
AcDbXrecord
 90
        0
  0
XRECORD
  5
2D0
102
{ACAD_REACTORS
330
2B1
102
}
330
2B1
100
AcDbXrecord
1000
DSTYLE
1002
{
1070
   179
 70
     2
1070
   171
 70
     3
1070
   143
 40
0.03937
1070
   274
 70
     3
1070
    41
 40
4.0
1070
   343
340
41
1070
   344
340
47
1070
   141
 40
2.5
1070
   176
 70
     7
1070
   177
 70
     7
1070
   178
 70
     7
1070
   271
 70
     2
1070
    46
 40
6.0
1070
    43
 40
10.0
1070
    44
 40
1.0
1070
    42
 40
1.0
1070
   147
 40
1.0
1070
   341
340
41
1070
   173
 70
     1
1070
    77
 70
     1
1070
   272
 70
     2
1070
    73
 70
     0
1070
   172
 70
     1
1070
    74
 70
     0
1070
   283
 70
     0
1070
   340
340
3F
1070
   140
 40
4.0
1070
   284
 70
     8
1070
    78
 70
     8
1002
}
  0
XRECORD
  5
2BB
102
{ACAD_REACTORS
330
2B1
102
}
330
2B1
100
AcDbXrecord
  1
{6BA3DE41-0CC3-4AB2-B9D4-0DF35851692A}
  0
XRECORD
  5
2B4
102
{ACAD_REACTORS
330
2B1
102
}
330
2B1
100
AcDbXrecord
  1

  0
XRECORD
  5
2B9
102
{ACAD_REACTORS
330
2B1
102
}
330
2B1
100
AcDbXrecord
 90
        1
  0
XRECORD
  5
2B6
102
{ACAD_REACTORS
330
2B1
102
}
330
2B1
100
AcDbXrecord
340
1A
  0
XRECORD
  5
2B8
102
{ACAD_REACTORS
330
2B1
102
}
330
2B1
100
AcDbXrecord
 90
    10781
  0
XRECORD
  5
2B7
102
{ACAD_REACTORS
330
2B1
102
}
330
2B1
100
AcDbXrecord
340
19
  0
XRECORD
  5
2BD
102
{ACAD_REACTORS
330
2B1
102
}
330
2B1
100
AcDbXrecord
 40
0.0
  0
XRECORD
  5
2C0
102
{ACAD_REACTORS
330
2B1
102
}
330
2B1
100
AcDbXrecord
340
0
  0
XRECORD
  5
2C6
102
{ACAD_REACTORS
330
2B1
102
}
330
2B1
100
AcDbXrecord
 10
0.0
 20
0.0
 30
0.0
  0
XRECORD
  5
2C2
102
{ACAD_REACTORS
330
2B1
102
}
330
2B1
100
AcDbXrecord
 10
0.0
 20
0.0
 30
0.0
  0
XRECORD
  5
2C5
102
{ACAD_REACTORS
330
2B1
102
}
330
2B1
100
AcDbXrecord
 10
0.0
 20
0.0
 30
0.0
  0
XRECORD
  5
2C3
102
{ACAD_REACTORS
330
2B1
102
}
330
2B1
100
AcDbXrecord
 10
0.0
 20
0.0
 30
0.0
  0
XRECORD
  5
2C4
102
{ACAD_REACTORS
330
2B1
102
}
330
2B1
100
AcDbXrecord
 10
0.0
 20
0.0
 30
0.0
  0
XRECORD
  5
2C1
102
{ACAD_REACTORS
330
2B1
102
}
330
2B1
100
AcDbXrecord
 10
0.0
 20
0.0
 30
0.0
  0
XRECORD
  5
2BE
102
{ACAD_REACTORS
330
2B1
102
}
330
2B1
100
AcDbXrecord
340
0
  0
XRECORD
  5
2BF
102
{ACAD_REACTORS
330
2B1
102
}
330
2B1
100
AcDbXrecord
 70
     0
  0
XRECORD
  5
2B5
102
{ACAD_REACTORS
330
2B1
102
}
330
2B1
100
AcDbXrecord
  1

  0
XRECORD
  5
2B2
102
{ACAD_REACTORS
330
2B1
102
}
330
2B1
100
AcDbXrecord
 90
        1
  0
XRECORD
  5
2B3
102
{ACAD_REACTORS
330
2B1
102
}
330
2B1
100
AcDbXrecord
 90
       70
  0
XRECORD
  5
2C9
102
{ACAD_REACTORS
330
2B1
102
}
330
2B1
100
AcDbXrecord
340
0
  0
XRECORD
  5
2CF
102
{ACAD_REACTORS
330
2B1
102
}
330
2B1
100
AcDbXrecord
 10
0.0
 20
0.0
 30
0.0
  0
XRECORD
  5
2CB
102
{ACAD_REACTORS
330
2B1
102
}
330
2B1
100
AcDbXrecord
 10
0.0
 20
0.0
 30
0.0
  0
XRECORD
  5
2CE
102
{ACAD_REACTORS
330
2B1
102
}
330
2B1
100
AcDbXrecord
 10
0.0
 20
0.0
 30
0.0
  0
XRECORD
  5
2CC
102
{ACAD_REACTORS
330
2B1
102
}
330
2B1
100
AcDbXrecord
 10
0.0
 20
0.0
 30
0.0
  0
XRECORD
  5
2CD
102
{ACAD_REACTORS
330
2B1
102
}
330
2B1
100
AcDbXrecord
 10
0.0
 20
0.0
 30
0.0
  0
XRECORD
  5
2CA
102
{ACAD_REACTORS
330
2B1
102
}
330
2B1
100
AcDbXrecord
 10
0.0
 20
0.0
 30
0.0
  0
XRECORD
  5
2C7
102
{ACAD_REACTORS
330
2B1
102
}
330
2B1
100
AcDbXrecord
340
0
  0
XRECORD
  5
2C8
102
{ACAD_REACTORS
330
2B1
102
}
330
2B1
100
AcDbXrecord
 70
     0
  0
XRECORD
  5
2BC
102
{ACAD_REACTORS
330
2B1
102
}
330
2B1
100
AcDbXrecord
  1
{FAEB1C32-E019-11D5-929B-00C0DF256EC4}
  0
ENDSEC
  0
EOF
