  0
SECTION
  2
HEADER
  9
$ACADVER
  1
AC1014
  9
$ACADMAINTVER
 70
     9
  9
$DWGCODEPAGE
  3
ANSI_932
  9
$INSBASE
 10
0.0
 20
0.0
 30
0.0
  9
$EXTMIN
 10
0.0
 20
0.0
 30
0.0
  9
$EXTMAX
 10
297.0
 20
210.0
 30
0.0
  9
$LIMMIN
 10
0.0
 20
0.0
  9
$LIMMAX
 10
297.0
 20
210.0
  9
$ORTHOMODE
 70
     0
  9
$REGENMODE
 70
     1
  9
$FILLMODE
 70
     1
  9
$QTEXTMODE
 70
     0
  9
$MIRRTEXT
 70
     1
  9
$DRAGMODE
 70
     2
  9
$LTSCALE
 40
1.0
  9
$OSMODE
 70
    37
  9
$ATTMODE
 70
     1
  9
$TEXTSIZE
 40
0.2
  9
$TRACEWID
 40
0.05
  9
$TEXTSTYLE
  7
STYLE1
  9
$CLAYER
  8
0
  9
$CELTYPE
  6
BYLAYER
  9
$CECOLOR
 62
   256
  9
$CELTSCALE
 40
1.0
  9
$DELOBJ
 70
     1
  9
$DISPSILH
 70
     0
  9
$DIMSCALE
 40
1.0
  9
$DIMASZ
 40
3.0
  9
$DIMEXO
 40
1.0
  9
$DIMDLI
 40
8.0
  9
$DIMRND
 40
0.0
  9
$DIMDLE
 40
6.0
  9
$DIMEXE
 40
1.0
  9
$DIMTP
 40
0.0
  9
$DIMTM
 40
0.0
  9
$DIMTXT
 40
4.0
  9
$DIMCEN
 40
2.5
  9
$DIMTSZ
 40
0.0
  9
$DIMTOL
 70
     0
  9
$DIMLIM
 70
     0
  9
$DIMTIH
 70
     0
  9
$DIMTOH
 70
     0
  9
$DIMSE1
 70
     0
  9
$DIMSE2
 70
     0
  9
$DIMTAD
 70
     1
  9
$DIMZIN
 70
     8
  9
$DIMBLK
  1

  9
$DIMASO
 70
     1
  9
$DIMSHO
 70
     1
  9
$DIMPOST
  1

  9
$DIMAPOST
  1

  9
$DIMALT
 70
     0
  9
$DIMALTD
 70
     3
  9
$DIMALTF
 40
0.03937
  9
$DIMLFAC
 40
1.0
  9
$DIMTOFL
 70
     1
  9
$DIMTVP
 40
0.0
  9
$DIMTIX
 70
     0
  9
$DIMSOXD
 70
     0
  9
$DIMSAH
 70
     1
  9
$DIMBLK1
  1
FXTIP_ARROW_S
  9
$DIMBLK2
  1
FXTIP_ARROW_E
  9
$DIMSTYLE
  2
FXDIMINFO
  9
$DIMCLRD
 70
     7
  9
$DIMCLRE
 70
     7
  9
$DIMCLRT
 70
     7
  9
$DIMTFAC
 40
1.0
  9
$DIMGAP
 40
1.0
  9
$DIMJUST
 70
     0
  9
$DIMSD1
 70
     0
  9
$DIMSD2
 70
     0
  9
$DIMTOLJ
 70
     0
  9
$DIMTZIN
 70
     8
  9
$DIMALTZ
 70
     0
  9
$DIMALTTZ
 70
     0
  9
$DIMFIT
 70
     3
  9
$DIMUPT
 70
     0
  9
$DIMUNIT
 70
     2
  9
$DIMDEC
 70
     2
  9
$DIMTDEC
 70
     2
  9
$DIMALTU
 70
     2
  9
$DIMALTTD
 70
     3
  9
$DIMTXSTY
  7
STYLE1
  9
$DIMAUNIT
 70
     0
  9
$LUNITS
 70
     2
  9
$LUPREC
 70
     4
  9
$SKETCHINC
 40
0.1
  9
$FILLETRAD
 40
0.5
  9
$AUNITS
 70
     0
  9
$AUPREC
 70
     0
  9
$MENU
  1
.
  9
$ELEVATION
 40
0.0
  9
$PELEVATION
 40
0.0
  9
$THICKNESS
 40
0.0
  9
$LIMCHECK
 70
     0
  9
$CHAMFERA
 40
0.5
  9
$CHAMFERB
 40
0.5
  9
$CHAMFERC
 40
1.0
  9
$CHAMFERD
 40
0.0
  9
$SKPOLY
 70
     0
  9
$TDCREATE
 40
2455308.352489595
  9
$TDUPDATE
 40
2455308.352489607
  9
$TDINDWG
 40
0.0000000116
  9
$TDUSRTIMER
 40
0.0000000116
  9
$USRTIMER
 70
     1
  9
$ANGBASE
 50
0.0
  9
$ANGDIR
 70
     0
  9
$PDMODE
 70
     0
  9
$PDSIZE
 40
0.0
  9
$PLINEWID
 40
0.0
  9
$COORDS
 70
     1
  9
$SPLFRAME
 70
     0
  9
$SPLINETYPE
 70
     6
  9
$SPLINESEGS
 70
     8
  9
$ATTDIA
 70
     0
  9
$ATTREQ
 70
     1
  9
$HANDLING
 70
     1
  9
$HANDSEED
  5
351
  9
$SURFTAB1
 70
     6
  9
$SURFTAB2
 70
     6
  9
$SURFTYPE
 70
     6
  9
$SURFU
 70
     6
  9
$SURFV
 70
     6
  9
$UCSNAME
  2

  9
$UCSORG
 10
0.0
 20
0.0
 30
0.0
  9
$UCSXDIR
 10
1.0
 20
0.0
 30
0.0
  9
$UCSYDIR
 10
0.0
 20
1.0
 30
0.0
  9
$PUCSNAME
  2

  9
$PUCSORG
 10
0.0
 20
0.0
 30
0.0
  9
$PUCSXDIR
 10
1.0
 20
0.0
 30
0.0
  9
$PUCSYDIR
 10
0.0
 20
1.0
 30
0.0
  9
$USERI1
 70
     0
  9
$USERI2
 70
     0
  9
$USERI3
 70
     0
  9
$USERI4
 70
     0
  9
$USERI5
 70
     0
  9
$USERR1
 40
0.0
  9
$USERR2
 40
0.0
  9
$USERR3
 40
0.0
  9
$USERR4
 40
0.0
  9
$USERR5
 40
0.0
  9
$WORLDVIEW
 70
     1
  9
$SHADEDGE
 70
     3
  9
$SHADEDIF
 70
    70
  9
$TILEMODE
 70
     1
  9
$MAXACTVP
 70
    64
  9
$PINSBASE
 10
0.0
 20
0.0
 30
0.0
  9
$PLIMCHECK
 70
     0
  9
$PEXTMIN
 10
1.000000E+20
 20
1.000000E+20
 30
1.000000E+20
  9
$PEXTMAX
 10
-1.000000E+20
 20
-1.000000E+20
 30
-1.000000E+20
  9
$PLIMMIN
 10
0.0
 20
0.0
  9
$PLIMMAX
 10
12.0
 20
9.0
  9
$UNITMODE
 70
     0
  9
$VISRETAIN
 70
     1
  9
$PLINEGEN
 70
     0
  9
$PSLTSCALE
 70
     1
  9
$TREEDEPTH
 70
  3020
  9
$PICKSTYLE
 70
     1
  9
$CMLSTYLE
  2
STANDARD
  9
$CMLJUST
 70
     0
  9
$CMLSCALE
 40
1.0
  9
$PROXYGRAPHICS
 70
     1
  9
$MEASUREMENT
 70
     0
  0
ENDSEC
  0
SECTION
  2
CLASSES
  0
CLASS
  1
ACDBDICTIONARYWDFLT
  2
AcDbDictionaryWithDefault
  3
ObjectDBX Classes
 90
        0
280
     0
281
     0
  0
CLASS
  1
XRECORD
  2
AcDbXrecord
  3
AutoCAD 2000
 90
        0
280
     0
281
     0
  0
CLASS
  1
LWPOLYLINE
  2
AcDbPolyline
  3
AutoCAD 2000
 90
        0
280
     0
281
     1
  0
CLASS
  1
HATCH
  2
AcDbHatch
  3
AutoCAD 2000
 90
        0
280
     0
281
     1
  0
CLASS
  1
ACDBPLACEHOLDER
  2
AcDbPlaceHolder
  3
ObjectDBX Classes
 90
        0
280
     0
281
     0
  0
CLASS
  1
LAYOUT
  2
AcDbLayout
  3
ObjectDBX Classes
 90
        0
280
     0
281
     0
  0
ENDSEC
  0
SECTION
  2
TABLES
  0
TABLE
  2
VPORT
  5
8
330
0
100
AcDbSymbolTable
 70
     1
  0
VPORT
  5
29
330
8
100
AcDbSymbolTableRecord
100
AcDbViewportTableRecord
  2
*ACTIVE
 70
     0
 10
0.0
 20
0.0
 11
1.0
 21
1.0
 12
148.5
 22
105.0
 13
0.0
 23
0.0
 14
0.5
 24
0.5
 15
0.5
 25
0.5
 16
0.0
 26
0.0
 36
1.0
 17
0.0
 27
0.0
 37
0.0
 40
210.0
 41
1.414286
 42
50.0
 43
0.0
 44
0.0
 50
0.0
 51
0.0
 71
     0
 72
   100
 73
     1
 74
     3
 75
     0
 76
     0
 77
     0
 78
     0
  0
ENDTAB
  0
TABLE
  2
LTYPE
  5
5
330
0
100
AcDbSymbolTable
 70
     4
  0
LTYPE
  5
14
330
5
100
AcDbSymbolTableRecord
100
AcDbLinetypeTableRecord
  2
BYBLOCK
 70
     0
  3

 72
    65
 73
     0
 40
0.0
  0
LTYPE
  5
15
330
5
100
AcDbSymbolTableRecord
100
AcDbLinetypeTableRecord
  2
BYLAYER
 70
     0
  3

 72
    65
 73
     0
 40
0.0
  0
LTYPE
  5
16
330
5
100
AcDbSymbolTableRecord
100
AcDbLinetypeTableRecord
  2
CONTINUOUS
 70
     0
  3
--------------------
 72
    65
 73
     0
 40
0.0
  0
LTYPE
  5
2A
330
5
100
AcDbSymbolTableRecord
100
AcDbLinetypeTableRecord
  2
CENTER
 70
     0
  3
Center ____ _ ____ _ ____ _ ____ _ ____ _ ____
 72
    65
 73
     4
 40
13.0
 49
10.0
 74
     0
 49
-1.0
 74
     0
 49
1.0
 74
     0
 49
-1.0
 74
     0
  0
LTYPE
  5
2C
330
5
100
AcDbSymbolTableRecord
100
AcDbLinetypeTableRecord
  2
DASHED
 70
     0
  3
Dashed __ __ __ __ __ __ __ __ __ __ __ __ __ _
 72
    65
 73
     2
 40
4.0
 49
3.0
 74
     0
 49
-1.0
 74
     0
  0
ENDTAB
  0
TABLE
  2
LAYER
  5
2
330
0
100
AcDbSymbolTable
 70
    20
  0
LAYER
  5
10
330
2
100
AcDbSymbolTableRecord
100
AcDbLayerTableRecord
  2
0
 70
     0
 62
     7
  6
CONTINUOUS
  0
LAYER
  5
2D
330
2
100
AcDbSymbolTableRecord
100
AcDbLayerTableRecord
  2
LAYERGROUP-1
 70
     0
 62
     3
  6
CONTINUOUS
  0
LAYER
  5
3D
330
2
100
AcDbSymbolTableRecord
100
AcDbLayerTableRecord
  2
}}ﾊﾊGG血CCТ
 70
     0
 62
     3
  6
CONTINUOUS
  0
LAYER
  5
A9
330
2
100
AcDbSymbolTableRecord
100
AcDbLayerTableRecord
  2
GR1-1
 70
     0
 62
     7
  6
CONTINUOUS
  0
LAYER
  5
195
330
2
100
AcDbSymbolTableRecord
100
AcDbLayerTableRecord
  2
0-1
 70
     0
 62
     7
  6
CONTINUOUS
  0
ENDTAB
  0
TABLE
  2
STYLE
  5
3
330
0
100
AcDbSymbolTable
 70
     4
  0
STYLE
  5
11
330
3
100
AcDbSymbolTableRecord
100
AcDbTextStyleTableRecord
  2
STANDARD
 70
     0
 40
0.0
 41
1.0
 50
0.0
 71
     0
 42
0.2
  3
txt
  4

  0
STYLE
  5
3F
330
3
100
AcDbSymbolTableRecord
100
AcDbTextStyleTableRecord
  2
STYLE1
 70
     0
 40
0.0
 41
1.0
 50
0.0
 71
     0
 42
0.2
  3
MONOTXT.SHX
  4
extfont.shx
  0
STYLE
  5
40
330
3
100
AcDbSymbolTableRecord
100
AcDbTextStyleTableRecord
  2
FX_VECTOR
 70
     0
 40
0.0
 41
1.0
 50
0.0
 71
     0
 42
0.2
  3
MONOTXT.SHX
  4
BIGFONT.SHX
  0
ENDTAB
  0
TABLE
  2
VIEW
  5
6
330
0
100
AcDbSymbolTable
 70
     0
  0
ENDTAB
  0
TABLE
  2
UCS
  5
7
330
0
100
AcDbSymbolTable
 70
     0
  0
ENDTAB
  0
TABLE
  2
APPID
  5
9
330
0
100
AcDbSymbolTable
 70
     1
  0
APPID
  5
12
330
9
100
AcDbSymbolTableRecord
100
AcDbRegAppTableRecord
  2
ACAD
 70
     0
  0
ENDTAB
  0
TABLE
  2
DIMSTYLE
  5
A
330
0
100
AcDbSymbolTable
 70
     2
  0
DIMSTYLE
105
27
330
A
100
AcDbSymbolTableRecord
100
AcDbDimStyleTableRecord
  2
STANDARD
 70
     0
  3

  4

  5

  6

  7

 40
1.0
 41
0.18
 42
0.0625
 43
0.38
 44
0.18
 45
0.0
 46
0.0
 47
0.0
 48
0.0
140
0.18
141
0.09
142
0.0
143
25.4
144
1.0
145
0.0
146
1.0
147
0.09
 71
     0
 72
     0
 73
     1
 74
     1
 75
     0
 76
     0
 77
     0
 78
     0
170
     0
171
     2
172
     0
173
     0
174
     0
175
     0
176
     0
177
     0
178
     0
270
     2
271
     4
272
     4
273
     2
274
     2
340
11
275
     0
280
     0
281
     0
282
     0
283
     1
284
     0
285
     0
286
     0
287
     3
288
     0
  0
DIMSTYLE
105
A7
102
{ACAD_REACTORS
330
324
102
}
330
A
100
AcDbSymbolTableRecord
100
AcDbDimStyleTableRecord
  2
FXDIMINFO
 70
     0
  3

  4

  5

  6
FXTIP_ARROW_S
  7
FXTIP_ARROW_E
 40
1.0
 41
3.0
 42
1.0
 43
8.0
 44
1.0
 45
0.0
 46
6.0
 47
0.0
 48
0.0
140
4.0
141
2.5
142
0.0
143
0.03937
144
1.0
145
0.0
146
1.0
147
1.0
 71
     0
 72
     0
 73
     0
 74
     0
 75
     0
 76
     0
 77
     1
 78
     8
170
     0
171
     3
172
     1
173
     1
174
     0
175
     0
176
     7
177
     7
178
     7
179
     2
270
     2
271
     2
272
     2
273
     2
274
     3
340
3F
275
     0
280
     0
281
     0
282
     0
283
     0
284
     8
285
     0
286
     0
287
     3
288
     0
  0
ENDTAB
  0
TABLE
  2
BLOCK_RECORD
  5
1
330
0
100
AcDbSymbolTable
 70
    21
  0
BLOCK_RECORD
  5
1F
330
1
100
AcDbSymbolTableRecord
100
AcDbBlockTableRecord
  2
*MODEL_SPACE
  0
BLOCK_RECORD
  5
1B
330
1
100
AcDbSymbolTableRecord
100
AcDbBlockTableRecord
  2
*PAPER_SPACE
  0
BLOCK_RECORD
  5
41
330
1
100
AcDbSymbolTableRecord
100
AcDbBlockTableRecord
  2
FXTIP_ARROW_S
  0
BLOCK_RECORD
  5
47
330
1
100
AcDbSymbolTableRecord
100
AcDbBlockTableRecord
  2
FXTIP_ARROW_E
  0
BLOCK_RECORD
  5
4D
330
1
100
AcDbSymbolTableRecord
100
AcDbBlockTableRecord
  2
FXTIP_BLACKDOT_S
  0
BLOCK_RECORD
  5
53
330
1
100
AcDbSymbolTableRecord
100
AcDbBlockTableRecord
  2
FXTIP_BLACKDOT_E
  0
BLOCK_RECORD
  5
59
330
1
100
AcDbSymbolTableRecord
100
AcDbBlockTableRecord
  2
FXTIP_TRIANGLE_S
  0
BLOCK_RECORD
  5
60
330
1
100
AcDbSymbolTableRecord
100
AcDbBlockTableRecord
  2
FXTIP_TRIANGLE_E
  0
BLOCK_RECORD
  5
67
330
1
100
AcDbSymbolTableRecord
100
AcDbBlockTableRecord
  2
FXTIP_ARCHITECT_S
  0
BLOCK_RECORD
  5
6D
330
1
100
AcDbSymbolTableRecord
100
AcDbBlockTableRecord
  2
FXTIP_ARCHITECT_E
  0
BLOCK_RECORD
  5
73
330
1
100
AcDbSymbolTableRecord
100
AcDbBlockTableRecord
  2
FXTIP_CIVIL_S
  0
BLOCK_RECORD
  5
79
330
1
100
AcDbSymbolTableRecord
100
AcDbBlockTableRecord
  2
FXTIP_CIVIL_E
  0
BLOCK_RECORD
  5
7F
330
1
100
AcDbSymbolTableRecord
100
AcDbBlockTableRecord
  2
FXTIP_WHITEDOT_S
  0
BLOCK_RECORD
  5
84
330
1
100
AcDbSymbolTableRecord
100
AcDbBlockTableRecord
  2
FXTIP_WHITEDOT_E
  0
BLOCK_RECORD
  5
89
330
1
100
AcDbSymbolTableRecord
100
AcDbBlockTableRecord
  2
FXTIP_UPARROW_S
  0
BLOCK_RECORD
  5
8E
330
1
100
AcDbSymbolTableRecord
100
AcDbBlockTableRecord
  2
FXTIP_UPARROW_E
  0
BLOCK_RECORD
  5
93
330
1
100
AcDbSymbolTableRecord
100
AcDbBlockTableRecord
  2
FXTIP_DOWNARROW_S
  0
BLOCK_RECORD
  5
98
330
1
100
AcDbSymbolTableRecord
100
AcDbBlockTableRecord
  2
FXTIP_DOWNARROW_E
  0
BLOCK_RECORD
  5
9D
330
1
100
AcDbSymbolTableRecord
100
AcDbBlockTableRecord
  2
FXTIP_BLACKTRIANGLE_S
  0
BLOCK_RECORD
  5
A2
330
1
100
AcDbSymbolTableRecord
100
AcDbBlockTableRecord
  2
FXTIP_BLACKTRIANGLE_E
  0
BLOCK_RECORD
  5
309
330
1
100
AcDbSymbolTableRecord
100
AcDbBlockTableRecord
  2
BLKF021
  0
BLOCK_RECORD
  5
325
330
1
100
AcDbSymbolTableRecord
100
AcDbBlockTableRecord
  2
*D20
  0
ENDTAB
  0
ENDSEC
  0
SECTION
  2
BLOCKS
  0
BLOCK
  5
20
330
1F
100
AcDbEntity
  8
0
100
AcDbBlockBegin
  2
*MODEL_SPACE
 70
     0
 71
     0
 10
0.0
 20
0.0
 30
0.0
  3
*MODEL_SPACE
  1

  0
ENDBLK
  5
21
330
1F
100
AcDbEntity
  8
0
100
AcDbBlockEnd
  0
BLOCK
  5
1C
330
1B
100
AcDbEntity
 67
     1
  8
0
100
AcDbBlockBegin
  2
*PAPER_SPACE
 70
     0
 71
     0
 10
0.0
 20
0.0
 30
0.0
  3
*PAPER_SPACE
  1

  0
ENDBLK
  5
1D
330
1B
100
AcDbEntity
 67
     1
  8
0
100
AcDbBlockEnd
  0
BLOCK
  5
42
330
41
100
AcDbEntity
  8
0
100
AcDbBlockBegin
  2
FXTIP_ARROW_S
 70
     0
 71
     0
 10
0.0
 20
0.0
 30
0.0
  3
FXTIP_ARROW_S
  1

  0
LINE
  5
44
330
41
100
AcDbEntity
  8
0
  6
CONTINUOUS
 62
     0
100
AcDbLine
 10
0.0
 20
0.0
 30
0.0
 11
-1.0
 21
0.0
 31
0.0
  0
LINE
  5
45
330
41
100
AcDbEntity
  8
0
  6
CONTINUOUS
 62
     0
100
AcDbLine
 10
0.0
 20
0.0
 30
0.0
 11
-0.965926
 21
-0.258819
 31
0.0
  0
LINE
  5
46
330
41
100
AcDbEntity
  8
0
  6
CONTINUOUS
 62
     0
100
AcDbLine
 10
0.0
 20
0.0
 30
0.0
 11
-0.965926
 21
0.258819
 31
0.0
  0
ENDBLK
  5
43
330
41
100
AcDbEntity
  8
0
100
AcDbBlockEnd
  0
BLOCK
  5
48
330
47
100
AcDbEntity
  8
0
100
AcDbBlockBegin
  2
FXTIP_ARROW_E
 70
     0
 71
     0
 10
0.0
 20
0.0
 30
0.0
  3
FXTIP_ARROW_E
  1

  0
LINE
  5
4A
330
47
100
AcDbEntity
  8
0
  6
CONTINUOUS
 62
     0
100
AcDbLine
 10
0.0
 20
0.0
 30
0.0
 11
-1.0
 21
0.0
 31
0.0
  0
LINE
  5
4B
330
47
100
AcDbEntity
  8
0
  6
CONTINUOUS
 62
     0
100
AcDbLine
 10
0.0
 20
0.0
 30
0.0
 11
-0.965926
 21
0.258819
 31
0.0
  0
LINE
  5
4C
330
47
100
AcDbEntity
  8
0
  6
CONTINUOUS
 62
     0
100
AcDbLine
 10
0.0
 20
0.0
 30
0.0
 11
-0.965926
 21
-0.258819
 31
0.0
  0
ENDBLK
  5
49
330
47
100
AcDbEntity
  8
0
100
AcDbBlockEnd
  0
BLOCK
  5
4E
330
4D
100
AcDbEntity
  8
0
100
AcDbBlockBegin
  2
FXTIP_BLACKDOT_S
 70
     0
 71
     0
 10
0.0
 20
0.0
 30
0.0
  3
FXTIP_BLACKDOT_S
  1

  0
LINE
  5
50
330
4D
100
AcDbEntity
  8
0
  6
CONTINUOUS
 62
     0
100
AcDbLine
 10
0.0
 20
0.0
 30
0.0
 11
-1.0
 21
0.0
 31
0.0
  0
LWPOLYLINE
  5
51
330
4D
100
AcDbEntity
  8
0
  6
CONTINUOUS
 62
     0
100
AcDbPolyline
 90
        2
 70
     1
 10
-0.25
 20
0.0
 40
0.5
 41
0.5
 42
1.0
 10
0.25
 20
0.0
 40
0.5
 41
0.5
 42
1.0
  0
CIRCLE
  5
52
330
4D
100
AcDbEntity
  8
0
  6
CONTINUOUS
 62
     0
100
AcDbCircle
 10
0.0
 20
0.0
 30
0.0
 40
0.5
  0
ENDBLK
  5
4F
330
4D
100
AcDbEntity
  8
0
100
AcDbBlockEnd
  0
BLOCK
  5
54
330
53
100
AcDbEntity
  8
0
100
AcDbBlockBegin
  2
FXTIP_BLACKDOT_E
 70
     0
 71
     0
 10
0.0
 20
0.0
 30
0.0
  3
FXTIP_BLACKDOT_E
  1

  0
LINE
  5
56
330
53
100
AcDbEntity
  8
0
  6
CONTINUOUS
 62
     0
100
AcDbLine
 10
0.0
 20
0.0
 30
0.0
 11
-1.0
 21
0.0
 31
0.0
  0
LWPOLYLINE
  5
57
330
53
100
AcDbEntity
  8
0
  6
CONTINUOUS
 62
     0
100
AcDbPolyline
 90
        2
 70
     1
 10
-0.25
 20
0.0
 40
0.5
 41
0.5
 42
1.0
 10
0.25
 20
0.0
 40
0.5
 41
0.5
 42
1.0
  0
CIRCLE
  5
58
330
53
100
AcDbEntity
  8
0
  6
CONTINUOUS
 62
     0
100
AcDbCircle
 10
0.0
 20
0.0
 30
0.0
 40
0.5
  0
ENDBLK
  5
55
330
53
100
AcDbEntity
  8
0
100
AcDbBlockEnd
  0
BLOCK
  5
5A
330
59
100
AcDbEntity
  8
0
100
AcDbBlockBegin
  2
FXTIP_TRIANGLE_S
 70
     0
 71
     0
 10
0.0
 20
0.0
 30
0.0
  3
FXTIP_TRIANGLE_S
  1

  0
LINE
  5
5C
330
59
100
AcDbEntity
  8
0
  6
CONTINUOUS
 62
     0
100
AcDbLine
 10
0.0
 20
0.0
 30
0.0
 11
-1.0
 21
0.0
 31
0.0
  0
LINE
  5
5D
330
59
100
AcDbEntity
  8
0
  6
CONTINUOUS
 62
     0
100
AcDbLine
 10
0.0
 20
0.0
 30
0.0
 11
-0.965926
 21
-0.258819
 31
0.0
  0
LINE
  5
5E
330
59
100
AcDbEntity
  8
0
  6
CONTINUOUS
 62
     0
100
AcDbLine
 10
0.0
 20
0.0
 30
0.0
 11
-0.965926
 21
0.258819
 31
0.0
  0
LINE
  5
5F
330
59
100
AcDbEntity
  8
0
  6
CONTINUOUS
 62
     0
100
AcDbLine
 10
-0.965926
 20
-0.258819
 30
0.0
 11
-0.965926
 21
0.258819
 31
0.0
  0
ENDBLK
  5
5B
330
59
100
AcDbEntity
  8
0
100
AcDbBlockEnd
  0
BLOCK
  5
61
330
60
100
AcDbEntity
  8
0
100
AcDbBlockBegin
  2
FXTIP_TRIANGLE_E
 70
     0
 71
     0
 10
0.0
 20
0.0
 30
0.0
  3
FXTIP_TRIANGLE_E
  1

  0
LINE
  5
63
330
60
100
AcDbEntity
  8
0
  6
CONTINUOUS
 62
     0
100
AcDbLine
 10
0.0
 20
0.0
 30
0.0
 11
-1.0
 21
0.0
 31
0.0
  0
LINE
  5
64
330
60
100
AcDbEntity
  8
0
  6
CONTINUOUS
 62
     0
100
AcDbLine
 10
0.0
 20
0.0
 30
0.0
 11
-0.965926
 21
0.258819
 31
0.0
  0
LINE
  5
65
330
60
100
AcDbEntity
  8
0
  6
CONTINUOUS
 62
     0
100
AcDbLine
 10
0.0
 20
0.0
 30
0.0
 11
-0.965926
 21
-0.258819
 31
0.0
  0
LINE
  5
66
330
60
100
AcDbEntity
  8
0
  6
CONTINUOUS
 62
     0
100
AcDbLine
 10
-0.965926
 20
0.258819
 30
0.0
 11
-0.965926
 21
-0.258819
 31
0.0
  0
ENDBLK
  5
62
330
60
100
AcDbEntity
  8
0
100
AcDbBlockEnd
  0
BLOCK
  5
68
330
67
100
AcDbEntity
  8
0
100
AcDbBlockBegin
  2
FXTIP_ARCHITECT_S
 70
     0
 71
     0
 10
0.0
 20
0.0
 30
0.0
  3
FXTIP_ARCHITECT_S
  1

  0
LINE
  5
6A
330
67
100
AcDbEntity
  8
0
  6
CONTINUOUS
 62
     0
100
AcDbLine
 10
0.0
 20
0.0
 30
0.0
 11
-1.0
 21
0.0
 31
0.0
  0
LINE
  5
6B
330
67
100
AcDbEntity
  8
0
  6
CONTINUOUS
 62
     0
100
AcDbLine
 10
0.0
 20
0.0
 30
0.0
 11
-0.707107
 21
-0.707107
 31
0.0
  0
LINE
  5
6C
330
67
100
AcDbEntity
  8
0
  6
CONTINUOUS
 62
     0
100
AcDbLine
 10
0.0
 20
0.0
 30
0.0
 11
0.707107
 21
0.707107
 31
0.0
  0
ENDBLK
  5
69
330
67
100
AcDbEntity
  8
0
100
AcDbBlockEnd
  0
BLOCK
  5
6E
330
6D
100
AcDbEntity
  8
0
100
AcDbBlockBegin
  2
FXTIP_ARCHITECT_E
 70
     0
 71
     0
 10
0.0
 20
0.0
 30
0.0
  3
FXTIP_ARCHITECT_E
  1

  0
LINE
  5
70
330
6D
100
AcDbEntity
  8
0
  6
CONTINUOUS
 62
     0
100
AcDbLine
 10
0.0
 20
0.0
 30
0.0
 11
-1.0
 21
0.0
 31
0.0
  0
LINE
  5
71
330
6D
100
AcDbEntity
  8
0
  6
CONTINUOUS
 62
     0
100
AcDbLine
 10
0.0
 20
0.0
 30
0.0
 11
0.707107
 21
0.707107
 31
0.0
  0
LINE
  5
72
330
6D
100
AcDbEntity
  8
0
  6
CONTINUOUS
 62
     0
100
AcDbLine
 10
0.0
 20
0.0
 30
0.0
 11
-0.707107
 21
-0.707107
 31
0.0
  0
ENDBLK
  5
6F
330
6D
100
AcDbEntity
  8
0
100
AcDbBlockEnd
  0
BLOCK
  5
74
330
73
100
AcDbEntity
  8
0
100
AcDbBlockBegin
  2
FXTIP_CIVIL_S
 70
     0
 71
     0
 10
0.0
 20
0.0
 30
0.0
  3
FXTIP_CIVIL_S
  1

  0
LINE
  5
76
330
73
100
AcDbEntity
  8
0
  6
CONTINUOUS
 62
     0
100
AcDbLine
 10
0.0
 20
0.0
 30
0.0
 11
-1.0
 21
0.0
 31
0.0
  0
LINE
  5
77
330
73
100
AcDbEntity
  8
0
  6
CONTINUOUS
 62
     0
100
AcDbLine
 10
0.0
 20
-0.083333
 30
0.0
 11
-1.0
 21
-0.083333
 31
0.0
  0
LINE
  5
78
330
73
100
AcDbEntity
  8
0
  6
CONTINUOUS
 62
     0
100
AcDbLine
 10
0.0
 20
-0.166667
 30
0.0
 11
-1.0
 21
-0.166667
 31
0.0
  0
ENDBLK
  5
75
330
73
100
AcDbEntity
  8
0
100
AcDbBlockEnd
  0
BLOCK
  5
7A
330
79
100
AcDbEntity
  8
0
100
AcDbBlockBegin
  2
FXTIP_CIVIL_E
 70
     0
 71
     0
 10
0.0
 20
0.0
 30
0.0
  3
FXTIP_CIVIL_E
  1

  0
LINE
  5
7C
330
79
100
AcDbEntity
  8
0
  6
CONTINUOUS
 62
     0
100
AcDbLine
 10
0.0
 20
0.0
 30
0.0
 11
-1.0
 21
0.0
 31
0.0
  0
LINE
  5
7D
330
79
100
AcDbEntity
  8
0
  6
CONTINUOUS
 62
     0
100
AcDbLine
 10
0.0
 20
0.083333
 30
0.0
 11
-1.0
 21
0.083333
 31
0.0
  0
LINE
  5
7E
330
79
100
AcDbEntity
  8
0
  6
CONTINUOUS
 62
     0
100
AcDbLine
 10
0.0
 20
0.166667
 30
0.0
 11
-1.0
 21
0.166667
 31
0.0
  0
ENDBLK
  5
7B
330
79
100
AcDbEntity
  8
0
100
AcDbBlockEnd
  0
BLOCK
  5
80
330
7F
100
AcDbEntity
  8
0
100
AcDbBlockBegin
  2
FXTIP_WHITEDOT_S
 70
     0
 71
     0
 10
0.0
 20
0.0
 30
0.0
  3
FXTIP_WHITEDOT_S
  1

  0
LINE
  5
82
330
7F
100
AcDbEntity
  8
0
  6
CONTINUOUS
 62
     0
100
AcDbLine
 10
0.0
 20
0.0
 30
0.0
 11
-1.0
 21
0.0
 31
0.0
  0
CIRCLE
  5
83
330
7F
100
AcDbEntity
  8
0
  6
CONTINUOUS
 62
     0
100
AcDbCircle
 10
0.0
 20
0.0
 30
0.0
 40
0.5
  0
ENDBLK
  5
81
330
7F
100
AcDbEntity
  8
0
100
AcDbBlockEnd
  0
BLOCK
  5
85
330
84
100
AcDbEntity
  8
0
100
AcDbBlockBegin
  2
FXTIP_WHITEDOT_E
 70
     0
 71
     0
 10
0.0
 20
0.0
 30
0.0
  3
FXTIP_WHITEDOT_E
  1

  0
LINE
  5
87
330
84
100
AcDbEntity
  8
0
  6
CONTINUOUS
 62
     0
100
AcDbLine
 10
0.0
 20
0.0
 30
0.0
 11
-1.0
 21
0.0
 31
0.0
  0
CIRCLE
  5
88
330
84
100
AcDbEntity
  8
0
  6
CONTINUOUS
 62
     0
100
AcDbCircle
 10
0.0
 20
0.0
 30
0.0
 40
0.5
  0
ENDBLK
  5
86
330
84
100
AcDbEntity
  8
0
100
AcDbBlockEnd
  0
BLOCK
  5
8A
330
89
100
AcDbEntity
  8
0
100
AcDbBlockBegin
  2
FXTIP_UPARROW_S
 70
     0
 71
     0
 10
0.0
 20
0.0
 30
0.0
  3
FXTIP_UPARROW_S
  1

  0
LINE
  5
8C
330
89
100
AcDbEntity
  8
0
  6
CONTINUOUS
 62
     0
100
AcDbLine
 10
0.0
 20
0.0
 30
0.0
 11
-1.0
 21
0.0
 31
0.0
  0
LINE
  5
8D
330
89
100
AcDbEntity
  8
0
  6
CONTINUOUS
 62
     0
100
AcDbLine
 10
0.0
 20
0.0
 30
0.0
 11
-0.965926
 21
-0.258819
 31
0.0
  0
ENDBLK
  5
8B
330
89
100
AcDbEntity
  8
0
100
AcDbBlockEnd
  0
BLOCK
  5
8F
330
8E
100
AcDbEntity
  8
0
100
AcDbBlockBegin
  2
FXTIP_UPARROW_E
 70
     0
 71
     0
 10
0.0
 20
0.0
 30
0.0
  3
FXTIP_UPARROW_E
  1

  0
LINE
  5
91
330
8E
100
AcDbEntity
  8
0
  6
CONTINUOUS
 62
     0
100
AcDbLine
 10
0.0
 20
0.0
 30
0.0
 11
-1.0
 21
0.0
 31
0.0
  0
LINE
  5
92
330
8E
100
AcDbEntity
  8
0
  6
CONTINUOUS
 62
     0
100
AcDbLine
 10
0.0
 20
0.0
 30
0.0
 11
-0.965926
 21
0.258819
 31
0.0
  0
ENDBLK
  5
90
330
8E
100
AcDbEntity
  8
0
100
AcDbBlockEnd
  0
BLOCK
  5
94
330
93
100
AcDbEntity
  8
0
100
AcDbBlockBegin
  2
FXTIP_DOWNARROW_S
 70
     0
 71
     0
 10
0.0
 20
0.0
 30
0.0
  3
FXTIP_DOWNARROW_S
  1

  0
LINE
  5
96
330
93
100
AcDbEntity
  8
0
  6
CONTINUOUS
 62
     0
100
AcDbLine
 10
0.0
 20
0.0
 30
0.0
 11
-1.0
 21
0.0
 31
0.0
  0
LINE
  5
97
330
93
100
AcDbEntity
  8
0
  6
CONTINUOUS
 62
     0
100
AcDbLine
 10
0.0
 20
0.0
 30
0.0
 11
-0.965926
 21
0.258819
 31
0.0
  0
ENDBLK
  5
95
330
93
100
AcDbEntity
  8
0
100
AcDbBlockEnd
  0
BLOCK
  5
99
330
98
100
AcDbEntity
  8
0
100
AcDbBlockBegin
  2
FXTIP_DOWNARROW_E
 70
     0
 71
     0
 10
0.0
 20
0.0
 30
0.0
  3
FXTIP_DOWNARROW_E
  1

  0
LINE
  5
9B
330
98
100
AcDbEntity
  8
0
  6
CONTINUOUS
 62
     0
100
AcDbLine
 10
0.0
 20
0.0
 30
0.0
 11
-1.0
 21
0.0
 31
0.0
  0
LINE
  5
9C
330
98
100
AcDbEntity
  8
0
  6
CONTINUOUS
 62
     0
100
AcDbLine
 10
0.0
 20
0.0
 30
0.0
 11
-0.965926
 21
-0.258819
 31
0.0
  0
ENDBLK
  5
9A
330
98
100
AcDbEntity
  8
0
100
AcDbBlockEnd
  0
BLOCK
  5
9E
330
9D
100
AcDbEntity
  8
0
100
AcDbBlockBegin
  2
FXTIP_BLACKTRIANGLE_S
 70
     0
 71
     0
 10
0.0
 20
0.0
 30
0.0
  3
FXTIP_BLACKTRIANGLE_S
  1

  0
LINE
  5
A0
330
9D
100
AcDbEntity
  8
0
  6
CONTINUOUS
 62
     0
100
AcDbLine
 10
0.0
 20
0.0
 30
0.0
 11
-1.0
 21
0.0
 31
0.0
  0
SOLID
  5
A1
330
9D
100
AcDbEntity
  8
0
  6
CONTINUOUS
 62
     0
100
AcDbTrace
 10
0.0
 20
0.0
 30
0.0
 11
-0.965926
 21
-0.258819
 31
0.0
 12
-0.965926
 22
0.258819
 32
0.0
 13
-0.965926
 23
0.258819
 33
0.0
  0
ENDBLK
  5
9F
330
9D
100
AcDbEntity
  8
0
100
AcDbBlockEnd
  0
BLOCK
  5
A3
330
A2
100
AcDbEntity
  8
0
100
AcDbBlockBegin
  2
FXTIP_BLACKTRIANGLE_E
 70
     0
 71
     0
 10
0.0
 20
0.0
 30
0.0
  3
FXTIP_BLACKTRIANGLE_E
  1

  0
LINE
  5
A5
330
A2
100
AcDbEntity
  8
0
  6
CONTINUOUS
 62
     0
100
AcDbLine
 10
0.0
 20
0.0
 30
0.0
 11
-1.0
 21
0.0
 31
0.0
  0
SOLID
  5
A6
330
A2
100
AcDbEntity
  8
0
  6
CONTINUOUS
 62
     0
100
AcDbTrace
 10
0.0
 20
0.0
 30
0.0
 11
-0.965926
 21
0.258819
 31
0.0
 12
-0.965926
 22
-0.258819
 32
0.0
 13
-0.965926
 23
-0.258819
 33
0.0
  0
ENDBLK
  5
A4
330
A2
100
AcDbEntity
  8
0
100
AcDbBlockEnd
  0
BLOCK
  5
30A
330
309
100
AcDbEntity
  8
0
100
AcDbBlockBegin
  2
BLKF021
 70
     0
 71
     0
 10
0.0
 20
0.0
 30
0.0
  3
BLKF021
  1

  0
TEXT
  5
30D
330
309
100
AcDbEntity
  8
GR1-1
  6
CONTINUOUS
 62
     7
100
AcDbText
 10
197.41345
 20
59.950275
 30
0.0
 40
3.9
  1
×
 50
180.692352
 41
1.4
  7
FX_VECTOR
 72
     5
 11
193.513735
 21
59.903149
 31
0.0
100
AcDbText
  0
TEXT
  5
30E
330
309
100
AcDbEntity
  8
GR1-1
  6
CONTINUOUS
 62
     7
100
AcDbText
 10
200.319185
 20
60.761408
 30
0.0
 40
3.9
  1
0
 50
195.639084
 41
1.235294
  7
FX_VECTOR
 72
     5
 11
196.563567
 21
59.710058
 31
0.0
100
AcDbText
  0
TEXT
  5
30F
330
309
100
AcDbEntity
  8
GR1-1
  6
CONTINUOUS
 62
     7
100
AcDbText
 10
202.917432
 20
62.294552
 30
0.0
 40
3.9
  1
5
 50
210.5858
 41
1.235294
  7
FX_VECTOR
 72
     5
 11
199.560046
 21
60.310123
 31
0.0
100
AcDbText
  0
TEXT
  5
310
330
309
100
AcDbEntity
  8
GR1-1
  6
CONTINUOUS
 62
     7
100
AcDbText
 10
194.396769
 20
59.916005
 30
0.0
 40
3.9
  1
2
 50
165.745621
 41
1.235294
  7
FX_VECTOR
 72
     5
 11
190.616842
 21
60.876292
 31
0.0
100
AcDbText
  0
TEXT
  5
311
330
309
100
AcDbEntity
  8
GR1-1
  6
CONTINUOUS
 62
     7
100
AcDbText
 10
191.473359
 20
60.660992
 30
0.0
 40
3.9
  1
0
 50
150.798904
 41
1.235294
  7
FX_VECTOR
 72
     5
 11
188.068999
 21
62.563709
 31
0.0
100
AcDbText
  0
ENDBLK
  5
30B
330
309
100
AcDbEntity
  8
0
100
AcDbBlockEnd
  0
BLOCK
  5
326
330
325
100
AcDbEntity
  8
0
100
AcDbBlockBegin
  2
*D20
 70
     1
 71
     0
 10
0.0
 20
0.0
 30
0.0
  3
*D20
  1

  0
TEXT
  5
328
330
325
100
AcDbEntity
  8
GR1-1
  6
CONTINUOUS
 62
     7
100
AcDbText
 10
82.249443
 20
28.145317
 30
0.0
 40
4.0
  1
23
 41
0.851351
  7
FX_VECTOR
 72
     5
 11
88.249443
 21
28.145317
 31
0.0
100
AcDbText
  0
LINE
  5
329
330
325
100
AcDbEntity
  8
GR1-1
  6
CONTINUOUS
 62
     7
100
AcDbLine
 10
73.74944
 20
27.145317
 30
0.0
 11
96.74944
 21
27.145317
 31
0.0
  0
INSERT
  5
32A
330
325
100
AcDbEntity
  8
GR1-1
  6
CONTINUOUS
 62
     7
100
AcDbBlockReference
  2
FXTIP_ARROW_S
 10
73.74944
 20
27.145317
 30
0.0
 41
3.0
 42
3.0
 50
180.0
  0
INSERT
  5
32B
330
325
100
AcDbEntity
  8
GR1-1
  6
CONTINUOUS
 62
     7
100
AcDbBlockReference
  2
FXTIP_ARROW_E
 10
96.74944
 20
27.145317
 30
0.0
 41
3.0
 42
3.0
 50
360.0
  0
LINE
  5
32C
330
325
100
AcDbEntity
  8
GR1-1
  6
CONTINUOUS
 62
     7
100
AcDbLine
 10
73.74944
 20
64.408771
 30
0.0
 11
73.74944
 21
26.145317
 31
0.0
  0
LINE
  5
32D
330
325
100
AcDbEntity
  8
GR1-1
  6
CONTINUOUS
 62
     7
100
AcDbLine
 10
96.74944
 20
64.408771
 30
0.0
 11
96.74944
 21
26.145317
 31
0.0
  0
ENDBLK
  5
327
330
325
100
AcDbEntity
  8
0
100
AcDbBlockEnd
  0
ENDSEC
  0
SECTION
  2
ENTITIES
  0
TEXT
  5
A8
330
1F
100
AcDbEntity
  8
}}ﾊﾊGG血CCТ
  6
CONTINUOUS
 62
     7
100
AcDbText
 10
32.739483
 20
11.885878
 30
0.0
 40
6.0
  1
ＴＫ－　５０　Ｕ
 41
0.794326
  7
FX_VECTOR
 72
     5
 11
64.739483
 21
11.885878
 31
0.0
100
AcDbText
  0
LINE
  5
AA
330
1F
100
AcDbEntity
  8
GR1-1
  6
CENTER
 62
     6
100
AcDbLine
 10
167.54276
 20
71.431306
 30
0.0
 11
223.956167
 21
71.431306
 31
0.0
  0
LINE
  5
AB
330
1F
100
AcDbEntity
  8
GR1-1
  6
CENTER
 62
     6
100
AcDbLine
 10
195.774603
 20
141.746388
 30
0.0
 11
195.774603
 21
191.061686
 31
0.0
  0
LINE
  5
AC
330
1F
100
AcDbEntity
  8
GR1-1
  6
CENTER
 62
     6
100
AcDbLine
 10
195.774603
 20
116.418246
 30
0.0
 11
195.774603
 21
42.342754
 31
0.0
  0
LINE
  5
AD
330
1F
100
AcDbEntity
  8
GR1-1
  6
CONTINUOUS
 62
     3
100
AcDbLine
 10
225.274603
 20
111.431306
 30
0.0
 11
225.274603
 21
109.431306
 31
0.0
  0
LINE
  5
AE
330
1F
100
AcDbEntity
  8
GR1-1
  6
CONTINUOUS
 62
     3
100
AcDbLine
 10
166.274603
 20
111.431306
 30
0.0
 11
166.274603
 21
109.431306
 31
0.0
  0
ARC
  5
AF
330
1F
100
AcDbEntity
  8
GR1-1
  6
CONTINUOUS
 62
     3
100
AcDbCircle
 10
195.774603
 20
71.431306
 30
0.0
 40
8.0
100
AcDbArc
 50
196.369476
 51
343.630524
  0
LINE
  5
B0
330
1F
100
AcDbEntity
  8
GR1-1
  6
CENTER
 62
     6
100
AcDbLine
 10
229.160694
 20
166.081276
 30
0.0
 11
161.669093
 21
166.081276
 31
0.0
  0
LINE
  5
B1
330
1F
100
AcDbEntity
  8
GR1-1
  6
CONTINUOUS
 62
     3
100
AcDbLine
 10
225.274603
 20
109.431306
 30
0.0
 11
216.861719
 21
109.431306
 31
0.0
  0
LINE
  5
B2
330
1F
100
AcDbEntity
  8
GR1-1
  6
DASHED
 62
     3
100
AcDbLine
 10
174.754922
 20
109.431306
 30
0.0
 11
174.687487
 21
109.431306
 31
0.0
  0
LINE
  5
B3
330
1F
100
AcDbEntity
  8
GR1-1
  6
DASHED
 62
     3
100
AcDbLine
 10
216.861719
 20
109.431306
 30
0.0
 11
216.794285
 21
109.431306
 31
0.0
  0
LINE
  5
B4
330
1F
100
AcDbEntity
  8
GR1-1
  6
CONTINUOUS
 62
     3
100
AcDbLine
 10
174.687487
 20
109.431306
 30
0.0
 11
166.274603
 21
109.431306
 31
0.0
  0
CIRCLE
  5
B5
330
1F
100
AcDbEntity
  8
GR1-1
  6
CONTINUOUS
 62
     3
100
AcDbCircle
 10
172.774603
 20
183.581276
 30
0.0
 40
3.25
  0
CIRCLE
  5
B6
330
1F
100
AcDbEntity
  8
GR1-1
  6
CONTINUOUS
 62
     3
100
AcDbCircle
 10
172.774603
 20
148.581276
 30
0.0
 40
3.25
  0
CIRCLE
  5
B7
330
1F
100
AcDbEntity
  8
GR1-1
  6
CONTINUOUS
 62
     3
100
AcDbCircle
 10
218.774603
 20
148.581276
 30
0.0
 40
3.25
  0
CIRCLE
  5
B8
330
1F
100
AcDbEntity
  8
GR1-1
  6
CONTINUOUS
 62
     3
100
AcDbCircle
 10
218.774603
 20
183.581276
 30
0.0
 40
3.25
  0
LINE
  5
B9
330
1F
100
AcDbEntity
  8
GR1-1
  6
CONTINUOUS
 62
     3
100
AcDbLine
 10
166.274603
 20
148.081276
 30
0.0
 11
166.274603
 21
184.081276
 31
0.0
  0
LINE
  5
BA
330
1F
100
AcDbEntity
  8
GR1-1
  6
CONTINUOUS
 62
     3
100
AcDbLine
 10
172.774603
 20
141.581276
 30
0.0
 11
177.234424
 21
141.581276
 31
0.0
  0
ARC
  5
BB
330
1F
100
AcDbEntity
  8
GR1-1
  6
CONTINUOUS
 62
     3
100
AcDbCircle
 10
172.774603
 20
148.081276
 30
0.0
 40
6.5
100
AcDbArc
 50
180.0
 51
270.0
  0
LINE
  5
BC
330
1F
100
AcDbEntity
  8
GR1-1
  6
CONTINUOUS
 62
     3
100
AcDbLine
 10
201.329662
 20
151.581276
 30
0.0
 11
190.219545
 21
151.581276
 31
0.0
  0
LINE
  5
BD
330
1F
100
AcDbEntity
  8
GR1-1
  6
CONTINUOUS
 62
     3
100
AcDbLine
 10
225.274603
 20
148.081276
 30
0.0
 11
225.274603
 21
184.081276
 31
0.0
  0
ARC
  5
BE
330
1F
100
AcDbEntity
  8
GR1-1
  6
CONTINUOUS
 62
     3
100
AcDbCircle
 10
218.774603
 20
148.081276
 30
0.0
 40
6.5
100
AcDbArc
 50
270.0
 51
360.0
  0
ARC
  5
BF
330
1F
100
AcDbEntity
  8
GR1-1
  6
CONTINUOUS
 62
     3
100
AcDbCircle
 10
218.774603
 20
148.581276
 30
0.0
 40
8.300000000000001
100
AcDbArc
 50
222.070267
 51
237.498086
  0
LINE
  5
C0
330
1F
100
AcDbEntity
  8
GR1-1
  6
CONTINUOUS
 62
     3
100
AcDbLine
 10
214.314783
 20
141.581276
 30
0.0
 11
218.774603
 21
141.581276
 31
0.0
  0
ARC
  5
C1
330
1F
100
AcDbEntity
  8
GR1-1
  6
CONTINUOUS
 62
     3
100
AcDbCircle
 10
218.774603
 20
184.081276
 30
0.0
 40
6.5
100
AcDbArc
 50
0.0
 51
90.0
  0
ARC
  5
C2
330
1F
100
AcDbEntity
  8
GR1-1
  6
CONTINUOUS
 62
     3
100
AcDbCircle
 10
218.774603
 20
183.581276
 30
0.0
 40
8.300000000000001
100
AcDbArc
 50
122.501914
 51
137.929733
  0
LINE
  5
C3
330
1F
100
AcDbEntity
  8
GR1-1
  6
CONTINUOUS
 62
     3
100
AcDbLine
 10
214.314783
 20
190.581276
 30
0.0
 11
218.774603
 21
190.581276
 31
0.0
  0
LINE
  5
C4
330
1F
100
AcDbEntity
  8
GR1-1
  6
CONTINUOUS
 62
     3
100
AcDbLine
 10
207.268251
 20
183.220944
 30
0.0
 11
212.613317
 21
189.14262
 31
0.0
  0
LINE
  5
C5
330
1F
100
AcDbEntity
  8
GR1-1
  6
CONTINUOUS
 62
     3
100
AcDbLine
 10
172.774603
 20
190.581276
 30
0.0
 11
177.234424
 21
190.581276
 31
0.0
  0
ARC
  5
C6
330
1F
100
AcDbEntity
  8
GR1-1
  6
CONTINUOUS
 62
     3
100
AcDbCircle
 10
172.774603
 20
183.581276
 30
0.0
 40
8.300000000000001
100
AcDbArc
 50
42.070267
 51
57.498086
  0
LINE
  5
C7
330
1F
100
AcDbEntity
  8
GR1-1
  6
CONTINUOUS
 62
     3
100
AcDbLine
 10
201.329662
 20
180.581276
 30
0.0
 11
190.219545
 21
180.581276
 31
0.0
  0
ARC
  5
C8
330
1F
100
AcDbEntity
  8
GR1-1
  6
CONTINUOUS
 62
     3
100
AcDbCircle
 10
172.774603
 20
184.081276
 30
0.0
 40
6.5
100
AcDbArc
 50
90.0
 51
180.0
  0
LINE
  5
C9
330
1F
100
AcDbEntity
  8
GR1-1
  6
CENTER
 62
     6
100
AcDbLine
 10
213.074603
 20
148.581276
 30
0.0
 11
224.474603
 21
148.581276
 31
0.0
  0
LINE
  5
CA
330
1F
100
AcDbEntity
  8
GR1-1
  6
CENTER
 62
     6
100
AcDbLine
 10
218.774603
 20
154.281276
 30
0.0
 11
218.774603
 21
142.881276
 31
0.0
  0
LINE
  5
CB
330
1F
100
AcDbEntity
  8
GR1-1
  6
CENTER
 62
     6
100
AcDbLine
 10
218.774603
 20
177.881276
 30
0.0
 11
218.774603
 21
189.281276
 31
0.0
  0
LINE
  5
CC
330
1F
100
AcDbEntity
  8
GR1-1
  6
CENTER
 62
     6
100
AcDbLine
 10
213.074603
 20
183.581276
 30
0.0
 11
224.474603
 21
183.581276
 31
0.0
  0
LINE
  5
CD
330
1F
100
AcDbEntity
  8
GR1-1
  6
CENTER
 62
     6
100
AcDbLine
 10
172.774603
 20
154.281276
 30
0.0
 11
172.774603
 21
142.881276
 31
0.0
  0
LINE
  5
CE
330
1F
100
AcDbEntity
  8
GR1-1
  6
CENTER
 62
     6
100
AcDbLine
 10
172.774603
 20
177.881276
 30
0.0
 11
172.774603
 21
189.281276
 31
0.0
  0
LINE
  5
CF
330
1F
100
AcDbEntity
  8
GR1-1
  6
CENTER
 62
     6
100
AcDbLine
 10
178.474603
 20
148.581276
 30
0.0
 11
167.074603
 21
148.581276
 31
0.0
  0
LINE
  5
D0
330
1F
100
AcDbEntity
  8
GR1-1
  6
CENTER
 62
     6
100
AcDbLine
 10
179.083184
 20
183.581276
 30
0.0
 11
166.672527
 21
183.581276
 31
0.0
  0
ARC
  5
D1
330
1F
100
AcDbEntity
  8
GR1-1
  6
CONTINUOUS
 62
     3
100
AcDbCircle
 10
172.774603
 20
148.581276
 30
0.0
 40
8.300000000000001
100
AcDbArc
 50
302.501914
 51
317.929733
  0
LINE
  5
D2
330
1F
100
AcDbEntity
  8
GR1-1
  6
CONTINUOUS
 62
     3
100
AcDbLine
 10
184.280955
 20
183.220944
 30
0.0
 11
178.935889
 21
189.14262
 31
0.0
  0
ARC
  5
D3
330
1F
100
AcDbEntity
  8
GR1-1
  6
CONTINUOUS
 62
     3
100
AcDbCircle
 10
190.219545
 20
143.581276
 30
0.0
 40
8.0
100
AcDbArc
 50
90.0
 51
137.929733
  0
ARC
  5
D4
330
1F
100
AcDbEntity
  8
GR1-1
  6
CONTINUOUS
 62
     3
100
AcDbCircle
 10
201.329662
 20
143.581276
 30
0.0
 40
8.0
100
AcDbArc
 50
42.070267
 51
90.0
  0
LINE
  5
D5
330
1F
100
AcDbEntity
  8
GR1-1
  6
CONTINUOUS
 62
     7
100
AcDbLine
 10
205.774603
 20
107.431306
 30
0.0
 11
205.774603
 21
77.66852
 31
0.0
  0
LINE
  5
D6
330
1F
100
AcDbEntity
  8
GR1-1
  6
CONTINUOUS
 62
     7
100
AcDbLine
 10
185.774603
 20
107.431306
 30
0.0
 11
185.774603
 21
77.66852
 31
0.0
  0
ARC
  5
D7
330
1F
100
AcDbEntity
  8
GR1-1
  6
CONTINUOUS
 62
     3
100
AcDbCircle
 10
201.329662
 20
188.581276
 30
0.0
 40
8.0
100
AcDbArc
 50
270.0
 51
317.929733
  0
ARC
  5
D8
330
1F
100
AcDbEntity
  8
GR1-1
  6
CONTINUOUS
 62
     3
100
AcDbCircle
 10
190.219545
 20
188.581276
 30
0.0
 40
8.0
100
AcDbArc
 50
222.070267
 51
270.0
  0
LINE
  5
D9
330
1F
100
AcDbEntity
  8
GR1-1
  6
CONTINUOUS
 62
     3
100
AcDbLine
 10
207.268251
 20
148.941608
 30
0.0
 11
212.613317
 21
143.019932
 31
0.0
  0
LINE
  5
DA
330
1F
100
AcDbEntity
  8
GR1-1
  6
CONTINUOUS
 62
     3
100
AcDbLine
 10
184.280955
 20
148.941608
 30
0.0
 11
178.935889
 21
143.019932
 31
0.0
  0
LINE
  5
DB
330
1F
100
AcDbEntity
  8
GR1-1
  6
CONTINUOUS
 62
     3
100
AcDbLine
 10
97.74944
 20
63.569672
 30
0.0
 11
97.74944
 21
109.069672
 31
0.0
  0
LINE
  5
DC
330
1F
100
AcDbEntity
  8
GR1-1
  6
CONTINUOUS
 62
     3
100
AcDbLine
 10
72.74944
 20
63.569672
 30
0.0
 11
72.74944
 21
109.069672
 31
0.0
  0
LINE
  5
DD
330
1F
100
AcDbEntity
  8
GR1-1
  6
CONTINUOUS
 62
     3
100
AcDbLine
 10
99.74944
 20
63.569672
 30
0.0
 11
97.74944
 21
63.569672
 31
0.0
  0
LINE
  5
DE
330
1F
100
AcDbEntity
  8
GR1-1
  6
CONTINUOUS
 62
     3
100
AcDbLine
 10
72.74944
 20
63.569672
 30
0.0
 11
70.74944
 21
63.569672
 31
0.0
  0
LINE
  5
DF
330
1F
100
AcDbEntity
  8
GR1-1
  6
CENTER
 62
     6
100
AcDbLine
 10
111.421898
 20
71.569672
 30
0.0
 11
63.910145
 21
71.569672
 31
0.0
  0
ARC
  5
E0
330
1F
100
AcDbEntity
  8
GR1-1
  6
CONTINUOUS
 62
     3
100
AcDbCircle
 10
97.24944
 20
109.069672
 30
0.0
 40
0.5
100
AcDbArc
 50
0.0
 51
90.0
  0
ARC
  5
E1
330
1F
100
AcDbEntity
  8
GR1-1
  6
CONTINUOUS
 62
     3
100
AcDbCircle
 10
73.24944
 20
109.069672
 30
0.0
 40
0.5
100
AcDbArc
 50
90.0
 51
180.0
  0
LINE
  5
E2
330
1F
100
AcDbEntity
  8
GR1-1
  6
CONTINUOUS
 62
     3
100
AcDbLine
 10
109.74944
 20
111.569672
 30
0.0
 11
60.74944
 21
111.569672
 31
0.0
  0
LINE
  5
E3
330
1F
100
AcDbEntity
  8
GR1-1
  6
CONTINUOUS
 62
     3
100
AcDbLine
 10
109.74944
 20
109.569672
 30
0.0
 11
60.74944
 21
109.569672
 31
0.0
  0
LINE
  5
E4
330
1F
100
AcDbEntity
  8
GR1-1
  6
DASHED
 62
     3
100
AcDbLine
 10
70.74944
 20
109.569672
 30
0.0
 11
60.74944
 21
109.569672
 31
0.0
  0
LINE
  5
E5
330
1F
100
AcDbEntity
  8
GR1-1
  6
CONTINUOUS
 62
     3
100
AcDbLine
 10
92.74944
 20
107.569672
 30
0.0
 11
77.74944
 21
107.569672
 31
0.0
  0
ARC
  5
E6
330
1F
100
AcDbEntity
  8
GR1-1
  6
CONTINUOUS
 62
     3
100
AcDbCircle
 10
92.74944
 20
110.569672
 30
0.0
 40
3.0
100
AcDbArc
 50
270.0
 51
340.528779
  0
ARC
  5
E7
330
1F
100
AcDbEntity
  8
GR1-1
  6
CONTINUOUS
 62
     3
100
AcDbCircle
 10
77.74944
 20
110.569672
 30
0.0
 40
3.0
100
AcDbArc
 50
199.471221
 51
270.0
  0
LINE
  5
E8
330
1F
100
AcDbEntity
  8
GR1-1
  6
CONTINUOUS
 62
     3
100
AcDbLine
 10
109.74944
 20
111.569672
 30
0.0
 11
109.74944
 21
109.569672
 31
0.0
  0
LINE
  5
E9
330
1F
100
AcDbEntity
  8
GR1-1
  6
CONTINUOUS
 62
     3
100
AcDbLine
 10
60.74944
 20
111.569672
 30
0.0
 11
60.74944
 21
109.569672
 31
0.0
  0
ARC
  5
EA
330
1F
100
AcDbEntity
  8
GR1-1
  6
CONTINUOUS
 62
     7
100
AcDbCircle
 10
177.695691
 20
110.931306
 30
0.0
 40
3.5
100
AcDbArc
 50
205.376934
 51
255.143387
  0
LINE
  5
EB
330
1F
100
AcDbEntity
  8
GR1-1
  6
CONTINUOUS
 62
     3
100
AcDbLine
 10
206.375013
 20
77.431306
 30
0.0
 11
214.867415
 21
107.967192
 31
0.0
  0
LINE
  5
EC
330
1F
100
AcDbEntity
  8
GR1-1
  6
CONTINUOUS
 62
     3
100
AcDbLine
 10
185.174194
 20
77.431306
 30
0.0
 11
176.681791
 21
107.967192
 31
0.0
  0
LINE
  5
ED
330
1F
100
AcDbEntity
  8
GR1-1
  6
CONTINUOUS
 62
     3
100
AcDbLine
 10
206.169952
 20
77.431306
 30
0.0
 11
214.112336
 21
108.79062
 31
0.0
  0
LINE
  5
EE
330
1F
100
AcDbEntity
  8
GR1-1
  6
CONTINUOUS
 62
     3
100
AcDbLine
 10
206.375013
 20
77.431306
 30
0.0
 11
203.318768
 21
68.769432
 31
0.0
  0
LINE
  5
EF
330
1F
100
AcDbEntity
  8
GR1-1
  6
CONTINUOUS
 62
     3
100
AcDbLine
 10
206.169952
 20
77.431306
 30
0.0
 11
203.318768
 21
68.769432
 31
0.0
  0
LINE
  5
F0
330
1F
100
AcDbEntity
  8
GR1-1
  6
CONTINUOUS
 62
     3
100
AcDbLine
 10
177.43687
 20
108.79062
 30
0.0
 11
185.379254
 21
77.431306
 31
0.0
  0
LINE
  5
F1
330
1F
100
AcDbEntity
  8
GR1-1
  6
CONTINUOUS
 62
     3
100
AcDbLine
 10
185.379254
 20
77.431306
 30
0.0
 11
188.098889
 21
69.176663
 31
0.0
  0
LINE
  5
F2
330
1F
100
AcDbEntity
  8
GR1-1
  6
CONTINUOUS
 62
     3
100
AcDbLine
 10
185.174194
 20
77.431306
 30
0.0
 11
188.098889
 21
69.176663
 31
0.0
  0
ARC
  5
F3
330
1F
100
AcDbEntity
  8
GR1-1
  6
CONTINUOUS
 62
     3
100
AcDbCircle
 10
216.794285
 20
107.431306
 30
0.0
 40
2.0
100
AcDbArc
 50
90.0
 51
164.458102
  0
ARC
  5
F4
330
1F
100
AcDbEntity
  8
GR1-1
  6
CONTINUOUS
 62
     3
100
AcDbCircle
 10
174.754922
 20
107.431306
 30
0.0
 40
2.0
100
AcDbArc
 50
15.541898
 51
90.0
  0
ARC
  5
F5
330
1F
100
AcDbEntity
  8
GR1-1
  6
CONTINUOUS
 62
     3
100
AcDbCircle
 10
217.505208
 20
107.931306
 30
0.0
 40
3.5
100
AcDbArc
 50
90.0
 51
165.787538
  0
LINE
  5
F6
330
1F
100
AcDbEntity
  8
GR1-1
  6
CONTINUOUS
 62
     3
100
AcDbLine
 10
166.274603
 20
111.431306
 30
0.0
 11
225.274603
 21
111.431306
 31
0.0
  0
ARC
  5
F7
330
1F
100
AcDbEntity
  8
GR1-1
  6
CONTINUOUS
 62
     3
100
AcDbCircle
 10
174.043998
 20
107.931306
 30
0.0
 40
3.5
100
AcDbArc
 50
14.212461
 51
90.0
  0
LINE
  5
F8
330
1F
100
AcDbEntity
  8
GR1-1
  6
CONTINUOUS
 62
     3
100
AcDbLine
 10
107.930182
 20
105.611899
 30
0.0
 11
100.828442
 21
84.306678
 31
0.0
  0
LINE
  5
F9
330
1F
100
AcDbEntity
  8
GR1-1
  6
CONTINUOUS
 62
     3
100
AcDbLine
 10
109.195196
 20
107.931549
 30
0.0
 11
102.091344
 21
83.058192
 31
0.0
  0
ARC
  5
FA
330
1F
100
AcDbEntity
  8
GR1-1
  6
CONTINUOUS
 62
     3
100
AcDbCircle
 10
158.74944
 20
66.600364
 30
0.0
 40
59.0
100
AcDbArc
 50
163.802677
 51
180.0
  0
ARC
  5
FB
330
1F
100
AcDbEntity
  8
GR1-1
  6
CONTINUOUS
 62
     3
100
AcDbCircle
 10
157.74944
 20
65.333012
 30
0.0
 40
60.0
100
AcDbArc
 50
161.565051
 51
180.0
  0
ARC
  5
FC
330
1F
100
AcDbEntity
  8
GR1-1
  6
CONTINUOUS
 62
     3
100
AcDbCircle
 10
126.903848
 20
99.287343
 30
0.0
 40
20.0
100
AcDbArc
 50
149.061587
 51
161.565051
  0
ARC
  5
FD
330
1F
100
AcDbEntity
  8
GR1-1
  6
CONTINUOUS
 62
     3
100
AcDbCircle
 10
11.74944
 20
66.600364
 30
0.0
 40
59.0
100
AcDbArc
 50
0.0
 51
16.197323
  0
ARC
  5
FE
330
1F
100
AcDbEntity
  8
GR1-1
  6
CONTINUOUS
 62
     3
100
AcDbCircle
 10
12.74944
 20
65.333012
 30
0.0
 40
60.0
100
AcDbArc
 50
0.0
 51
18.434949
  0
ARC
  5
FF
330
1F
100
AcDbEntity
  8
GR1-1
  6
CONTINUOUS
 62
     3
100
AcDbCircle
 10
43.595032
 20
99.287343
 30
0.0
 40
20.0
100
AcDbArc
 50
18.434949
 51
30.938413
  0
LINE
  5
100
330
1F
100
AcDbEntity
  8
GR1-1
  6
CONTINUOUS
 62
     3
100
AcDbLine
 10
62.568698
 20
105.611899
 30
0.0
 11
70.24944
 21
82.569672
 31
0.0
  0
LINE
  5
101
330
1F
100
AcDbEntity
  8
GR1-1
  6
CONTINUOUS
 62
     3
100
AcDbLine
 10
61.475599
 20
107.329544
 30
0.0
 11
68.547162
 21
82.569672
 31
0.0
  0
ARC
  5
102
330
1F
100
AcDbEntity
  8
GR1-1
  6
CONTINUOUS
 62
     3
100
AcDbCircle
 10
44.943813
 20
103.310107
 30
0.0
 40
17.0
100
AcDbArc
 50
13.665389
 51
21.605247
  0
ARC
  5
103
330
1F
100
AcDbEntity
  8
GR1-1
  6
CONTINUOUS
 62
     3
100
AcDbCircle
 10
125.554989
 20
103.30991
 30
0.0
 40
17.0
100
AcDbArc
 50
158.394039
 51
164.225022
  0
LINE
  5
104
330
1F
100
AcDbEntity
  8
GR1-1
  6
CENTER
 62
     6
100
AcDbLine
 10
85.24944
 20
43.68389
 30
0.0
 11
85.24944
 21
115.739749
 31
0.0
  0
LINE
  5
105
330
1F
100
AcDbEntity
  8
GR1-1
  6
CONTINUOUS
 62
     3
100
AcDbLine
 10
70.74944
 20
68.469672
 30
0.0
 11
70.74944
 21
63.569672
 31
0.0
  0
LINE
  5
106
330
1F
100
AcDbEntity
  8
GR1-1
  6
CONTINUOUS
 62
     3
100
AcDbLine
 10
99.74944
 20
68.469672
 30
0.0
 11
99.74944
 21
63.569672
 31
0.0
  0
LINE
  5
107
330
1F
100
AcDbEntity
  8
GR1-1
  6
CONTINUOUS
 62
     3
100
AcDbLine
 10
192.674603
 20
182.081276
 30
0.0
 11
198.874603
 21
182.081276
 31
0.0
  0
LINE
  5
108
330
1F
100
AcDbEntity
  8
GR1-1
  6
CONTINUOUS
 62
     3
100
AcDbLine
 10
200.374603
 20
151.281276
 30
0.0
 11
200.374603
 21
150.581276
 31
0.0
  0
LINE
  5
109
330
1F
100
AcDbEntity
  8
GR1-1
  6
CONTINUOUS
 62
     3
100
AcDbLine
 10
191.174603
 20
151.281276
 30
0.0
 11
191.174603
 21
150.581276
 31
0.0
  0
LINE
  5
10A
330
1F
100
AcDbEntity
  8
GR1-1
  6
CONTINUOUS
 62
     7
100
AcDbLine
 10
191.174603
 20
150.581276
 30
0.0
 11
200.374603
 21
150.581276
 31
0.0
  0
ARC
  5
10B
330
1F
100
AcDbEntity
  8
LAYERGROUP-1
  6
CONTINUOUS
 62
     3
100
AcDbCircle
 10
195.774603
 20
154.871276
 30
0.0
 40
6.289999999999916
100
AcDbArc
 50
223.002869
 51
316.997131
  0
ARC
  5
10C
330
1F
100
AcDbEntity
  8
LAYERGROUP-1
  6
CONTINUOUS
 62
     3
100
AcDbCircle
 10
192.674603
 20
180.581276
 30
0.0
 40
1.5
100
AcDbArc
 50
90.0
 51
180.0
  0
ARC
  5
10D
330
1F
100
AcDbEntity
  8
LAYERGROUP-1
  6
CONTINUOUS
 62
     3
100
AcDbCircle
 10
198.874603
 20
180.581276
 30
0.0
 40
1.5
100
AcDbArc
 50
0.0
 51
90.0
  0
ARC
  5
10E
330
1F
100
AcDbEntity
  8
LAYERGROUP-1
  6
CONTINUOUS
 62
     3
100
AcDbCircle
 10
191.474603
 20
151.281276
 30
0.0
 40
0.3
100
AcDbArc
 50
90.0
 51
180.0
  0
ARC
  5
10F
330
1F
100
AcDbEntity
  8
LAYERGROUP-1
  6
CONTINUOUS
 62
     3
100
AcDbCircle
 10
200.074603
 20
151.281276
 30
0.0
 40
0.3
100
AcDbArc
 50
0.0
 51
90.0
  0
ARC
  5
110
330
1F
100
AcDbEntity
  8
GR1-1
  6
CONTINUOUS
 62
     7
100
AcDbCircle
 10
213.853516
 20
110.931306
 30
0.0
 40
3.5
100
AcDbArc
 50
284.856613
 51
334.623066
  0
LINE
  5
111
330
1F
100
AcDbEntity
  8
GR1-1
  6
CONTINUOUS
 62
     3
100
AcDbLine
 10
97.74944
 20
74.569672
 30
0.0
 11
96.74944
 21
74.569672
 31
0.0
  0
LINE
  5
112
330
1F
100
AcDbEntity
  8
GR1-1
  6
CONTINUOUS
 62
     3
100
AcDbLine
 10
97.74944
 20
68.569672
 30
0.0
 11
96.74944
 21
68.569672
 31
0.0
  0
LINE
  5
113
330
1F
100
AcDbEntity
  8
GR1-1
  6
CONTINUOUS
 62
     3
100
AcDbLine
 10
73.74944
 20
74.569672
 30
0.0
 11
72.74944
 21
74.569672
 31
0.0
  0
LINE
  5
114
330
1F
100
AcDbEntity
  8
GR1-1
  6
CONTINUOUS
 62
     3
100
AcDbLine
 10
73.74944
 20
68.569672
 30
0.0
 11
72.74944
 21
68.569672
 31
0.0
  0
LINE
  5
115
330
1F
100
AcDbEntity
  8
LAYERGROUP-1
  6
CONTINUOUS
 62
     7
100
AcDbLine
 10
195.774603
 20
96.464071
 30
0.0
 11
192.774603
 21
93.464071
 31
0.0
  0
LINE
  5
116
330
1F
100
AcDbEntity
  8
LAYERGROUP-1
  6
CONTINUOUS
 62
     7
100
AcDbLine
 10
192.774603
 20
93.464071
 30
0.0
 11
195.774603
 21
90.464071
 31
0.0
  0
LINE
  5
117
330
1F
100
AcDbEntity
  8
LAYERGROUP-1
  6
CONTINUOUS
 62
     7
100
AcDbLine
 10
195.774603
 20
96.464071
 30
0.0
 11
198.774603
 21
93.464071
 31
0.0
  0
LINE
  5
118
330
1F
100
AcDbEntity
  8
LAYERGROUP-1
  6
CONTINUOUS
 62
     7
100
AcDbLine
 10
197.974603
 20
92.664071
 30
0.0
 11
195.774603
 21
90.464071
 31
0.0
  0
LINE
  5
119
330
1F
100
AcDbEntity
  8
LAYERGROUP-1
  6
CONTINUOUS
 62
     7
100
AcDbLine
 10
195.774603
 20
95.3327
 30
0.0
 11
193.905974
 21
93.464071
 31
0.0
  0
LINE
  5
11A
330
1F
100
AcDbEntity
  8
LAYERGROUP-1
  6
CONTINUOUS
 62
     7
100
AcDbLine
 10
193.905974
 20
93.464071
 30
0.0
 11
195.774603
 21
91.595441
 31
0.0
  0
LINE
  5
11B
330
1F
100
AcDbEntity
  8
LAYERGROUP-1
  6
CONTINUOUS
 62
     7
100
AcDbLine
 10
195.774603
 20
95.3327
 30
0.0
 11
197.643232
 21
93.464071
 31
0.0
  0
LINE
  5
11C
330
1F
100
AcDbEntity
  8
LAYERGROUP-1
  6
CONTINUOUS
 62
     7
100
AcDbLine
 10
196.843232
 20
92.664071
 30
0.0
 11
195.774603
 21
91.595441
 31
0.0
  0
LINE
  5
11D
330
1F
100
AcDbEntity
  8
LAYERGROUP-1
  6
CONTINUOUS
 62
     7
100
AcDbLine
 10
195.774603
 20
93.064071
 30
0.0
 11
198.774603
 21
93.064071
 31
0.0
  0
LINE
  5
11E
330
1F
100
AcDbEntity
  8
LAYERGROUP-1
  6
CONTINUOUS
 62
     7
100
AcDbLine
 10
195.774603
 20
93.064071
 30
0.0
 11
195.774603
 21
92.664071
 31
0.0
  0
LINE
  5
11F
330
1F
100
AcDbEntity
  8
LAYERGROUP-1
  6
CONTINUOUS
 62
     7
100
AcDbLine
 10
195.774603
 20
92.664071
 30
0.0
 11
196.843232
 21
92.664071
 31
0.0
  0
LINE
  5
120
330
1F
100
AcDbEntity
  8
LAYERGROUP-1
  6
CONTINUOUS
 62
     7
100
AcDbLine
 10
197.974603
 20
92.664071
 30
0.0
 11
197.974603
 21
91.064071
 31
0.0
  0
LINE
  5
121
330
1F
100
AcDbEntity
  8
LAYERGROUP-1
  6
CONTINUOUS
 62
     7
100
AcDbLine
 10
197.974603
 20
91.064071
 30
0.0
 11
198.774603
 21
91.064071
 31
0.0
  0
LINE
  5
122
330
1F
100
AcDbEntity
  8
LAYERGROUP-1
  6
CONTINUOUS
 62
     7
100
AcDbLine
 10
198.774603
 20
91.064071
 30
0.0
 11
198.774603
 21
93.064071
 31
0.0
  0
LINE
  5
123
330
1F
100
AcDbEntity
  8
LAYERGROUP-1
  6
CONTINUOUS
 62
     7
100
AcDbLine
 10
197.643232
 20
93.464071
 30
0.0
 11
198.774603
 21
93.464071
 31
0.0
  0
LINE
  5
124
330
1F
100
AcDbEntity
  8
LAYERGROUP-1
  6
CONTINUOUS
 62
     7
100
AcDbLine
 10
192.174603
 20
97.064071
 30
0.0
 11
199.374603
 21
97.064071
 31
0.0
  0
LINE
  5
125
330
1F
100
AcDbEntity
  8
LAYERGROUP-1
  6
CONTINUOUS
 62
     7
100
AcDbLine
 10
199.374603
 20
97.064071
 30
0.0
 11
199.374603
 21
89.864071
 31
0.0
  0
LINE
  5
126
330
1F
100
AcDbEntity
  8
LAYERGROUP-1
  6
CONTINUOUS
 62
     7
100
AcDbLine
 10
199.374603
 20
89.864071
 30
0.0
 11
192.174603
 21
89.864071
 31
0.0
  0
LINE
  5
127
330
1F
100
AcDbEntity
  8
LAYERGROUP-1
  6
CONTINUOUS
 62
     7
100
AcDbLine
 10
192.174603
 20
89.864071
 30
0.0
 11
192.174603
 21
97.064071
 31
0.0
  0
LINE
  5
128
330
1F
100
AcDbEntity
  8
LAYERGROUP-1
  6
CONTINUOUS
 62
     7
100
AcDbLine
 10
191.774603
 20
97.464071
 30
0.0
 11
191.774603
 21
89.464071
 31
0.0
  0
LINE
  5
129
330
1F
100
AcDbEntity
  8
LAYERGROUP-1
  6
CONTINUOUS
 62
     7
100
AcDbLine
 10
191.774603
 20
89.464071
 30
0.0
 11
199.774603
 21
89.464071
 31
0.0
  0
LINE
  5
12A
330
1F
100
AcDbEntity
  8
LAYERGROUP-1
  6
CONTINUOUS
 62
     7
100
AcDbLine
 10
199.774603
 20
89.464071
 30
0.0
 11
199.774603
 21
97.464071
 31
0.0
  0
LINE
  5
12B
330
1F
100
AcDbEntity
  8
LAYERGROUP-1
  6
CONTINUOUS
 62
     7
100
AcDbLine
 10
199.774603
 20
97.464071
 30
0.0
 11
191.774603
 21
97.464071
 31
0.0
  0
TEXT
  5
12C
330
1F
100
AcDbEntity
  8
LAYERGROUP-1
  6
CONTINUOUS
 62
     7
100
AcDbText
 10
191.508621
 20
98.068535
 30
0.0
 40
1.963598
  1
T-50
 41
1.163488
  7
FX_VECTOR
 72
     5
 11
200.103154
 21
98.068535
 31
0.0
100
AcDbText
  0
TEXT
  5
12D
330
1F
100
AcDbEntity
  8
LAYERGROUP-1
  6
CONTINUOUS
 62
     7
100
AcDbText
 10
191.394012
 20
86.86158
 30
0.0
 40
1.973801
  1
JAPAN
 41
1.013482
  7
FX_VECTOR
 72
     5
 11
200.062459
 21
86.86158
 31
0.0
100
AcDbText
  0
ARC
  5
12E
330
1F
100
AcDbEntity
  8
GR1-1
  6
CONTINUOUS
 62
     6
100
AcDbCircle
 10
212.197982
 20
159.081276
 30
0.0
 40
3.500000000000028
100
AcDbArc
 50
167.0
 51
347.0
  0
LINE
  5
12F
330
1F
100
AcDbEntity
  8
GR1-1
  6
CONTINUOUS
 62
     6
100
AcDbLine
 10
210.221995
 20
166.081276
 30
0.0
 11
208.787687
 21
172.293947
 31
0.0
  0
LINE
  5
130
330
1F
100
AcDbEntity
  8
GR1-1
  6
CONTINUOUS
 62
     6
100
AcDbLine
 10
210.221995
 20
166.081276
 30
0.0
 11
208.787687
 21
159.868605
 31
0.0
  0
LINE
  5
131
330
1F
100
AcDbEntity
  8
GR1-1
  6
CONTINUOUS
 62
     6
100
AcDbLine
 10
217.406124
 20
166.081276
 30
0.0
 11
215.608277
 21
173.868605
 31
0.0
  0
LINE
  5
132
330
1F
100
AcDbEntity
  8
GR1-1
  6
CONTINUOUS
 62
     6
100
AcDbLine
 10
217.406124
 20
166.081276
 30
0.0
 11
215.608277
 21
158.293947
 31
0.0
  0
ARC
  5
133
330
1F
100
AcDbEntity
  8
GR1-1
  6
CONTINUOUS
 62
     6
100
AcDbCircle
 10
212.197982
 20
173.081276
 30
0.0
 40
3.500000000000028
100
AcDbArc
 50
13.0
 51
193.0
  0
ARC
  5
134
330
1F
100
AcDbEntity
  8
GR1-1
  6
CONTINUOUS
 62
     6
100
AcDbCircle
 10
179.351224
 20
159.081276
 30
0.0
 40
3.499999999999986
100
AcDbArc
 50
-167.0
 51
13.0
  0
LINE
  5
135
330
1F
100
AcDbEntity
  8
GR1-1
  6
CONTINUOUS
 62
     6
100
AcDbLine
 10
181.327211
 20
166.081276
 30
0.0
 11
182.76152
 21
159.868605
 31
0.0
  0
LINE
  5
136
330
1F
100
AcDbEntity
  8
GR1-1
  6
CONTINUOUS
 62
     6
100
AcDbLine
 10
174.143083
 20
166.081276
 30
0.0
 11
175.940929
 21
158.293947
 31
0.0
  0
LINE
  5
137
330
1F
100
AcDbEntity
  8
GR1-1
  6
CONTINUOUS
 62
     6
100
AcDbLine
 10
174.143083
 20
166.081276
 30
0.0
 11
175.940929
 21
173.868605
 31
0.0
  0
LINE
  5
138
330
1F
100
AcDbEntity
  8
GR1-1
  6
CONTINUOUS
 62
     6
100
AcDbLine
 10
181.327211
 20
166.081276
 30
0.0
 11
182.76152
 21
172.293947
 31
0.0
  0
ARC
  5
139
330
1F
100
AcDbEntity
  8
GR1-1
  6
CONTINUOUS
 62
     6
100
AcDbCircle
 10
179.351224
 20
173.081276
 30
0.0
 40
3.499999999999972
100
AcDbArc
 50
-13.0
 51
167.0
  0
LINE
  5
13A
330
1F
100
AcDbEntity
  8
GR1-1
  6
CONTINUOUS
 62
     6
100
AcDbLine
 10
179.274603
 20
166.081276
 30
0.0
 11
180.812779
 21
172.743849
 31
0.0
  0
LINE
  5
13B
330
1F
100
AcDbEntity
  8
GR1-1
  6
CONTINUOUS
 62
     6
100
AcDbLine
 10
179.274603
 20
166.081276
 30
0.0
 11
180.812779
 21
159.418703
 31
0.0
  0
LINE
  5
13C
330
1F
100
AcDbEntity
  8
GR1-1
  6
CONTINUOUS
 62
     6
100
AcDbLine
 10
176.195691
 20
166.081276
 30
0.0
 11
177.889669
 21
158.743849
 31
0.0
  0
LINE
  5
13D
330
1F
100
AcDbEntity
  8
GR1-1
  6
CONTINUOUS
 62
     6
100
AcDbLine
 10
176.195691
 20
166.081276
 30
0.0
 11
177.889669
 21
173.418703
 31
0.0
  0
ARC
  5
13E
330
1F
100
AcDbEntity
  8
GR1-1
  6
CONTINUOUS
 62
     6
100
AcDbCircle
 10
179.351224
 20
159.081276
 30
0.0
 40
1.499999999999986
100
AcDbArc
 50
-167.0
 51
13.0
  0
ARC
  5
13F
330
1F
100
AcDbEntity
  8
GR1-1
  6
CONTINUOUS
 62
     6
100
AcDbCircle
 10
179.351224
 20
173.081276
 30
0.0
 40
1.499999999999972
100
AcDbArc
 50
-13.0
 51
167.0
  0
LINE
  5
140
330
1F
100
AcDbEntity
  8
GR1-1
  6
CONTINUOUS
 62
     6
100
AcDbLine
 10
212.274603
 20
166.081276
 30
0.0
 11
210.736427
 21
159.418703
 31
0.0
  0
LINE
  5
141
330
1F
100
AcDbEntity
  8
GR1-1
  6
CONTINUOUS
 62
     6
100
AcDbLine
 10
215.353516
 20
166.081276
 30
0.0
 11
213.659537
 21
158.743849
 31
0.0
  0
ARC
  5
142
330
1F
100
AcDbEntity
  8
GR1-1
  6
CONTINUOUS
 62
     6
100
AcDbCircle
 10
212.197982
 20
159.081276
 30
0.0
 40
1.500000000000028
100
AcDbArc
 50
167.0
 51
347.0
  0
LINE
  5
143
330
1F
100
AcDbEntity
  8
GR1-1
  6
CONTINUOUS
 62
     6
100
AcDbLine
 10
215.353516
 20
166.081276
 30
0.0
 11
213.659537
 21
173.418703
 31
0.0
  0
ARC
  5
144
330
1F
100
AcDbEntity
  8
GR1-1
  6
CONTINUOUS
 62
     6
100
AcDbCircle
 10
212.197982
 20
173.081276
 30
0.0
 40
1.500000000000028
100
AcDbArc
 50
13.0
 51
193.0
  0
LINE
  5
145
330
1F
100
AcDbEntity
  8
GR1-1
  6
CONTINUOUS
 62
     6
100
AcDbLine
 10
212.274603
 20
166.081276
 30
0.0
 11
210.736427
 21
172.743849
 31
0.0
  0
LINE
  5
146
330
1F
100
AcDbEntity
  8
GR1-1
  6
CONTINUOUS
 62
     3
100
AcDbLine
 10
100.514294
 20
76.069672
 30
0.0
 11
100.74944
 21
76.069672
 31
0.0
  0
LINE
  5
147
330
1F
100
AcDbEntity
  8
GR1-1
  6
CONTINUOUS
 62
     3
100
AcDbLine
 10
100.04944
 20
67.069672
 30
0.0
 11
100.74944
 21
67.069672
 31
0.0
  0
LINE
  5
148
330
1F
100
AcDbEntity
  8
GR1-1
  6
CONTINUOUS
 62
     7
100
AcDbLine
 10
100.74944
 20
67.069672
 30
0.0
 11
100.74944
 21
76.069672
 31
0.0
  0
ARC
  5
149
330
1F
100
AcDbEntity
  8
LAYERGROUP-1
  6
CONTINUOUS
 62
     3
100
AcDbCircle
 10
96.68694
 20
71.569672
 30
0.0
 40
6.062500000000028
100
AcDbArc
 50
-47.924978
 51
47.924978
  0
ARC
  5
14A
330
1F
100
AcDbEntity
  8
LAYERGROUP-1
  6
CONTINUOUS
 62
     3
100
AcDbCircle
 10
100.04944
 20
67.369672
 30
0.0
 40
0.3
100
AcDbArc
 50
180.0
 51
270.0
  0
LINE
  5
14B
330
1F
100
AcDbEntity
  8
GR1-1
  6
CONTINUOUS
 62
     3
100
AcDbLine
 10
69.24944
 20
74.569672
 30
0.0
 11
69.24944
 21
68.569672
 31
0.0
  0
ARC
  5
14C
330
1F
100
AcDbEntity
  8
LAYERGROUP-1
  6
CONTINUOUS
 62
     3
100
AcDbCircle
 10
70.74944
 20
68.569672
 30
0.0
 40
1.5
100
AcDbArc
 50
180.0
 51
270.0
  0
ARC
  5
14D
330
1F
100
AcDbEntity
  8
LAYERGROUP-1
  6
CONTINUOUS
 62
     3
100
AcDbCircle
 10
70.74944
 20
74.569672
 30
0.0
 40
1.5
100
AcDbArc
 50
119.296045
 51
180.0
  0
CIRCLE
  5
14E
330
1F
100
AcDbEntity
  8
LAYERGROUP-1
  6
CONTINUOUS
 62
     3
100
AcDbCircle
 10
195.774603
 20
71.431306
 30
0.0
 40
4.63836572032659
  0
CIRCLE
  5
14F
330
1F
100
AcDbEntity
  8
LAYERGROUP-1
  6
CONTINUOUS
 62
     3
100
AcDbCircle
 10
195.774603
 20
71.431306
 30
0.0
 40
1.093371119867423
  0
ARC
  5
150
330
1F
100
AcDbEntity
  8
GR1-1
  6
CONTINUOUS
 62
     3
100
AcDbCircle
 10
195.774603
 20
71.431306
 30
0.0
 40
25.0
100
AcDbArc
 50
-234.324779
 51
54.324779
  0
TEXT
  5
151
330
1F
100
AcDbEntity
  8
}}ﾊﾊGG血CCТ
  6
CONTINUOUS
 62
     7
100
AcDbText
 10
132.0
 20
12.0
 30
0.0
 40
6.0
  1
TE20B0LAA-C01
 41
0.736842
  7
FX_VECTOR
 72
     5
 11
184.0
 21
12.0
 31
0.0
100
AcDbText
  0
TEXT
  5
152
330
1F
100
AcDbEntity
  8
GR1-1
  6
CONTINUOUS
 62
     7
100
AcDbText
 10
192.774612
 20
134.115433
 30
0.0
 40
4.0
  1
46
 41
0.851351
  7
FX_VECTOR
 72
     5
 11
198.774612
 21
134.115433
 31
0.0
100
AcDbText
  0
LINE
  5
153
330
1F
100
AcDbEntity
  8
GR1-1
  6
CONTINUOUS
 62
     7
100
AcDbLine
 10
172.774603
 20
133.115431
 30
0.0
 11
218.774603
 21
133.115431
 31
0.0
  0
INSERT
  5
154
330
1F
100
AcDbEntity
  8
GR1-1
  6
CONTINUOUS
 62
     7
100
AcDbBlockReference
  2
FXTIP_ARROW_S
 10
172.774603
 20
133.115431
 30
0.0
 41
3.0
 42
3.0
 50
180.0
  0
INSERT
  5
155
330
1F
100
AcDbEntity
  8
GR1-1
  6
CONTINUOUS
 62
     7
100
AcDbBlockReference
  2
FXTIP_ARROW_E
 10
218.774603
 20
133.115431
 30
0.0
 41
3.0
 42
3.0
 50
360.0
  0
LINE
  5
156
330
1F
100
AcDbEntity
  8
GR1-1
  6
CONTINUOUS
 62
     7
100
AcDbLine
 10
172.774603
 20
144.331276
 30
0.0
 11
172.774603
 21
132.115431
 31
0.0
  0
LINE
  5
157
330
1F
100
AcDbEntity
  8
GR1-1
  6
CONTINUOUS
 62
     7
100
AcDbLine
 10
218.774603
 20
141.746388
 30
0.0
 11
218.774603
 21
132.115431
 31
0.0
  0
TEXT
  5
158
330
1F
100
AcDbEntity
  8
GR1-1
  6
CONTINUOUS
 62
     7
100
AcDbText
 10
192.774612
 20
125.11541
 30
0.0
 40
4.0
  1
59
 41
0.875
  7
FX_VECTOR
 72
     5
 11
198.774612
 21
125.11541
 31
0.0
100
AcDbText
  0
LINE
  5
159
330
1F
100
AcDbEntity
  8
GR1-1
  6
CONTINUOUS
 62
     7
100
AcDbLine
 10
166.274603
 20
124.115431
 30
0.0
 11
225.274603
 21
124.115431
 31
0.0
  0
INSERT
  5
15A
330
1F
100
AcDbEntity
  8
GR1-1
  6
CONTINUOUS
 62
     7
100
AcDbBlockReference
  2
FXTIP_ARROW_S
 10
166.274603
 20
124.115431
 30
0.0
 41
3.0
 42
3.0
 50
180.0
  0
INSERT
  5
15B
330
1F
100
AcDbEntity
  8
GR1-1
  6
CONTINUOUS
 62
     7
100
AcDbBlockReference
  2
FXTIP_ARROW_E
 10
225.274603
 20
124.115431
 30
0.0
 41
3.0
 42
3.0
 50
360.0
  0
LINE
  5
15C
330
1F
100
AcDbEntity
  8
GR1-1
  6
CONTINUOUS
 62
     7
100
AcDbLine
 10
166.274603
 20
147.081276
 30
0.0
 11
166.274603
 21
123.115431
 31
0.0
  0
LINE
  5
15D
330
1F
100
AcDbEntity
  8
GR1-1
  6
CONTINUOUS
 62
     7
100
AcDbLine
 10
225.274603
 20
147.081276
 30
0.0
 11
225.274603
 21
123.115431
 31
0.0
  0
TEXT
  5
15E
330
1F
100
AcDbEntity
  8
LAYERGROUP-1
  6
CONTINUOUS
 62
     7
100
AcDbText
 10
236.461838
 20
163.081299
 30
0.0
 40
4.0
  1
35
 50
90.0
 41
0.851351
  7
FX_VECTOR
 72
     5
 11
236.461838
 21
169.081299
 31
0.0
100
AcDbText
  0
LINE
  5
15F
330
1F
100
AcDbEntity
  8
LAYERGROUP-1
  6
CONTINUOUS
 62
     7
100
AcDbLine
 10
237.461834
 20
148.581276
 30
0.0
 11
237.461834
 21
183.581276
 31
0.0
  0
INSERT
  5
160
330
1F
100
AcDbEntity
  8
LAYERGROUP-1
  6
CONTINUOUS
 62
     7
100
AcDbBlockReference
  2
FXTIP_ARROW_S
 10
237.461834
 20
148.581276
 30
0.0
 41
3.0
 42
3.0
 50
270.0
  0
INSERT
  5
161
330
1F
100
AcDbEntity
  8
LAYERGROUP-1
  6
CONTINUOUS
 62
     7
100
AcDbBlockReference
  2
FXTIP_ARROW_E
 10
237.461834
 20
183.581276
 30
0.0
 41
3.0
 42
3.0
 50
90.0
  0
LINE
  5
162
330
1F
100
AcDbEntity
  8
LAYERGROUP-1
  6
CONTINUOUS
 62
     7
100
AcDbLine
 10
225.474603
 20
148.581276
 30
0.0
 11
238.461834
 21
148.581276
 31
0.0
  0
LINE
  5
163
330
1F
100
AcDbEntity
  8
LAYERGROUP-1
  6
CONTINUOUS
 62
     7
100
AcDbLine
 10
225.474603
 20
183.581276
 30
0.0
 11
238.461834
 21
183.581276
 31
0.0
  0
TEXT
  5
164
330
1F
100
AcDbEntity
  8
LAYERGROUP-1
  6
CONTINUOUS
 62
     7
100
AcDbText
 10
245.461853
 20
163.081299
 30
0.0
 40
4.0
  1
49
 50
90.0
 41
0.875
  7
FX_VECTOR
 72
     5
 11
245.461853
 21
169.081299
 31
0.0
100
AcDbText
  0
LINE
  5
165
330
1F
100
AcDbEntity
  8
LAYERGROUP-1
  6
CONTINUOUS
 62
     7
100
AcDbLine
 10
246.461834
 20
141.581276
 30
0.0
 11
246.461834
 21
190.581276
 31
0.0
  0
INSERT
  5
166
330
1F
100
AcDbEntity
  8
LAYERGROUP-1
  6
CONTINUOUS
 62
     7
100
AcDbBlockReference
  2
FXTIP_ARROW_S
 10
246.461834
 20
141.581276
 30
0.0
 41
3.0
 42
3.0
 50
270.0
  0
INSERT
  5
167
330
1F
100
AcDbEntity
  8
LAYERGROUP-1
  6
CONTINUOUS
 62
     7
100
AcDbBlockReference
  2
FXTIP_ARROW_E
 10
246.461834
 20
190.581276
 30
0.0
 41
3.0
 42
3.0
 50
90.0
  0
LINE
  5
168
330
1F
100
AcDbEntity
  8
LAYERGROUP-1
  6
CONTINUOUS
 62
     7
100
AcDbLine
 10
219.774603
 20
141.581276
 30
0.0
 11
247.461834
 21
141.581276
 31
0.0
  0
LINE
  5
169
330
1F
100
AcDbEntity
  8
LAYERGROUP-1
  6
CONTINUOUS
 62
     7
100
AcDbLine
 10
219.774603
 20
190.581276
 30
0.0
 11
247.461834
 21
190.581276
 31
0.0
  0
TEXT
  5
16A
330
1F
100
AcDbEntity
  8
LAYERGROUP-1
  6
CONTINUOUS
 62
     7
100
AcDbText
 10
245.461838
 20
75.931305
 30
0.0
 40
4.0
  1
65
 50
90.0
 41
0.851351
  7
FX_VECTOR
 72
     5
 11
245.461838
 21
81.931305
 31
0.0
100
AcDbText
  0
LINE
  5
16B
330
1F
100
AcDbEntity
  8
LAYERGROUP-1
  6
CONTINUOUS
 62
     7
100
AcDbLine
 10
246.461834
 20
46.431306
 30
0.0
 11
246.461834
 21
111.431306
 31
0.0
  0
INSERT
  5
16C
330
1F
100
AcDbEntity
  8
LAYERGROUP-1
  6
CONTINUOUS
 62
     7
100
AcDbBlockReference
  2
FXTIP_ARROW_S
 10
246.461834
 20
46.431306
 30
0.0
 41
3.0
 42
3.0
 50
270.0
  0
INSERT
  5
16D
330
1F
100
AcDbEntity
  8
LAYERGROUP-1
  6
CONTINUOUS
 62
     7
100
AcDbBlockReference
  2
FXTIP_ARROW_E
 10
246.461834
 20
111.431306
 30
0.0
 41
3.0
 42
3.0
 50
90.0
  0
LINE
  5
16E
330
1F
100
AcDbEntity
  8
LAYERGROUP-1
  6
CONTINUOUS
 62
     7
100
AcDbLine
 10
196.774603
 20
46.431306
 30
0.0
 11
247.461834
 21
46.431306
 31
0.0
  0
LINE
  5
16F
330
1F
100
AcDbEntity
  8
LAYERGROUP-1
  6
CONTINUOUS
 62
     7
100
AcDbLine
 10
226.274603
 20
111.431306
 30
0.0
 11
247.461834
 21
111.431306
 31
0.0
  0
TEXT
  5
170
330
1F
100
AcDbEntity
  8
LAYERGROUP-1
  6
CONTINUOUS
 62
     7
100
AcDbText
 10
82.249443
 20
37.145313
 30
0.0
 40
4.0
  1
20
 41
0.851351
  7
FX_VECTOR
 72
     5
 11
88.249443
 21
37.145313
 31
0.0
100
AcDbText
  0
LINE
  5
171
330
1F
100
AcDbEntity
  8
LAYERGROUP-1
  6
CONTINUOUS
 62
     7
100
AcDbLine
 10
75.24944
 20
36.145317
 30
0.0
 11
95.24944
 21
36.145317
 31
0.0
  0
INSERT
  5
172
330
1F
100
AcDbEntity
  8
LAYERGROUP-1
  6
CONTINUOUS
 62
     7
100
AcDbBlockReference
  2
FXTIP_ARROW_S
 10
75.24944
 20
36.145317
 30
0.0
 41
3.0
 42
3.0
 50
180.0
  0
INSERT
  5
173
330
1F
100
AcDbEntity
  8
LAYERGROUP-1
  6
CONTINUOUS
 62
     7
100
AcDbBlockReference
  2
FXTIP_ARROW_E
 10
95.24944
 20
36.145317
 30
0.0
 41
3.0
 42
3.0
 50
360.0
  0
LINE
  5
174
330
1F
100
AcDbEntity
  8
LAYERGROUP-1
  6
CONTINUOUS
 62
     7
100
AcDbLine
 10
75.24944
 20
48.58308
 30
0.0
 11
75.24944
 21
35.145317
 31
0.0
  0
LINE
  5
175
330
1F
100
AcDbEntity
  8
LAYERGROUP-1
  6
CONTINUOUS
 62
     7
100
AcDbLine
 10
95.24944
 20
48.58308
 30
0.0
 11
95.24944
 21
35.145317
 31
0.0
  0
TEXT
  5
176
330
1F
100
AcDbEntity
  8
LAYERGROUP-1
  6
CONTINUOUS
 62
     7
100
AcDbText
 10
118.503792
 20
67.069672
 30
0.0
 40
4.0
  1
%%c50
 50
90.0
 41
0.84375
  7
FX_VECTOR
 72
     5
 11
118.503792
 21
76.069672
 31
0.0
100
AcDbText
  0
LINE
  5
177
330
1F
100
AcDbEntity
  8
LAYERGROUP-1
  6
CONTINUOUS
 62
     7
100
AcDbLine
 10
119.503795
 20
46.569672
 30
0.0
 11
119.503795
 21
96.569672
 31
0.0
  0
INSERT
  5
178
330
1F
100
AcDbEntity
  8
LAYERGROUP-1
  6
CONTINUOUS
 62
     7
100
AcDbBlockReference
  2
FXTIP_ARROW_S
 10
119.503795
 20
46.569672
 30
0.0
 41
3.0
 42
3.0
 50
270.0
  0
INSERT
  5
179
330
1F
100
AcDbEntity
  8
LAYERGROUP-1
  6
CONTINUOUS
 62
     7
100
AcDbBlockReference
  2
FXTIP_ARROW_E
 10
119.503795
 20
96.569672
 30
0.0
 41
3.0
 42
3.0
 50
90.0
  0
LINE
  5
17A
330
1F
100
AcDbEntity
  8
LAYERGROUP-1
  6
CONTINUOUS
 62
     7
100
AcDbLine
 10
86.24944
 20
46.569672
 30
0.0
 11
120.503795
 21
46.569672
 31
0.0
  0
LINE
  5
17B
330
1F
100
AcDbEntity
  8
LAYERGROUP-1
  6
CONTINUOUS
 62
     7
100
AcDbLine
 10
86.24944
 20
96.569672
 30
0.0
 11
120.503795
 21
96.569672
 31
0.0
  0
TEXT
  5
17C
330
1F
100
AcDbEntity
  8
LAYERGROUP-1
  6
CONTINUOUS
 62
     7
100
AcDbText
 10
127.571899
 20
131.612473
 30
0.0
 40
4.0
  1
4-%%c6.5
 41
0.84375
  7
FX_VECTOR
 72
     5
 11
145.571899
 21
131.612473
 31
0.0
100
AcDbText
  0
LINE
  5
17D
330
1F
100
AcDbEntity
  8
LAYERGROUP-1
  6
CONTINUOUS
 62
     7
100
AcDbLine
 10
170.006626
 20
146.878102
 30
0.0
 11
175.54258
 21
150.28445
 31
0.0
  0
LINE
  5
17E
330
1F
100
AcDbEntity
  8
LAYERGROUP-1
  6
CONTINUOUS
 62
     7
100
AcDbLine
 10
170.006626
 20
146.878102
 30
0.0
 11
143.5719
 21
130.612456
 31
0.0
  0
INSERT
  5
17F
330
1F
100
AcDbEntity
  8
LAYERGROUP-1
  6
CONTINUOUS
 62
     7
100
AcDbBlockReference
  2
FXTIP_ARROW_S
 10
170.006626
 20
146.878102
 30
0.0
 41
3.0
 42
3.0
 50
31.604551
  0
LINE
  5
180
330
1F
100
AcDbEntity
  8
LAYERGROUP-1
  6
CONTINUOUS
 62
     7
100
AcDbLine
 10
143.5719
 20
130.612456
 30
0.0
 11
129.5719
 21
130.612456
 31
0.0
  0
LINE
  5
181
330
1F
100
AcDbEntity
  8
LAYERGROUP-1
  6
CONTINUOUS
 62
     7
100
AcDbLine
 10
175.54258
 20
150.28445
 30
0.0
 11
180.652692
 21
153.428771
 31
0.0
  0
INSERT
  5
182
330
1F
100
AcDbEntity
  8
LAYERGROUP-1
  6
CONTINUOUS
 62
     7
100
AcDbBlockReference
  2
FXTIP_ARROW_S
 10
175.54258
 20
150.28445
 30
0.0
 41
3.0
 42
3.0
 50
211.604551
  0
TEXT
  5
183
330
1F
100
AcDbEntity
  8
GR1-1
  6
CONTINUOUS
 62
     7
100
AcDbText
 10
236.461838
 20
88.431305
 30
0.0
 40
4.0
  1
40
 50
90.0
 41
0.851351
  7
FX_VECTOR
 72
     5
 11
236.461838
 21
94.431305
 31
0.0
100
AcDbText
  0
LINE
  5
184
330
1F
100
AcDbEntity
  8
GR1-1
  6
CONTINUOUS
 62
     7
100
AcDbLine
 10
237.461834
 20
71.431306
 30
0.0
 11
237.461834
 21
111.431306
 31
0.0
  0
INSERT
  5
185
330
1F
100
AcDbEntity
  8
GR1-1
  6
CONTINUOUS
 62
     7
100
AcDbBlockReference
  2
FXTIP_ARROW_S
 10
237.461834
 20
71.431306
 30
0.0
 41
3.0
 42
3.0
 50
270.0
  0
INSERT
  5
186
330
1F
100
AcDbEntity
  8
GR1-1
  6
CONTINUOUS
 62
     7
100
AcDbBlockReference
  2
FXTIP_ARROW_E
 10
237.461834
 20
111.431306
 30
0.0
 41
3.0
 42
3.0
 50
90.0
  0
LINE
  5
187
330
1F
100
AcDbEntity
  8
GR1-1
  6
CONTINUOUS
 62
     7
100
AcDbLine
 10
224.956167
 20
71.431306
 30
0.0
 11
238.461834
 21
71.431306
 31
0.0
  0
LINE
  5
188
330
1F
100
AcDbEntity
  8
GR1-1
  6
CONTINUOUS
 62
     7
100
AcDbLine
 10
226.274603
 20
111.431306
 30
0.0
 11
238.461834
 21
111.431306
 31
0.0
  0
LINE
  5
189
330
1F
100
AcDbEntity
  8
}}ﾊﾊGG血CCТ
  6
CONTINUOUS
 62
     7
100
AcDbLine
 10
10.0
 20
10.0
 30
0.0
 11
287.0
 21
10.0
 31
0.0
  0
LINE
  5
18A
330
1F
100
AcDbEntity
  8
}}ﾊﾊGG血CCТ
  6
CONTINUOUS
 62
     7
100
AcDbLine
 10
10.0
 20
10.0
 30
0.0
 11
10.0
 21
200.0
 31
0.0
  0
LINE
  5
18B
330
1F
100
AcDbEntity
  8
}}ﾊﾊGG血CCТ
  6
CONTINUOUS
 62
     7
100
AcDbLine
 10
10.0
 20
200.0
 30
0.0
 11
287.0
 21
200.0
 31
0.0
  0
LINE
  5
18C
330
1F
100
AcDbEntity
  8
}}ﾊﾊGG血CCТ
  6
CONTINUOUS
 62
     7
100
AcDbLine
 10
287.0
 20
200.0
 30
0.0
 11
287.0
 21
10.0
 31
0.0
  0
LINE
  5
18D
330
1F
100
AcDbEntity
  8
}}ﾊﾊGG血CCТ
  6
CONTINUOUS
 62
     7
100
AcDbLine
 10
30.0
 20
10.0
 30
0.0
 11
30.0
 21
20.0
 31
0.0
  0
TEXT
  5
18E
330
1F
100
AcDbEntity
  8
}}ﾊﾊGG血CCТ
  6
CONTINUOUS
 62
     7
100
AcDbText
 10
14.738815
 20
11.596879
 30
0.0
 40
6.648749
  1
品名
 41
1.083413
  7
FX_VECTOR
 72
     5
 11
26.058355
 21
11.596879
 31
0.0
100
AcDbText
  0
LINE
  5
18F
330
1F
100
AcDbEntity
  8
}}ﾊﾊGG血CCТ
  6
CONTINUOUS
 62
     7
100
AcDbLine
 10
110.0
 20
20.0
 30
0.0
 11
110.0
 21
10.0
 31
0.0
  0
LINE
  5
190
330
1F
100
AcDbEntity
  8
}}ﾊﾊGG血CCТ
  6
CONTINUOUS
 62
     7
100
AcDbLine
 10
10.0
 20
20.0
 30
0.0
 11
287.0
 21
20.0
 31
0.0
  0
TEXT
  5
191
330
1F
100
AcDbEntity
  8
}}ﾊﾊGG血CCТ
  6
CONTINUOUS
 62
     7
100
AcDbText
 10
226.225754
 20
11.461285
 30
0.0
 40
6.0
  1
GOLD CASTER
 41
0.719626
  7
FX_VECTOR
 72
     5
 11
270.225754
 21
11.461285
 31
0.0
100
AcDbText
  0
LINE
  5
192
330
1F
100
AcDbEntity
  8
}}ﾊﾊGG血CCТ
  6
CONTINUOUS
 62
     7
100
AcDbLine
 10
130.0
 20
10.0
 30
0.0
 11
130.0
 21
20.0
 31
0.0
  0
TEXT
  5
193
330
1F
100
AcDbEntity
  8
}}ﾊﾊGG血CCТ
  6
CONTINUOUS
 62
     7
100
AcDbText
 10
114.738815
 20
11.596879
 30
0.0
 40
6.648749
  1
図番
 41
1.083413
  7
FX_VECTOR
 72
     5
 11
126.058355
 21
11.596879
 31
0.0
100
AcDbText
  0
LINE
  5
194
330
1F
100
AcDbEntity
  8
}}ﾊﾊGG血CCТ
  6
CONTINUOUS
 62
     7
100
AcDbLine
 10
210.0
 20
20.0
 30
0.0
 11
210.0
 21
10.0
 31
0.0
  0
LINE
  5
196
330
1F
100
AcDbEntity
  8
0-1
  6
CONTINUOUS
 62
     7
100
AcDbLine
 10
221.8019
 20
17.913462
 30
0.0
 11
215.8019
 21
17.913462
 31
0.0
  0
LINE
  5
197
330
1F
100
AcDbEntity
  8
0-1
  6
CONTINUOUS
 62
     7
100
AcDbLine
 10
215.8019
 20
17.913462
 30
0.0
 11
215.8019
 21
11.913462
 31
0.0
  0
LINE
  5
198
330
1F
100
AcDbEntity
  8
0-1
  6
CONTINUOUS
 62
     7
100
AcDbLine
 10
215.8019
 20
11.913462
 30
0.0
 11
221.8019
 21
11.913462
 31
0.0
  0
LINE
  5
199
330
1F
100
AcDbEntity
  8
0-1
  6
CONTINUOUS
 62
     7
100
AcDbLine
 10
221.8019
 20
11.913462
 30
0.0
 11
221.8019
 21
17.913462
 31
0.0
  0
LINE
  5
19A
330
1F
100
AcDbEntity
  8
0-1
  6
CONTINUOUS
 62
     7
100
AcDbLine
 10
221.224977
 20
15.346154
 30
0.0
 11
218.8019
 21
17.769231
 31
0.0
  0
LINE
  5
19B
330
1F
100
AcDbEntity
  8
0-1
  6
CONTINUOUS
 62
     7
100
AcDbLine
 10
218.8019
 20
17.769231
 30
0.0
 11
215.946131
 21
14.913462
 31
0.0
  0
LINE
  5
19C
330
1F
100
AcDbEntity
  8
0-1
  6
CONTINUOUS
 62
     7
100
AcDbLine
 10
215.946131
 20
14.913462
 30
0.0
 11
218.8019
 21
12.057692
 31
0.0
  0
LINE
  5
19D
330
1F
100
AcDbEntity
  8
0-1
  6
CONTINUOUS
 62
     7
100
AcDbLine
 10
218.8019
 20
12.057692
 30
0.0
 11
220.359592
 21
13.615385
 31
0.0
  0
LINE
  5
19E
330
1F
100
AcDbEntity
  8
0-1
  6
CONTINUOUS
 62
     7
100
AcDbLine
 10
220.359592
 20
13.615385
 30
0.0
 11
220.359592
 21
12.980769
 31
0.0
  0
LINE
  5
19F
330
1F
100
AcDbEntity
  8
0-1
  6
CONTINUOUS
 62
     7
100
AcDbLine
 10
220.359592
 20
12.980769
 30
0.0
 11
221.224977
 21
12.980769
 31
0.0
  0
LINE
  5
1A0
330
1F
100
AcDbEntity
  8
0-1
  6
CONTINUOUS
 62
     7
100
AcDbLine
 10
221.224977
 20
12.980769
 30
0.0
 11
221.224977
 21
15.0
 31
0.0
  0
LINE
  5
1A1
330
1F
100
AcDbEntity
  8
0-1
  6
CONTINUOUS
 62
     7
100
AcDbLine
 10
221.224977
 20
15.0
 30
0.0
 11
218.8019
 21
15.0
 31
0.0
  0
LINE
  5
1A2
330
1F
100
AcDbEntity
  8
0-1
  6
CONTINUOUS
 62
     7
100
AcDbLine
 10
218.8019
 20
15.0
 30
0.0
 11
218.8019
 21
14.134615
 31
0.0
  0
LINE
  5
1A3
330
1F
100
AcDbEntity
  8
0-1
  6
CONTINUOUS
 62
     7
100
AcDbLine
 10
218.8019
 20
14.134615
 30
0.0
 11
219.246131
 21
14.134615
 31
0.0
  0
LINE
  5
1A4
330
1F
100
AcDbEntity
  8
0-1
  6
CONTINUOUS
 62
     7
100
AcDbLine
 10
219.246131
 20
14.134615
 30
0.0
 11
218.8019
 21
13.690385
 31
0.0
  0
LINE
  5
1A5
330
1F
100
AcDbEntity
  8
0-1
  6
CONTINUOUS
 62
     7
100
AcDbLine
 10
218.8019
 20
13.690385
 30
0.0
 11
217.578823
 21
14.913462
 31
0.0
  0
LINE
  5
1A6
330
1F
100
AcDbEntity
  8
0-1
  6
CONTINUOUS
 62
     7
100
AcDbLine
 10
217.578823
 20
14.913462
 30
0.0
 11
218.8019
 21
16.136538
 31
0.0
  0
LINE
  5
1A7
330
1F
100
AcDbEntity
  8
0-1
  6
CONTINUOUS
 62
     7
100
AcDbLine
 10
218.8019
 20
16.136538
 30
0.0
 11
219.592284
 21
15.346154
 31
0.0
  0
LINE
  5
1A8
330
1F
100
AcDbEntity
  8
0-1
  6
CONTINUOUS
 62
     7
100
AcDbLine
 10
219.592284
 20
15.346154
 30
0.0
 11
221.224977
 21
15.346154
 31
0.0
  0
LINE
  5
1A9
330
1F
100
AcDbEntity
  8
GR1-1
  6
CONTINUOUS
 62
     7
100
AcDbLine
 10
216.72238
 20
11.913462
 30
0.0
 11
217.834255
 21
13.025337
 31
0.0
  0
LINE
  5
1AA
330
1F
100
AcDbEntity
  8
GR1-1
  6
CONTINUOUS
 62
     7
100
AcDbLine
 10
218.650601
 20
13.841683
 30
0.0
 11
218.943534
 21
14.134615
 31
0.0
  0
LINE
  5
1AB
330
1F
100
AcDbEntity
  8
GR1-1
  6
CONTINUOUS
 62
     7
100
AcDbLine
 10
219.808918
 20
15.0
 30
0.0
 11
220.155072
 21
15.346154
 31
0.0
  0
LINE
  5
1AC
330
1F
100
AcDbEntity
  8
GR1-1
  6
CONTINUOUS
 62
     7
100
AcDbLine
 10
220.690024
 20
15.881106
 30
0.0
 11
221.8019
 21
16.992981
 31
0.0
  0
LINE
  5
1AD
330
1F
100
AcDbEntity
  8
GR1-1
  6
CONTINUOUS
 62
     7
100
AcDbLine
 10
216.651669
 20
11.913462
 30
0.0
 11
217.7989
 21
13.060692
 31
0.0
  0
LINE
  5
1AE
330
1F
100
AcDbEntity
  8
GR1-1
  6
CONTINUOUS
 62
     7
100
AcDbLine
 10
218.615246
 20
13.877038
 30
0.0
 11
218.872823
 21
14.134615
 31
0.0
  0
LINE
  5
1AF
330
1F
100
AcDbEntity
  8
GR1-1
  6
CONTINUOUS
 62
     7
100
AcDbLine
 10
219.738208
 20
15.0
 30
0.0
 11
220.084362
 21
15.346154
 31
0.0
  0
LINE
  5
1B0
330
1F
100
AcDbEntity
  8
GR1-1
  6
CONTINUOUS
 62
     7
100
AcDbLine
 10
220.654669
 20
15.916461
 30
0.0
 11
221.8019
 21
17.063692
 31
0.0
  0
LINE
  5
1B1
330
1F
100
AcDbEntity
  8
GR1-1
  6
CONTINUOUS
 62
     7
100
AcDbLine
 10
216.580959
 20
11.913462
 30
0.0
 11
217.763545
 21
13.096047
 31
0.0
  0
LINE
  5
1B2
330
1F
100
AcDbEntity
  8
GR1-1
  6
CONTINUOUS
 62
     7
100
AcDbLine
 10
218.579891
 20
13.912394
 30
0.0
 11
218.802112
 21
14.134615
 31
0.0
  0
LINE
  5
1B3
330
1F
100
AcDbEntity
  8
GR1-1
  6
CONTINUOUS
 62
     7
100
AcDbLine
 10
219.667497
 20
15.0
 30
0.0
 11
220.013651
 21
15.346154
 31
0.0
  0
LINE
  5
1B4
330
1F
100
AcDbEntity
  8
GR1-1
  6
CONTINUOUS
 62
     7
100
AcDbLine
 10
220.619314
 20
15.951817
 30
0.0
 11
221.8019
 21
17.134403
 31
0.0
  0
LINE
  5
1B5
330
1F
100
AcDbEntity
  8
GR1-1
  6
CONTINUOUS
 62
     7
100
AcDbLine
 10
216.510248
 20
11.913462
 30
0.0
 11
217.728189
 21
13.131403
 31
0.0
  0
LINE
  5
1B6
330
1F
100
AcDbEntity
  8
GR1-1
  6
CONTINUOUS
 62
     7
100
AcDbLine
 10
218.544535
 20
13.947749
 30
0.0
 11
218.8019
 21
14.205113
 31
0.0
  0
LINE
  5
1B7
330
1F
100
AcDbEntity
  8
GR1-1
  6
CONTINUOUS
 62
     7
100
AcDbLine
 10
219.596786
 20
15.0
 30
0.0
 11
219.94294
 21
15.346154
 31
0.0
  0
LINE
  5
1B8
330
1F
100
AcDbEntity
  8
GR1-1
  6
CONTINUOUS
 62
     7
100
AcDbLine
 10
220.583958
 20
15.987172
 30
0.0
 11
221.8019
 21
17.205113
 31
0.0
  0
LINE
  5
1B9
330
1F
100
AcDbEntity
  8
GR1-1
  6
CONTINUOUS
 62
     7
100
AcDbLine
 10
216.439537
 20
11.913462
 30
0.0
 11
217.692834
 21
13.166758
 31
0.0
  0
LINE
  5
1BA
330
1F
100
AcDbEntity
  8
GR1-1
  6
CONTINUOUS
 62
     7
100
AcDbLine
 10
218.50918
 20
13.983104
 30
0.0
 11
218.8019
 21
14.275824
 31
0.0
  0
LINE
  5
1BB
330
1F
100
AcDbEntity
  8
GR1-1
  6
CONTINUOUS
 62
     7
100
AcDbLine
 10
219.526076
 20
15.0
 30
0.0
 11
219.87223
 21
15.346154
 31
0.0
  0
LINE
  5
1BC
330
1F
100
AcDbEntity
  8
GR1-1
  6
CONTINUOUS
 62
     7
100
AcDbLine
 10
220.548603
 20
16.022527
 30
0.0
 11
221.8019
 21
17.275824
 31
0.0
  0
LINE
  5
1BD
330
1F
100
AcDbEntity
  8
GR1-1
  6
CONTINUOUS
 62
     7
100
AcDbLine
 10
216.368827
 20
11.913462
 30
0.0
 11
217.657479
 21
13.202114
 31
0.0
  0
LINE
  5
1BE
330
1F
100
AcDbEntity
  8
GR1-1
  6
CONTINUOUS
 62
     7
100
AcDbLine
 10
218.473825
 20
14.01846
 30
0.0
 11
218.8019
 21
14.346535
 31
0.0
  0
LINE
  5
1BF
330
1F
100
AcDbEntity
  8
GR1-1
  6
CONTINUOUS
 62
     7
100
AcDbLine
 10
219.455365
 20
15.0
 30
0.0
 11
219.801519
 21
15.346154
 31
0.0
  0
LINE
  5
1C0
330
1F
100
AcDbEntity
  8
GR1-1
  6
CONTINUOUS
 62
     7
100
AcDbLine
 10
220.513248
 20
16.057883
 30
0.0
 11
221.8019
 21
17.346535
 31
0.0
  0
LINE
  5
1C1
330
1F
100
AcDbEntity
  8
GR1-1
  6
CONTINUOUS
 62
     7
100
AcDbLine
 10
216.298116
 20
11.913462
 30
0.0
 11
217.622123
 21
13.237469
 31
0.0
  0
LINE
  5
1C2
330
1F
100
AcDbEntity
  8
GR1-1
  6
CONTINUOUS
 62
     7
100
AcDbLine
 10
218.438469
 20
14.053815
 30
0.0
 11
218.8019
 21
14.417245
 31
0.0
  0
LINE
  5
1C3
330
1F
100
AcDbEntity
  8
GR1-1
  6
CONTINUOUS
 62
     7
100
AcDbLine
 10
219.384654
 20
15.0
 30
0.0
 11
219.730808
 21
15.346154
 31
0.0
  0
LINE
  5
1C4
330
1F
100
AcDbEntity
  8
GR1-1
  6
CONTINUOUS
 62
     7
100
AcDbLine
 10
220.477892
 20
16.093238
 30
0.0
 11
221.8019
 21
17.417245
 31
0.0
  0
LINE
  5
1C5
330
1F
100
AcDbEntity
  8
GR1-1
  6
CONTINUOUS
 62
     7
100
AcDbLine
 10
216.227405
 20
11.913462
 30
0.0
 11
217.586768
 21
13.272824
 31
0.0
  0
LINE
  5
1C6
330
1F
100
AcDbEntity
  8
GR1-1
  6
CONTINUOUS
 62
     7
100
AcDbLine
 10
218.403114
 20
14.08917
 30
0.0
 11
218.8019
 21
14.487956
 31
0.0
  0
LINE
  5
1C7
330
1F
100
AcDbEntity
  8
GR1-1
  6
CONTINUOUS
 62
     7
100
AcDbLine
 10
219.313944
 20
15.0
 30
0.0
 11
219.660097
 21
15.346154
 31
0.0
  0
LINE
  5
1C8
330
1F
100
AcDbEntity
  8
GR1-1
  6
CONTINUOUS
 62
     7
100
AcDbLine
 10
220.442537
 20
16.128593
 30
0.0
 11
221.8019
 21
17.487956
 31
0.0
  0
LINE
  5
1C9
330
1F
100
AcDbEntity
  8
GR1-1
  6
CONTINUOUS
 62
     7
100
AcDbLine
 10
216.156695
 20
11.913462
 30
0.0
 11
217.551413
 21
13.30818
 31
0.0
  0
LINE
  5
1CA
330
1F
100
AcDbEntity
  8
GR1-1
  6
CONTINUOUS
 62
     7
100
AcDbLine
 10
218.367759
 20
14.124526
 30
0.0
 11
218.8019
 21
14.558667
 31
0.0
  0
LINE
  5
1CB
330
1F
100
AcDbEntity
  8
GR1-1
  6
CONTINUOUS
 62
     7
100
AcDbLine
 10
219.243233
 20
15.0
 30
0.0
 11
219.590836
 21
15.347603
 31
0.0
  0
LINE
  5
1CC
330
1F
100
AcDbEntity
  8
GR1-1
  6
CONTINUOUS
 62
     7
100
AcDbLine
 10
220.407182
 20
16.163949
 30
0.0
 11
221.8019
 21
17.558667
 31
0.0
  0
LINE
  5
1CD
330
1F
100
AcDbEntity
  8
GR1-1
  6
CONTINUOUS
 62
     7
100
AcDbLine
 10
216.085984
 20
11.913462
 30
0.0
 11
217.516057
 21
13.343535
 31
0.0
  0
LINE
  5
1CE
330
1F
100
AcDbEntity
  8
GR1-1
  6
CONTINUOUS
 62
     7
100
AcDbLine
 10
218.332403
 20
14.159881
 30
0.0
 11
218.8019
 21
14.629377
 31
0.0
  0
LINE
  5
1CF
330
1F
100
AcDbEntity
  8
GR1-1
  6
CONTINUOUS
 62
     7
100
AcDbLine
 10
219.172522
 20
15.0
 30
0.0
 11
219.55548
 21
15.382958
 31
0.0
  0
LINE
  5
1D0
330
1F
100
AcDbEntity
  8
GR1-1
  6
CONTINUOUS
 62
     7
100
AcDbLine
 10
220.371826
 20
16.199304
 30
0.0
 11
221.8019
 21
17.629377
 31
0.0
  0
LINE
  5
1D1
330
1F
100
AcDbEntity
  8
GR1-1
  6
CONTINUOUS
 62
     7
100
AcDbLine
 10
216.015273
 20
11.913462
 30
0.0
 11
217.480702
 21
13.37889
 31
0.0
  0
LINE
  5
1D2
330
1F
100
AcDbEntity
  8
GR1-1
  6
CONTINUOUS
 62
     7
100
AcDbLine
 10
218.297048
 20
14.195236
 30
0.0
 11
218.8019
 21
14.700088
 31
0.0
  0
LINE
  5
1D3
330
1F
100
AcDbEntity
  8
GR1-1
  6
CONTINUOUS
 62
     7
100
AcDbLine
 10
219.101812
 20
15.0
 30
0.0
 11
219.520125
 21
15.418313
 31
0.0
  0
LINE
  5
1D4
330
1F
100
AcDbEntity
  8
GR1-1
  6
CONTINUOUS
 62
     7
100
AcDbLine
 10
220.336471
 20
16.234659
 30
0.0
 11
221.8019
 21
17.700088
 31
0.0
  0
LINE
  5
1D5
330
1F
100
AcDbEntity
  8
GR1-1
  6
CONTINUOUS
 62
     7
100
AcDbLine
 10
215.944563
 20
11.913462
 30
0.0
 11
217.445347
 21
13.414246
 31
0.0
  0
LINE
  5
1D6
330
1F
100
AcDbEntity
  8
GR1-1
  6
CONTINUOUS
 62
     7
100
AcDbLine
 10
218.261693
 20
14.230592
 30
0.0
 11
218.8019
 21
14.770799
 31
0.0
  0
LINE
  5
1D7
330
1F
100
AcDbEntity
  8
GR1-1
  6
CONTINUOUS
 62
     7
100
AcDbLine
 10
219.031101
 20
15.0
 30
0.0
 11
219.48477
 21
15.453669
 31
0.0
  0
LINE
  5
1D8
330
1F
100
AcDbEntity
  8
GR1-1
  6
CONTINUOUS
 62
     7
100
AcDbLine
 10
220.301116
 20
16.270015
 30
0.0
 11
221.8019
 21
17.770799
 31
0.0
  0
LINE
  5
1D9
330
1F
100
AcDbEntity
  8
GR1-1
  6
CONTINUOUS
 62
     7
100
AcDbLine
 10
215.873852
 20
11.913462
 30
0.0
 11
217.409991
 21
13.449601
 31
0.0
  0
LINE
  5
1DA
330
1F
100
AcDbEntity
  8
GR1-1
  6
CONTINUOUS
 62
     7
100
AcDbLine
 10
218.226337
 20
14.265947
 30
0.0
 11
218.8019
 21
14.841509
 31
0.0
  0
LINE
  5
1DB
330
1F
100
AcDbEntity
  8
GR1-1
  6
CONTINUOUS
 62
     7
100
AcDbLine
 10
218.96039
 20
15.0
 30
0.0
 11
219.449414
 21
15.489024
 31
0.0
  0
LINE
  5
1DC
330
1F
100
AcDbEntity
  8
GR1-1
  6
CONTINUOUS
 62
     7
100
AcDbLine
 10
220.26576
 20
16.30537
 30
0.0
 11
221.8019
 21
17.841509
 31
0.0
  0
LINE
  5
1DD
330
1F
100
AcDbEntity
  8
GR1-1
  6
CONTINUOUS
 62
     7
100
AcDbLine
 10
215.803141
 20
11.913462
 30
0.0
 11
217.374636
 21
13.484956
 31
0.0
  0
LINE
  5
1DE
330
1F
100
AcDbEntity
  8
GR1-1
  6
CONTINUOUS
 62
     7
100
AcDbLine
 10
218.190982
 20
14.301302
 30
0.0
 11
218.8019
 21
14.91222
 31
0.0
  0
LINE
  5
1DF
330
1F
100
AcDbEntity
  8
GR1-1
  6
CONTINUOUS
 62
     7
100
AcDbLine
 10
218.88968
 20
15.0
 30
0.0
 11
219.414059
 21
15.524379
 31
0.0
  0
LINE
  5
1E0
330
1F
100
AcDbEntity
  8
GR1-1
  6
CONTINUOUS
 62
     7
100
AcDbLine
 10
220.230405
 20
16.340725
 30
0.0
 11
221.8019
 21
17.91222
 31
0.0
  0
LINE
  5
1E1
330
1F
100
AcDbEntity
  8
GR1-1
  6
CONTINUOUS
 62
     7
100
AcDbLine
 10
215.8019
 20
11.982931
 30
0.0
 11
217.339281
 21
13.520312
 31
0.0
  0
LINE
  5
1E2
330
1F
100
AcDbEntity
  8
GR1-1
  6
CONTINUOUS
 62
     7
100
AcDbLine
 10
218.155627
 20
14.336658
 30
0.0
 11
218.8019
 21
14.982931
 31
0.0
  0
LINE
  5
1E3
330
1F
100
AcDbEntity
  8
GR1-1
  6
CONTINUOUS
 62
     7
100
AcDbLine
 10
218.818969
 20
15.0
 30
0.0
 11
219.378704
 21
15.559735
 31
0.0
  0
LINE
  5
1E4
330
1F
100
AcDbEntity
  8
GR1-1
  6
CONTINUOUS
 62
     7
100
AcDbLine
 10
220.19505
 20
16.376081
 30
0.0
 11
221.73243
 21
17.913462
 31
0.0
  0
LINE
  5
1E5
330
1F
100
AcDbEntity
  8
GR1-1
  6
CONTINUOUS
 62
     7
100
AcDbLine
 10
215.8019
 20
12.053642
 30
0.0
 11
217.303925
 21
13.555667
 31
0.0
  0
LINE
  5
1E6
330
1F
100
AcDbEntity
  8
GR1-1
  6
CONTINUOUS
 62
     7
100
AcDbLine
 10
218.120271
 20
14.372013
 30
0.0
 11
219.343348
 21
15.59509
 31
0.0
  0
LINE
  5
1E7
330
1F
100
AcDbEntity
  8
GR1-1
  6
CONTINUOUS
 62
     7
100
AcDbLine
 10
220.159694
 20
16.411436
 30
0.0
 11
221.66172
 21
17.913462
 31
0.0
  0
LINE
  5
1E8
330
1F
100
AcDbEntity
  8
GR1-1
  6
CONTINUOUS
 62
     7
100
AcDbLine
 10
215.8019
 20
12.124352
 30
0.0
 11
217.26857
 21
13.591022
 31
0.0
  0
LINE
  5
1E9
330
1F
100
AcDbEntity
  8
GR1-1
  6
CONTINUOUS
 62
     7
100
AcDbLine
 10
218.084916
 20
14.407368
 30
0.0
 11
219.307993
 21
15.630445
 31
0.0
  0
LINE
  5
1EA
330
1F
100
AcDbEntity
  8
GR1-1
  6
CONTINUOUS
 62
     7
100
AcDbLine
 10
220.124339
 20
16.446791
 30
0.0
 11
221.591009
 21
17.913462
 31
0.0
  0
LINE
  5
1EB
330
1F
100
AcDbEntity
  8
GR1-1
  6
CONTINUOUS
 62
     7
100
AcDbLine
 10
215.8019
 20
12.195063
 30
0.0
 11
217.233214
 21
13.626378
 31
0.0
  0
LINE
  5
1EC
330
1F
100
AcDbEntity
  8
GR1-1
  6
CONTINUOUS
 62
     7
100
AcDbLine
 10
218.049561
 20
14.442724
 30
0.0
 11
219.272638
 21
15.665801
 31
0.0
  0
LINE
  5
1ED
330
1F
100
AcDbEntity
  8
GR1-1
  6
CONTINUOUS
 62
     7
100
AcDbLine
 10
220.088984
 20
16.482147
 30
0.0
 11
221.520298
 21
17.913462
 31
0.0
  0
LINE
  5
1EE
330
1F
100
AcDbEntity
  8
GR1-1
  6
CONTINUOUS
 62
     7
100
AcDbLine
 10
215.8019
 20
12.265774
 30
0.0
 11
217.197859
 21
13.661733
 31
0.0
  0
LINE
  5
1EF
330
1F
100
AcDbEntity
  8
GR1-1
  6
CONTINUOUS
 62
     7
100
AcDbLine
 10
218.014205
 20
14.478079
 30
0.0
 11
219.237282
 21
15.701156
 31
0.0
  0
LINE
  5
1F0
330
1F
100
AcDbEntity
  8
GR1-1
  6
CONTINUOUS
 62
     7
100
AcDbLine
 10
220.053628
 20
16.517502
 30
0.0
 11
221.449588
 21
17.913462
 31
0.0
  0
LINE
  5
1F1
330
1F
100
AcDbEntity
  8
GR1-1
  6
CONTINUOUS
 62
     7
100
AcDbLine
 10
215.8019
 20
12.336484
 30
0.0
 11
217.162504
 21
13.697088
 31
0.0
  0
LINE
  5
1F2
330
1F
100
AcDbEntity
  8
GR1-1
  6
CONTINUOUS
 62
     7
100
AcDbLine
 10
217.97885
 20
14.513434
 30
0.0
 11
219.201927
 21
15.736511
 31
0.0
  0
LINE
  5
1F3
330
1F
100
AcDbEntity
  8
GR1-1
  6
CONTINUOUS
 62
     7
100
AcDbLine
 10
220.018273
 20
16.552857
 30
0.0
 11
221.378877
 21
17.913462
 31
0.0
  0
LINE
  5
1F4
330
1F
100
AcDbEntity
  8
GR1-1
  6
CONTINUOUS
 62
     7
100
AcDbLine
 10
215.8019
 20
12.407195
 30
0.0
 11
217.127148
 21
13.732444
 31
0.0
  0
LINE
  5
1F5
330
1F
100
AcDbEntity
  8
GR1-1
  6
CONTINUOUS
 62
     7
100
AcDbLine
 10
217.943495
 20
14.54879
 30
0.0
 11
219.166572
 21
15.771867
 31
0.0
  0
LINE
  5
1F6
330
1F
100
AcDbEntity
  8
GR1-1
  6
CONTINUOUS
 62
     7
100
AcDbLine
 10
219.982918
 20
16.588213
 30
0.0
 11
221.308166
 21
17.913462
 31
0.0
  0
LINE
  5
1F7
330
1F
100
AcDbEntity
  8
GR1-1
  6
CONTINUOUS
 62
     7
100
AcDbLine
 10
215.8019
 20
12.477906
 30
0.0
 11
217.091793
 21
13.767799
 31
0.0
  0
LINE
  5
1F8
330
1F
100
AcDbEntity
  8
GR1-1
  6
CONTINUOUS
 62
     7
100
AcDbLine
 10
217.908139
 20
14.584145
 30
0.0
 11
219.131216
 21
15.807222
 31
0.0
  0
LINE
  5
1F9
330
1F
100
AcDbEntity
  8
GR1-1
  6
CONTINUOUS
 62
     7
100
AcDbLine
 10
219.947562
 20
16.623568
 30
0.0
 11
221.237456
 21
17.913462
 31
0.0
  0
LINE
  5
1FA
330
1F
100
AcDbEntity
  8
GR1-1
  6
CONTINUOUS
 62
     7
100
AcDbLine
 10
215.8019
 20
12.548616
 30
0.0
 11
217.056438
 21
13.803154
 31
0.0
  0
LINE
  5
1FB
330
1F
100
AcDbEntity
  8
GR1-1
  6
CONTINUOUS
 62
     7
100
AcDbLine
 10
217.872784
 20
14.6195
 30
0.0
 11
219.095861
 21
15.842577
 31
0.0
  0
LINE
  5
1FC
330
1F
100
AcDbEntity
  8
GR1-1
  6
CONTINUOUS
 62
     7
100
AcDbLine
 10
219.912207
 20
16.658923
 30
0.0
 11
221.166745
 21
17.913462
 31
0.0
  0
LINE
  5
1FD
330
1F
100
AcDbEntity
  8
GR1-1
  6
CONTINUOUS
 62
     7
100
AcDbLine
 10
215.8019
 20
12.619327
 30
0.0
 11
217.021082
 21
13.83851
 31
0.0
  0
LINE
  5
1FE
330
1F
100
AcDbEntity
  8
GR1-1
  6
CONTINUOUS
 62
     7
100
AcDbLine
 10
217.837429
 20
14.654856
 30
0.0
 11
219.060506
 21
15.877933
 31
0.0
  0
LINE
  5
1FF
330
1F
100
AcDbEntity
  8
GR1-1
  6
CONTINUOUS
 62
     7
100
AcDbLine
 10
219.876852
 20
16.694279
 30
0.0
 11
221.096034
 21
17.913462
 31
0.0
  0
LINE
  5
200
330
1F
100
AcDbEntity
  8
GR1-1
  6
CONTINUOUS
 62
     7
100
AcDbLine
 10
215.8019
 20
12.690038
 30
0.0
 11
216.985727
 21
13.873865
 31
0.0
  0
LINE
  5
201
330
1F
100
AcDbEntity
  8
GR1-1
  6
CONTINUOUS
 62
     7
100
AcDbLine
 10
217.802073
 20
14.690211
 30
0.0
 11
219.02515
 21
15.913288
 31
0.0
  0
LINE
  5
202
330
1F
100
AcDbEntity
  8
GR1-1
  6
CONTINUOUS
 62
     7
100
AcDbLine
 10
219.841496
 20
16.729634
 30
0.0
 11
221.025324
 21
17.913462
 31
0.0
  0
LINE
  5
203
330
1F
100
AcDbEntity
  8
GR1-1
  6
CONTINUOUS
 62
     7
100
AcDbLine
 10
215.8019
 20
12.760748
 30
0.0
 11
216.950372
 21
13.90922
 31
0.0
  0
LINE
  5
204
330
1F
100
AcDbEntity
  8
GR1-1
  6
CONTINUOUS
 62
     7
100
AcDbLine
 10
217.766718
 20
14.725566
 30
0.0
 11
218.989795
 21
15.948643
 31
0.0
  0
LINE
  5
205
330
1F
100
AcDbEntity
  8
GR1-1
  6
CONTINUOUS
 62
     7
100
AcDbLine
 10
219.806141
 20
16.76499
 30
0.0
 11
220.954613
 21
17.913462
 31
0.0
  0
LINE
  5
206
330
1F
100
AcDbEntity
  8
GR1-1
  6
CONTINUOUS
 62
     7
100
AcDbLine
 10
215.8019
 20
12.831459
 30
0.0
 11
216.915016
 21
13.944576
 31
0.0
  0
LINE
  5
207
330
1F
100
AcDbEntity
  8
GR1-1
  6
CONTINUOUS
 62
     7
100
AcDbLine
 10
217.731363
 20
14.760922
 30
0.0
 11
218.95444
 21
15.983999
 31
0.0
  0
LINE
  5
208
330
1F
100
AcDbEntity
  8
GR1-1
  6
CONTINUOUS
 62
     7
100
AcDbLine
 10
219.770786
 20
16.800345
 30
0.0
 11
220.883902
 21
17.913462
 31
0.0
  0
LINE
  5
209
330
1F
100
AcDbEntity
  8
GR1-1
  6
CONTINUOUS
 62
     7
100
AcDbLine
 10
215.8019
 20
12.90217
 30
0.0
 11
216.879661
 21
13.979931
 31
0.0
  0
LINE
  5
20A
330
1F
100
AcDbEntity
  8
GR1-1
  6
CONTINUOUS
 62
     7
100
AcDbLine
 10
217.696007
 20
14.796277
 30
0.0
 11
218.919084
 21
16.019354
 31
0.0
  0
LINE
  5
20B
330
1F
100
AcDbEntity
  8
GR1-1
  6
CONTINUOUS
 62
     7
100
AcDbLine
 10
219.73543
 20
16.8357
 30
0.0
 11
220.813192
 21
17.913462
 31
0.0
  0
LINE
  5
20C
330
1F
100
AcDbEntity
  8
GR1-1
  6
CONTINUOUS
 62
     7
100
AcDbLine
 10
215.8019
 20
12.97288
 30
0.0
 11
216.844306
 21
14.015286
 31
0.0
  0
LINE
  5
20D
330
1F
100
AcDbEntity
  8
GR1-1
  6
CONTINUOUS
 62
     7
100
AcDbLine
 10
217.660652
 20
14.831632
 30
0.0
 11
218.883729
 21
16.054709
 31
0.0
  0
LINE
  5
20E
330
1F
100
AcDbEntity
  8
GR1-1
  6
CONTINUOUS
 62
     7
100
AcDbLine
 10
219.700075
 20
16.871056
 30
0.0
 11
220.742481
 21
17.913462
 31
0.0
  0
LINE
  5
20F
330
1F
100
AcDbEntity
  8
GR1-1
  6
CONTINUOUS
 62
     7
100
AcDbLine
 10
215.8019
 20
13.043591
 30
0.0
 11
216.80895
 21
14.050642
 31
0.0
  0
LINE
  5
210
330
1F
100
AcDbEntity
  8
GR1-1
  6
CONTINUOUS
 62
     7
100
AcDbLine
 10
217.625297
 20
14.866988
 30
0.0
 11
218.848373
 21
16.090065
 31
0.0
  0
LINE
  5
211
330
1F
100
AcDbEntity
  8
GR1-1
  6
CONTINUOUS
 62
     7
100
AcDbLine
 10
219.66472
 20
16.906411
 30
0.0
 11
220.67177
 21
17.913462
 31
0.0
  0
LINE
  5
212
330
1F
100
AcDbEntity
  8
GR1-1
  6
CONTINUOUS
 62
     7
100
AcDbLine
 10
215.8019
 20
13.114302
 30
0.0
 11
216.773595
 21
14.085997
 31
0.0
  0
LINE
  5
213
330
1F
100
AcDbEntity
  8
GR1-1
  6
CONTINUOUS
 62
     7
100
AcDbLine
 10
217.589941
 20
14.902343
 30
0.0
 11
218.813018
 21
16.12542
 31
0.0
  0
LINE
  5
214
330
1F
100
AcDbEntity
  8
GR1-1
  6
CONTINUOUS
 62
     7
100
AcDbLine
 10
219.629364
 20
16.941766
 30
0.0
 11
220.60106
 21
17.913462
 31
0.0
  0
LINE
  5
215
330
1F
100
AcDbEntity
  8
GR1-1
  6
CONTINUOUS
 62
     7
100
AcDbLine
 10
215.8019
 20
13.185012
 30
0.0
 11
216.73824
 21
14.121352
 31
0.0
  0
LINE
  5
216
330
1F
100
AcDbEntity
  8
GR1-1
  6
CONTINUOUS
 62
     7
100
AcDbLine
 10
219.594009
 20
16.977122
 30
0.0
 11
220.530349
 21
17.913462
 31
0.0
  0
LINE
  5
217
330
1F
100
AcDbEntity
  8
GR1-1
  6
CONTINUOUS
 62
     7
100
AcDbLine
 10
215.8019
 20
13.255723
 30
0.0
 11
216.702884
 21
14.156708
 31
0.0
  0
LINE
  5
218
330
1F
100
AcDbEntity
  8
GR1-1
  6
CONTINUOUS
 62
     7
100
AcDbLine
 10
219.558654
 20
17.012477
 30
0.0
 11
220.459638
 21
17.913462
 31
0.0
  0
LINE
  5
219
330
1F
100
AcDbEntity
  8
GR1-1
  6
CONTINUOUS
 62
     7
100
AcDbLine
 10
215.8019
 20
13.326434
 30
0.0
 11
216.667529
 21
14.192063
 31
0.0
  0
LINE
  5
21A
330
1F
100
AcDbEntity
  8
GR1-1
  6
CONTINUOUS
 62
     7
100
AcDbLine
 10
219.523298
 20
17.047832
 30
0.0
 11
220.388928
 21
17.913462
 31
0.0
  0
LINE
  5
21B
330
1F
100
AcDbEntity
  8
GR1-1
  6
CONTINUOUS
 62
     7
100
AcDbLine
 10
215.8019
 20
13.397144
 30
0.0
 11
216.632174
 21
14.227418
 31
0.0
  0
LINE
  5
21C
330
1F
100
AcDbEntity
  8
GR1-1
  6
CONTINUOUS
 62
     7
100
AcDbLine
 10
219.487943
 20
17.083188
 30
0.0
 11
220.318217
 21
17.913462
 31
0.0
  0
LINE
  5
21D
330
1F
100
AcDbEntity
  8
GR1-1
  6
CONTINUOUS
 62
     7
100
AcDbLine
 10
215.8019
 20
13.467855
 30
0.0
 11
216.596818
 21
14.262774
 31
0.0
  0
LINE
  5
21E
330
1F
100
AcDbEntity
  8
GR1-1
  6
CONTINUOUS
 62
     7
100
AcDbLine
 10
219.452588
 20
17.118543
 30
0.0
 11
220.247506
 21
17.913462
 31
0.0
  0
LINE
  5
21F
330
1F
100
AcDbEntity
  8
GR1-1
  6
CONTINUOUS
 62
     7
100
AcDbLine
 10
215.8019
 20
13.538566
 30
0.0
 11
216.561463
 21
14.298129
 31
0.0
  0
LINE
  5
220
330
1F
100
AcDbEntity
  8
GR1-1
  6
CONTINUOUS
 62
     7
100
AcDbLine
 10
219.417232
 20
17.153898
 30
0.0
 11
220.176796
 21
17.913462
 31
0.0
  0
LINE
  5
221
330
1F
100
AcDbEntity
  8
GR1-1
  6
CONTINUOUS
 62
     7
100
AcDbLine
 10
215.8019
 20
13.609276
 30
0.0
 11
216.526108
 21
14.333484
 31
0.0
  0
LINE
  5
222
330
1F
100
AcDbEntity
  8
GR1-1
  6
CONTINUOUS
 62
     7
100
AcDbLine
 10
219.381877
 20
17.189254
 30
0.0
 11
220.106085
 21
17.913462
 31
0.0
  0
LINE
  5
223
330
1F
100
AcDbEntity
  8
GR1-1
  6
CONTINUOUS
 62
     7
100
AcDbLine
 10
215.8019
 20
13.679987
 30
0.0
 11
216.490752
 21
14.36884
 31
0.0
  0
LINE
  5
224
330
1F
100
AcDbEntity
  8
GR1-1
  6
CONTINUOUS
 62
     7
100
AcDbLine
 10
219.346522
 20
17.224609
 30
0.0
 11
220.035374
 21
17.913462
 31
0.0
  0
LINE
  5
225
330
1F
100
AcDbEntity
  8
GR1-1
  6
CONTINUOUS
 62
     7
100
AcDbLine
 10
215.8019
 20
13.750698
 30
0.0
 11
216.455397
 21
14.404195
 31
0.0
  0
LINE
  5
226
330
1F
100
AcDbEntity
  8
GR1-1
  6
CONTINUOUS
 62
     7
100
AcDbLine
 10
219.311166
 20
17.259964
 30
0.0
 11
219.964664
 21
17.913462
 31
0.0
  0
LINE
  5
227
330
1F
100
AcDbEntity
  8
GR1-1
  6
CONTINUOUS
 62
     7
100
AcDbLine
 10
215.8019
 20
13.821408
 30
0.0
 11
216.420042
 21
14.43955
 31
0.0
  0
LINE
  5
228
330
1F
100
AcDbEntity
  8
GR1-1
  6
CONTINUOUS
 62
     7
100
AcDbLine
 10
219.275811
 20
17.29532
 30
0.0
 11
219.893953
 21
17.913462
 31
0.0
  0
LINE
  5
229
330
1F
100
AcDbEntity
  8
GR1-1
  6
CONTINUOUS
 62
     7
100
AcDbLine
 10
215.8019
 20
13.892119
 30
0.0
 11
216.384686
 21
14.474906
 31
0.0
  0
LINE
  5
22A
330
1F
100
AcDbEntity
  8
GR1-1
  6
CONTINUOUS
 62
     7
100
AcDbLine
 10
219.240456
 20
17.330675
 30
0.0
 11
219.823242
 21
17.913462
 31
0.0
  0
LINE
  5
22B
330
1F
100
AcDbEntity
  8
GR1-1
  6
CONTINUOUS
 62
     7
100
AcDbLine
 10
215.8019
 20
13.96283
 30
0.0
 11
216.349331
 21
14.510261
 31
0.0
  0
LINE
  5
22C
330
1F
100
AcDbEntity
  8
GR1-1
  6
CONTINUOUS
 62
     7
100
AcDbLine
 10
219.2051
 20
17.36603
 30
0.0
 11
219.752531
 21
17.913462
 31
0.0
  0
LINE
  5
22D
330
1F
100
AcDbEntity
  8
GR1-1
  6
CONTINUOUS
 62
     7
100
AcDbLine
 10
215.8019
 20
14.033541
 30
0.0
 11
216.313976
 21
14.545616
 31
0.0
  0
LINE
  5
22E
330
1F
100
AcDbEntity
  8
GR1-1
  6
CONTINUOUS
 62
     7
100
AcDbLine
 10
219.169745
 20
17.401386
 30
0.0
 11
219.681821
 21
17.913462
 31
0.0
  0
LINE
  5
22F
330
1F
100
AcDbEntity
  8
GR1-1
  6
CONTINUOUS
 62
     7
100
AcDbLine
 10
215.8019
 20
14.104251
 30
0.0
 11
216.27862
 21
14.580972
 31
0.0
  0
LINE
  5
230
330
1F
100
AcDbEntity
  8
GR1-1
  6
CONTINUOUS
 62
     7
100
AcDbLine
 10
219.13439
 20
17.436741
 30
0.0
 11
219.61111
 21
17.913462
 31
0.0
  0
LINE
  5
231
330
1F
100
AcDbEntity
  8
GR1-1
  6
CONTINUOUS
 62
     7
100
AcDbLine
 10
215.8019
 20
14.174962
 30
0.0
 11
216.243265
 21
14.616327
 31
0.0
  0
LINE
  5
232
330
1F
100
AcDbEntity
  8
GR1-1
  6
CONTINUOUS
 62
     7
100
AcDbLine
 10
219.099034
 20
17.472096
 30
0.0
 11
219.540399
 21
17.913462
 31
0.0
  0
LINE
  5
233
330
1F
100
AcDbEntity
  8
GR1-1
  6
CONTINUOUS
 62
     7
100
AcDbLine
 10
215.8019
 20
14.245673
 30
0.0
 11
216.20791
 21
14.651682
 31
0.0
  0
LINE
  5
234
330
1F
100
AcDbEntity
  8
GR1-1
  6
CONTINUOUS
 62
     7
100
AcDbLine
 10
219.063679
 20
17.507452
 30
0.0
 11
219.469689
 21
17.913462
 31
0.0
  0
LINE
  5
235
330
1F
100
AcDbEntity
  8
GR1-1
  6
CONTINUOUS
 62
     7
100
AcDbLine
 10
215.8019
 20
14.316383
 30
0.0
 11
216.172554
 21
14.687038
 31
0.0
  0
LINE
  5
236
330
1F
100
AcDbEntity
  8
GR1-1
  6
CONTINUOUS
 62
     7
100
AcDbLine
 10
219.028324
 20
17.542807
 30
0.0
 11
219.398978
 21
17.913462
 31
0.0
  0
LINE
  5
237
330
1F
100
AcDbEntity
  8
GR1-1
  6
CONTINUOUS
 62
     7
100
AcDbLine
 10
215.8019
 20
14.387094
 30
0.0
 11
216.137199
 21
14.722393
 31
0.0
  0
LINE
  5
238
330
1F
100
AcDbEntity
  8
GR1-1
  6
CONTINUOUS
 62
     7
100
AcDbLine
 10
218.992968
 20
17.578162
 30
0.0
 11
219.328267
 21
17.913462
 31
0.0
  0
LINE
  5
239
330
1F
100
AcDbEntity
  8
GR1-1
  6
CONTINUOUS
 62
     7
100
AcDbLine
 10
215.8019
 20
14.457805
 30
0.0
 11
216.101844
 21
14.757748
 31
0.0
  0
LINE
  5
23A
330
1F
100
AcDbEntity
  8
GR1-1
  6
CONTINUOUS
 62
     7
100
AcDbLine
 10
218.957613
 20
17.613518
 30
0.0
 11
219.257557
 21
17.913462
 31
0.0
  0
LINE
  5
23B
330
1F
100
AcDbEntity
  8
GR1-1
  6
CONTINUOUS
 62
     7
100
AcDbLine
 10
215.8019
 20
14.528515
 30
0.0
 11
216.066488
 21
14.793104
 31
0.0
  0
LINE
  5
23C
330
1F
100
AcDbEntity
  8
GR1-1
  6
CONTINUOUS
 62
     7
100
AcDbLine
 10
218.922258
 20
17.648873
 30
0.0
 11
219.186846
 21
17.913462
 31
0.0
  0
LINE
  5
23D
330
1F
100
AcDbEntity
  8
GR1-1
  6
CONTINUOUS
 62
     7
100
AcDbLine
 10
215.8019
 20
14.599226
 30
0.0
 11
216.031133
 21
14.828459
 31
0.0
  0
LINE
  5
23E
330
1F
100
AcDbEntity
  8
GR1-1
  6
CONTINUOUS
 62
     7
100
AcDbLine
 10
218.886902
 20
17.684228
 30
0.0
 11
219.116135
 21
17.913462
 31
0.0
  0
LINE
  5
23F
330
1F
100
AcDbEntity
  8
GR1-1
  6
CONTINUOUS
 62
     7
100
AcDbLine
 10
215.8019
 20
14.669937
 30
0.0
 11
215.995778
 21
14.863814
 31
0.0
  0
LINE
  5
240
330
1F
100
AcDbEntity
  8
GR1-1
  6
CONTINUOUS
 62
     7
100
AcDbLine
 10
218.851547
 20
17.719584
 30
0.0
 11
219.045425
 21
17.913462
 31
0.0
  0
LINE
  5
241
330
1F
100
AcDbEntity
  8
GR1-1
  6
CONTINUOUS
 62
     7
100
AcDbLine
 10
215.8019
 20
14.740647
 30
0.0
 11
215.960422
 21
14.89917
 31
0.0
  0
LINE
  5
242
330
1F
100
AcDbEntity
  8
GR1-1
  6
CONTINUOUS
 62
     7
100
AcDbLine
 10
218.816192
 20
17.754939
 30
0.0
 11
218.974714
 21
17.913462
 31
0.0
  0
LINE
  5
243
330
1F
100
AcDbEntity
  8
GR1-1
  6
CONTINUOUS
 62
     7
100
AcDbLine
 10
215.8019
 20
14.811358
 30
0.0
 11
218.904003
 21
17.913462
 31
0.0
  0
LINE
  5
244
330
1F
100
AcDbEntity
  8
GR1-1
  6
CONTINUOUS
 62
     7
100
AcDbLine
 10
215.8019
 20
14.882069
 30
0.0
 11
218.833293
 21
17.913462
 31
0.0
  0
LINE
  5
245
330
1F
100
AcDbEntity
  8
GR1-1
  6
CONTINUOUS
 62
     7
100
AcDbLine
 10
215.8019
 20
14.952779
 30
0.0
 11
218.762582
 21
17.913462
 31
0.0
  0
LINE
  5
246
330
1F
100
AcDbEntity
  8
GR1-1
  6
CONTINUOUS
 62
     7
100
AcDbLine
 10
215.8019
 20
15.02349
 30
0.0
 11
218.691871
 21
17.913462
 31
0.0
  0
LINE
  5
247
330
1F
100
AcDbEntity
  8
GR1-1
  6
CONTINUOUS
 62
     7
100
AcDbLine
 10
215.8019
 20
15.094201
 30
0.0
 11
218.621161
 21
17.913462
 31
0.0
  0
LINE
  5
248
330
1F
100
AcDbEntity
  8
GR1-1
  6
CONTINUOUS
 62
     7
100
AcDbLine
 10
215.8019
 20
15.164911
 30
0.0
 11
218.55045
 21
17.913462
 31
0.0
  0
LINE
  5
249
330
1F
100
AcDbEntity
  8
GR1-1
  6
CONTINUOUS
 62
     7
100
AcDbLine
 10
215.8019
 20
15.235622
 30
0.0
 11
218.479739
 21
17.913462
 31
0.0
  0
LINE
  5
24A
330
1F
100
AcDbEntity
  8
GR1-1
  6
CONTINUOUS
 62
     7
100
AcDbLine
 10
215.8019
 20
15.306333
 30
0.0
 11
218.409029
 21
17.913462
 31
0.0
  0
LINE
  5
24B
330
1F
100
AcDbEntity
  8
GR1-1
  6
CONTINUOUS
 62
     7
100
AcDbLine
 10
215.8019
 20
15.377043
 30
0.0
 11
218.338318
 21
17.913462
 31
0.0
  0
LINE
  5
24C
330
1F
100
AcDbEntity
  8
GR1-1
  6
CONTINUOUS
 62
     7
100
AcDbLine
 10
215.8019
 20
15.447754
 30
0.0
 11
218.267607
 21
17.913462
 31
0.0
  0
LINE
  5
24D
330
1F
100
AcDbEntity
  8
GR1-1
  6
CONTINUOUS
 62
     7
100
AcDbLine
 10
215.8019
 20
15.518465
 30
0.0
 11
218.196897
 21
17.913462
 31
0.0
  0
LINE
  5
24E
330
1F
100
AcDbEntity
  8
GR1-1
  6
CONTINUOUS
 62
     7
100
AcDbLine
 10
215.8019
 20
15.589175
 30
0.0
 11
218.126186
 21
17.913462
 31
0.0
  0
LINE
  5
24F
330
1F
100
AcDbEntity
  8
GR1-1
  6
CONTINUOUS
 62
     7
100
AcDbLine
 10
215.8019
 20
15.659886
 30
0.0
 11
218.055475
 21
17.913462
 31
0.0
  0
LINE
  5
250
330
1F
100
AcDbEntity
  8
GR1-1
  6
CONTINUOUS
 62
     7
100
AcDbLine
 10
215.8019
 20
15.730597
 30
0.0
 11
217.984765
 21
17.913462
 31
0.0
  0
LINE
  5
251
330
1F
100
AcDbEntity
  8
GR1-1
  6
CONTINUOUS
 62
     7
100
AcDbLine
 10
215.8019
 20
15.801307
 30
0.0
 11
217.914054
 21
17.913462
 31
0.0
  0
LINE
  5
252
330
1F
100
AcDbEntity
  8
GR1-1
  6
CONTINUOUS
 62
     7
100
AcDbLine
 10
215.8019
 20
15.872018
 30
0.0
 11
217.843343
 21
17.913462
 31
0.0
  0
LINE
  5
253
330
1F
100
AcDbEntity
  8
GR1-1
  6
CONTINUOUS
 62
     7
100
AcDbLine
 10
215.8019
 20
15.942729
 30
0.0
 11
217.772632
 21
17.913462
 31
0.0
  0
LINE
  5
254
330
1F
100
AcDbEntity
  8
GR1-1
  6
CONTINUOUS
 62
     7
100
AcDbLine
 10
215.8019
 20
16.013439
 30
0.0
 11
217.701922
 21
17.913462
 31
0.0
  0
LINE
  5
255
330
1F
100
AcDbEntity
  8
GR1-1
  6
CONTINUOUS
 62
     7
100
AcDbLine
 10
215.8019
 20
16.08415
 30
0.0
 11
217.631211
 21
17.913462
 31
0.0
  0
LINE
  5
256
330
1F
100
AcDbEntity
  8
GR1-1
  6
CONTINUOUS
 62
     7
100
AcDbLine
 10
215.8019
 20
16.154861
 30
0.0
 11
217.5605
 21
17.913462
 31
0.0
  0
LINE
  5
257
330
1F
100
AcDbEntity
  8
GR1-1
  6
CONTINUOUS
 62
     7
100
AcDbLine
 10
215.8019
 20
16.225572
 30
0.0
 11
217.48979
 21
17.913462
 31
0.0
  0
LINE
  5
258
330
1F
100
AcDbEntity
  8
GR1-1
  6
CONTINUOUS
 62
     7
100
AcDbLine
 10
215.8019
 20
16.296282
 30
0.0
 11
217.419079
 21
17.913462
 31
0.0
  0
LINE
  5
259
330
1F
100
AcDbEntity
  8
GR1-1
  6
CONTINUOUS
 62
     7
100
AcDbLine
 10
215.8019
 20
16.366993
 30
0.0
 11
217.348368
 21
17.913462
 31
0.0
  0
LINE
  5
25A
330
1F
100
AcDbEntity
  8
GR1-1
  6
CONTINUOUS
 62
     7
100
AcDbLine
 10
215.8019
 20
16.437704
 30
0.0
 11
217.277658
 21
17.913462
 31
0.0
  0
LINE
  5
25B
330
1F
100
AcDbEntity
  8
GR1-1
  6
CONTINUOUS
 62
     7
100
AcDbLine
 10
215.8019
 20
16.508414
 30
0.0
 11
217.206947
 21
17.913462
 31
0.0
  0
LINE
  5
25C
330
1F
100
AcDbEntity
  8
GR1-1
  6
CONTINUOUS
 62
     7
100
AcDbLine
 10
215.8019
 20
16.579125
 30
0.0
 11
217.136236
 21
17.913462
 31
0.0
  0
LINE
  5
25D
330
1F
100
AcDbEntity
  8
GR1-1
  6
CONTINUOUS
 62
     7
100
AcDbLine
 10
215.8019
 20
16.649836
 30
0.0
 11
217.065526
 21
17.913462
 31
0.0
  0
LINE
  5
25E
330
1F
100
AcDbEntity
  8
GR1-1
  6
CONTINUOUS
 62
     7
100
AcDbLine
 10
215.8019
 20
16.720546
 30
0.0
 11
216.994815
 21
17.913462
 31
0.0
  0
LINE
  5
25F
330
1F
100
AcDbEntity
  8
GR1-1
  6
CONTINUOUS
 62
     7
100
AcDbLine
 10
215.8019
 20
16.791257
 30
0.0
 11
216.924104
 21
17.913462
 31
0.0
  0
LINE
  5
260
330
1F
100
AcDbEntity
  8
GR1-1
  6
CONTINUOUS
 62
     7
100
AcDbLine
 10
215.8019
 20
16.861968
 30
0.0
 11
216.853394
 21
17.913462
 31
0.0
  0
LINE
  5
261
330
1F
100
AcDbEntity
  8
GR1-1
  6
CONTINUOUS
 62
     7
100
AcDbLine
 10
215.8019
 20
16.932678
 30
0.0
 11
216.782683
 21
17.913462
 31
0.0
  0
LINE
  5
262
330
1F
100
AcDbEntity
  8
GR1-1
  6
CONTINUOUS
 62
     7
100
AcDbLine
 10
215.8019
 20
17.003389
 30
0.0
 11
216.711972
 21
17.913462
 31
0.0
  0
LINE
  5
263
330
1F
100
AcDbEntity
  8
GR1-1
  6
CONTINUOUS
 62
     7
100
AcDbLine
 10
215.8019
 20
17.0741
 30
0.0
 11
216.641262
 21
17.913462
 31
0.0
  0
LINE
  5
264
330
1F
100
AcDbEntity
  8
GR1-1
  6
CONTINUOUS
 62
     7
100
AcDbLine
 10
215.8019
 20
17.14481
 30
0.0
 11
216.570551
 21
17.913462
 31
0.0
  0
LINE
  5
265
330
1F
100
AcDbEntity
  8
GR1-1
  6
CONTINUOUS
 62
     7
100
AcDbLine
 10
215.8019
 20
17.215521
 30
0.0
 11
216.49984
 21
17.913462
 31
0.0
  0
LINE
  5
266
330
1F
100
AcDbEntity
  8
GR1-1
  6
CONTINUOUS
 62
     7
100
AcDbLine
 10
215.8019
 20
17.286232
 30
0.0
 11
216.42913
 21
17.913462
 31
0.0
  0
LINE
  5
267
330
1F
100
AcDbEntity
  8
GR1-1
  6
CONTINUOUS
 62
     7
100
AcDbLine
 10
215.8019
 20
17.356942
 30
0.0
 11
216.358419
 21
17.913462
 31
0.0
  0
LINE
  5
268
330
1F
100
AcDbEntity
  8
GR1-1
  6
CONTINUOUS
 62
     7
100
AcDbLine
 10
215.8019
 20
17.427653
 30
0.0
 11
216.287708
 21
17.913462
 31
0.0
  0
LINE
  5
269
330
1F
100
AcDbEntity
  8
GR1-1
  6
CONTINUOUS
 62
     7
100
AcDbLine
 10
215.8019
 20
17.498364
 30
0.0
 11
216.216998
 21
17.913462
 31
0.0
  0
LINE
  5
26A
330
1F
100
AcDbEntity
  8
GR1-1
  6
CONTINUOUS
 62
     7
100
AcDbLine
 10
215.8019
 20
17.569074
 30
0.0
 11
216.146287
 21
17.913462
 31
0.0
  0
LINE
  5
26B
330
1F
100
AcDbEntity
  8
GR1-1
  6
CONTINUOUS
 62
     7
100
AcDbLine
 10
215.8019
 20
17.639785
 30
0.0
 11
216.075576
 21
17.913462
 31
0.0
  0
LINE
  5
26C
330
1F
100
AcDbEntity
  8
GR1-1
  6
CONTINUOUS
 62
     7
100
AcDbLine
 10
215.8019
 20
17.710496
 30
0.0
 11
216.004866
 21
17.913462
 31
0.0
  0
LINE
  5
26D
330
1F
100
AcDbEntity
  8
GR1-1
  6
CONTINUOUS
 62
     7
100
AcDbLine
 10
215.8019
 20
17.781206
 30
0.0
 11
215.934155
 21
17.913462
 31
0.0
  0
LINE
  5
26E
330
1F
100
AcDbEntity
  8
GR1-1
  6
CONTINUOUS
 62
     7
100
AcDbLine
 10
215.8019
 20
17.851917
 30
0.0
 11
215.863444
 21
17.913462
 31
0.0
  0
LINE
  5
26F
330
1F
100
AcDbEntity
  8
GR1-1
  6
CONTINUOUS
 62
     7
100
AcDbLine
 10
216.793091
 20
11.913462
 30
0.0
 11
217.869611
 21
12.989981
 31
0.0
  0
LINE
  5
270
330
1F
100
AcDbEntity
  8
GR1-1
  6
CONTINUOUS
 62
     7
100
AcDbLine
 10
218.685957
 20
13.806328
 30
0.0
 11
219.014245
 21
14.134615
 31
0.0
  0
LINE
  5
271
330
1F
100
AcDbEntity
  8
GR1-1
  6
CONTINUOUS
 62
     7
100
AcDbLine
 10
219.879629
 20
15.0
 30
0.0
 11
220.225783
 21
15.346154
 31
0.0
  0
LINE
  5
272
330
1F
100
AcDbEntity
  8
GR1-1
  6
CONTINUOUS
 62
     7
100
AcDbLine
 10
220.72538
 20
15.845751
 30
0.0
 11
221.8019
 21
16.922271
 31
0.0
  0
LINE
  5
273
330
1F
100
AcDbEntity
  8
GR1-1
  6
CONTINUOUS
 62
     7
100
AcDbLine
 10
216.863801
 20
11.913462
 30
0.0
 11
217.904966
 21
12.954626
 31
0.0
  0
LINE
  5
274
330
1F
100
AcDbEntity
  8
GR1-1
  6
CONTINUOUS
 62
     7
100
AcDbLine
 10
218.721312
 20
13.770972
 30
0.0
 11
219.084955
 21
14.134615
 31
0.0
  0
LINE
  5
275
330
1F
100
AcDbEntity
  8
GR1-1
  6
CONTINUOUS
 62
     7
100
AcDbLine
 10
219.95034
 20
15.0
 30
0.0
 11
220.296494
 21
15.346154
 31
0.0
  0
LINE
  5
276
330
1F
100
AcDbEntity
  8
GR1-1
  6
CONTINUOUS
 62
     7
100
AcDbLine
 10
220.760735
 20
15.810395
 30
0.0
 11
221.8019
 21
16.85156
 31
0.0
  0
LINE
  5
277
330
1F
100
AcDbEntity
  8
GR1-1
  6
CONTINUOUS
 62
     7
100
AcDbLine
 10
216.934512
 20
11.913462
 30
0.0
 11
217.940321
 21
12.919271
 31
0.0
  0
LINE
  5
278
330
1F
100
AcDbEntity
  8
GR1-1
  6
CONTINUOUS
 62
     7
100
AcDbLine
 10
218.756667
 20
13.735617
 30
0.0
 11
219.155666
 21
14.134615
 31
0.0
  0
LINE
  5
279
330
1F
100
AcDbEntity
  8
GR1-1
  6
CONTINUOUS
 62
     7
100
AcDbLine
 10
220.02105
 20
15.0
 30
0.0
 11
220.367204
 21
15.346154
 31
0.0
  0
LINE
  5
27A
330
1F
100
AcDbEntity
  8
GR1-1
  6
CONTINUOUS
 62
     7
100
AcDbLine
 10
220.79609
 20
15.77504
 30
0.0
 11
221.8019
 21
16.780849
 31
0.0
  0
LINE
  5
27B
330
1F
100
AcDbEntity
  8
GR1-1
  6
CONTINUOUS
 62
     7
100
AcDbLine
 10
217.005223
 20
11.913462
 30
0.0
 11
217.975677
 21
12.883915
 31
0.0
  0
LINE
  5
27C
330
1F
100
AcDbEntity
  8
GR1-1
  6
CONTINUOUS
 62
     7
100
AcDbLine
 10
218.792023
 20
13.700262
 30
0.0
 11
219.226377
 21
14.134615
 31
0.0
  0
LINE
  5
27D
330
1F
100
AcDbEntity
  8
GR1-1
  6
CONTINUOUS
 62
     7
100
AcDbLine
 10
220.091761
 20
15.0
 30
0.0
 11
220.437915
 21
15.346154
 31
0.0
  0
LINE
  5
27E
330
1F
100
AcDbEntity
  8
GR1-1
  6
CONTINUOUS
 62
     7
100
AcDbLine
 10
220.831446
 20
15.739685
 30
0.0
 11
221.8019
 21
16.710139
 31
0.0
  0
LINE
  5
27F
330
1F
100
AcDbEntity
  8
GR1-1
  6
CONTINUOUS
 62
     7
100
AcDbLine
 10
217.075933
 20
11.913462
 30
0.0
 11
218.011032
 21
12.84856
 31
0.0
  0
LINE
  5
280
330
1F
100
AcDbEntity
  8
GR1-1
  6
CONTINUOUS
 62
     7
100
AcDbLine
 10
220.162472
 20
15.0
 30
0.0
 11
220.508626
 21
15.346154
 31
0.0
  0
LINE
  5
281
330
1F
100
AcDbEntity
  8
GR1-1
  6
CONTINUOUS
 62
     7
100
AcDbLine
 10
220.866801
 20
15.704329
 30
0.0
 11
221.8019
 21
16.639428
 31
0.0
  0
LINE
  5
282
330
1F
100
AcDbEntity
  8
GR1-1
  6
CONTINUOUS
 62
     7
100
AcDbLine
 10
217.146644
 20
11.913462
 30
0.0
 11
218.046387
 21
12.813205
 31
0.0
  0
LINE
  5
283
330
1F
100
AcDbEntity
  8
GR1-1
  6
CONTINUOUS
 62
     7
100
AcDbLine
 10
220.233183
 20
15.0
 30
0.0
 11
220.579336
 21
15.346154
 31
0.0
  0
LINE
  5
284
330
1F
100
AcDbEntity
  8
GR1-1
  6
CONTINUOUS
 62
     7
100
AcDbLine
 10
220.902157
 20
15.668974
 30
0.0
 11
221.8019
 21
16.568717
 31
0.0
  0
LINE
  5
285
330
1F
100
AcDbEntity
  8
GR1-1
  6
CONTINUOUS
 62
     7
100
AcDbLine
 10
217.217355
 20
11.913462
 30
0.0
 11
218.081743
 21
12.777849
 31
0.0
  0
LINE
  5
286
330
1F
100
AcDbEntity
  8
GR1-1
  6
CONTINUOUS
 62
     7
100
AcDbLine
 10
220.303893
 20
15.0
 30
0.0
 11
220.650047
 21
15.346154
 31
0.0
  0
LINE
  5
287
330
1F
100
AcDbEntity
  8
GR1-1
  6
CONTINUOUS
 62
     7
100
AcDbLine
 10
220.937512
 20
15.633619
 30
0.0
 11
221.8019
 21
16.498007
 31
0.0
  0
LINE
  5
288
330
1F
100
AcDbEntity
  8
GR1-1
  6
CONTINUOUS
 62
     7
100
AcDbLine
 10
217.288065
 20
11.913462
 30
0.0
 11
218.117098
 21
12.742494
 31
0.0
  0
LINE
  5
289
330
1F
100
AcDbEntity
  8
GR1-1
  6
CONTINUOUS
 62
     7
100
AcDbLine
 10
220.374604
 20
15.0
 30
0.0
 11
220.720758
 21
15.346154
 31
0.0
  0
LINE
  5
28A
330
1F
100
AcDbEntity
  8
GR1-1
  6
CONTINUOUS
 62
     7
100
AcDbLine
 10
220.972867
 20
15.598263
 30
0.0
 11
221.8019
 21
16.427296
 31
0.0
  0
LINE
  5
28B
330
1F
100
AcDbEntity
  8
GR1-1
  6
CONTINUOUS
 62
     7
100
AcDbLine
 10
217.358776
 20
11.913462
 30
0.0
 11
218.152453
 21
12.707139
 31
0.0
  0
LINE
  5
28C
330
1F
100
AcDbEntity
  8
GR1-1
  6
CONTINUOUS
 62
     7
100
AcDbLine
 10
220.445315
 20
15.0
 30
0.0
 11
220.791468
 21
15.346154
 31
0.0
  0
LINE
  5
28D
330
1F
100
AcDbEntity
  8
GR1-1
  6
CONTINUOUS
 62
     7
100
AcDbLine
 10
221.008223
 20
15.562908
 30
0.0
 11
221.8019
 21
16.356585
 31
0.0
  0
LINE
  5
28E
330
1F
100
AcDbEntity
  8
GR1-1
  6
CONTINUOUS
 62
     7
100
AcDbLine
 10
217.429487
 20
11.913462
 30
0.0
 11
218.187809
 21
12.671783
 31
0.0
  0
LINE
  5
28F
330
1F
100
AcDbEntity
  8
GR1-1
  6
CONTINUOUS
 62
     7
100
AcDbLine
 10
220.516025
 20
15.0
 30
0.0
 11
220.862179
 21
15.346154
 31
0.0
  0
LINE
  5
290
330
1F
100
AcDbEntity
  8
GR1-1
  6
CONTINUOUS
 62
     7
100
AcDbLine
 10
221.043578
 20
15.527553
 30
0.0
 11
221.8019
 21
16.285875
 31
0.0
  0
LINE
  5
291
330
1F
100
AcDbEntity
  8
GR1-1
  6
CONTINUOUS
 62
     7
100
AcDbLine
 10
217.500197
 20
11.913462
 30
0.0
 11
218.223164
 21
12.636428
 31
0.0
  0
LINE
  5
292
330
1F
100
AcDbEntity
  8
GR1-1
  6
CONTINUOUS
 62
     7
100
AcDbLine
 10
220.586736
 20
15.0
 30
0.0
 11
220.93289
 21
15.346154
 31
0.0
  0
LINE
  5
293
330
1F
100
AcDbEntity
  8
GR1-1
  6
CONTINUOUS
 62
     7
100
AcDbLine
 10
221.078933
 20
15.492197
 30
0.0
 11
221.8019
 21
16.215164
 31
0.0
  0
LINE
  5
294
330
1F
100
AcDbEntity
  8
GR1-1
  6
CONTINUOUS
 62
     7
100
AcDbLine
 10
217.570908
 20
11.913462
 30
0.0
 11
218.258519
 21
12.601073
 31
0.0
  0
LINE
  5
295
330
1F
100
AcDbEntity
  8
GR1-1
  6
CONTINUOUS
 62
     7
100
AcDbLine
 10
220.657447
 20
15.0
 30
0.0
 11
221.0036
 21
15.346154
 31
0.0
  0
LINE
  5
296
330
1F
100
AcDbEntity
  8
GR1-1
  6
CONTINUOUS
 62
     7
100
AcDbLine
 10
221.114289
 20
15.456842
 30
0.0
 11
221.8019
 21
16.144453
 31
0.0
  0
LINE
  5
297
330
1F
100
AcDbEntity
  8
GR1-1
  6
CONTINUOUS
 62
     7
100
AcDbLine
 10
217.641619
 20
11.913462
 30
0.0
 11
218.293875
 21
12.565717
 31
0.0
  0
LINE
  5
298
330
1F
100
AcDbEntity
  8
GR1-1
  6
CONTINUOUS
 62
     7
100
AcDbLine
 10
220.728157
 20
15.0
 30
0.0
 11
221.074311
 21
15.346154
 31
0.0
  0
LINE
  5
299
330
1F
100
AcDbEntity
  8
GR1-1
  6
CONTINUOUS
 62
     7
100
AcDbLine
 10
221.149644
 20
15.421487
 30
0.0
 11
221.8019
 21
16.073743
 31
0.0
  0
LINE
  5
29A
330
1F
100
AcDbEntity
  8
GR1-1
  6
CONTINUOUS
 62
     7
100
AcDbLine
 10
217.712329
 20
11.913462
 30
0.0
 11
218.32923
 21
12.530362
 31
0.0
  0
LINE
  5
29B
330
1F
100
AcDbEntity
  8
GR1-1
  6
CONTINUOUS
 62
     7
100
AcDbLine
 10
220.798868
 20
15.0
 30
0.0
 11
221.145022
 21
15.346154
 31
0.0
  0
LINE
  5
29C
330
1F
100
AcDbEntity
  8
GR1-1
  6
CONTINUOUS
 62
     7
100
AcDbLine
 10
221.184999
 20
15.386131
 30
0.0
 11
221.8019
 21
16.003032
 31
0.0
  0
LINE
  5
29D
330
1F
100
AcDbEntity
  8
GR1-1
  6
CONTINUOUS
 62
     7
100
AcDbLine
 10
217.78304
 20
11.913462
 30
0.0
 11
218.364585
 21
12.495007
 31
0.0
  0
LINE
  5
29E
330
1F
100
AcDbEntity
  8
GR1-1
  6
CONTINUOUS
 62
     7
100
AcDbLine
 10
220.869579
 20
15.0
 30
0.0
 11
221.215732
 21
15.346154
 31
0.0
  0
LINE
  5
29F
330
1F
100
AcDbEntity
  8
GR1-1
  6
CONTINUOUS
 62
     7
100
AcDbLine
 10
221.220355
 20
15.350776
 30
0.0
 11
221.8019
 21
15.932321
 31
0.0
  0
LINE
  5
2A0
330
1F
100
AcDbEntity
  8
GR1-1
  6
CONTINUOUS
 62
     7
100
AcDbLine
 10
217.853751
 20
11.913462
 30
0.0
 11
218.399941
 21
12.459651
 31
0.0
  0
LINE
  5
2A1
330
1F
100
AcDbEntity
  8
GR1-1
  6
CONTINUOUS
 62
     7
100
AcDbLine
 10
220.940289
 20
15.0
 30
0.0
 11
221.8019
 21
15.86161
 31
0.0
  0
LINE
  5
2A2
330
1F
100
AcDbEntity
  8
GR1-1
  6
CONTINUOUS
 62
     7
100
AcDbLine
 10
217.924461
 20
11.913462
 30
0.0
 11
218.435296
 21
12.424296
 31
0.0
  0
LINE
  5
2A3
330
1F
100
AcDbEntity
  8
GR1-1
  6
CONTINUOUS
 62
     7
100
AcDbLine
 10
221.011
 20
15.0
 30
0.0
 11
221.8019
 21
15.7909
 31
0.0
  0
LINE
  5
2A4
330
1F
100
AcDbEntity
  8
GR1-1
  6
CONTINUOUS
 62
     7
100
AcDbLine
 10
217.995172
 20
11.913462
 30
0.0
 11
218.470651
 21
12.388941
 31
0.0
  0
LINE
  5
2A5
330
1F
100
AcDbEntity
  8
GR1-1
  6
CONTINUOUS
 62
     7
100
AcDbLine
 10
221.081711
 20
15.0
 30
0.0
 11
221.8019
 21
15.720189
 31
0.0
  0
LINE
  5
2A6
330
1F
100
AcDbEntity
  8
GR1-1
  6
CONTINUOUS
 62
     7
100
AcDbLine
 10
218.065883
 20
11.913462
 30
0.0
 11
218.506007
 21
12.353585
 31
0.0
  0
LINE
  5
2A7
330
1F
100
AcDbEntity
  8
GR1-1
  6
CONTINUOUS
 62
     7
100
AcDbLine
 10
221.152421
 20
15.0
 30
0.0
 11
221.8019
 21
15.649478
 31
0.0
  0
LINE
  5
2A8
330
1F
100
AcDbEntity
  8
GR1-1
  6
CONTINUOUS
 62
     7
100
AcDbLine
 10
218.136594
 20
11.913462
 30
0.0
 11
218.541362
 21
12.31823
 31
0.0
  0
LINE
  5
2A9
330
1F
100
AcDbEntity
  8
GR1-1
  6
CONTINUOUS
 62
     7
100
AcDbLine
 10
221.223132
 20
15.0
 30
0.0
 11
221.8019
 21
15.578768
 31
0.0
  0
LINE
  5
2AA
330
1F
100
AcDbEntity
  8
GR1-1
  6
CONTINUOUS
 62
     7
100
AcDbLine
 10
218.207304
 20
11.913462
 30
0.0
 11
218.576717
 21
12.282875
 31
0.0
  0
LINE
  5
2AB
330
1F
100
AcDbEntity
  8
GR1-1
  6
CONTINUOUS
 62
     7
100
AcDbLine
 10
221.224977
 20
14.931134
 30
0.0
 11
221.8019
 21
15.508057
 31
0.0
  0
LINE
  5
2AC
330
1F
100
AcDbEntity
  8
GR1-1
  6
CONTINUOUS
 62
     7
100
AcDbLine
 10
218.278015
 20
11.913462
 30
0.0
 11
218.612073
 21
12.247519
 31
0.0
  0
LINE
  5
2AD
330
1F
100
AcDbEntity
  8
GR1-1
  6
CONTINUOUS
 62
     7
100
AcDbLine
 10
221.224977
 20
14.860423
 30
0.0
 11
221.8019
 21
15.437346
 31
0.0
  0
LINE
  5
2AE
330
1F
100
AcDbEntity
  8
GR1-1
  6
CONTINUOUS
 62
     7
100
AcDbLine
 10
218.348726
 20
11.913462
 30
0.0
 11
218.647428
 21
12.212164
 31
0.0
  0
LINE
  5
2AF
330
1F
100
AcDbEntity
  8
GR1-1
  6
CONTINUOUS
 62
     7
100
AcDbLine
 10
221.224977
 20
14.789713
 30
0.0
 11
221.8019
 21
15.366636
 31
0.0
  0
LINE
  5
2B0
330
1F
100
AcDbEntity
  8
GR1-1
  6
CONTINUOUS
 62
     7
100
AcDbLine
 10
218.419436
 20
11.913462
 30
0.0
 11
218.682783
 21
12.176809
 31
0.0
  0
LINE
  5
2B1
330
1F
100
AcDbEntity
  8
GR1-1
  6
CONTINUOUS
 62
     7
100
AcDbLine
 10
221.224977
 20
14.719002
 30
0.0
 11
221.8019
 21
15.295925
 31
0.0
  0
LINE
  5
2B2
330
1F
100
AcDbEntity
  8
GR1-1
  6
CONTINUOUS
 62
     7
100
AcDbLine
 10
218.490147
 20
11.913462
 30
0.0
 11
218.718139
 21
12.141453
 31
0.0
  0
LINE
  5
2B3
330
1F
100
AcDbEntity
  8
GR1-1
  6
CONTINUOUS
 62
     7
100
AcDbLine
 10
221.224977
 20
14.648291
 30
0.0
 11
221.8019
 21
15.225214
 31
0.0
  0
LINE
  5
2B4
330
1F
100
AcDbEntity
  8
GR1-1
  6
CONTINUOUS
 62
     7
100
AcDbLine
 10
218.560858
 20
11.913462
 30
0.0
 11
218.753494
 21
12.106098
 31
0.0
  0
LINE
  5
2B5
330
1F
100
AcDbEntity
  8
GR1-1
  6
CONTINUOUS
 62
     7
100
AcDbLine
 10
221.224977
 20
14.577581
 30
0.0
 11
221.8019
 21
15.154504
 31
0.0
  0
LINE
  5
2B6
330
1F
100
AcDbEntity
  8
GR1-1
  6
CONTINUOUS
 62
     7
100
AcDbLine
 10
218.631568
 20
11.913462
 30
0.0
 11
218.788849
 21
12.070743
 31
0.0
  0
LINE
  5
2B7
330
1F
100
AcDbEntity
  8
GR1-1
  6
CONTINUOUS
 62
     7
100
AcDbLine
 10
221.224977
 20
14.50687
 30
0.0
 11
221.8019
 21
15.083793
 31
0.0
  0
LINE
  5
2B8
330
1F
100
AcDbEntity
  8
GR1-1
  6
CONTINUOUS
 62
     7
100
AcDbLine
 10
218.702279
 20
11.913462
 30
0.0
 11
220.359592
 21
13.570775
 31
0.0
  0
LINE
  5
2B9
330
1F
100
AcDbEntity
  8
GR1-1
  6
CONTINUOUS
 62
     7
100
AcDbLine
 10
221.224977
 20
14.436159
 30
0.0
 11
221.8019
 21
15.013082
 31
0.0
  0
LINE
  5
2BA
330
1F
100
AcDbEntity
  8
GR1-1
  6
CONTINUOUS
 62
     7
100
AcDbLine
 10
218.77299
 20
11.913462
 30
0.0
 11
220.359592
 21
13.500064
 31
0.0
  0
LINE
  5
2BB
330
1F
100
AcDbEntity
  8
GR1-1
  6
CONTINUOUS
 62
     7
100
AcDbLine
 10
221.224977
 20
14.365449
 30
0.0
 11
221.8019
 21
14.942372
 31
0.0
  0
LINE
  5
2BC
330
1F
100
AcDbEntity
  8
GR1-1
  6
CONTINUOUS
 62
     7
100
AcDbLine
 10
218.8437
 20
11.913462
 30
0.0
 11
220.359592
 21
13.429353
 31
0.0
  0
LINE
  5
2BD
330
1F
100
AcDbEntity
  8
GR1-1
  6
CONTINUOUS
 62
     7
100
AcDbLine
 10
221.224977
 20
14.294738
 30
0.0
 11
221.8019
 21
14.871661
 31
0.0
  0
LINE
  5
2BE
330
1F
100
AcDbEntity
  8
GR1-1
  6
CONTINUOUS
 62
     7
100
AcDbLine
 10
218.914411
 20
11.913462
 30
0.0
 11
220.359592
 21
13.358643
 31
0.0
  0
LINE
  5
2BF
330
1F
100
AcDbEntity
  8
GR1-1
  6
CONTINUOUS
 62
     7
100
AcDbLine
 10
221.224977
 20
14.224027
 30
0.0
 11
221.8019
 21
14.80095
 31
0.0
  0
LINE
  5
2C0
330
1F
100
AcDbEntity
  8
GR1-1
  6
CONTINUOUS
 62
     7
100
AcDbLine
 10
218.985122
 20
11.913462
 30
0.0
 11
220.359592
 21
13.287932
 31
0.0
  0
LINE
  5
2C1
330
1F
100
AcDbEntity
  8
GR1-1
  6
CONTINUOUS
 62
     7
100
AcDbLine
 10
221.224977
 20
14.153317
 30
0.0
 11
221.8019
 21
14.73024
 31
0.0
  0
LINE
  5
2C2
330
1F
100
AcDbEntity
  8
GR1-1
  6
CONTINUOUS
 62
     7
100
AcDbLine
 10
219.055832
 20
11.913462
 30
0.0
 11
220.359592
 21
13.217221
 31
0.0
  0
LINE
  5
2C3
330
1F
100
AcDbEntity
  8
GR1-1
  6
CONTINUOUS
 62
     7
100
AcDbLine
 10
221.224977
 20
14.082606
 30
0.0
 11
221.8019
 21
14.659529
 31
0.0
  0
LINE
  5
2C4
330
1F
100
AcDbEntity
  8
GR1-1
  6
CONTINUOUS
 62
     7
100
AcDbLine
 10
219.126543
 20
11.913462
 30
0.0
 11
220.359592
 21
13.146511
 31
0.0
  0
LINE
  5
2C5
330
1F
100
AcDbEntity
  8
GR1-1
  6
CONTINUOUS
 62
     7
100
AcDbLine
 10
221.224977
 20
14.011895
 30
0.0
 11
221.8019
 21
14.588818
 31
0.0
  0
LINE
  5
2C6
330
1F
100
AcDbEntity
  8
GR1-1
  6
CONTINUOUS
 62
     7
100
AcDbLine
 10
219.197254
 20
11.913462
 30
0.0
 11
220.359592
 21
13.0758
 31
0.0
  0
LINE
  5
2C7
330
1F
100
AcDbEntity
  8
GR1-1
  6
CONTINUOUS
 62
     7
100
AcDbLine
 10
221.224977
 20
13.941185
 30
0.0
 11
221.8019
 21
14.518108
 31
0.0
  0
LINE
  5
2C8
330
1F
100
AcDbEntity
  8
GR1-1
  6
CONTINUOUS
 62
     7
100
AcDbLine
 10
219.267964
 20
11.913462
 30
0.0
 11
220.359592
 21
13.005089
 31
0.0
  0
LINE
  5
2C9
330
1F
100
AcDbEntity
  8
GR1-1
  6
CONTINUOUS
 62
     7
100
AcDbLine
 10
221.224977
 20
13.870474
 30
0.0
 11
221.8019
 21
14.447397
 31
0.0
  0
LINE
  5
2CA
330
1F
100
AcDbEntity
  8
GR1-1
  6
CONTINUOUS
 62
     7
100
AcDbLine
 10
219.338675
 20
11.913462
 30
0.0
 11
220.405983
 21
12.980769
 31
0.0
  0
LINE
  5
2CB
330
1F
100
AcDbEntity
  8
GR1-1
  6
CONTINUOUS
 62
     7
100
AcDbLine
 10
221.224977
 20
13.799763
 30
0.0
 11
221.8019
 21
14.376686
 31
0.0
  0
LINE
  5
2CC
330
1F
100
AcDbEntity
  8
GR1-1
  6
CONTINUOUS
 62
     7
100
AcDbLine
 10
219.409386
 20
11.913462
 30
0.0
 11
220.476693
 21
12.980769
 31
0.0
  0
LINE
  5
2CD
330
1F
100
AcDbEntity
  8
GR1-1
  6
CONTINUOUS
 62
     7
100
AcDbLine
 10
221.224977
 20
13.729052
 30
0.0
 11
221.8019
 21
14.305976
 31
0.0
  0
LINE
  5
2CE
330
1F
100
AcDbEntity
  8
GR1-1
  6
CONTINUOUS
 62
     7
100
AcDbLine
 10
219.480096
 20
11.913462
 30
0.0
 11
220.547404
 21
12.980769
 31
0.0
  0
LINE
  5
2CF
330
1F
100
AcDbEntity
  8
GR1-1
  6
CONTINUOUS
 62
     7
100
AcDbLine
 10
221.224977
 20
13.658342
 30
0.0
 11
221.8019
 21
14.235265
 31
0.0
  0
LINE
  5
2D0
330
1F
100
AcDbEntity
  8
GR1-1
  6
CONTINUOUS
 62
     7
100
AcDbLine
 10
219.550807
 20
11.913462
 30
0.0
 11
220.618115
 21
12.980769
 31
0.0
  0
LINE
  5
2D1
330
1F
100
AcDbEntity
  8
GR1-1
  6
CONTINUOUS
 62
     7
100
AcDbLine
 10
221.224977
 20
13.587631
 30
0.0
 11
221.8019
 21
14.164554
 31
0.0
  0
LINE
  5
2D2
330
1F
100
AcDbEntity
  8
GR1-1
  6
CONTINUOUS
 62
     7
100
AcDbLine
 10
219.621518
 20
11.913462
 30
0.0
 11
220.688825
 21
12.980769
 31
0.0
  0
LINE
  5
2D3
330
1F
100
AcDbEntity
  8
GR1-1
  6
CONTINUOUS
 62
     7
100
AcDbLine
 10
221.224977
 20
13.51692
 30
0.0
 11
221.8019
 21
14.093844
 31
0.0
  0
LINE
  5
2D4
330
1F
100
AcDbEntity
  8
GR1-1
  6
CONTINUOUS
 62
     7
100
AcDbLine
 10
219.692228
 20
11.913462
 30
0.0
 11
220.759536
 21
12.980769
 31
0.0
  0
LINE
  5
2D5
330
1F
100
AcDbEntity
  8
GR1-1
  6
CONTINUOUS
 62
     7
100
AcDbLine
 10
221.224977
 20
13.44621
 30
0.0
 11
221.8019
 21
14.023133
 31
0.0
  0
LINE
  5
2D6
330
1F
100
AcDbEntity
  8
GR1-1
  6
CONTINUOUS
 62
     7
100
AcDbLine
 10
219.762939
 20
11.913462
 30
0.0
 11
220.830247
 21
12.980769
 31
0.0
  0
LINE
  5
2D7
330
1F
100
AcDbEntity
  8
GR1-1
  6
CONTINUOUS
 62
     7
100
AcDbLine
 10
221.224977
 20
13.375499
 30
0.0
 11
221.8019
 21
13.952422
 31
0.0
  0
LINE
  5
2D8
330
1F
100
AcDbEntity
  8
GR1-1
  6
CONTINUOUS
 62
     7
100
AcDbLine
 10
219.83365
 20
11.913462
 30
0.0
 11
220.900958
 21
12.980769
 31
0.0
  0
LINE
  5
2D9
330
1F
100
AcDbEntity
  8
GR1-1
  6
CONTINUOUS
 62
     7
100
AcDbLine
 10
221.224977
 20
13.304788
 30
0.0
 11
221.8019
 21
13.881712
 31
0.0
  0
LINE
  5
2DA
330
1F
100
AcDbEntity
  8
GR1-1
  6
CONTINUOUS
 62
     7
100
AcDbLine
 10
219.90436
 20
11.913462
 30
0.0
 11
220.971668
 21
12.980769
 31
0.0
  0
LINE
  5
2DB
330
1F
100
AcDbEntity
  8
GR1-1
  6
CONTINUOUS
 62
     7
100
AcDbLine
 10
221.224977
 20
13.234078
 30
0.0
 11
221.8019
 21
13.811001
 31
0.0
  0
LINE
  5
2DC
330
1F
100
AcDbEntity
  8
GR1-1
  6
CONTINUOUS
 62
     7
100
AcDbLine
 10
219.975071
 20
11.913462
 30
0.0
 11
221.042379
 21
12.980769
 31
0.0
  0
LINE
  5
2DD
330
1F
100
AcDbEntity
  8
GR1-1
  6
CONTINUOUS
 62
     7
100
AcDbLine
 10
221.224977
 20
13.163367
 30
0.0
 11
221.8019
 21
13.74029
 31
0.0
  0
LINE
  5
2DE
330
1F
100
AcDbEntity
  8
GR1-1
  6
CONTINUOUS
 62
     7
100
AcDbLine
 10
220.045782
 20
11.913462
 30
0.0
 11
221.11309
 21
12.980769
 31
0.0
  0
LINE
  5
2DF
330
1F
100
AcDbEntity
  8
GR1-1
  6
CONTINUOUS
 62
     7
100
AcDbLine
 10
221.224977
 20
13.092656
 30
0.0
 11
221.8019
 21
13.669579
 31
0.0
  0
LINE
  5
2E0
330
1F
100
AcDbEntity
  8
GR1-1
  6
CONTINUOUS
 62
     7
100
AcDbLine
 10
220.116493
 20
11.913462
 30
0.0
 11
221.1838
 21
12.980769
 31
0.0
  0
LINE
  5
2E1
330
1F
100
AcDbEntity
  8
GR1-1
  6
CONTINUOUS
 62
     7
100
AcDbLine
 10
221.224977
 20
13.021946
 30
0.0
 11
221.8019
 21
13.598869
 31
0.0
  0
LINE
  5
2E2
330
1F
100
AcDbEntity
  8
GR1-1
  6
CONTINUOUS
 62
     7
100
AcDbLine
 10
220.187203
 20
11.913462
 30
0.0
 11
221.8019
 21
13.528158
 31
0.0
  0
LINE
  5
2E3
330
1F
100
AcDbEntity
  8
GR1-1
  6
CONTINUOUS
 62
     7
100
AcDbLine
 10
220.257914
 20
11.913462
 30
0.0
 11
221.8019
 21
13.457447
 31
0.0
  0
LINE
  5
2E4
330
1F
100
AcDbEntity
  8
GR1-1
  6
CONTINUOUS
 62
     7
100
AcDbLine
 10
220.328625
 20
11.913462
 30
0.0
 11
221.8019
 21
13.386737
 31
0.0
  0
LINE
  5
2E5
330
1F
100
AcDbEntity
  8
GR1-1
  6
CONTINUOUS
 62
     7
100
AcDbLine
 10
220.399335
 20
11.913462
 30
0.0
 11
221.8019
 21
13.316026
 31
0.0
  0
LINE
  5
2E6
330
1F
100
AcDbEntity
  8
GR1-1
  6
CONTINUOUS
 62
     7
100
AcDbLine
 10
220.470046
 20
11.913462
 30
0.0
 11
221.8019
 21
13.245315
 31
0.0
  0
LINE
  5
2E7
330
1F
100
AcDbEntity
  8
GR1-1
  6
CONTINUOUS
 62
     7
100
AcDbLine
 10
220.540757
 20
11.913462
 30
0.0
 11
221.8019
 21
13.174605
 31
0.0
  0
LINE
  5
2E8
330
1F
100
AcDbEntity
  8
GR1-1
  6
CONTINUOUS
 62
     7
100
AcDbLine
 10
220.611467
 20
11.913462
 30
0.0
 11
221.8019
 21
13.103894
 31
0.0
  0
LINE
  5
2E9
330
1F
100
AcDbEntity
  8
GR1-1
  6
CONTINUOUS
 62
     7
100
AcDbLine
 10
220.682178
 20
11.913462
 30
0.0
 11
221.8019
 21
13.033183
 31
0.0
  0
LINE
  5
2EA
330
1F
100
AcDbEntity
  8
GR1-1
  6
CONTINUOUS
 62
     7
100
AcDbLine
 10
220.752889
 20
11.913462
 30
0.0
 11
221.8019
 21
12.962473
 31
0.0
  0
LINE
  5
2EB
330
1F
100
AcDbEntity
  8
GR1-1
  6
CONTINUOUS
 62
     7
100
AcDbLine
 10
220.823599
 20
11.913462
 30
0.0
 11
221.8019
 21
12.891762
 31
0.0
  0
LINE
  5
2EC
330
1F
100
AcDbEntity
  8
GR1-1
  6
CONTINUOUS
 62
     7
100
AcDbLine
 10
220.89431
 20
11.913462
 30
0.0
 11
221.8019
 21
12.821051
 31
0.0
  0
LINE
  5
2ED
330
1F
100
AcDbEntity
  8
GR1-1
  6
CONTINUOUS
 62
     7
100
AcDbLine
 10
220.965021
 20
11.913462
 30
0.0
 11
221.8019
 21
12.750341
 31
0.0
  0
LINE
  5
2EE
330
1F
100
AcDbEntity
  8
GR1-1
  6
CONTINUOUS
 62
     7
100
AcDbLine
 10
221.035731
 20
11.913462
 30
0.0
 11
221.8019
 21
12.67963
 31
0.0
  0
LINE
  5
2EF
330
1F
100
AcDbEntity
  8
GR1-1
  6
CONTINUOUS
 62
     7
100
AcDbLine
 10
221.106442
 20
11.913462
 30
0.0
 11
221.8019
 21
12.608919
 31
0.0
  0
LINE
  5
2F0
330
1F
100
AcDbEntity
  8
GR1-1
  6
CONTINUOUS
 62
     7
100
AcDbLine
 10
221.177153
 20
11.913462
 30
0.0
 11
221.8019
 21
12.538209
 31
0.0
  0
LINE
  5
2F1
330
1F
100
AcDbEntity
  8
GR1-1
  6
CONTINUOUS
 62
     7
100
AcDbLine
 10
221.247863
 20
11.913462
 30
0.0
 11
221.8019
 21
12.467498
 31
0.0
  0
LINE
  5
2F2
330
1F
100
AcDbEntity
  8
GR1-1
  6
CONTINUOUS
 62
     7
100
AcDbLine
 10
221.318574
 20
11.913462
 30
0.0
 11
221.8019
 21
12.396787
 31
0.0
  0
LINE
  5
2F3
330
1F
100
AcDbEntity
  8
GR1-1
  6
CONTINUOUS
 62
     7
100
AcDbLine
 10
221.389285
 20
11.913462
 30
0.0
 11
221.8019
 21
12.326077
 31
0.0
  0
LINE
  5
2F4
330
1F
100
AcDbEntity
  8
GR1-1
  6
CONTINUOUS
 62
     7
100
AcDbLine
 10
221.459995
 20
11.913462
 30
0.0
 11
221.8019
 21
12.255366
 31
0.0
  0
LINE
  5
2F5
330
1F
100
AcDbEntity
  8
GR1-1
  6
CONTINUOUS
 62
     7
100
AcDbLine
 10
221.530706
 20
11.913462
 30
0.0
 11
221.8019
 21
12.184655
 31
0.0
  0
LINE
  5
2F6
330
1F
100
AcDbEntity
  8
GR1-1
  6
CONTINUOUS
 62
     7
100
AcDbLine
 10
221.601417
 20
11.913462
 30
0.0
 11
221.8019
 21
12.113945
 31
0.0
  0
LINE
  5
2F7
330
1F
100
AcDbEntity
  8
GR1-1
  6
CONTINUOUS
 62
     7
100
AcDbLine
 10
221.672127
 20
11.913462
 30
0.0
 11
221.8019
 21
12.043234
 31
0.0
  0
LINE
  5
2F8
330
1F
100
AcDbEntity
  8
GR1-1
  6
CONTINUOUS
 62
     7
100
AcDbLine
 10
221.742838
 20
11.913462
 30
0.0
 11
221.8019
 21
11.972523
 31
0.0
  0
LINE
  5
2F9
330
1F
100
AcDbEntity
  8
GR1-1
  6
CENTER
 62
     6
100
AcDbLine
 10
218.774603
 20
116.418246
 30
0.0
 11
218.774603
 21
105.466895
 31
0.0
  0
LINE
  5
2FA
330
1F
100
AcDbEntity
  8
GR1-1
  6
CENTER
 62
     6
100
AcDbLine
 10
172.774603
 20
116.418246
 30
0.0
 11
172.774603
 21
105.466895
 31
0.0
  0
LINE
  5
2FB
330
1F
100
AcDbEntity
  8
GR1-1
  6
CENTER
 62
     6
100
AcDbLine
 10
102.74944
 20
105.466895
 30
0.0
 11
102.74944
 21
115.739749
 31
0.0
  0
LINE
  5
2FC
330
1F
100
AcDbEntity
  8
GR1-1
  6
CENTER
 62
     6
100
AcDbLine
 10
67.74944
 20
105.466895
 30
0.0
 11
67.74944
 21
115.739749
 31
0.0
  0
ARC
  5
2FD
330
1F
100
AcDbEntity
  8
GR1-1
  6
CONTINUOUS
 62
     3
100
AcDbCircle
 10
195.774603
 20
71.431306
 30
0.0
 40
11.5
100
AcDbArc
 50
201.786789
 51
218.213211
  0
LINE
  5
2FE
330
1F
100
AcDbEntity
  8
GR1-1
  6
CONTINUOUS
 62
     3
100
AcDbLine
 10
187.890103
 20
69.765939
 30
0.0
 11
185.524603
 21
68.400217
 31
0.0
  0
LINE
  5
2FF
330
1F
100
AcDbEntity
  8
GR1-1
  6
CONTINUOUS
 62
     3
100
AcDbLine
 10
190.44338
 20
65.466572
 30
0.0
 11
188.024603
 21
64.07009
 31
0.0
  0
ARC
  5
300
330
1F
100
AcDbEntity
  8
GR1-1
  6
CONTINUOUS
 62
     3
100
AcDbCircle
 10
195.774603
 20
71.431306
 30
0.0
 40
11.5
100
AcDbArc
 50
321.786789
 51
338.213211
  0
LINE
  5
301
330
1F
100
AcDbEntity
  8
GR1-1
  6
CONTINUOUS
 62
     3
100
AcDbLine
 10
201.105826
 20
65.466572
 30
0.0
 11
203.524603
 21
64.07009
 31
0.0
  0
LINE
  5
302
330
1F
100
AcDbEntity
  8
GR1-1
  6
CONTINUOUS
 62
     3
100
AcDbLine
 10
203.668467
 20
69.760533
 30
0.0
 11
206.024603
 21
68.400217
 31
0.0
  0
ARC
  5
303
330
1F
100
AcDbEntity
  8
GR1-1
  6
CONTINUOUS
 62
     6
100
AcDbCircle
 10
195.774603
 20
71.431306
 30
0.0
 40
17.49999999999994
100
AcDbArc
 50
-225.004236
 51
45.004236
  0
ARC
  5
304
330
1F
100
AcDbEntity
  8
GR1-1
  6
CONTINUOUS
 62
     3
100
AcDbCircle
 10
195.774603
 20
71.431306
 30
0.0
 40
21.49999999999996
100
AcDbArc
 50
-230.864961
 51
50.864961
  0
ARC
  5
305
330
1F
100
AcDbEntity
  8
GR1-1
  6
CONTINUOUS
 62
     3
100
AcDbCircle
 10
204.024603
 20
64.936116
 30
0.0
 40
1.0
100
AcDbArc
 50
240.0
 51
321.786789
  0
ARC
  5
306
330
1F
100
AcDbEntity
  8
GR1-1
  6
CONTINUOUS
 62
     3
100
AcDbCircle
 10
205.524603
 20
67.534192
 30
0.0
 40
1.0
100
AcDbArc
 50
-21.786789
 51
60.0
  0
ARC
  5
307
330
1F
100
AcDbEntity
  8
GR1-1
  6
CONTINUOUS
 62
     3
100
AcDbCircle
 10
187.524603
 20
64.936116
 30
0.0
 40
1.0
100
AcDbArc
 50
218.213211
 51
300.0
  0
ARC
  5
308
330
1F
100
AcDbEntity
  8
GR1-1
  6
CONTINUOUS
 62
     3
100
AcDbCircle
 10
186.024603
 20
67.534192
 30
0.0
 40
1.0
100
AcDbArc
 50
120.0
 51
201.786789
  0
INSERT
  5
30C
330
1F
100
AcDbEntity
  8
0
100
AcDbBlockReference
  2
BLKF021
 10
0.0
 20
0.0
 30
0.0
  0
LINE
  5
312
330
1F
100
AcDbEntity
  8
GR1-1
  6
CONTINUOUS
 62
     3
100
AcDbLine
 10
73.74944
 20
77.730572
 30
0.0
 11
73.74944
 21
65.408771
 31
0.0
  0
ARC
  5
313
330
1F
100
AcDbEntity
  8
GR1-1
  6
CONTINUOUS
 62
     3
100
AcDbCircle
 10
74.74944
 20
77.730572
 30
0.0
 40
1.0
100
AcDbArc
 50
100.0
 51
180.0
  0
LINE
  5
314
330
1F
100
AcDbEntity
  8
GR1-1
  6
CONTINUOUS
 62
     3
100
AcDbLine
 10
74.575792
 20
78.71538
 30
0.0
 11
75.24944
 21
78.834162
 31
0.0
  0
ARC
  5
315
330
1F
100
AcDbEntity
  8
GR1-1
  6
CONTINUOUS
 62
     3
100
AcDbCircle
 10
74.74944
 20
65.408771
 30
0.0
 40
1.0
100
AcDbArc
 50
180.0
 51
260.0
  0
LINE
  5
316
330
1F
100
AcDbEntity
  8
GR1-1
  6
CONTINUOUS
 62
     3
100
AcDbLine
 10
74.575792
 20
64.423964
 30
0.0
 11
75.24944
 21
64.305181
 31
0.0
  0
LINE
  5
317
330
1F
100
AcDbEntity
  8
GR1-1
  6
CONTINUOUS
 62
     3
100
AcDbLine
 10
75.24944
 20
94.879191
 30
0.0
 11
75.24944
 21
48.260153
 31
0.0
  0
ARC
  5
318
330
1F
100
AcDbEntity
  8
GR1-1
  6
CONTINUOUS
 62
     3
100
AcDbCircle
 10
85.24944
 20
36.569672
 30
0.0
 40
60.0
100
AcDbArc
 50
81.227006
 51
98.77429
  0
ARC
  5
319
330
1F
100
AcDbEntity
  8
GR1-1
  6
CONTINUOUS
 62
     3
100
AcDbCircle
 10
76.24944
 20
94.879191
 30
0.0
 40
1.0
100
AcDbArc
 50
98.77429
 51
180.0
  0
ARC
  5
31A
330
1F
100
AcDbEntity
  8
GR1-1
  6
CONTINUOUS
 62
     3
100
AcDbCircle
 10
94.248122
 20
94.879394
 30
0.0
 40
1.0
100
AcDbArc
 50
0.0
 51
81.227006
  0
ARC
  5
31B
330
1F
100
AcDbEntity
  8
GR1-1
  6
CONTINUOUS
 62
     3
100
AcDbCircle
 10
85.24944
 20
106.569672
 30
0.0
 40
60.0
100
AcDbArc
 50
261.22571
 51
278.772994
  0
ARC
  5
31C
330
1F
100
AcDbEntity
  8
GR1-1
  6
CONTINUOUS
 62
     3
100
AcDbCircle
 10
76.24944
 20
48.260153
 30
0.0
 40
1.0
100
AcDbArc
 50
180.0
 51
261.22571
  0
ARC
  5
31D
330
1F
100
AcDbEntity
  8
GR1-1
  6
CONTINUOUS
 62
     3
100
AcDbCircle
 10
94.248122
 20
48.259949
 30
0.0
 40
1.0
100
AcDbArc
 50
278.772994
 51
360.0
  0
LINE
  5
31E
330
1F
100
AcDbEntity
  8
GR1-1
  6
CONTINUOUS
 62
     3
100
AcDbLine
 10
96.74944
 20
77.730572
 30
0.0
 11
96.74944
 21
65.408771
 31
0.0
  0
ARC
  5
31F
330
1F
100
AcDbEntity
  8
GR1-1
  6
CONTINUOUS
 62
     3
100
AcDbCircle
 10
95.74944
 20
77.730572
 30
0.0
 40
1.0
100
AcDbArc
 50
0.0
 51
80.0
  0
LINE
  5
320
330
1F
100
AcDbEntity
  8
GR1-1
  6
CONTINUOUS
 62
     3
100
AcDbLine
 10
95.923088
 20
78.71538
 30
0.0
 11
95.24944
 21
78.834162
 31
0.0
  0
ARC
  5
321
330
1F
100
AcDbEntity
  8
GR1-1
  6
CONTINUOUS
 62
     3
100
AcDbCircle
 10
95.74944
 20
65.408771
 30
0.0
 40
1.0
100
AcDbArc
 50
280.0
 51
360.0
  0
LINE
  5
322
330
1F
100
AcDbEntity
  8
GR1-1
  6
CONTINUOUS
 62
     3
100
AcDbLine
 10
95.923088
 20
64.423964
 30
0.0
 11
95.24944
 21
64.305181
 31
0.0
  0
LINE
  5
323
330
1F
100
AcDbEntity
  8
GR1-1
  6
CONTINUOUS
 62
     3
100
AcDbLine
 10
95.24944
 20
94.879191
 30
0.0
 11
95.24944
 21
48.260153
 31
0.0
  0
DIMENSION
  5
324
330
1F
100
AcDbEntity
  8
GR1-1
100
AcDbDimension
  2
*D20
 10
96.74944
 20
27.145317
 30
0.0
 11
85.249443
 21
28.145317
 31
0.0
 70
    33
  3
FXDIMINFO
100
AcDbAlignedDimension
 13
73.74944
 23
65.408771
 33
0.0
 14
96.74944
 24
65.408771
 34
0.0
1001
ACAD
1000
DSTYLE
1002
{
1070
     7
1000
FXTIP_ARROW_E
1070
     6
1000
FXTIP_ARROW_S
1070
   173
1070
     1
1002
}
  0
LINE
  5
32E
330
1F
100
AcDbEntity
  8
GR1-1
  6
CONTINUOUS
 62
    66
100
AcDbLine
 10
60.74944
 20
111.569672
 30
0.0
 11
60.74944
 21
109.569672
 31
0.0
  0
ARC
  5
32F
330
1F
100
AcDbEntity
  8
GR1-1
  6
CONTINUOUS
 62
    66
100
AcDbCircle
 10
77.74944
 20
110.569672
 30
0.0
 40
3.0
100
AcDbArc
 50
199.471221
 51
270.0
  0
LINE
  5
330
330
1F
100
AcDbEntity
  8
GR1-1
  6
CONTINUOUS
 62
    66
100
AcDbLine
 10
70.74944
 20
67.942255
 30
0.0
 11
70.74944
 21
65.64476
 31
0.0
  0
ENDSEC
  0
SECTION
  2
OBJECTS
  0
DICTIONARY
  5
C
330
0
100
AcDbDictionary
  3
ACAD_GROUP
350
D
  3
ACAD_LAYOUT
350
1A
  3
ACAD_MLINESTYLE
350
17
  3
ACAD_PLOTSETTINGS
350
19
  3
ACDBHEADERROUNDTRIPXREC
350
331
  0
DICTIONARY
  5
D
102
{ACAD_REACTORS
330
C
102
}
330
C
100
AcDbDictionary
  0
DICTIONARY
  5
1A
102
{ACAD_REACTORS
330
C
102
}
330
C
100
AcDbDictionary
  0
DICTIONARY
  5
17
102
{ACAD_REACTORS
330
C
102
}
330
C
100
AcDbDictionary
  3
STANDARD
350
18
  0
DICTIONARY
  5
19
102
{ACAD_REACTORS
330
C
102
}
330
C
100
AcDbDictionary
  0
DICTIONARY
  5
331
102
{ACAD_REACTORS
330
C
102
}
330
C
100
AcDbDictionary
  3
CEPSNTYPE
350
33A
  3
DIMSTYLEDATA
350
350
  3
FINGERPRINTGUID
350
33B
  3
HYPERLINKBASE
350
334
  3
INSUNITS
350
339
  3
LAYOUTDICT
350
336
  3
LWETCUNION
350
338
  3
PLOTSETDICT
350
337
  3
PSVPSCALE
350
33D
  3
PUCSBASE
350
340
  3
PUCSORGBACK
350
346
  3
PUCSORGBOTTOM
350
342
  3
PUCSORGFRONT
350
345
  3
PUCSORGLEFT
350
343
  3
PUCSORGRIGHT
350
344
  3
PUCSORGTOP
350
341
  3
PUCSORTHOREF
350
33E
  3
PUCSORTHOVIEW
350
33F
  3
STYLESHEET
350
335
  3
TSTACKALIGN
350
332
  3
TSTACKSIZE
350
333
  3
UCSBASE
350
349
  3
UCSORGBACK
350
34F
  3
UCSORGBOTTOM
350
34B
  3
UCSORGFRONT
350
34E
  3
UCSORGLEFT
350
34C
  3
UCSORGRIGHT
350
34D
  3
UCSORGTOP
350
34A
  3
UCSORTHOREF
350
347
  3
UCSORTHOVIEW
350
348
  3
VERSIONGUID
350
33C
  0
MLINESTYLE
  5
18
102
{ACAD_REACTORS
330
17
102
}
330
17
100
AcDbMlineStyle
  2
Standard
 70
     0
  3

 62
   256
 51
90.0
 52
90.0
 71
     2
 49
0.5
 62
   256
  6
BYLAYER
 49
-0.5
 62
   256
  6
BYLAYER
  0
XRECORD
  5
33A
102
{ACAD_REACTORS
330
331
102
}
330
331
100
AcDbXrecord
 90
        0
  0
XRECORD
  5
350
102
{ACAD_REACTORS
330
331
102
}
330
331
100
AcDbXrecord
1000
DSTYLE
1002
{
1070
   179
 70
     2
1070
   171
 70
     3
1070
   143
 40
0.03937
1070
   274
 70
     3
1070
    41
 40
3.0
1070
   343
340
41
1070
   344
340
47
1070
   141
 40
2.5
1070
   176
 70
     7
1070
   177
 70
     7
1070
   178
 70
     7
1070
   271
 70
     2
1070
    46
 40
6.0
1070
    43
 40
8.0
1070
    44
 40
1.0
1070
    42
 40
1.0
1070
   147
 40
1.0
1070
   341
340
41
1070
   173
 70
     1
1070
    77
 70
     1
1070
   272
 70
     2
1070
    73
 70
     0
1070
   172
 70
     1
1070
    74
 70
     0
1070
   283
 70
     0
1070
   340
340
3F
1070
   140
 40
4.0
1070
   284
 70
     8
1070
    78
 70
     8
1002
}
  0
XRECORD
  5
33B
102
{ACAD_REACTORS
330
331
102
}
330
331
100
AcDbXrecord
  1
{013751C9-16B7-4B3F-B967-E08C6FC6199A}
  0
XRECORD
  5
334
102
{ACAD_REACTORS
330
331
102
}
330
331
100
AcDbXrecord
  1

  0
XRECORD
  5
339
102
{ACAD_REACTORS
330
331
102
}
330
331
100
AcDbXrecord
 90
        1
  0
XRECORD
  5
336
102
{ACAD_REACTORS
330
331
102
}
330
331
100
AcDbXrecord
340
1A
  0
XRECORD
  5
338
102
{ACAD_REACTORS
330
331
102
}
330
331
100
AcDbXrecord
 90
    10781
  0
XRECORD
  5
337
102
{ACAD_REACTORS
330
331
102
}
330
331
100
AcDbXrecord
340
19
  0
XRECORD
  5
33D
102
{ACAD_REACTORS
330
331
102
}
330
331
100
AcDbXrecord
 40
0.0
  0
XRECORD
  5
340
102
{ACAD_REACTORS
330
331
102
}
330
331
100
AcDbXrecord
340
0
  0
XRECORD
  5
346
102
{ACAD_REACTORS
330
331
102
}
330
331
100
AcDbXrecord
 10
0.0
 20
0.0
 30
0.0
  0
XRECORD
  5
342
102
{ACAD_REACTORS
330
331
102
}
330
331
100
AcDbXrecord
 10
0.0
 20
0.0
 30
0.0
  0
XRECORD
  5
345
102
{ACAD_REACTORS
330
331
102
}
330
331
100
AcDbXrecord
 10
0.0
 20
0.0
 30
0.0
  0
XRECORD
  5
343
102
{ACAD_REACTORS
330
331
102
}
330
331
100
AcDbXrecord
 10
0.0
 20
0.0
 30
0.0
  0
XRECORD
  5
344
102
{ACAD_REACTORS
330
331
102
}
330
331
100
AcDbXrecord
 10
0.0
 20
0.0
 30
0.0
  0
XRECORD
  5
341
102
{ACAD_REACTORS
330
331
102
}
330
331
100
AcDbXrecord
 10
0.0
 20
0.0
 30
0.0
  0
XRECORD
  5
33E
102
{ACAD_REACTORS
330
331
102
}
330
331
100
AcDbXrecord
340
0
  0
XRECORD
  5
33F
102
{ACAD_REACTORS
330
331
102
}
330
331
100
AcDbXrecord
 70
     0
  0
XRECORD
  5
335
102
{ACAD_REACTORS
330
331
102
}
330
331
100
AcDbXrecord
  1

  0
XRECORD
  5
332
102
{ACAD_REACTORS
330
331
102
}
330
331
100
AcDbXrecord
 90
        1
  0
XRECORD
  5
333
102
{ACAD_REACTORS
330
331
102
}
330
331
100
AcDbXrecord
 90
       70
  0
XRECORD
  5
349
102
{ACAD_REACTORS
330
331
102
}
330
331
100
AcDbXrecord
340
0
  0
XRECORD
  5
34F
102
{ACAD_REACTORS
330
331
102
}
330
331
100
AcDbXrecord
 10
0.0
 20
0.0
 30
0.0
  0
XRECORD
  5
34B
102
{ACAD_REACTORS
330
331
102
}
330
331
100
AcDbXrecord
 10
0.0
 20
0.0
 30
0.0
  0
XRECORD
  5
34E
102
{ACAD_REACTORS
330
331
102
}
330
331
100
AcDbXrecord
 10
0.0
 20
0.0
 30
0.0
  0
XRECORD
  5
34C
102
{ACAD_REACTORS
330
331
102
}
330
331
100
AcDbXrecord
 10
0.0
 20
0.0
 30
0.0
  0
XRECORD
  5
34D
102
{ACAD_REACTORS
330
331
102
}
330
331
100
AcDbXrecord
 10
0.0
 20
0.0
 30
0.0
  0
XRECORD
  5
34A
102
{ACAD_REACTORS
330
331
102
}
330
331
100
AcDbXrecord
 10
0.0
 20
0.0
 30
0.0
  0
XRECORD
  5
347
102
{ACAD_REACTORS
330
331
102
}
330
331
100
AcDbXrecord
340
0
  0
XRECORD
  5
348
102
{ACAD_REACTORS
330
331
102
}
330
331
100
AcDbXrecord
 70
     0
  0
XRECORD
  5
33C
102
{ACAD_REACTORS
330
331
102
}
330
331
100
AcDbXrecord
  1
{FAEB1C32-E019-11D5-929B-00C0DF256EC4}
  0
ENDSEC
  0
EOF
