  0
SECTION
  2
HEADER
  9
$ACADVER
  1
AC1014
  9
$ACADMAINTVER
 70
     9
  9
$DWGCODEPAGE
  3
ANSI_932
  9
$INSBASE
 10
0.0
 20
0.0
 30
0.0
  9
$EXTMIN
 10
0.0
 20
0.0
 30
0.0
  9
$EXTMAX
 10
841.0
 20
594.0
 30
0.0
  9
$LIMMIN
 10
0.0
 20
0.0
  9
$LIMMAX
 10
841.0
 20
594.0
  9
$ORTHOMODE
 70
     0
  9
$REGENMODE
 70
     1
  9
$FILLMODE
 70
     1
  9
$QTEXTMODE
 70
     0
  9
$MIRRTEXT
 70
     1
  9
$DRAGMODE
 70
     2
  9
$LTSCALE
 40
1.0
  9
$OSMODE
 70
    37
  9
$ATTMODE
 70
     1
  9
$TEXTSIZE
 40
0.2
  9
$TRACEWID
 40
0.05
  9
$TEXTSTYLE
  7
STYLE1
  9
$CLAYER
  8
0
  9
$CELTYPE
  6
BYLAYER
  9
$CECOLOR
 62
   256
  9
$CELTSCALE
 40
1.0
  9
$DELOBJ
 70
     1
  9
$DISPSILH
 70
     0
  9
$DIMSCALE
 40
1.0
  9
$DIMASZ
 40
4.0
  9
$DIMEXO
 40
1.0
  9
$DIMDLI
 40
10.0
  9
$DIMRND
 40
0.0
  9
$DIMDLE
 40
6.0
  9
$DIMEXE
 40
1.0
  9
$DIMTP
 40
0.0
  9
$DIMTM
 40
0.0
  9
$DIMTXT
 40
4.0
  9
$DIMCEN
 40
2.5
  9
$DIMTSZ
 40
0.0
  9
$DIMTOL
 70
     0
  9
$DIMLIM
 70
     0
  9
$DIMTIH
 70
     0
  9
$DIMTOH
 70
     0
  9
$DIMSE1
 70
     0
  9
$DIMSE2
 70
     0
  9
$DIMTAD
 70
     1
  9
$DIMZIN
 70
     8
  9
$DIMBLK
  1

  9
$DIMASO
 70
     1
  9
$DIMSHO
 70
     1
  9
$DIMPOST
  1

  9
$DIMAPOST
  1

  9
$DIMALT
 70
     0
  9
$DIMALTD
 70
     3
  9
$DIMALTF
 40
0.03937
  9
$DIMLFAC
 40
1.0
  9
$DIMTOFL
 70
     1
  9
$DIMTVP
 40
0.0
  9
$DIMTIX
 70
     0
  9
$DIMSOXD
 70
     0
  9
$DIMSAH
 70
     1
  9
$DIMBLK1
  1
FXTIP_ARROW_S
  9
$DIMBLK2
  1
FXTIP_ARROW_E
  9
$DIMSTYLE
  2
FXDIMINFO
  9
$DIMCLRD
 70
     7
  9
$DIMCLRE
 70
     7
  9
$DIMCLRT
 70
     7
  9
$DIMTFAC
 40
1.0
  9
$DIMGAP
 40
1.0
  9
$DIMJUST
 70
     0
  9
$DIMSD1
 70
     0
  9
$DIMSD2
 70
     0
  9
$DIMTOLJ
 70
     0
  9
$DIMTZIN
 70
     8
  9
$DIMALTZ
 70
     0
  9
$DIMALTTZ
 70
     0
  9
$DIMFIT
 70
     3
  9
$DIMUPT
 70
     0
  9
$DIMUNIT
 70
     2
  9
$DIMDEC
 70
     2
  9
$DIMTDEC
 70
     2
  9
$DIMALTU
 70
     2
  9
$DIMALTTD
 70
     3
  9
$DIMTXSTY
  7
STYLE1
  9
$DIMAUNIT
 70
     0
  9
$LUNITS
 70
     2
  9
$LUPREC
 70
     4
  9
$SKETCHINC
 40
0.1
  9
$FILLETRAD
 40
0.5
  9
$AUNITS
 70
     0
  9
$AUPREC
 70
     0
  9
$MENU
  1
.
  9
$ELEVATION
 40
0.0
  9
$PELEVATION
 40
0.0
  9
$THICKNESS
 40
0.0
  9
$LIMCHECK
 70
     0
  9
$CHAMFERA
 40
0.5
  9
$CHAMFERB
 40
0.5
  9
$CHAMFERC
 40
1.0
  9
$CHAMFERD
 40
0.0
  9
$SKPOLY
 70
     0
  9
$TDCREATE
 40
2455308.682234873
  9
$TDUPDATE
 40
2455308.682234884
  9
$TDINDWG
 40
0.0000000116
  9
$TDUSRTIMER
 40
0.0000000116
  9
$USRTIMER
 70
     1
  9
$ANGBASE
 50
0.0
  9
$ANGDIR
 70
     0
  9
$PDMODE
 70
     0
  9
$PDSIZE
 40
0.0
  9
$PLINEWID
 40
0.0
  9
$COORDS
 70
     1
  9
$SPLFRAME
 70
     0
  9
$SPLINETYPE
 70
     6
  9
$SPLINESEGS
 70
     8
  9
$ATTDIA
 70
     0
  9
$ATTREQ
 70
     1
  9
$HANDLING
 70
     1
  9
$HANDSEED
  5
426
  9
$SURFTAB1
 70
     6
  9
$SURFTAB2
 70
     6
  9
$SURFTYPE
 70
     6
  9
$SURFU
 70
     6
  9
$SURFV
 70
     6
  9
$UCSNAME
  2

  9
$UCSORG
 10
0.0
 20
0.0
 30
0.0
  9
$UCSXDIR
 10
1.0
 20
0.0
 30
0.0
  9
$UCSYDIR
 10
0.0
 20
1.0
 30
0.0
  9
$PUCSNAME
  2

  9
$PUCSORG
 10
0.0
 20
0.0
 30
0.0
  9
$PUCSXDIR
 10
1.0
 20
0.0
 30
0.0
  9
$PUCSYDIR
 10
0.0
 20
1.0
 30
0.0
  9
$USERI1
 70
     0
  9
$USERI2
 70
     0
  9
$USERI3
 70
     0
  9
$USERI4
 70
     0
  9
$USERI5
 70
     0
  9
$USERR1
 40
0.0
  9
$USERR2
 40
0.0
  9
$USERR3
 40
0.0
  9
$USERR4
 40
0.0
  9
$USERR5
 40
0.0
  9
$WORLDVIEW
 70
     1
  9
$SHADEDGE
 70
     3
  9
$SHADEDIF
 70
    70
  9
$TILEMODE
 70
     1
  9
$MAXACTVP
 70
    64
  9
$PINSBASE
 10
0.0
 20
0.0
 30
0.0
  9
$PLIMCHECK
 70
     0
  9
$PEXTMIN
 10
1.000000E+20
 20
1.000000E+20
 30
1.000000E+20
  9
$PEXTMAX
 10
-1.000000E+20
 20
-1.000000E+20
 30
-1.000000E+20
  9
$PLIMMIN
 10
0.0
 20
0.0
  9
$PLIMMAX
 10
12.0
 20
9.0
  9
$UNITMODE
 70
     0
  9
$VISRETAIN
 70
     1
  9
$PLINEGEN
 70
     0
  9
$PSLTSCALE
 70
     1
  9
$TREEDEPTH
 70
  3020
  9
$PICKSTYLE
 70
     1
  9
$CMLSTYLE
  2
STANDARD
  9
$CMLJUST
 70
     0
  9
$CMLSCALE
 40
1.0
  9
$PROXYGRAPHICS
 70
     1
  9
$MEASUREMENT
 70
     0
  0
ENDSEC
  0
SECTION
  2
CLASSES
  0
CLASS
  1
ACDBDICTIONARYWDFLT
  2
AcDbDictionaryWithDefault
  3
ObjectDBX Classes
 90
        0
280
     0
281
     0
  0
CLASS
  1
XRECORD
  2
AcDbXrecord
  3
AutoCAD 2000
 90
        0
280
     0
281
     0
  0
CLASS
  1
LWPOLYLINE
  2
AcDbPolyline
  3
AutoCAD 2000
 90
        0
280
     0
281
     1
  0
CLASS
  1
HATCH
  2
AcDbHatch
  3
AutoCAD 2000
 90
        0
280
     0
281
     1
  0
CLASS
  1
ACDBPLACEHOLDER
  2
AcDbPlaceHolder
  3
ObjectDBX Classes
 90
        0
280
     0
281
     0
  0
CLASS
  1
LAYOUT
  2
AcDbLayout
  3
ObjectDBX Classes
 90
        0
280
     0
281
     0
  0
ENDSEC
  0
SECTION
  2
TABLES
  0
TABLE
  2
VPORT
  5
8
330
0
100
AcDbSymbolTable
 70
     1
  0
VPORT
  5
29
330
8
100
AcDbSymbolTableRecord
100
AcDbViewportTableRecord
  2
*ACTIVE
 70
     0
 10
0.0
 20
0.0
 11
1.0
 21
1.0
 12
420.5
 22
297.0
 13
0.0
 23
0.0
 14
0.5
 24
0.5
 15
0.5
 25
0.5
 16
0.0
 26
0.0
 36
1.0
 17
0.0
 27
0.0
 37
0.0
 40
594.0
 41
1.415825
 42
50.0
 43
0.0
 44
0.0
 50
0.0
 51
0.0
 71
     0
 72
   100
 73
     1
 74
     3
 75
     0
 76
     0
 77
     0
 78
     0
  0
ENDTAB
  0
TABLE
  2
LTYPE
  5
5
330
0
100
AcDbSymbolTable
 70
     4
  0
LTYPE
  5
14
330
5
100
AcDbSymbolTableRecord
100
AcDbLinetypeTableRecord
  2
BYBLOCK
 70
     0
  3

 72
    65
 73
     0
 40
0.0
  0
LTYPE
  5
15
330
5
100
AcDbSymbolTableRecord
100
AcDbLinetypeTableRecord
  2
BYLAYER
 70
     0
  3

 72
    65
 73
     0
 40
0.0
  0
LTYPE
  5
16
330
5
100
AcDbSymbolTableRecord
100
AcDbLinetypeTableRecord
  2
CONTINUOUS
 70
     0
  3
--------------------
 72
    65
 73
     0
 40
0.0
  0
LTYPE
  5
2A
330
5
100
AcDbSymbolTableRecord
100
AcDbLinetypeTableRecord
  2
CENTER
 70
     0
  3
Center ____ _ ____ _ ____ _ ____ _ ____ _ ____
 72
    65
 73
     4
 40
13.0
 49
10.0
 74
     0
 49
-1.0
 74
     0
 49
1.0
 74
     0
 49
-1.0
 74
     0
  0
ENDTAB
  0
TABLE
  2
LAYER
  5
2
330
0
100
AcDbSymbolTable
 70
    20
  0
LAYER
  5
10
330
2
100
AcDbSymbolTableRecord
100
AcDbLayerTableRecord
  2
0
 70
     0
 62
     7
  6
CONTINUOUS
  0
LAYER
  5
2D
330
2
100
AcDbSymbolTableRecord
100
AcDbLayerTableRecord
  2
LAYERGROUP-1
 70
     0
 62
     3
  6
CONTINUOUS
  0
LAYER
  5
3D
330
2
100
AcDbSymbolTableRecord
100
AcDbLayerTableRecord
  2
}}ﾊﾊGG血CCТ
 70
     0
 62
     3
  6
CONTINUOUS
  0
LAYER
  5
D7
330
2
100
AcDbSymbolTableRecord
100
AcDbLayerTableRecord
  2
GR1-1
 70
     0
 62
     7
  6
CONTINUOUS
  0
LAYER
  5
149
330
2
100
AcDbSymbolTableRecord
100
AcDbLayerTableRecord
  2
0-1
 70
     0
 62
     7
  6
CONTINUOUS
  0
ENDTAB
  0
TABLE
  2
STYLE
  5
3
330
0
100
AcDbSymbolTable
 70
     4
  0
STYLE
  5
11
330
3
100
AcDbSymbolTableRecord
100
AcDbTextStyleTableRecord
  2
STANDARD
 70
     0
 40
0.0
 41
1.0
 50
0.0
 71
     0
 42
0.2
  3
txt
  4

  0
STYLE
  5
3F
330
3
100
AcDbSymbolTableRecord
100
AcDbTextStyleTableRecord
  2
STYLE1
 70
     0
 40
0.0
 41
1.0
 50
0.0
 71
     0
 42
0.2
  3
MONOTXT.SHX
  4
extfont.shx
  0
STYLE
  5
40
330
3
100
AcDbSymbolTableRecord
100
AcDbTextStyleTableRecord
  2
FX_VECTOR
 70
     0
 40
0.0
 41
1.0
 50
0.0
 71
     0
 42
0.2
  3
MONOTXT.SHX
  4
BIGFONT.SHX
  0
ENDTAB
  0
TABLE
  2
VIEW
  5
6
330
0
100
AcDbSymbolTable
 70
     0
  0
ENDTAB
  0
TABLE
  2
UCS
  5
7
330
0
100
AcDbSymbolTable
 70
     0
  0
ENDTAB
  0
TABLE
  2
APPID
  5
9
330
0
100
AcDbSymbolTable
 70
     1
  0
APPID
  5
12
330
9
100
AcDbSymbolTableRecord
100
AcDbRegAppTableRecord
  2
ACAD
 70
     0
  0
ENDTAB
  0
TABLE
  2
DIMSTYLE
  5
A
330
0
100
AcDbSymbolTable
 70
     2
  0
DIMSTYLE
105
27
330
A
100
AcDbSymbolTableRecord
100
AcDbDimStyleTableRecord
  2
STANDARD
 70
     0
  3

  4

  5

  6

  7

 40
1.0
 41
0.18
 42
0.0625
 43
0.38
 44
0.18
 45
0.0
 46
0.0
 47
0.0
 48
0.0
140
0.18
141
0.09
142
0.0
143
25.4
144
1.0
145
0.0
146
1.0
147
0.09
 71
     0
 72
     0
 73
     1
 74
     1
 75
     0
 76
     0
 77
     0
 78
     0
170
     0
171
     2
172
     0
173
     0
174
     0
175
     0
176
     0
177
     0
178
     0
270
     2
271
     4
272
     4
273
     2
274
     2
340
11
275
     0
280
     0
281
     0
282
     0
283
     1
284
     0
285
     0
286
     0
287
     3
288
     0
  0
DIMSTYLE
105
A7
102
{ACAD_REACTORS
330
109
330
113
330
11D
330
127
330
131
330
13B
330
2AA
330
30E
330
33A
330
344
330
35F
330
367
330
3E3
102
}
330
A
100
AcDbSymbolTableRecord
100
AcDbDimStyleTableRecord
  2
FXDIMINFO
 70
     0
  3

  4

  5

  6
FXTIP_ARROW_S
  7
FXTIP_ARROW_E
 40
1.0
 41
4.0
 42
1.0
 43
10.0
 44
1.0
 45
0.0
 46
6.0
 47
0.0
 48
0.0
140
4.0
141
2.5
142
0.0
143
0.03937
144
1.0
145
0.0
146
1.0
147
1.0
 71
     0
 72
     0
 73
     0
 74
     0
 75
     0
 76
     0
 77
     1
 78
     8
170
     0
171
     3
172
     1
173
     1
174
     0
175
     0
176
     7
177
     7
178
     7
179
     2
270
     2
271
     2
272
     2
273
     2
274
     3
340
3F
275
     0
280
     0
281
     0
282
     0
283
     0
284
     8
285
     0
286
     0
287
     3
288
     0
  0
ENDTAB
  0
TABLE
  2
BLOCK_RECORD
  5
1
330
0
100
AcDbSymbolTable
 70
    39
  0
BLOCK_RECORD
  5
1F
330
1
100
AcDbSymbolTableRecord
100
AcDbBlockTableRecord
  2
*MODEL_SPACE
  0
BLOCK_RECORD
  5
1B
330
1
100
AcDbSymbolTableRecord
100
AcDbBlockTableRecord
  2
*PAPER_SPACE
  0
BLOCK_RECORD
  5
41
330
1
100
AcDbSymbolTableRecord
100
AcDbBlockTableRecord
  2
FXTIP_ARROW_S
  0
BLOCK_RECORD
  5
47
330
1
100
AcDbSymbolTableRecord
100
AcDbBlockTableRecord
  2
FXTIP_ARROW_E
  0
BLOCK_RECORD
  5
4D
330
1
100
AcDbSymbolTableRecord
100
AcDbBlockTableRecord
  2
FXTIP_BLACKDOT_S
  0
BLOCK_RECORD
  5
53
330
1
100
AcDbSymbolTableRecord
100
AcDbBlockTableRecord
  2
FXTIP_BLACKDOT_E
  0
BLOCK_RECORD
  5
59
330
1
100
AcDbSymbolTableRecord
100
AcDbBlockTableRecord
  2
FXTIP_TRIANGLE_S
  0
BLOCK_RECORD
  5
60
330
1
100
AcDbSymbolTableRecord
100
AcDbBlockTableRecord
  2
FXTIP_TRIANGLE_E
  0
BLOCK_RECORD
  5
67
330
1
100
AcDbSymbolTableRecord
100
AcDbBlockTableRecord
  2
FXTIP_ARCHITECT_S
  0
BLOCK_RECORD
  5
6D
330
1
100
AcDbSymbolTableRecord
100
AcDbBlockTableRecord
  2
FXTIP_ARCHITECT_E
  0
BLOCK_RECORD
  5
73
330
1
100
AcDbSymbolTableRecord
100
AcDbBlockTableRecord
  2
FXTIP_CIVIL_S
  0
BLOCK_RECORD
  5
79
330
1
100
AcDbSymbolTableRecord
100
AcDbBlockTableRecord
  2
FXTIP_CIVIL_E
  0
BLOCK_RECORD
  5
7F
330
1
100
AcDbSymbolTableRecord
100
AcDbBlockTableRecord
  2
FXTIP_WHITEDOT_S
  0
BLOCK_RECORD
  5
84
330
1
100
AcDbSymbolTableRecord
100
AcDbBlockTableRecord
  2
FXTIP_WHITEDOT_E
  0
BLOCK_RECORD
  5
89
330
1
100
AcDbSymbolTableRecord
100
AcDbBlockTableRecord
  2
FXTIP_UPARROW_S
  0
BLOCK_RECORD
  5
8E
330
1
100
AcDbSymbolTableRecord
100
AcDbBlockTableRecord
  2
FXTIP_UPARROW_E
  0
BLOCK_RECORD
  5
93
330
1
100
AcDbSymbolTableRecord
100
AcDbBlockTableRecord
  2
FXTIP_DOWNARROW_S
  0
BLOCK_RECORD
  5
98
330
1
100
AcDbSymbolTableRecord
100
AcDbBlockTableRecord
  2
FXTIP_DOWNARROW_E
  0
BLOCK_RECORD
  5
9D
330
1
100
AcDbSymbolTableRecord
100
AcDbBlockTableRecord
  2
FXTIP_BLACKTRIANGLE_S
  0
BLOCK_RECORD
  5
A2
330
1
100
AcDbSymbolTableRecord
100
AcDbBlockTableRecord
  2
FXTIP_BLACKTRIANGLE_E
  0
BLOCK_RECORD
  5
D9
330
1
100
AcDbSymbolTableRecord
100
AcDbBlockTableRecord
  2
BLKF021
  0
BLOCK_RECORD
  5
E1
330
1
100
AcDbSymbolTableRecord
100
AcDbBlockTableRecord
  2
BLKF022
  0
BLOCK_RECORD
  5
10A
330
1
100
AcDbSymbolTableRecord
100
AcDbBlockTableRecord
  2
*D21
  0
BLOCK_RECORD
  5
114
330
1
100
AcDbSymbolTableRecord
100
AcDbBlockTableRecord
  2
*D22
  0
BLOCK_RECORD
  5
11E
330
1
100
AcDbSymbolTableRecord
100
AcDbBlockTableRecord
  2
*D23
  0
BLOCK_RECORD
  5
128
330
1
100
AcDbSymbolTableRecord
100
AcDbBlockTableRecord
  2
*D24
  0
BLOCK_RECORD
  5
132
330
1
100
AcDbSymbolTableRecord
100
AcDbBlockTableRecord
  2
*D25
  0
BLOCK_RECORD
  5
13C
330
1
100
AcDbSymbolTableRecord
100
AcDbBlockTableRecord
  2
*D26
  0
BLOCK_RECORD
  5
2AB
330
1
100
AcDbSymbolTableRecord
100
AcDbBlockTableRecord
  2
*D27
  0
BLOCK_RECORD
  5
30F
330
1
100
AcDbSymbolTableRecord
100
AcDbBlockTableRecord
  2
*D28
  0
BLOCK_RECORD
  5
31C
330
1
100
AcDbSymbolTableRecord
100
AcDbBlockTableRecord
  2
BLKF031
  0
BLOCK_RECORD
  5
324
330
1
100
AcDbSymbolTableRecord
100
AcDbBlockTableRecord
  2
BLKF032
  0
BLOCK_RECORD
  5
33B
330
1
100
AcDbSymbolTableRecord
100
AcDbBlockTableRecord
  2
*D31
  0
BLOCK_RECORD
  5
345
330
1
100
AcDbSymbolTableRecord
100
AcDbBlockTableRecord
  2
*D32
  0
BLOCK_RECORD
  5
360
330
1
100
AcDbSymbolTableRecord
100
AcDbBlockTableRecord
  2
*D33
  0
BLOCK_RECORD
  5
368
330
1
100
AcDbSymbolTableRecord
100
AcDbBlockTableRecord
  2
*D34
  0
BLOCK_RECORD
  5
39A
330
1
100
AcDbSymbolTableRecord
100
AcDbBlockTableRecord
  2
BLKF037
  0
BLOCK_RECORD
  5
3A6
330
1
100
AcDbSymbolTableRecord
100
AcDbBlockTableRecord
  2
BLKF038
  0
BLOCK_RECORD
  5
3AE
330
1
100
AcDbSymbolTableRecord
100
AcDbBlockTableRecord
  2
BLKF039
  0
BLOCK_RECORD
  5
3E4
330
1
100
AcDbSymbolTableRecord
100
AcDbBlockTableRecord
  2
*D38
  0
ENDTAB
  0
ENDSEC
  0
SECTION
  2
BLOCKS
  0
BLOCK
  5
20
330
1F
100
AcDbEntity
  8
0
100
AcDbBlockBegin
  2
*MODEL_SPACE
 70
     0
 71
     0
 10
0.0
 20
0.0
 30
0.0
  3
*MODEL_SPACE
  1

  0
ENDBLK
  5
21
330
1F
100
AcDbEntity
  8
0
100
AcDbBlockEnd
  0
BLOCK
  5
1C
330
1B
100
AcDbEntity
 67
     1
  8
0
100
AcDbBlockBegin
  2
*PAPER_SPACE
 70
     0
 71
     0
 10
0.0
 20
0.0
 30
0.0
  3
*PAPER_SPACE
  1

  0
ENDBLK
  5
1D
330
1B
100
AcDbEntity
 67
     1
  8
0
100
AcDbBlockEnd
  0
BLOCK
  5
42
330
41
100
AcDbEntity
  8
0
100
AcDbBlockBegin
  2
FXTIP_ARROW_S
 70
     0
 71
     0
 10
0.0
 20
0.0
 30
0.0
  3
FXTIP_ARROW_S
  1

  0
LINE
  5
44
330
41
100
AcDbEntity
  8
0
  6
CONTINUOUS
 62
     0
100
AcDbLine
 10
0.0
 20
0.0
 30
0.0
 11
-1.0
 21
0.0
 31
0.0
  0
LINE
  5
45
330
41
100
AcDbEntity
  8
0
  6
CONTINUOUS
 62
     0
100
AcDbLine
 10
0.0
 20
0.0
 30
0.0
 11
-0.965926
 21
-0.258819
 31
0.0
  0
LINE
  5
46
330
41
100
AcDbEntity
  8
0
  6
CONTINUOUS
 62
     0
100
AcDbLine
 10
0.0
 20
0.0
 30
0.0
 11
-0.965926
 21
0.258819
 31
0.0
  0
ENDBLK
  5
43
330
41
100
AcDbEntity
  8
0
100
AcDbBlockEnd
  0
BLOCK
  5
48
330
47
100
AcDbEntity
  8
0
100
AcDbBlockBegin
  2
FXTIP_ARROW_E
 70
     0
 71
     0
 10
0.0
 20
0.0
 30
0.0
  3
FXTIP_ARROW_E
  1

  0
LINE
  5
4A
330
47
100
AcDbEntity
  8
0
  6
CONTINUOUS
 62
     0
100
AcDbLine
 10
0.0
 20
0.0
 30
0.0
 11
-1.0
 21
0.0
 31
0.0
  0
LINE
  5
4B
330
47
100
AcDbEntity
  8
0
  6
CONTINUOUS
 62
     0
100
AcDbLine
 10
0.0
 20
0.0
 30
0.0
 11
-0.965926
 21
0.258819
 31
0.0
  0
LINE
  5
4C
330
47
100
AcDbEntity
  8
0
  6
CONTINUOUS
 62
     0
100
AcDbLine
 10
0.0
 20
0.0
 30
0.0
 11
-0.965926
 21
-0.258819
 31
0.0
  0
ENDBLK
  5
49
330
47
100
AcDbEntity
  8
0
100
AcDbBlockEnd
  0
BLOCK
  5
4E
330
4D
100
AcDbEntity
  8
0
100
AcDbBlockBegin
  2
FXTIP_BLACKDOT_S
 70
     0
 71
     0
 10
0.0
 20
0.0
 30
0.0
  3
FXTIP_BLACKDOT_S
  1

  0
LINE
  5
50
330
4D
100
AcDbEntity
  8
0
  6
CONTINUOUS
 62
     0
100
AcDbLine
 10
0.0
 20
0.0
 30
0.0
 11
-1.0
 21
0.0
 31
0.0
  0
LWPOLYLINE
  5
51
330
4D
100
AcDbEntity
  8
0
  6
CONTINUOUS
 62
     0
100
AcDbPolyline
 90
        2
 70
     1
 10
-0.25
 20
0.0
 40
0.5
 41
0.5
 42
1.0
 10
0.25
 20
0.0
 40
0.5
 41
0.5
 42
1.0
  0
CIRCLE
  5
52
330
4D
100
AcDbEntity
  8
0
  6
CONTINUOUS
 62
     0
100
AcDbCircle
 10
0.0
 20
0.0
 30
0.0
 40
0.5
  0
ENDBLK
  5
4F
330
4D
100
AcDbEntity
  8
0
100
AcDbBlockEnd
  0
BLOCK
  5
54
330
53
100
AcDbEntity
  8
0
100
AcDbBlockBegin
  2
FXTIP_BLACKDOT_E
 70
     0
 71
     0
 10
0.0
 20
0.0
 30
0.0
  3
FXTIP_BLACKDOT_E
  1

  0
LINE
  5
56
330
53
100
AcDbEntity
  8
0
  6
CONTINUOUS
 62
     0
100
AcDbLine
 10
0.0
 20
0.0
 30
0.0
 11
-1.0
 21
0.0
 31
0.0
  0
LWPOLYLINE
  5
57
330
53
100
AcDbEntity
  8
0
  6
CONTINUOUS
 62
     0
100
AcDbPolyline
 90
        2
 70
     1
 10
-0.25
 20
0.0
 40
0.5
 41
0.5
 42
1.0
 10
0.25
 20
0.0
 40
0.5
 41
0.5
 42
1.0
  0
CIRCLE
  5
58
330
53
100
AcDbEntity
  8
0
  6
CONTINUOUS
 62
     0
100
AcDbCircle
 10
0.0
 20
0.0
 30
0.0
 40
0.5
  0
ENDBLK
  5
55
330
53
100
AcDbEntity
  8
0
100
AcDbBlockEnd
  0
BLOCK
  5
5A
330
59
100
AcDbEntity
  8
0
100
AcDbBlockBegin
  2
FXTIP_TRIANGLE_S
 70
     0
 71
     0
 10
0.0
 20
0.0
 30
0.0
  3
FXTIP_TRIANGLE_S
  1

  0
LINE
  5
5C
330
59
100
AcDbEntity
  8
0
  6
CONTINUOUS
 62
     0
100
AcDbLine
 10
0.0
 20
0.0
 30
0.0
 11
-1.0
 21
0.0
 31
0.0
  0
LINE
  5
5D
330
59
100
AcDbEntity
  8
0
  6
CONTINUOUS
 62
     0
100
AcDbLine
 10
0.0
 20
0.0
 30
0.0
 11
-0.965926
 21
-0.258819
 31
0.0
  0
LINE
  5
5E
330
59
100
AcDbEntity
  8
0
  6
CONTINUOUS
 62
     0
100
AcDbLine
 10
0.0
 20
0.0
 30
0.0
 11
-0.965926
 21
0.258819
 31
0.0
  0
LINE
  5
5F
330
59
100
AcDbEntity
  8
0
  6
CONTINUOUS
 62
     0
100
AcDbLine
 10
-0.965926
 20
-0.258819
 30
0.0
 11
-0.965926
 21
0.258819
 31
0.0
  0
ENDBLK
  5
5B
330
59
100
AcDbEntity
  8
0
100
AcDbBlockEnd
  0
BLOCK
  5
61
330
60
100
AcDbEntity
  8
0
100
AcDbBlockBegin
  2
FXTIP_TRIANGLE_E
 70
     0
 71
     0
 10
0.0
 20
0.0
 30
0.0
  3
FXTIP_TRIANGLE_E
  1

  0
LINE
  5
63
330
60
100
AcDbEntity
  8
0
  6
CONTINUOUS
 62
     0
100
AcDbLine
 10
0.0
 20
0.0
 30
0.0
 11
-1.0
 21
0.0
 31
0.0
  0
LINE
  5
64
330
60
100
AcDbEntity
  8
0
  6
CONTINUOUS
 62
     0
100
AcDbLine
 10
0.0
 20
0.0
 30
0.0
 11
-0.965926
 21
0.258819
 31
0.0
  0
LINE
  5
65
330
60
100
AcDbEntity
  8
0
  6
CONTINUOUS
 62
     0
100
AcDbLine
 10
0.0
 20
0.0
 30
0.0
 11
-0.965926
 21
-0.258819
 31
0.0
  0
LINE
  5
66
330
60
100
AcDbEntity
  8
0
  6
CONTINUOUS
 62
     0
100
AcDbLine
 10
-0.965926
 20
0.258819
 30
0.0
 11
-0.965926
 21
-0.258819
 31
0.0
  0
ENDBLK
  5
62
330
60
100
AcDbEntity
  8
0
100
AcDbBlockEnd
  0
BLOCK
  5
68
330
67
100
AcDbEntity
  8
0
100
AcDbBlockBegin
  2
FXTIP_ARCHITECT_S
 70
     0
 71
     0
 10
0.0
 20
0.0
 30
0.0
  3
FXTIP_ARCHITECT_S
  1

  0
LINE
  5
6A
330
67
100
AcDbEntity
  8
0
  6
CONTINUOUS
 62
     0
100
AcDbLine
 10
0.0
 20
0.0
 30
0.0
 11
-1.0
 21
0.0
 31
0.0
  0
LINE
  5
6B
330
67
100
AcDbEntity
  8
0
  6
CONTINUOUS
 62
     0
100
AcDbLine
 10
0.0
 20
0.0
 30
0.0
 11
-0.707107
 21
-0.707107
 31
0.0
  0
LINE
  5
6C
330
67
100
AcDbEntity
  8
0
  6
CONTINUOUS
 62
     0
100
AcDbLine
 10
0.0
 20
0.0
 30
0.0
 11
0.707107
 21
0.707107
 31
0.0
  0
ENDBLK
  5
69
330
67
100
AcDbEntity
  8
0
100
AcDbBlockEnd
  0
BLOCK
  5
6E
330
6D
100
AcDbEntity
  8
0
100
AcDbBlockBegin
  2
FXTIP_ARCHITECT_E
 70
     0
 71
     0
 10
0.0
 20
0.0
 30
0.0
  3
FXTIP_ARCHITECT_E
  1

  0
LINE
  5
70
330
6D
100
AcDbEntity
  8
0
  6
CONTINUOUS
 62
     0
100
AcDbLine
 10
0.0
 20
0.0
 30
0.0
 11
-1.0
 21
0.0
 31
0.0
  0
LINE
  5
71
330
6D
100
AcDbEntity
  8
0
  6
CONTINUOUS
 62
     0
100
AcDbLine
 10
0.0
 20
0.0
 30
0.0
 11
0.707107
 21
0.707107
 31
0.0
  0
LINE
  5
72
330
6D
100
AcDbEntity
  8
0
  6
CONTINUOUS
 62
     0
100
AcDbLine
 10
0.0
 20
0.0
 30
0.0
 11
-0.707107
 21
-0.707107
 31
0.0
  0
ENDBLK
  5
6F
330
6D
100
AcDbEntity
  8
0
100
AcDbBlockEnd
  0
BLOCK
  5
74
330
73
100
AcDbEntity
  8
0
100
AcDbBlockBegin
  2
FXTIP_CIVIL_S
 70
     0
 71
     0
 10
0.0
 20
0.0
 30
0.0
  3
FXTIP_CIVIL_S
  1

  0
LINE
  5
76
330
73
100
AcDbEntity
  8
0
  6
CONTINUOUS
 62
     0
100
AcDbLine
 10
0.0
 20
0.0
 30
0.0
 11
-1.0
 21
0.0
 31
0.0
  0
LINE
  5
77
330
73
100
AcDbEntity
  8
0
  6
CONTINUOUS
 62
     0
100
AcDbLine
 10
0.0
 20
-0.0625
 30
0.0
 11
-1.0
 21
-0.0625
 31
0.0
  0
LINE
  5
78
330
73
100
AcDbEntity
  8
0
  6
CONTINUOUS
 62
     0
100
AcDbLine
 10
0.0
 20
-0.125
 30
0.0
 11
-1.0
 21
-0.125
 31
0.0
  0
ENDBLK
  5
75
330
73
100
AcDbEntity
  8
0
100
AcDbBlockEnd
  0
BLOCK
  5
7A
330
79
100
AcDbEntity
  8
0
100
AcDbBlockBegin
  2
FXTIP_CIVIL_E
 70
     0
 71
     0
 10
0.0
 20
0.0
 30
0.0
  3
FXTIP_CIVIL_E
  1

  0
LINE
  5
7C
330
79
100
AcDbEntity
  8
0
  6
CONTINUOUS
 62
     0
100
AcDbLine
 10
0.0
 20
0.0
 30
0.0
 11
-1.0
 21
0.0
 31
0.0
  0
LINE
  5
7D
330
79
100
AcDbEntity
  8
0
  6
CONTINUOUS
 62
     0
100
AcDbLine
 10
0.0
 20
0.0625
 30
0.0
 11
-1.0
 21
0.0625
 31
0.0
  0
LINE
  5
7E
330
79
100
AcDbEntity
  8
0
  6
CONTINUOUS
 62
     0
100
AcDbLine
 10
0.0
 20
0.125
 30
0.0
 11
-1.0
 21
0.125
 31
0.0
  0
ENDBLK
  5
7B
330
79
100
AcDbEntity
  8
0
100
AcDbBlockEnd
  0
BLOCK
  5
80
330
7F
100
AcDbEntity
  8
0
100
AcDbBlockBegin
  2
FXTIP_WHITEDOT_S
 70
     0
 71
     0
 10
0.0
 20
0.0
 30
0.0
  3
FXTIP_WHITEDOT_S
  1

  0
LINE
  5
82
330
7F
100
AcDbEntity
  8
0
  6
CONTINUOUS
 62
     0
100
AcDbLine
 10
0.0
 20
0.0
 30
0.0
 11
-1.0
 21
0.0
 31
0.0
  0
CIRCLE
  5
83
330
7F
100
AcDbEntity
  8
0
  6
CONTINUOUS
 62
     0
100
AcDbCircle
 10
0.0
 20
0.0
 30
0.0
 40
0.5
  0
ENDBLK
  5
81
330
7F
100
AcDbEntity
  8
0
100
AcDbBlockEnd
  0
BLOCK
  5
85
330
84
100
AcDbEntity
  8
0
100
AcDbBlockBegin
  2
FXTIP_WHITEDOT_E
 70
     0
 71
     0
 10
0.0
 20
0.0
 30
0.0
  3
FXTIP_WHITEDOT_E
  1

  0
LINE
  5
87
330
84
100
AcDbEntity
  8
0
  6
CONTINUOUS
 62
     0
100
AcDbLine
 10
0.0
 20
0.0
 30
0.0
 11
-1.0
 21
0.0
 31
0.0
  0
CIRCLE
  5
88
330
84
100
AcDbEntity
  8
0
  6
CONTINUOUS
 62
     0
100
AcDbCircle
 10
0.0
 20
0.0
 30
0.0
 40
0.5
  0
ENDBLK
  5
86
330
84
100
AcDbEntity
  8
0
100
AcDbBlockEnd
  0
BLOCK
  5
8A
330
89
100
AcDbEntity
  8
0
100
AcDbBlockBegin
  2
FXTIP_UPARROW_S
 70
     0
 71
     0
 10
0.0
 20
0.0
 30
0.0
  3
FXTIP_UPARROW_S
  1

  0
LINE
  5
8C
330
89
100
AcDbEntity
  8
0
  6
CONTINUOUS
 62
     0
100
AcDbLine
 10
0.0
 20
0.0
 30
0.0
 11
-1.0
 21
0.0
 31
0.0
  0
LINE
  5
8D
330
89
100
AcDbEntity
  8
0
  6
CONTINUOUS
 62
     0
100
AcDbLine
 10
0.0
 20
0.0
 30
0.0
 11
-0.965926
 21
-0.258819
 31
0.0
  0
ENDBLK
  5
8B
330
89
100
AcDbEntity
  8
0
100
AcDbBlockEnd
  0
BLOCK
  5
8F
330
8E
100
AcDbEntity
  8
0
100
AcDbBlockBegin
  2
FXTIP_UPARROW_E
 70
     0
 71
     0
 10
0.0
 20
0.0
 30
0.0
  3
FXTIP_UPARROW_E
  1

  0
LINE
  5
91
330
8E
100
AcDbEntity
  8
0
  6
CONTINUOUS
 62
     0
100
AcDbLine
 10
0.0
 20
0.0
 30
0.0
 11
-1.0
 21
0.0
 31
0.0
  0
LINE
  5
92
330
8E
100
AcDbEntity
  8
0
  6
CONTINUOUS
 62
     0
100
AcDbLine
 10
0.0
 20
0.0
 30
0.0
 11
-0.965926
 21
0.258819
 31
0.0
  0
ENDBLK
  5
90
330
8E
100
AcDbEntity
  8
0
100
AcDbBlockEnd
  0
BLOCK
  5
94
330
93
100
AcDbEntity
  8
0
100
AcDbBlockBegin
  2
FXTIP_DOWNARROW_S
 70
     0
 71
     0
 10
0.0
 20
0.0
 30
0.0
  3
FXTIP_DOWNARROW_S
  1

  0
LINE
  5
96
330
93
100
AcDbEntity
  8
0
  6
CONTINUOUS
 62
     0
100
AcDbLine
 10
0.0
 20
0.0
 30
0.0
 11
-1.0
 21
0.0
 31
0.0
  0
LINE
  5
97
330
93
100
AcDbEntity
  8
0
  6
CONTINUOUS
 62
     0
100
AcDbLine
 10
0.0
 20
0.0
 30
0.0
 11
-0.965926
 21
0.258819
 31
0.0
  0
ENDBLK
  5
95
330
93
100
AcDbEntity
  8
0
100
AcDbBlockEnd
  0
BLOCK
  5
99
330
98
100
AcDbEntity
  8
0
100
AcDbBlockBegin
  2
FXTIP_DOWNARROW_E
 70
     0
 71
     0
 10
0.0
 20
0.0
 30
0.0
  3
FXTIP_DOWNARROW_E
  1

  0
LINE
  5
9B
330
98
100
AcDbEntity
  8
0
  6
CONTINUOUS
 62
     0
100
AcDbLine
 10
0.0
 20
0.0
 30
0.0
 11
-1.0
 21
0.0
 31
0.0
  0
LINE
  5
9C
330
98
100
AcDbEntity
  8
0
  6
CONTINUOUS
 62
     0
100
AcDbLine
 10
0.0
 20
0.0
 30
0.0
 11
-0.965926
 21
-0.258819
 31
0.0
  0
ENDBLK
  5
9A
330
98
100
AcDbEntity
  8
0
100
AcDbBlockEnd
  0
BLOCK
  5
9E
330
9D
100
AcDbEntity
  8
0
100
AcDbBlockBegin
  2
FXTIP_BLACKTRIANGLE_S
 70
     0
 71
     0
 10
0.0
 20
0.0
 30
0.0
  3
FXTIP_BLACKTRIANGLE_S
  1

  0
LINE
  5
A0
330
9D
100
AcDbEntity
  8
0
  6
CONTINUOUS
 62
     0
100
AcDbLine
 10
0.0
 20
0.0
 30
0.0
 11
-1.0
 21
0.0
 31
0.0
  0
SOLID
  5
A1
330
9D
100
AcDbEntity
  8
0
  6
CONTINUOUS
 62
     0
100
AcDbTrace
 10
0.0
 20
0.0
 30
0.0
 11
-0.965926
 21
-0.258819
 31
0.0
 12
-0.965926
 22
0.258819
 32
0.0
 13
-0.965926
 23
0.258819
 33
0.0
  0
ENDBLK
  5
9F
330
9D
100
AcDbEntity
  8
0
100
AcDbBlockEnd
  0
BLOCK
  5
A3
330
A2
100
AcDbEntity
  8
0
100
AcDbBlockBegin
  2
FXTIP_BLACKTRIANGLE_E
 70
     0
 71
     0
 10
0.0
 20
0.0
 30
0.0
  3
FXTIP_BLACKTRIANGLE_E
  1

  0
LINE
  5
A5
330
A2
100
AcDbEntity
  8
0
  6
CONTINUOUS
 62
     0
100
AcDbLine
 10
0.0
 20
0.0
 30
0.0
 11
-1.0
 21
0.0
 31
0.0
  0
SOLID
  5
A6
330
A2
100
AcDbEntity
  8
0
  6
CONTINUOUS
 62
     0
100
AcDbTrace
 10
0.0
 20
0.0
 30
0.0
 11
-0.965926
 21
0.258819
 31
0.0
 12
-0.965926
 22
-0.258819
 32
0.0
 13
-0.965926
 23
-0.258819
 33
0.0
  0
ENDBLK
  5
A4
330
A2
100
AcDbEntity
  8
0
100
AcDbBlockEnd
  0
BLOCK
  5
DA
330
D9
100
AcDbEntity
  8
0
100
AcDbBlockBegin
  2
BLKF021
 70
     0
 71
     0
 10
0.0
 20
0.0
 30
0.0
  3
BLKF021
  1

  0
LINE
  5
DD
330
D9
100
AcDbEntity
  8
GR1-1
  6
CENTER
 62
     6
100
AcDbLine
 10
460.693127
 20
423.385834
 30
0.0
 11
470.039994
 21
423.385834
 31
0.0
  0
LINE
  5
DE
330
D9
100
AcDbEntity
  8
GR1-1
  6
CENTER
 62
     6
100
AcDbLine
 10
470.039994
 20
414.774805
 30
0.0
 11
470.039994
 21
423.385834
 31
0.0
  0
LINE
  5
DF
330
D9
100
AcDbEntity
  8
GR1-1
  6
CENTER
 62
     6
100
AcDbLine
 10
478.734138
 20
423.385834
 30
0.0
 11
470.039994
 21
423.385834
 31
0.0
  0
LINE
  5
E0
330
D9
100
AcDbEntity
  8
GR1-1
  6
CENTER
 62
     6
100
AcDbLine
 10
470.039994
 20
432.079448
 30
0.0
 11
470.039994
 21
423.385834
 31
0.0
  0
ENDBLK
  5
DB
330
D9
100
AcDbEntity
  8
0
100
AcDbBlockEnd
  0
BLOCK
  5
E2
330
E1
100
AcDbEntity
  8
0
100
AcDbBlockBegin
  2
BLKF022
 70
     0
 71
     0
 10
0.0
 20
0.0
 30
0.0
  3
BLKF022
  1

  0
LINE
  5
E5
330
E1
100
AcDbEntity
  8
GR1-1
  6
CENTER
 62
     6
100
AcDbLine
 10
603.039994
 20
423.385834
 30
0.0
 11
595.039994
 21
423.385834
 31
0.0
  0
LINE
  5
E6
330
E1
100
AcDbEntity
  8
GR1-1
  6
CENTER
 62
     6
100
AcDbLine
 10
595.039994
 20
414.326789
 30
0.0
 11
595.039994
 21
423.385834
 31
0.0
  0
LINE
  5
E7
330
E1
100
AcDbEntity
  8
GR1-1
  6
CENTER
 62
     6
100
AcDbLine
 10
585.800423
 20
423.385834
 30
0.0
 11
595.039994
 21
423.385834
 31
0.0
  0
LINE
  5
E8
330
E1
100
AcDbEntity
  8
GR1-1
  6
CENTER
 62
     6
100
AcDbLine
 10
595.039994
 20
432.321069
 30
0.0
 11
595.039994
 21
423.385834
 31
0.0
  0
ENDBLK
  5
E3
330
E1
100
AcDbEntity
  8
0
100
AcDbBlockEnd
  0
BLOCK
  5
10B
330
10A
100
AcDbEntity
  8
0
100
AcDbBlockBegin
  2
*D21
 70
     1
 71
     0
 10
0.0
 20
0.0
 30
0.0
  3
*D21
  1

  0
TEXT
  5
10D
330
10A
100
AcDbEntity
  8
LAYERGROUP-1
  6
CONTINUOUS
 62
     7
100
AcDbText
 10
528.039978
 20
373.327362
 30
0.0
 40
4.0
  1
125
 41
0.828947
  7
FX_VECTOR
 72
     5
 11
537.039978
 21
373.327362
 31
0.0
100
AcDbText
  0
LINE
  5
10E
330
10A
100
AcDbEntity
  8
LAYERGROUP-1
  6
CONTINUOUS
 62
     7
100
AcDbLine
 10
470.039994
 20
372.327398
 30
0.0
 11
595.039994
 21
372.327398
 31
0.0
  0
INSERT
  5
10F
330
10A
100
AcDbEntity
  8
LAYERGROUP-1
  6
CONTINUOUS
 62
     7
100
AcDbBlockReference
  2
FXTIP_ARROW_S
 10
470.039994
 20
372.327398
 30
0.0
 41
4.0
 42
4.0
 50
180.0
  0
INSERT
  5
110
330
10A
100
AcDbEntity
  8
LAYERGROUP-1
  6
CONTINUOUS
 62
     7
100
AcDbBlockReference
  2
FXTIP_ARROW_E
 10
595.039994
 20
372.327398
 30
0.0
 41
4.0
 42
4.0
 50
360.0
  0
LINE
  5
111
330
10A
100
AcDbEntity
  8
LAYERGROUP-1
  6
CONTINUOUS
 62
     7
100
AcDbLine
 10
470.039994
 20
412.860248
 30
0.0
 11
470.039994
 21
371.327398
 31
0.0
  0
LINE
  5
112
330
10A
100
AcDbEntity
  8
LAYERGROUP-1
  6
CONTINUOUS
 62
     7
100
AcDbLine
 10
595.039994
 20
412.657216
 30
0.0
 11
595.039994
 21
371.327398
 31
0.0
  0
ENDBLK
  5
10C
330
10A
100
AcDbEntity
  8
0
100
AcDbBlockEnd
  0
BLOCK
  5
115
330
114
100
AcDbEntity
  8
0
100
AcDbBlockBegin
  2
*D22
 70
     1
 71
     0
 10
0.0
 20
0.0
 30
0.0
  3
*D22
  1

  0
TEXT
  5
117
330
114
100
AcDbEntity
  8
LAYERGROUP-1
  6
CONTINUOUS
 62
     7
100
AcDbText
 10
528.039978
 20
357.808685
 30
0.0
 40
4.0
  1
160
 41
0.828947
  7
FX_VECTOR
 72
     5
 11
537.039978
 21
357.808685
 31
0.0
100
AcDbText
  0
LINE
  5
118
330
114
100
AcDbEntity
  8
LAYERGROUP-1
  6
CONTINUOUS
 62
     7
100
AcDbLine
 10
452.539994
 20
356.808748
 30
0.0
 11
612.539994
 21
356.808748
 31
0.0
  0
INSERT
  5
119
330
114
100
AcDbEntity
  8
LAYERGROUP-1
  6
CONTINUOUS
 62
     7
100
AcDbBlockReference
  2
FXTIP_ARROW_S
 10
452.539994
 20
356.808748
 30
0.0
 41
4.0
 42
4.0
 50
180.0
  0
INSERT
  5
11A
330
114
100
AcDbEntity
  8
LAYERGROUP-1
  6
CONTINUOUS
 62
     7
100
AcDbBlockReference
  2
FXTIP_ARROW_E
 10
612.539994
 20
356.808748
 30
0.0
 41
4.0
 42
4.0
 50
360.0
  0
LINE
  5
11B
330
114
100
AcDbEntity
  8
LAYERGROUP-1
  6
CONTINUOUS
 62
     7
100
AcDbLine
 10
452.539994
 20
420.885834
 30
0.0
 11
452.539994
 21
355.808748
 31
0.0
  0
LINE
  5
11C
330
114
100
AcDbEntity
  8
LAYERGROUP-1
  6
CONTINUOUS
 62
     7
100
AcDbLine
 10
612.539994
 20
420.885834
 30
0.0
 11
612.539994
 21
355.808748
 31
0.0
  0
ENDBLK
  5
116
330
114
100
AcDbEntity
  8
0
100
AcDbBlockEnd
  0
BLOCK
  5
11F
330
11E
100
AcDbEntity
  8
0
100
AcDbBlockBegin
  2
*D23
 70
     1
 71
     0
 10
0.0
 20
0.0
 30
0.0
  3
*D23
  1

  0
TEXT
  5
121
330
11E
100
AcDbEntity
  8
LAYERGROUP-1
  6
CONTINUOUS
 62
     7
100
AcDbText
 10
621.539978
 20
248.729553
 30
0.0
 40
4.0
  1
180
 50
90.0
 41
0.828947
  7
FX_VECTOR
 72
     5
 11
621.539978
 21
257.729553
 31
0.0
100
AcDbText
  0
LINE
  5
122
330
11E
100
AcDbEntity
  8
LAYERGROUP-1
  6
CONTINUOUS
 62
     7
100
AcDbLine
 10
622.539994
 20
163.229563
 30
0.0
 11
622.539994
 21
343.229563
 31
0.0
  0
INSERT
  5
123
330
11E
100
AcDbEntity
  8
LAYERGROUP-1
  6
CONTINUOUS
 62
     7
100
AcDbBlockReference
  2
FXTIP_ARROW_S
 10
622.539994
 20
163.229563
 30
0.0
 41
4.0
 42
4.0
 50
270.0
  0
INSERT
  5
124
330
11E
100
AcDbEntity
  8
LAYERGROUP-1
  6
CONTINUOUS
 62
     7
100
AcDbBlockReference
  2
FXTIP_ARROW_E
 10
622.539994
 20
343.229563
 30
0.0
 41
4.0
 42
4.0
 50
90.0
  0
LINE
  5
125
330
11E
100
AcDbEntity
  8
LAYERGROUP-1
  6
CONTINUOUS
 62
     7
100
AcDbLine
 10
486.729485
 20
163.229563
 30
0.0
 11
623.539994
 21
163.229563
 31
0.0
  0
LINE
  5
126
330
11E
100
AcDbEntity
  8
LAYERGROUP-1
  6
CONTINUOUS
 62
     7
100
AcDbLine
 10
613.539994
 20
343.229563
 30
0.0
 11
623.539994
 21
343.229563
 31
0.0
  0
ENDBLK
  5
120
330
11E
100
AcDbEntity
  8
0
100
AcDbBlockEnd
  0
BLOCK
  5
129
330
128
100
AcDbEntity
  8
0
100
AcDbBlockBegin
  2
*D24
 70
     1
 71
     0
 10
0.0
 20
0.0
 30
0.0
  3
*D24
  1

  0
TEXT
  5
12B
330
128
100
AcDbEntity
  8
LAYERGROUP-1
  6
CONTINUOUS
 62
     7
100
AcDbText
 10
631.539978
 20
186.229553
 30
0.0
 40
4.0
  1
305
 50
90.0
 41
0.828947
  7
FX_VECTOR
 72
     5
 11
631.539978
 21
195.229553
 31
0.0
100
AcDbText
  0
LINE
  5
12C
330
128
100
AcDbEntity
  8
LAYERGROUP-1
  6
CONTINUOUS
 62
     7
100
AcDbLine
 10
632.539994
 20
38.229563
 30
0.0
 11
632.539994
 21
343.229563
 31
0.0
  0
INSERT
  5
12D
330
128
100
AcDbEntity
  8
LAYERGROUP-1
  6
CONTINUOUS
 62
     7
100
AcDbBlockReference
  2
FXTIP_ARROW_S
 10
632.539994
 20
38.229563
 30
0.0
 41
4.0
 42
4.0
 50
270.0
  0
INSERT
  5
12E
330
128
100
AcDbEntity
  8
LAYERGROUP-1
  6
CONTINUOUS
 62
     7
100
AcDbBlockReference
  2
FXTIP_ARROW_E
 10
632.539994
 20
343.229563
 30
0.0
 41
4.0
 42
4.0
 50
90.0
  0
LINE
  5
12F
330
128
100
AcDbEntity
  8
LAYERGROUP-1
  6
CONTINUOUS
 62
     7
100
AcDbLine
 10
462.539994
 20
38.229563
 30
0.0
 11
633.539994
 21
38.229563
 31
0.0
  0
LINE
  5
130
330
128
100
AcDbEntity
  8
LAYERGROUP-1
  6
CONTINUOUS
 62
     7
100
AcDbLine
 10
613.816382
 20
343.229563
 30
0.0
 11
633.539994
 21
343.229563
 31
0.0
  0
ENDBLK
  5
12A
330
128
100
AcDbEntity
  8
0
100
AcDbBlockEnd
  0
BLOCK
  5
133
330
132
100
AcDbEntity
  8
0
100
AcDbBlockBegin
  2
*D25
 70
     1
 71
     0
 10
0.0
 20
0.0
 30
0.0
  3
*D25
  1

  0
TEXT
  5
135
330
132
100
AcDbEntity
  8
LAYERGROUP-1
  6
CONTINUOUS
 62
     7
100
AcDbText
 10
494.039978
 20
29.229563
 30
0.0
 40
4.0
  1
71
 41
1.016129
  7
FX_VECTOR
 72
     5
 11
500.039978
 21
29.229563
 31
0.0
100
AcDbText
  0
LINE
  5
136
330
132
100
AcDbEntity
  8
LAYERGROUP-1
  6
CONTINUOUS
 62
     7
100
AcDbLine
 10
461.539994
 20
28.229563
 30
0.0
 11
532.539994
 21
28.229563
 31
0.0
  0
INSERT
  5
137
330
132
100
AcDbEntity
  8
LAYERGROUP-1
  6
CONTINUOUS
 62
     7
100
AcDbBlockReference
  2
FXTIP_ARROW_S
 10
461.539994
 20
28.229563
 30
0.0
 41
4.0
 42
4.0
 50
180.0
  0
INSERT
  5
138
330
132
100
AcDbEntity
  8
LAYERGROUP-1
  6
CONTINUOUS
 62
     7
100
AcDbBlockReference
  2
FXTIP_ARROW_E
 10
532.539994
 20
28.229563
 30
0.0
 41
4.0
 42
4.0
 50
360.0
  0
LINE
  5
139
330
132
100
AcDbEntity
  8
LAYERGROUP-1
  6
CONTINUOUS
 62
     7
100
AcDbLine
 10
461.539994
 20
139.72727
 30
0.0
 11
461.539994
 21
27.229563
 31
0.0
  0
LINE
  5
13A
330
132
100
AcDbEntity
  8
LAYERGROUP-1
  6
CONTINUOUS
 62
     7
100
AcDbLine
 10
532.539994
 20
214.580422
 30
0.0
 11
532.539994
 21
27.229563
 31
0.0
  0
ENDBLK
  5
134
330
132
100
AcDbEntity
  8
0
100
AcDbBlockEnd
  0
BLOCK
  5
13D
330
13C
100
AcDbEntity
  8
0
100
AcDbBlockBegin
  2
*D26
 70
     1
 71
     0
 10
0.0
 20
0.0
 30
0.0
  3
*D26
  1

  0
TEXT
  5
13F
330
13C
100
AcDbEntity
  8
LAYERGROUP-1
  6
CONTINUOUS
 62
     7
100
AcDbText
 10
422.159821
 20
411.632599
 30
0.0
 40
4.0
  1
４－%%c14
 41
0.846774
  7
FX_VECTOR
 72
     5
 11
437.159821
 21
411.632599
 31
0.0
100
AcDbText
  0
LINE
  5
140
330
13C
100
AcDbEntity
  8
LAYERGROUP-1
  6
CONTINUOUS
 62
     7
100
AcDbLine
 10
463.566231
 20
420.723055
 30
0.0
 11
476.513757
 21
426.048614
 31
0.0
  0
LINE
  5
141
330
13C
100
AcDbEntity
  8
LAYERGROUP-1
  6
CONTINUOUS
 62
     7
100
AcDbLine
 10
463.566231
 20
420.723055
 30
0.0
 11
439.034322
 21
410.632622
 31
0.0
  0
INSERT
  5
142
330
13C
100
AcDbEntity
  8
LAYERGROUP-1
  6
CONTINUOUS
 62
     7
100
AcDbBlockReference
  2
FXTIP_ARROW_S
 10
463.566231
 20
420.723055
 30
0.0
 41
4.0
 42
4.0
 50
22.358281
  0
LINE
  5
143
330
13C
100
AcDbEntity
  8
LAYERGROUP-1
  6
CONTINUOUS
 62
     7
100
AcDbLine
 10
439.034322
 20
410.632622
 30
0.0
 11
420.28536
 21
410.632622
 31
0.0
  0
LINE
  5
144
330
13C
100
AcDbEntity
  8
LAYERGROUP-1
  6
CONTINUOUS
 62
     7
100
AcDbLine
 10
476.513757
 20
426.048614
 30
0.0
 11
482.062696
 21
428.330996
 31
0.0
  0
INSERT
  5
145
330
13C
100
AcDbEntity
  8
LAYERGROUP-1
  6
CONTINUOUS
 62
     7
100
AcDbBlockReference
  2
FXTIP_ARROW_S
 10
476.513757
 20
426.048614
 30
0.0
 41
4.0
 42
4.0
 50
202.358281
  0
ENDBLK
  5
13E
330
13C
100
AcDbEntity
  8
0
100
AcDbBlockEnd
  0
BLOCK
  5
2AC
330
2AB
100
AcDbEntity
  8
0
100
AcDbBlockBegin
  2
*D27
 70
     1
 71
     0
 10
0.0
 20
0.0
 30
0.0
  3
*D27
  1

  0
TEXT
  5
2AE
330
2AB
100
AcDbEntity
  8
LAYERGROUP-1
  6
CONTINUOUS
 62
     7
100
AcDbText
 10
265.072876
 20
366.793518
 30
0.0
 40
4.0
  1
138
 41
0.828947
  7
FX_VECTOR
 72
     5
 11
274.072876
 21
366.793518
 31
0.0
100
AcDbText
  0
LINE
  5
2AF
330
2AB
100
AcDbEntity
  8
LAYERGROUP-1
  6
CONTINUOUS
 62
     7
100
AcDbLine
 10
201.073839
 20
365.793522
 30
0.0
 11
338.071929
 21
365.793522
 31
0.0
  0
INSERT
  5
2B0
330
2AB
100
AcDbEntity
  8
LAYERGROUP-1
  6
CONTINUOUS
 62
     7
100
AcDbBlockReference
  2
FXTIP_ARROW_S
 10
201.073839
 20
365.793522
 30
0.0
 41
4.0
 42
4.0
 50
180.0
  0
INSERT
  5
2B1
330
2AB
100
AcDbEntity
  8
LAYERGROUP-1
  6
CONTINUOUS
 62
     7
100
AcDbBlockReference
  2
FXTIP_ARROW_E
 10
338.071929
 20
365.793522
 30
0.0
 41
4.0
 42
4.0
 50
360.0
  0
LINE
  5
2B2
330
2AB
100
AcDbEntity
  8
LAYERGROUP-1
  6
CONTINUOUS
 62
     7
100
AcDbLine
 10
201.073839
 20
356.793522
 30
0.0
 11
201.073839
 21
366.793522
 31
0.0
  0
LINE
  5
2B3
330
2AB
100
AcDbEntity
  8
LAYERGROUP-1
  6
CONTINUOUS
 62
     7
100
AcDbLine
 10
338.071929
 20
268.416861
 30
0.0
 11
338.071929
 21
366.793522
 31
0.0
  0
ENDBLK
  5
2AD
330
2AB
100
AcDbEntity
  8
0
100
AcDbBlockEnd
  0
BLOCK
  5
310
330
30F
100
AcDbEntity
  8
0
100
AcDbBlockBegin
  2
*D28
 70
     1
 71
     0
 10
0.0
 20
0.0
 30
0.0
  3
*D28
  1

  0
TEXT
  5
312
330
30F
100
AcDbEntity
  8
LAYERGROUP-1
  6
CONTINUOUS
 62
     7
100
AcDbText
 10
121.061615
 20
157.229538
 30
0.0
 40
4.0
  1
%%c250
 50
90.0
 41
0.828947
  7
FX_VECTOR
 72
     5
 11
121.061615
 21
169.229538
 31
0.0
100
AcDbText
  0
LINE
  5
313
330
30F
100
AcDbEntity
  8
LAYERGROUP-1
  6
CONTINUOUS
 62
     7
100
AcDbLine
 10
122.061621
 20
38.229563
 30
0.0
 11
122.061621
 21
288.229563
 31
0.0
  0
INSERT
  5
314
330
30F
100
AcDbEntity
  8
LAYERGROUP-1
  6
CONTINUOUS
 62
     7
100
AcDbBlockReference
  2
FXTIP_ARROW_S
 10
122.061621
 20
38.229563
 30
0.0
 41
4.0
 42
4.0
 50
270.0
  0
INSERT
  5
315
330
30F
100
AcDbEntity
  8
LAYERGROUP-1
  6
CONTINUOUS
 62
     7
100
AcDbBlockReference
  2
FXTIP_ARROW_E
 10
122.061621
 20
288.229563
 30
0.0
 41
4.0
 42
4.0
 50
90.0
  0
LINE
  5
316
330
30F
100
AcDbEntity
  8
LAYERGROUP-1
  6
CONTINUOUS
 62
     7
100
AcDbLine
 10
200.073839
 20
38.229563
 30
0.0
 11
121.061621
 21
38.229563
 31
0.0
  0
LINE
  5
317
330
30F
100
AcDbEntity
  8
LAYERGROUP-1
  6
CONTINUOUS
 62
     7
100
AcDbLine
 10
200.073839
 20
288.229563
 30
0.0
 11
121.061621
 21
288.229563
 31
0.0
  0
ENDBLK
  5
311
330
30F
100
AcDbEntity
  8
0
100
AcDbBlockEnd
  0
BLOCK
  5
31D
330
31C
100
AcDbEntity
  8
0
100
AcDbBlockBegin
  2
BLKF031
 70
     0
 71
     0
 10
0.0
 20
0.0
 30
0.0
  3
BLKF031
  1

  0
LINE
  5
320
330
31C
100
AcDbEntity
  8
GR1-1
  6
CENTER
 62
     6
100
AcDbLine
 10
460.693127
 20
548.385834
 30
0.0
 11
470.039994
 21
548.385834
 31
0.0
  0
LINE
  5
321
330
31C
100
AcDbEntity
  8
GR1-1
  6
CENTER
 62
     6
100
AcDbLine
 10
470.039994
 20
556.996863
 30
0.0
 11
470.039994
 21
548.385834
 31
0.0
  0
LINE
  5
322
330
31C
100
AcDbEntity
  8
GR1-1
  6
CENTER
 62
     6
100
AcDbLine
 10
478.734138
 20
548.385834
 30
0.0
 11
470.039994
 21
548.385834
 31
0.0
  0
LINE
  5
323
330
31C
100
AcDbEntity
  8
GR1-1
  6
CENTER
 62
     6
100
AcDbLine
 10
470.039994
 20
539.69222
 30
0.0
 11
470.039994
 21
548.385834
 31
0.0
  0
ENDBLK
  5
31E
330
31C
100
AcDbEntity
  8
0
100
AcDbBlockEnd
  0
BLOCK
  5
325
330
324
100
AcDbEntity
  8
0
100
AcDbBlockBegin
  2
BLKF032
 70
     0
 71
     0
 10
0.0
 20
0.0
 30
0.0
  3
BLKF032
  1

  0
LINE
  5
328
330
324
100
AcDbEntity
  8
GR1-1
  6
CENTER
 62
     6
100
AcDbLine
 10
603.039994
 20
548.385834
 30
0.0
 11
595.039994
 21
548.385834
 31
0.0
  0
LINE
  5
329
330
324
100
AcDbEntity
  8
GR1-1
  6
CENTER
 62
     6
100
AcDbLine
 10
595.039994
 20
557.44488
 30
0.0
 11
595.039994
 21
548.385834
 31
0.0
  0
LINE
  5
32A
330
324
100
AcDbEntity
  8
GR1-1
  6
CENTER
 62
     6
100
AcDbLine
 10
585.800423
 20
548.385834
 30
0.0
 11
595.039994
 21
548.385834
 31
0.0
  0
LINE
  5
32B
330
324
100
AcDbEntity
  8
GR1-1
  6
CENTER
 62
     6
100
AcDbLine
 10
595.039994
 20
539.450599
 30
0.0
 11
595.039994
 21
548.385834
 31
0.0
  0
ENDBLK
  5
326
330
324
100
AcDbEntity
  8
0
100
AcDbBlockEnd
  0
BLOCK
  5
33C
330
33B
100
AcDbEntity
  8
0
100
AcDbBlockBegin
  2
*D31
 70
     1
 71
     0
 10
0.0
 20
0.0
 30
0.0
  3
*D31
  1

  0
TEXT
  5
33E
330
33B
100
AcDbEntity
  8
LAYERGROUP-1
  6
CONTINUOUS
 62
     7
100
AcDbText
 10
645.09845
 20
481.385803
 30
0.0
 40
4.0
  1
125
 50
90.0
 41
0.828947
  7
FX_VECTOR
 72
     5
 11
645.09845
 21
490.385803
 31
0.0
100
AcDbText
  0
LINE
  5
33F
330
33B
100
AcDbEntity
  8
LAYERGROUP-1
  6
CONTINUOUS
 62
     7
100
AcDbLine
 10
646.09843
 20
423.385834
 30
0.0
 11
646.09843
 21
548.385834
 31
0.0
  0
INSERT
  5
340
330
33B
100
AcDbEntity
  8
LAYERGROUP-1
  6
CONTINUOUS
 62
     7
100
AcDbBlockReference
  2
FXTIP_ARROW_S
 10
646.09843
 20
423.385834
 30
0.0
 41
4.0
 42
4.0
 50
270.0
  0
INSERT
  5
341
330
33B
100
AcDbEntity
  8
LAYERGROUP-1
  6
CONTINUOUS
 62
     7
100
AcDbBlockReference
  2
FXTIP_ARROW_E
 10
646.09843
 20
548.385834
 30
0.0
 41
4.0
 42
4.0
 50
90.0
  0
LINE
  5
342
330
33B
100
AcDbEntity
  8
LAYERGROUP-1
  6
CONTINUOUS
 62
     7
100
AcDbLine
 10
605.56558
 20
423.385834
 30
0.0
 11
647.09843
 21
423.385834
 31
0.0
  0
LINE
  5
343
330
33B
100
AcDbEntity
  8
LAYERGROUP-1
  6
CONTINUOUS
 62
     7
100
AcDbLine
 10
605.768612
 20
548.385834
 30
0.0
 11
647.09843
 21
548.385834
 31
0.0
  0
ENDBLK
  5
33D
330
33B
100
AcDbEntity
  8
0
100
AcDbBlockEnd
  0
BLOCK
  5
346
330
345
100
AcDbEntity
  8
0
100
AcDbBlockBegin
  2
*D32
 70
     1
 71
     0
 10
0.0
 20
0.0
 30
0.0
  3
*D32
  1

  0
TEXT
  5
348
330
345
100
AcDbEntity
  8
LAYERGROUP-1
  6
CONTINUOUS
 62
     7
100
AcDbText
 10
660.617126
 20
481.385803
 30
0.0
 40
4.0
  1
160
 50
90.0
 41
0.828947
  7
FX_VECTOR
 72
     5
 11
660.617126
 21
490.385803
 31
0.0
100
AcDbText
  0
LINE
  5
349
330
345
100
AcDbEntity
  8
LAYERGROUP-1
  6
CONTINUOUS
 62
     7
100
AcDbLine
 10
661.61708
 20
405.885834
 30
0.0
 11
661.61708
 21
565.885834
 31
0.0
  0
INSERT
  5
34A
330
345
100
AcDbEntity
  8
LAYERGROUP-1
  6
CONTINUOUS
 62
     7
100
AcDbBlockReference
  2
FXTIP_ARROW_S
 10
661.61708
 20
405.885834
 30
0.0
 41
4.0
 42
4.0
 50
270.0
  0
INSERT
  5
34B
330
345
100
AcDbEntity
  8
LAYERGROUP-1
  6
CONTINUOUS
 62
     7
100
AcDbBlockReference
  2
FXTIP_ARROW_E
 10
661.61708
 20
565.885834
 30
0.0
 41
4.0
 42
4.0
 50
90.0
  0
LINE
  5
34C
330
345
100
AcDbEntity
  8
LAYERGROUP-1
  6
CONTINUOUS
 62
     7
100
AcDbLine
 10
597.539994
 20
405.885834
 30
0.0
 11
662.61708
 21
405.885834
 31
0.0
  0
LINE
  5
34D
330
345
100
AcDbEntity
  8
LAYERGROUP-1
  6
CONTINUOUS
 62
     7
100
AcDbLine
 10
597.539994
 20
565.885834
 30
0.0
 11
662.61708
 21
565.885834
 31
0.0
  0
ENDBLK
  5
347
330
345
100
AcDbEntity
  8
0
100
AcDbBlockEnd
  0
BLOCK
  5
361
330
360
100
AcDbEntity
  8
0
100
AcDbBlockBegin
  2
*D33
 70
     1
 71
     0
 10
0.0
 20
0.0
 30
0.0
  3
*D33
  1

  0
TEXT
  5
363
330
360
100
AcDbEntity
  8
}}ﾊﾊGG血CCТ
  6
CONTINUOUS
 62
     7
100
AcDbText
 10
417.862803
 20
396.572832
 30
0.0
 40
4.0
  1
160
 50
38.74316
 41
0.828947
  7
FX_VECTOR
 72
     5
 11
424.882436
 21
402.205305
 31
0.0
100
AcDbText
  0
LINE
  5
364
330
360
100
AcDbEntity
  8
}}ﾊﾊGG血CCТ
  6
CONTINUOUS
 62
     7
100
AcDbLine
 10
408.116324
 20
386.049701
 30
0.0
 11
532.539994
 21
485.885834
 31
0.0
  0
INSERT
  5
365
330
360
100
AcDbEntity
  8
}}ﾊﾊGG血CCТ
  6
CONTINUOUS
 62
     7
100
AcDbBlockReference
  2
FXTIP_ARROW_S
 10
408.116324
 20
386.049701
 30
0.0
 41
4.0
 42
4.0
 50
218.74316
  0
ENDBLK
  5
362
330
360
100
AcDbEntity
  8
0
100
AcDbBlockEnd
  0
BLOCK
  5
369
330
368
100
AcDbEntity
  8
0
100
AcDbBlockBegin
  2
*D34
 70
     1
 71
     0
 10
0.0
 20
0.0
 30
0.0
  3
*D34
  1

  0
TEXT
  5
36B
330
368
100
AcDbEntity
  8
}}ﾊﾊGG血CCТ
  6
CONTINUOUS
 62
     7
100
AcDbText
 10
195.073837
 20
24.439388
 30
0.0
 40
4.0
  1
89.6
 41
0.940299
  7
FX_VECTOR
 72
     5
 11
207.073837
 21
24.439388
 31
0.0
100
AcDbText
  0
LINE
  5
36C
330
368
100
AcDbEntity
  8
}}ﾊﾊGG血CCТ
  6
CONTINUOUS
 62
     7
100
AcDbLine
 10
156.273839
 20
23.439388
 30
0.0
 11
245.873839
 21
23.439388
 31
0.0
  0
INSERT
  5
36D
330
368
100
AcDbEntity
  8
}}ﾊﾊGG血CCТ
  6
CONTINUOUS
 62
     7
100
AcDbBlockReference
  2
FXTIP_ARROW_S
 10
156.273839
 20
23.439388
 30
0.0
 41
4.0
 42
4.0
 50
180.0
  0
INSERT
  5
36E
330
368
100
AcDbEntity
  8
}}ﾊﾊGG血CCТ
  6
CONTINUOUS
 62
     7
100
AcDbBlockReference
  2
FXTIP_ARROW_E
 10
245.873839
 20
23.439388
 30
0.0
 41
4.0
 42
4.0
 50
360.0
  0
LINE
  5
36F
330
368
100
AcDbEntity
  8
}}ﾊﾊGG血CCТ
  6
CONTINUOUS
 62
     7
100
AcDbLine
 10
156.273839
 20
145.979563
 30
0.0
 11
156.273839
 21
22.439388
 31
0.0
  0
LINE
  5
370
330
368
100
AcDbEntity
  8
}}ﾊﾊGG血CCТ
  6
CONTINUOUS
 62
     7
100
AcDbLine
 10
245.873839
 20
145.979563
 30
0.0
 11
245.873839
 21
22.439388
 31
0.0
  0
ENDBLK
  5
36A
330
368
100
AcDbEntity
  8
0
100
AcDbBlockEnd
  0
BLOCK
  5
39B
330
39A
100
AcDbEntity
  8
0
100
AcDbBlockBegin
  2
BLKF037
 70
     0
 71
     0
 10
0.0
 20
0.0
 30
0.0
  3
BLKF037
  1

  0
LINE
  5
39E
330
39A
100
AcDbEntity
  8
}}ﾊﾊGG血CCТ
  6
CONTINUOUS
 62
     7
100
AcDbLine
 10
20.0
 20
20.0
 30
0.0
 11
821.0
 21
20.0
 31
0.0
  0
LINE
  5
39F
330
39A
100
AcDbEntity
  8
}}ﾊﾊGG血CCТ
  6
CONTINUOUS
 62
     7
100
AcDbLine
 10
20.0
 20
20.0
 30
0.0
 11
20.0
 21
574.0
 31
0.0
  0
LINE
  5
3A0
330
39A
100
AcDbEntity
  8
}}ﾊﾊGG血CCТ
  6
CONTINUOUS
 62
     7
100
AcDbLine
 10
20.0
 20
574.0
 30
0.0
 11
821.0
 21
574.0
 31
0.0
  0
LINE
  5
3A1
330
39A
100
AcDbEntity
  8
}}ﾊﾊGG血CCТ
  6
CONTINUOUS
 62
     7
100
AcDbLine
 10
821.0
 20
574.0
 30
0.0
 11
821.0
 21
20.0
 31
0.0
  0
LINE
  5
3A2
330
39A
100
AcDbEntity
  8
}}ﾊﾊGG血CCТ
  6
CONTINUOUS
 62
     7
100
AcDbLine
 10
564.0
 20
20.0
 30
0.0
 11
564.0
 21
30.0
 31
0.0
  0
TEXT
  5
3A3
330
39A
100
AcDbEntity
  8
}}ﾊﾊGG血CCТ
  6
CONTINUOUS
 62
     7
100
AcDbText
 10
548.738831
 20
21.596878
 30
0.0
 40
6.648749
  1
品名
 41
1.083413
  7
FX_VECTOR
 72
     5
 11
560.058371
 21
21.596878
 31
0.0
100
AcDbText
  0
LINE
  5
3A4
330
39A
100
AcDbEntity
  8
}}ﾊﾊGG血CCТ
  6
CONTINUOUS
 62
     7
100
AcDbLine
 10
644.0
 20
30.0
 30
0.0
 11
644.0
 21
20.0
 31
0.0
  0
LINE
  5
3A5
330
39A
100
AcDbEntity
  8
}}ﾊﾊGG血CCТ
  6
CONTINUOUS
 62
     7
100
AcDbLine
 10
544.0
 20
30.0
 30
0.0
 11
821.0
 21
30.0
 31
0.0
  0
INSERT
  5
3A9
330
39A
100
AcDbEntity
  8
0
100
AcDbBlockReference
  2
BLKF038
 10
0.0
 20
0.0
 30
0.0
  0
INSERT
  5
3B1
330
39A
100
AcDbEntity
  8
0
100
AcDbBlockReference
  2
BLKF039
 10
0.0
 20
0.0
 30
0.0
  0
HATCH
  5
3C1
330
39A
100
AcDbEntity
  8
GR1-1
  6
CONTINUOUS
 62
     7
100
AcDbHatch
 10
0.0
 20
0.0
 30
0.0
210
0.0
220
0.0
230
1.0
  2

 70
     0
 71
     1
 91
        2
 92
        0
 93
        4
 72
     1
 10
749.8018997861325
 20
27.91346152
 11
755.8018997861325
 21
27.91346152
 72
     1
 10
755.8018997861325
 20
27.91346152
 11
755.8018997861325
 21
21.91346152
 72
     1
 10
755.8018997861325
 20
21.91346152
 11
749.8018997861325
 21
21.91346152
 72
     1
 10
749.8018997861325
 20
21.91346152
 11
749.8018997861325
 21
27.91346152
 97
        0
 92
        0
 93
       15
 72
     1
 10
752.8018997861325
 20
27.76923076000002
 11
749.9461305461325
 21
24.91346152
 72
     1
 10
749.9461305461325
 20
24.91346152
 11
752.8018997861325
 21
22.05769228000001
 72
     1
 10
752.8018997861325
 20
22.05769228000001
 11
754.3595920661326
 21
23.61538462
 72
     1
 10
754.3595920661326
 20
23.61538462
 11
754.3595920661326
 21
22.98076924
 72
     1
 10
754.3595920661326
 20
22.98076924
 11
755.2249766861326
 21
22.98076924
 72
     1
 10
755.2249766861326
 20
22.98076924
 11
755.2249766861326
 21
25.00000000000001
 72
     1
 10
755.2249766861326
 20
25.00000000000001
 11
752.8018997861325
 21
25.00000000000001
 72
     1
 10
752.8018997861325
 20
25.00000000000001
 11
752.8018997861325
 21
24.13461538000001
 72
     1
 10
752.8018997861325
 20
24.13461538000001
 11
753.2461305461325
 21
24.13461538000001
 72
     1
 10
753.2461305461325
 20
24.13461538000001
 11
752.8018997861325
 21
23.69038462
 72
     1
 10
752.8018997861325
 20
23.69038462
 11
751.5788228861325
 21
24.91346152
 72
     1
 10
751.5788228861325
 20
24.91346152
 11
752.8018997861325
 21
26.13653842000003
 72
     1
 10
752.8018997861325
 20
26.13653842000003
 11
753.5922844061325
 21
25.3461538
 72
     1
 10
753.5922844061325
 20
25.3461538
 11
755.2249766861326
 21
25.3461538
 72
     1
 10
755.2249766861326
 20
25.3461538
 11
752.8018997861325
 21
27.76923076000002
 97
        0
 75
     0
 76
     0
 52
45.0
 41
0.05
 77
     0
 78
     1
 53
45.0
 43
0.0
 44
0.0
 45
-0.0353553390593274
 46
0.0353553390593274
 79
     0
 98
        0
  0
TEXT
  5
3C2
330
39A
100
AcDbEntity
  8
}}ﾊﾊGG血CCТ
  6
CONTINUOUS
 62
     7
100
AcDbText
 10
760.225769
 20
21.461285
 30
0.0
 40
7.170908
  1
GOLD CASTER
 41
0.63978
  7
FX_VECTOR
 72
     5
 11
806.977636
 21
21.461285
 31
0.0
100
AcDbText
  0
LINE
  5
3C3
330
39A
100
AcDbEntity
  8
}}ﾊﾊGG血CCТ
  6
CONTINUOUS
 62
     7
100
AcDbLine
 10
664.0
 20
20.0
 30
0.0
 11
664.0
 21
30.0
 31
0.0
  0
TEXT
  5
3C4
330
39A
100
AcDbEntity
  8
}}ﾊﾊGG血CCТ
  6
CONTINUOUS
 62
     7
100
AcDbText
 10
648.738831
 20
21.596878
 30
0.0
 40
6.648749
  1
図番
 41
1.083413
  7
FX_VECTOR
 72
     5
 11
660.058371
 21
21.596878
 31
0.0
100
AcDbText
  0
LINE
  5
3C5
330
39A
100
AcDbEntity
  8
}}ﾊﾊGG血CCТ
  6
CONTINUOUS
 62
     7
100
AcDbLine
 10
744.0
 20
30.0
 30
0.0
 11
744.0
 21
20.0
 31
0.0
  0
LINE
  5
3C6
330
39A
100
AcDbEntity
  8
}}ﾊﾊGG血CCТ
  6
CONTINUOUS
 62
     7
100
AcDbLine
 10
544.0
 20
30.0
 30
0.0
 11
544.0
 21
20.0
 31
0.0
  0
ENDBLK
  5
39C
330
39A
100
AcDbEntity
  8
0
100
AcDbBlockEnd
  0
BLOCK
  5
3A7
330
3A6
100
AcDbEntity
  8
0
100
AcDbBlockBegin
  2
BLKF038
 70
     0
 71
     0
 10
0.0
 20
0.0
 30
0.0
  3
BLKF038
  1

  0
LINE
  5
3AA
330
3A6
100
AcDbEntity
  8
0-1
  6
CONTINUOUS
 62
     7
100
AcDbLine
 10
755.8019
 20
27.913462
 30
0.0
 11
749.8019
 21
27.913462
 31
0.0
  0
LINE
  5
3AB
330
3A6
100
AcDbEntity
  8
0-1
  6
CONTINUOUS
 62
     7
100
AcDbLine
 10
749.8019
 20
27.913462
 30
0.0
 11
749.8019
 21
21.913462
 31
0.0
  0
LINE
  5
3AC
330
3A6
100
AcDbEntity
  8
0-1
  6
CONTINUOUS
 62
     7
100
AcDbLine
 10
749.8019
 20
21.913462
 30
0.0
 11
755.8019
 21
21.913462
 31
0.0
  0
LINE
  5
3AD
330
3A6
100
AcDbEntity
  8
0-1
  6
CONTINUOUS
 62
     7
100
AcDbLine
 10
755.8019
 20
21.913462
 30
0.0
 11
755.8019
 21
27.913462
 31
0.0
  0
ENDBLK
  5
3A8
330
3A6
100
AcDbEntity
  8
0
100
AcDbBlockEnd
  0
BLOCK
  5
3AF
330
3AE
100
AcDbEntity
  8
0
100
AcDbBlockBegin
  2
BLKF039
 70
     0
 71
     0
 10
0.0
 20
0.0
 30
0.0
  3
BLKF039
  1

  0
LINE
  5
3B2
330
3AE
100
AcDbEntity
  8
0-1
  6
CONTINUOUS
 62
     7
100
AcDbLine
 10
755.224977
 20
25.346154
 30
0.0
 11
752.8019
 21
27.769231
 31
0.0
  0
LINE
  5
3B3
330
3AE
100
AcDbEntity
  8
0-1
  6
CONTINUOUS
 62
     7
100
AcDbLine
 10
752.8019
 20
27.769231
 30
0.0
 11
749.946131
 21
24.913462
 31
0.0
  0
LINE
  5
3B4
330
3AE
100
AcDbEntity
  8
0-1
  6
CONTINUOUS
 62
     7
100
AcDbLine
 10
749.946131
 20
24.913462
 30
0.0
 11
752.8019
 21
22.057692
 31
0.0
  0
LINE
  5
3B5
330
3AE
100
AcDbEntity
  8
0-1
  6
CONTINUOUS
 62
     7
100
AcDbLine
 10
752.8019
 20
22.057692
 30
0.0
 11
754.359592
 21
23.615385
 31
0.0
  0
LINE
  5
3B6
330
3AE
100
AcDbEntity
  8
0-1
  6
CONTINUOUS
 62
     7
100
AcDbLine
 10
754.359592
 20
23.615385
 30
0.0
 11
754.359592
 21
22.980769
 31
0.0
  0
LINE
  5
3B7
330
3AE
100
AcDbEntity
  8
0-1
  6
CONTINUOUS
 62
     7
100
AcDbLine
 10
754.359592
 20
22.980769
 30
0.0
 11
755.224977
 21
22.980769
 31
0.0
  0
LINE
  5
3B8
330
3AE
100
AcDbEntity
  8
0-1
  6
CONTINUOUS
 62
     7
100
AcDbLine
 10
755.224977
 20
22.980769
 30
0.0
 11
755.224977
 21
25.0
 31
0.0
  0
LINE
  5
3B9
330
3AE
100
AcDbEntity
  8
0-1
  6
CONTINUOUS
 62
     7
100
AcDbLine
 10
755.224977
 20
25.0
 30
0.0
 11
752.8019
 21
25.0
 31
0.0
  0
LINE
  5
3BA
330
3AE
100
AcDbEntity
  8
0-1
  6
CONTINUOUS
 62
     7
100
AcDbLine
 10
752.8019
 20
25.0
 30
0.0
 11
752.8019
 21
24.134615
 31
0.0
  0
LINE
  5
3BB
330
3AE
100
AcDbEntity
  8
0-1
  6
CONTINUOUS
 62
     7
100
AcDbLine
 10
752.8019
 20
24.134615
 30
0.0
 11
753.246131
 21
24.134615
 31
0.0
  0
LINE
  5
3BC
330
3AE
100
AcDbEntity
  8
0-1
  6
CONTINUOUS
 62
     7
100
AcDbLine
 10
753.246131
 20
24.134615
 30
0.0
 11
752.8019
 21
23.690385
 31
0.0
  0
LINE
  5
3BD
330
3AE
100
AcDbEntity
  8
0-1
  6
CONTINUOUS
 62
     7
100
AcDbLine
 10
752.8019
 20
23.690385
 30
0.0
 11
751.578823
 21
24.913462
 31
0.0
  0
LINE
  5
3BE
330
3AE
100
AcDbEntity
  8
0-1
  6
CONTINUOUS
 62
     7
100
AcDbLine
 10
751.578823
 20
24.913462
 30
0.0
 11
752.8019
 21
26.136538
 31
0.0
  0
LINE
  5
3BF
330
3AE
100
AcDbEntity
  8
0-1
  6
CONTINUOUS
 62
     7
100
AcDbLine
 10
752.8019
 20
26.136538
 30
0.0
 11
753.592284
 21
25.346154
 31
0.0
  0
LINE
  5
3C0
330
3AE
100
AcDbEntity
  8
0-1
  6
CONTINUOUS
 62
     7
100
AcDbLine
 10
753.592284
 20
25.346154
 30
0.0
 11
755.224977
 21
25.346154
 31
0.0
  0
ENDBLK
  5
3B0
330
3AE
100
AcDbEntity
  8
0
100
AcDbBlockEnd
  0
BLOCK
  5
3E5
330
3E4
100
AcDbEntity
  8
0
100
AcDbBlockBegin
  2
*D38
 70
     1
 71
     0
 10
0.0
 20
0.0
 30
0.0
  3
*D38
  1

  0
TEXT
  5
3E7
330
3E4
100
AcDbEntity
  8
}}ﾊﾊGG血CCТ
  6
CONTINUOUS
 62
     7
100
AcDbText
 10
198.073837
 20
31.307188
 30
0.0
 40
4.0
  1
54
 41
0.828947
  7
FX_VECTOR
 72
     5
 11
204.073837
 21
31.307188
 31
0.0
100
AcDbText
  0
LINE
  5
3E8
330
3E4
100
AcDbEntity
  8
}}ﾊﾊGG血CCТ
  6
CONTINUOUS
 62
     7
100
AcDbLine
 10
174.073839
 20
30.307188
 30
0.0
 11
228.073839
 21
30.307188
 31
0.0
  0
INSERT
  5
3E9
330
3E4
100
AcDbEntity
  8
}}ﾊﾊGG血CCТ
  6
CONTINUOUS
 62
     7
100
AcDbBlockReference
  2
FXTIP_ARROW_S
 10
174.073839
 20
30.307188
 30
0.0
 41
4.0
 42
4.0
 50
180.0
  0
INSERT
  5
3EA
330
3E4
100
AcDbEntity
  8
}}ﾊﾊGG血CCТ
  6
CONTINUOUS
 62
     7
100
AcDbBlockReference
  2
FXTIP_ARROW_E
 10
228.073839
 20
30.307188
 30
0.0
 41
4.0
 42
4.0
 50
360.0
  0
LINE
  5
3EB
330
3E4
100
AcDbEntity
  8
}}ﾊﾊGG血CCТ
  6
CONTINUOUS
 62
     7
100
AcDbLine
 10
174.073839
 20
42.229563
 30
0.0
 11
174.073839
 21
29.307188
 31
0.0
  0
LINE
  5
3EC
330
3E4
100
AcDbEntity
  8
}}ﾊﾊGG血CCТ
  6
CONTINUOUS
 62
     7
100
AcDbLine
 10
228.073839
 20
42.229563
 30
0.0
 11
228.073839
 21
29.307188
 31
0.0
  0
ENDBLK
  5
3E6
330
3E4
100
AcDbEntity
  8
0
100
AcDbBlockEnd
  0
ENDSEC
  0
SECTION
  2
ENTITIES
  0
TEXT
  5
A8
330
1F
100
AcDbEntity
  8
}}ﾊﾊGG血CCТ
  6
CONTINUOUS
 62
     7
100
AcDbText
 10
566.838196
 20
22.0
 30
0.0
 40
6.0
  1
ＷＪ－２５０　ＭＣＡ　ＷＳＲ
 41
0.787149
  7
FX_VECTOR
 72
     5
 11
622.838196
 21
22.0
 31
0.0
100
AcDbText
  0
LINE
  5
A9
330
1F
100
AcDbEntity
  8
LAYERGROUP-1
  6
CENTER
 62
     6
100
AcDbLine
 10
532.539994
 20
388.309586
 30
0.0
 11
532.539994
 21
569.556744
 31
0.0
  0
LINE
  5
AA
330
1F
100
AcDbEntity
  8
LAYERGROUP-1
  6
CENTER
 62
     6
100
AcDbLine
 10
532.539994
 20
348.143505
 30
0.0
 11
532.539994
 21
215.580422
 31
0.0
  0
LINE
  5
AB
330
1F
100
AcDbEntity
  8
LAYERGROUP-1
  6
CENTER
 62
     6
100
AcDbLine
 10
461.539994
 20
187.565979
 30
0.0
 11
461.539994
 21
140.72727
 31
0.0
  0
LINE
  5
AC
330
1F
100
AcDbEntity
  8
LAYERGROUP-1
  6
CENTER
 62
     6
100
AcDbLine
 10
485.729485
 20
163.229563
 30
0.0
 11
336.539994
 21
163.229563
 31
0.0
  0
LINE
  5
AD
330
1F
100
AcDbEntity
  8
LAYERGROUP-1
  6
CONTINUOUS
 62
     3
100
AcDbLine
 10
591.769994
 20
320.217563
 30
0.0
 11
473.309994
 21
320.217563
 31
0.0
  0
LINE
  5
AE
330
1F
100
AcDbEntity
  8
LAYERGROUP-1
  6
CONTINUOUS
 62
     3
100
AcDbLine
 10
454.881342
 20
291.515953
 30
0.0
 11
447.201962
 21
258.252902
 31
0.0
  0
ARC
  5
AF
330
1F
100
AcDbEntity
  8
LAYERGROUP-1
  6
CONTINUOUS
 62
     3
100
AcDbCircle
 10
460.828467
 20
170.785276
 30
0.0
 40
32.97539055054042
100
AcDbArc
 50
167.0
 51
329.0
  0
LINE
  5
B0
330
1F
100
AcDbEntity
  8
LAYERGROUP-1
  6
CONTINUOUS
 62
     3
100
AcDbLine
 10
565.367727
 20
280.742671
 30
0.0
 11
489.093894
 21
153.801695
 31
0.0
  0
ARC
  5
B1
330
1F
100
AcDbEntity
  8
LAYERGROUP-1
  6
CONTINUOUS
 62
     3
100
AcDbCircle
 10
449.311677
 20
292.801812
 30
0.0
 40
5.716170112755278
100
AcDbArc
 50
-13.0
 51
90.0
  0
ARC
  5
B2
330
1F
100
AcDbEntity
  8
LAYERGROUP-1
  6
CONTINUOUS
 62
     3
100
AcDbCircle
 10
599.834984
 20
261.495582
 30
0.0
 40
39.47710994102242
100
AcDbArc
 50
99.17551
 51
150.820283
  0
LINE
  5
B3
330
1F
100
AcDbEntity
  8
LAYERGROUP-1
  6
CONTINUOUS
 62
     3
100
AcDbLine
 10
449.380859
 20
298.517563
 30
0.0
 11
447.414316
 21
298.517563
 31
0.0
  0
LINE
  5
B4
330
1F
100
AcDbEntity
  8
LAYERGROUP-1
  6
CONTINUOUS
 62
     3
100
AcDbLine
 10
593.539994
 20
300.467563
 30
0.0
 11
594.867434
 21
300.467563
 31
0.0
  0
LINE
  5
B5
330
1F
100
AcDbEntity
  8
LAYERGROUP-1
  6
CONTINUOUS
 62
     3
100
AcDbLine
 10
141.843839
 20
320.217563
 30
0.0
 11
260.303839
 21
320.217563
 31
0.0
  0
LINE
  5
B6
330
1F
100
AcDbEntity
  8
LAYERGROUP-1
  6
CONTINUOUS
 62
     3
100
AcDbLine
 10
160.073839
 20
315.117563
 30
0.0
 11
242.073839
 21
315.117563
 31
0.0
  0
LINE
  5
B7
330
1F
100
AcDbEntity
  8
LAYERGROUP-1
  6
CONTINUOUS
 62
     3
100
AcDbLine
 10
151.073839
 20
137.809886
 30
0.0
 11
151.073839
 21
306.117563
 31
0.0
  0
LINE
  5
B8
330
1F
100
AcDbEntity
  8
LAYERGROUP-1
  6
CONTINUOUS
 62
     3
100
AcDbLine
 10
251.073839
 20
137.809886
 30
0.0
 11
251.073839
 21
306.117563
 31
0.0
  0
LINE
  5
B9
330
1F
100
AcDbEntity
  8
LAYERGROUP-1
  6
CONTINUOUS
 62
     3
100
AcDbLine
 10
151.073839
 20
137.809886
 30
0.0
 11
155.073839
 21
137.809886
 31
0.0
  0
LINE
  5
BA
330
1F
100
AcDbEntity
  8
LAYERGROUP-1
  6
CONTINUOUS
 62
     3
100
AcDbLine
 10
247.073839
 20
137.809886
 30
0.0
 11
251.073839
 21
137.809886
 31
0.0
  0
LINE
  5
BB
330
1F
100
AcDbEntity
  8
LAYERGROUP-1
  6
CENTER
 62
     6
100
AcDbLine
 10
130.873839
 20
163.229563
 30
0.0
 11
271.073839
 21
163.229563
 31
0.0
  0
ARC
  5
BC
330
1F
100
AcDbEntity
  8
LAYERGROUP-1
  6
CONTINUOUS
 62
     3
100
AcDbCircle
 10
911.514017
 20
-37.026991
 30
0.0
 40
461.369062003757
100
AcDbArc
 50
145.226378
 51
152.773622
  0
TEXT
  5
BD
330
1F
100
AcDbEntity
  8
LAYERGROUP-1
  6
CONTINUOUS
 62
     7
100
AcDbText
 10
460.080811
 20
264.775909
 30
0.0
 40
13.320029
  1
 -250
 50
257.0
 41
0.701526
  7
FX_VECTOR
 72
     5
 11
449.670809
 21
219.685238
 31
0.0
100
AcDbText
  0
LINE
  5
BE
330
1F
100
AcDbEntity
  8
LAYERGROUP-1
  6
CONTINUOUS
 62
     6
100
AcDbLine
 10
493.539994
 20
314.824131
 30
0.0
 11
493.539994
 21
280.800147
 31
0.0
  0
ARC
  5
BF
330
1F
100
AcDbEntity
  8
LAYERGROUP-1
  6
CONTINUOUS
 62
     3
100
AcDbCircle
 10
242.073839
 20
306.117563
 30
0.0
 40
9.0
100
AcDbArc
 50
0.0
 51
90.0
  0
ARC
  5
C0
330
1F
100
AcDbEntity
  8
LAYERGROUP-1
  6
CONTINUOUS
 62
     3
100
AcDbCircle
 10
160.073839
 20
306.117563
 30
0.0
 40
9.0
100
AcDbArc
 50
90.0
 51
180.0
  0
LINE
  5
C1
330
1F
100
AcDbEntity
  8
LAYERGROUP-1
  6
CONTINUOUS
 62
     3
100
AcDbLine
 10
594.481068
 20
311.531659
 30
0.0
 11
594.867434
 21
300.467563
 31
0.0
  0
ARC
  5
C2
330
1F
100
AcDbEntity
  8
LAYERGROUP-1
  6
CONTINUOUS
 62
     3
100
AcDbCircle
 10
585.48655
 20
311.217563
 30
0.0
 40
9.0
100
AcDbArc
 50
2.0
 51
90.0
  0
LINE
  5
C3
330
1F
100
AcDbEntity
  8
LAYERGROUP-1
  6
CONTINUOUS
 62
     3
100
AcDbLine
 10
447.414316
 20
298.517563
 30
0.0
 11
447.732704
 21
306.477276
 31
0.0
  0
ARC
  5
C4
330
1F
100
AcDbEntity
  8
LAYERGROUP-1
  6
CONTINUOUS
 62
     3
100
AcDbCircle
 10
456.725513
 20
306.117563
 30
0.0
 40
9.0
100
AcDbArc
 50
90.0
 51
177.70939
  0
LINE
  5
C5
330
1F
100
AcDbEntity
  8
LAYERGROUP-1
  6
CONTINUOUS
 62
     3
100
AcDbLine
 10
487.499446
 20
315.117563
 30
0.0
 11
456.725513
 21
315.117563
 31
0.0
  0
ARC
  5
C6
330
1F
100
AcDbEntity
  8
LAYERGROUP-1
  6
CONTINUOUS
 62
     3
100
AcDbCircle
 10
467.011037
 20
316.078985
 30
0.0
 40
0.9624784057732398
100
AcDbArc
 50
272.684495
 51
332.577817
  0
ARC
  5
C7
330
1F
100
AcDbEntity
  8
LAYERGROUP-1
  6
CONTINUOUS
 62
     3
100
AcDbCircle
 10
475.539994
 20
311.497325
 30
0.0
 40
8.720238095238187
100
AcDbArc
 50
90.0
 51
152.620005
  0
LINE
  5
C8
330
1F
100
AcDbEntity
  8
LAYERGROUP-1
  6
CONTINUOUS
 62
     3
100
AcDbLine
 10
447.414316
 20
485.885834
 30
0.0
 11
447.414316
 21
449.185834
 31
0.0
  0
ARC
  5
C9
330
1F
100
AcDbEntity
  8
LAYERGROUP-1
  6
CONTINUOUS
 62
     3
100
AcDbCircle
 10
460.414316
 20
449.185834
 30
0.0
 40
13.0
100
AcDbArc
 50
180.0
 51
232.719543
  0
LINE
  5
CA
330
1F
100
AcDbEntity
  8
LAYERGROUP-1
  6
CONTINUOUS
 62
     3
100
AcDbLine
 10
262.848839
 20
311.217563
 30
0.0
 11
262.848839
 21
226.108148
 31
0.0
  0
ARC
  5
CB
330
1F
100
AcDbEntity
  8
LAYERGROUP-1
  6
CONTINUOUS
 62
     3
100
AcDbCircle
 10
253.848839
 20
311.217563
 30
0.0
 40
9.0
100
AcDbArc
 50
0.0
 51
90.0
  0
LINE
  5
CC
330
1F
100
AcDbEntity
  8
LAYERGROUP-1
  6
CONTINUOUS
 62
     3
100
AcDbLine
 10
139.298839
 20
311.217563
 30
0.0
 11
139.298839
 21
226.108148
 31
0.0
  0
ARC
  5
CD
330
1F
100
AcDbEntity
  8
LAYERGROUP-1
  6
CONTINUOUS
 62
     3
100
AcDbCircle
 10
1063.814024
 20
405.470621
 30
0.0
 40
941.7532707055403
100
AcDbArc
 50
190.979392
 51
194.025729
  0
ARC
  5
CE
330
1F
100
AcDbEntity
  8
LAYERGROUP-1
  6
CONTINUOUS
 62
     3
100
AcDbCircle
 10
148.298839
 20
311.217563
 30
0.0
 40
9.0
100
AcDbArc
 50
90.0
 51
180.0
  0
ARC
  5
CF
330
1F
100
AcDbEntity
  8
LAYERGROUP-1
  6
CONTINUOUS
 62
     3
100
AcDbCircle
 10
591.769994
 20
328.417563
 30
0.0
 40
8.199999999999999
100
AcDbArc
 50
270.0
 51
360.0
  0
LINE
  5
D0
330
1F
100
AcDbEntity
  8
LAYERGROUP-1
  6
CONTINUOUS
 62
     3
100
AcDbLine
 10
599.969994
 20
332.817563
 30
0.0
 11
599.969994
 21
328.417563
 31
0.0
  0
LINE
  5
D1
330
1F
100
AcDbEntity
  8
LAYERGROUP-1
  6
CONTINUOUS
 62
     3
100
AcDbLine
 10
599.969994
 20
332.817563
 30
0.0
 11
465.109994
 21
332.817563
 31
0.0
  0
ARC
  5
D2
330
1F
100
AcDbEntity
  8
LAYERGROUP-1
  6
CONTINUOUS
 62
     3
100
AcDbCircle
 10
260.303839
 20
328.417563
 30
0.0
 40
8.199999999999999
100
AcDbArc
 50
270.0
 51
360.0
  0
ARC
  5
D3
330
1F
100
AcDbEntity
  8
LAYERGROUP-1
  6
CONTINUOUS
 62
     3
100
AcDbCircle
 10
141.843839
 20
328.417563
 30
0.0
 40
8.199999999999999
100
AcDbArc
 50
180.0
 51
270.0
  0
LINE
  5
D4
330
1F
100
AcDbEntity
  8
LAYERGROUP-1
  6
CONTINUOUS
 62
     3
100
AcDbLine
 10
268.503839
 20
332.817563
 30
0.0
 11
268.503839
 21
328.417563
 31
0.0
  0
LINE
  5
D5
330
1F
100
AcDbEntity
  8
LAYERGROUP-1
  6
CONTINUOUS
 62
     3
100
AcDbLine
 10
133.643839
 20
332.817563
 30
0.0
 11
133.643839
 21
328.417563
 31
0.0
  0
LINE
  5
D6
330
1F
100
AcDbEntity
  8
LAYERGROUP-1
  6
CONTINUOUS
 62
     3
100
AcDbLine
 10
268.503839
 20
332.817563
 30
0.0
 11
133.643839
 21
332.817563
 31
0.0
  0
ARC
  5
D8
330
1F
100
AcDbEntity
  8
GR1-1
  6
CONTINUOUS
 62
     3
100
AcDbCircle
 10
532.539994
 20
485.885834
 30
0.0
 40
32.15000000000002
100
AcDbArc
 50
180.0
 51
360.0
  0
INSERT
  5
DC
330
1F
100
AcDbEntity
  8
0
100
AcDbBlockReference
  2
BLKF021
 10
0.0
 20
0.0
 30
0.0
  0
INSERT
  5
E4
330
1F
100
AcDbEntity
  8
0
100
AcDbBlockReference
  2
BLKF022
 10
0.0
 20
0.0
 30
0.0
  0
LINE
  5
E9
330
1F
100
AcDbEntity
  8
GR1-1
  6
CONTINUOUS
 62
     3
100
AcDbLine
 10
596.539994
 20
405.885834
 30
0.0
 11
468.539994
 21
405.885834
 31
0.0
  0
CIRCLE
  5
EA
330
1F
100
AcDbEntity
  8
GR1-1
  6
CONTINUOUS
 62
     3
100
AcDbCircle
 10
470.039994
 20
423.385834
 30
0.0
 40
7.0
  0
LINE
  5
EB
330
1F
100
AcDbEntity
  8
GR1-1
  6
CONTINUOUS
 62
     3
100
AcDbLine
 10
452.539994
 20
421.885834
 30
0.0
 11
452.539994
 21
485.885834
 31
0.0
  0
LINE
  5
EC
330
1F
100
AcDbEntity
  8
GR1-1
  6
CONTINUOUS
 62
     3
100
AcDbLine
 10
612.539994
 20
485.885834
 30
0.0
 11
612.539994
 21
421.885834
 31
0.0
  0
CIRCLE
  5
ED
330
1F
100
AcDbEntity
  8
GR1-1
  6
CONTINUOUS
 62
     3
100
AcDbCircle
 10
595.039994
 20
423.385834
 30
0.0
 40
7.0
  0
ARC
  5
EE
330
1F
100
AcDbEntity
  8
GR1-1
  6
CONTINUOUS
 62
     3
100
AcDbCircle
 10
596.539994
 20
421.885834
 30
0.0
 40
16.0
100
AcDbArc
 50
270.0
 51
360.0
  0
LINE
  5
EF
330
1F
100
AcDbEntity
  8
GR1-1
  6
CONTINUOUS
 62
     3
100
AcDbLine
 10
598.252333
 20
334.529563
 30
0.0
 11
466.827655
 21
334.529563
 31
0.0
  0
ARC
  5
F0
330
1F
100
AcDbEntity
  8
GR1-1
  6
CONTINUOUS
 62
     3
100
AcDbCircle
 10
598.252333
 20
342.529563
 30
0.0
 40
8.0
100
AcDbArc
 50
270.0
 51
335.638022
  0
LINE
  5
F1
330
1F
100
AcDbEntity
  8
GR1-1
  6
CONTINUOUS
 62
     3
100
AcDbLine
 10
612.539994
 20
339.229563
 30
0.0
 11
452.539994
 21
339.229563
 31
0.0
  0
LINE
  5
F2
330
1F
100
AcDbEntity
  8
GR1-1
  6
CONTINUOUS
 62
     3
100
AcDbLine
 10
612.539994
 20
339.229563
 30
0.0
 11
612.539994
 21
343.229563
 31
0.0
  0
LINE
  5
F3
330
1F
100
AcDbEntity
  8
GR1-1
  6
CONTINUOUS
 62
     3
100
AcDbLine
 10
612.539994
 20
343.229563
 30
0.0
 11
452.539994
 21
343.229563
 31
0.0
  0
ARC
  5
F4
330
1F
100
AcDbEntity
  8
GR1-1
  6
CONTINUOUS
 62
     3
100
AcDbCircle
 10
468.539994
 20
421.885834
 30
0.0
 40
16.0
100
AcDbArc
 50
180.0
 51
270.0
  0
ARC
  5
F5
330
1F
100
AcDbEntity
  8
GR1-1
  6
CONTINUOUS
 62
     6
100
AcDbCircle
 10
532.539994
 20
485.885834
 30
0.0
 40
68.5
100
AcDbArc
 50
180.0
 51
360.0
  0
ARC
  5
F6
330
1F
100
AcDbEntity
  8
GR1-1
  6
CONTINUOUS
 62
     6
100
AcDbCircle
 10
532.539994
 20
485.885834
 30
0.0
 40
50.0
100
AcDbArc
 50
180.0
 51
360.0
  0
ARC
  5
F7
330
1F
100
AcDbEntity
  8
LAYERGROUP-1
  6
CONTINUOUS
 62
     3
100
AcDbCircle
 10
532.539994
 20
485.885834
 30
0.0
 40
43.15
100
AcDbArc
 50
180.0
 51
360.0
  0
LINE
  5
F8
330
1F
100
AcDbEntity
  8
GR1-1
  6
CONTINUOUS
 62
     3
100
AcDbLine
 10
121.073839
 20
343.229563
 30
0.0
 11
281.073839
 21
343.229563
 31
0.0
  0
LINE
  5
F9
330
1F
100
AcDbEntity
  8
GR1-1
  6
CONTINUOUS
 62
     3
100
AcDbLine
 10
121.073839
 20
343.229563
 30
0.0
 11
121.073839
 21
339.229563
 31
0.0
  0
LINE
  5
FA
330
1F
100
AcDbEntity
  8
GR1-1
  6
CONTINUOUS
 62
     3
100
AcDbLine
 10
121.073839
 20
339.229563
 30
0.0
 11
281.073839
 21
339.229563
 31
0.0
  0
ARC
  5
FB
330
1F
100
AcDbEntity
  8
GR1-1
  6
CONTINUOUS
 62
     3
100
AcDbCircle
 10
135.3615
 20
342.529563
 30
0.0
 40
8.0
100
AcDbArc
 50
204.361978
 51
270.0
  0
LINE
  5
FC
330
1F
100
AcDbEntity
  8
GR1-1
  6
CONTINUOUS
 62
     3
100
AcDbLine
 10
135.3615
 20
334.529563
 30
0.0
 11
266.786178
 21
334.529563
 31
0.0
  0
LINE
  5
FD
330
1F
100
AcDbEntity
  8
GR1-1
  6
CONTINUOUS
 62
     3
100
AcDbLine
 10
281.073839
 20
343.229563
 30
0.0
 11
281.073839
 21
339.229563
 31
0.0
  0
ARC
  5
FE
330
1F
100
AcDbEntity
  8
GR1-1
  6
CONTINUOUS
 62
     3
100
AcDbCircle
 10
266.786178
 20
342.529563
 30
0.0
 40
8.0
100
AcDbArc
 50
270.0
 51
335.638022
  0
LINE
  5
FF
330
1F
100
AcDbEntity
  8
LAYERGROUP-1
  6
CENTER
 62
     6
100
AcDbLine
 10
201.073839
 20
36.371062
 30
0.0
 11
201.073839
 21
348.327007
 31
0.0
  0
ARC
  5
100
330
1F
100
AcDbEntity
  8
LAYERGROUP-1
  6
CONTINUOUS
 62
     3
100
AcDbCircle
 10
461.539994
 20
163.229563
 30
0.0
 40
125.0
100
AcDbArc
 50
-266.574451
 51
45.832882
  0
LINE
  5
101
330
1F
100
AcDbEntity
  8
GR1-1
  6
CONTINUOUS
 62
     3
100
AcDbLine
 10
247.073839
 20
148.929563
 30
0.0
 11
247.073839
 21
150.729563
 31
0.0
  0
LINE
  5
102
330
1F
100
AcDbEntity
  8
LAYERGROUP-1
  6
CONTINUOUS
 62
     3
100
AcDbLine
 10
155.073839
 20
137.809886
 30
0.0
 11
155.073839
 21
298.517563
 31
0.0
  0
LINE
  5
103
330
1F
100
AcDbEntity
  8
GR1-1
  6
CONTINUOUS
 62
     3
100
AcDbLine
 10
247.073839
 20
175.729563
 30
0.0
 11
247.073839
 21
177.529563
 31
0.0
  0
LINE
  5
104
330
1F
100
AcDbEntity
  8
LAYERGROUP-1
  6
CONTINUOUS
 62
     3
100
AcDbLine
 10
247.073839
 20
137.809886
 30
0.0
 11
247.073839
 21
298.517563
 31
0.0
  0
ARC
  5
105
330
1F
100
AcDbEntity
  8
LAYERGROUP-1
  6
CONTINUOUS
 62
     3
100
AcDbCircle
 10
-661.666345
 20
405.470621
 30
0.0
 40
941.7532707055403
100
AcDbArc
 50
346.099654
 51
349.020608
  0
LINE
  5
106
330
1F
100
AcDbEntity
  8
LAYERGROUP-1
  6
CONTINUOUS
 62
     3
100
AcDbLine
 10
427.853076
 20
435.885834
 30
0.0
 11
427.853076
 21
439.885834
 31
0.0
  0
LINE
  5
107
330
1F
100
AcDbEntity
  8
LAYERGROUP-1
  6
CONTINUOUS
 62
     3
100
AcDbLine
 10
452.539994
 20
435.885834
 30
0.0
 11
427.853076
 21
435.885834
 31
0.0
  0
LINE
  5
108
330
1F
100
AcDbEntity
  8
LAYERGROUP-1
  6
CONTINUOUS
 62
     3
100
AcDbLine
 10
451.330814
 20
439.885834
 30
0.0
 11
427.853076
 21
439.885834
 31
0.0
  0
DIMENSION
  5
109
330
1F
100
AcDbEntity
  8
LAYERGROUP-1
100
AcDbDimension
  2
*D21
 10
595.039994
 20
372.327398
 30
0.0
 11
532.539978
 21
373.327362
 31
0.0
 70
    32
  3
FXDIMINFO
100
AcDbAlignedDimension
 13
470.039994
 23
413.860248
 33
0.0
 14
595.039994
 24
413.657216
 34
0.0
 50
180.0
100
AcDbRotatedDimension
1001
ACAD
1000
DSTYLE
1002
{
1070
     7
1000
FXTIP_ARROW_E
1070
     6
1000
FXTIP_ARROW_S
1070
   173
1070
     1
1002
}
  0
DIMENSION
  5
113
330
1F
100
AcDbEntity
  8
LAYERGROUP-1
100
AcDbDimension
  2
*D22
 10
612.539994
 20
356.808748
 30
0.0
 11
532.539978
 21
357.808685
 31
0.0
 70
    33
  3
FXDIMINFO
100
AcDbAlignedDimension
 13
452.539994
 23
421.885834
 33
0.0
 14
612.539994
 24
421.885834
 34
0.0
1001
ACAD
1000
DSTYLE
1002
{
1070
     7
1000
FXTIP_ARROW_E
1070
     6
1000
FXTIP_ARROW_S
1070
   173
1070
     1
1002
}
  0
DIMENSION
  5
11D
330
1F
100
AcDbEntity
  8
LAYERGROUP-1
100
AcDbDimension
  2
*D23
 10
622.539994
 20
343.229563
 30
0.0
 11
621.539978
 21
253.229553
 31
0.0
 70
    32
  3
FXDIMINFO
100
AcDbAlignedDimension
 13
485.729485
 23
163.229563
 33
0.0
 14
612.539994
 24
343.229563
 34
0.0
 50
270.0
100
AcDbRotatedDimension
1001
ACAD
1000
DSTYLE
1002
{
1070
     7
1000
FXTIP_ARROW_E
1070
     6
1000
FXTIP_ARROW_S
1070
   173
1070
     1
1002
}
  0
DIMENSION
  5
127
330
1F
100
AcDbEntity
  8
LAYERGROUP-1
100
AcDbDimension
  2
*D24
 10
632.539994
 20
343.229563
 30
0.0
 11
631.539978
 21
190.729553
 31
0.0
 70
    32
  3
FXDIMINFO
100
AcDbAlignedDimension
 13
461.539994
 23
38.229563
 33
0.0
 14
612.816382
 24
343.229563
 34
0.0
 50
270.0
100
AcDbRotatedDimension
1001
ACAD
1000
DSTYLE
1002
{
1070
     7
1000
FXTIP_ARROW_E
1070
     6
1000
FXTIP_ARROW_S
1070
   173
1070
     1
1002
}
  0
DIMENSION
  5
131
330
1F
100
AcDbEntity
  8
LAYERGROUP-1
100
AcDbDimension
  2
*D25
 10
532.539994
 20
28.229563
 30
0.0
 11
497.039978
 21
29.229563
 31
0.0
 70
    32
  3
FXDIMINFO
100
AcDbAlignedDimension
 13
461.539994
 23
140.72727
 33
0.0
 14
532.539994
 24
215.580422
 34
0.0
 50
180.0
100
AcDbRotatedDimension
1001
ACAD
1000
DSTYLE
1002
{
1070
     7
1000
FXTIP_ARROW_E
1070
     6
1000
FXTIP_ARROW_S
1070
   173
1070
     1
1002
}
  0
DIMENSION
  5
13B
330
1F
100
AcDbEntity
  8
LAYERGROUP-1
100
AcDbDimension
  2
*D26
 10
476.513757
 20
426.048614
 30
0.0
 11
429.659821
 21
411.632599
 31
0.0
 70
   163
  3
FXDIMINFO
100
AcDbDiametricDimension
 15
463.566231
 25
420.723055
 35
0.0
 40
0.0
  0
LINE
  5
146
330
1F
100
AcDbEntity
  8
LAYERGROUP-1
  6
CONTINUOUS
 62
     3
100
AcDbLine
 10
151.073839
 20
298.517563
 30
0.0
 11
251.073839
 21
298.517563
 31
0.0
  0
ARC
  5
147
330
1F
100
AcDbEntity
  8
LAYERGROUP-1
  6
CONTINUOUS
 62
     3
100
AcDbCircle
 10
201.073839
 20
240.598661
 30
0.0
 40
59.86890243902428
100
AcDbArc
 50
39.794455
 51
53.027792
  0
ARC
  5
148
330
1F
100
AcDbEntity
  8
LAYERGROUP-1
  6
CONTINUOUS
 62
     3
100
AcDbCircle
 10
201.073839
 20
240.598661
 30
0.0
 40
59.86890243902428
100
AcDbArc
 50
126.972208
 51
140.205545
  0
LINE
  5
14A
330
1F
100
AcDbEntity
  8
0-1
  6
CENTER
 62
     6
100
AcDbLine
 10
132.046755
 20
293.429563
 30
0.0
 11
279.743961
 21
293.429563
 31
0.0
  0
LINE
  5
14B
330
1F
100
AcDbEntity
  8
0-1
  6
CONTINUOUS
 62
     3
100
AcDbLine
 10
155.073839
 20
288.429563
 30
0.0
 11
177.073839
 21
288.429563
 31
0.0
  0
LINE
  5
14C
330
1F
100
AcDbEntity
  8
0-1
  6
CONTINUOUS
 62
     3
100
AcDbLine
 10
179.073839
 20
294.729563
 30
0.0
 11
179.073839
 21
290.729563
 31
0.0
  0
LINE
  5
14D
330
1F
100
AcDbEntity
  8
0-1
  6
CONTINUOUS
 62
     6
100
AcDbLine
 10
266.573839
 20
288.429563
 30
0.0
 11
266.573839
 21
292.079563
 31
0.0
  0
LINE
  5
14E
330
1F
100
AcDbEntity
  8
0-1
  6
CONTINUOUS
 62
     3
100
AcDbLine
 10
223.073839
 20
288.429563
 30
0.0
 11
247.073839
 21
288.429563
 31
0.0
  0
LINE
  5
14F
330
1F
100
AcDbEntity
  8
0-1
  6
CENTER
 62
     6
100
AcDbLine
 10
201.073839
 20
312.526602
 30
0.0
 11
201.073839
 21
260.728317
 31
0.0
  0
LINE
  5
150
330
1F
100
AcDbEntity
  8
LAYERGROUP-1
  6
CONTINUOUS
 62
     3
100
AcDbLine
 10
177.073839
 20
288.429563
 30
0.0
 11
179.073839
 21
290.729563
 31
0.0
  0
LINE
  5
151
330
1F
100
AcDbEntity
  8
LAYERGROUP-1
  6
CONTINUOUS
 62
     3
100
AcDbLine
 10
179.073839
 20
290.729563
 30
0.0
 11
180.073839
 21
290.729563
 31
0.0
  0
LINE
  5
152
330
1F
100
AcDbEntity
  8
LAYERGROUP-1
  6
CONTINUOUS
 62
     6
100
AcDbLine
 10
262.848839
 20
292.079563
 30
0.0
 11
266.573839
 21
292.079563
 31
0.0
  0
LINE
  5
153
330
1F
100
AcDbEntity
  8
0-1
  6
CONTINUOUS
 62
     6
100
AcDbLine
 10
266.573839
 20
298.429563
 30
0.0
 11
266.573839
 21
294.779563
 31
0.0
  0
LINE
  5
154
330
1F
100
AcDbEntity
  8
LAYERGROUP-1
  6
CONTINUOUS
 62
     6
100
AcDbLine
 10
262.848839
 20
294.779563
 30
0.0
 11
266.573839
 21
294.779563
 31
0.0
  0
ARC
  5
155
330
1F
100
AcDbEntity
  8
LAYERGROUP-1
  6
CONTINUOUS
 62
     3
100
AcDbCircle
 10
333.571929
 20
254.852902
 30
0.0
 40
4.5
100
AcDbArc
 50
-49.073937
 51
49.073937
  0
LINE
  5
156
330
1F
100
AcDbEntity
  8
LAYERGROUP-1
  6
CONTINUOUS
 62
     3
100
AcDbLine
 10
336.51981
 20
258.252902
 30
0.0
 11
302.771929
 21
258.252902
 31
0.0
  0
LINE
  5
157
330
1F
100
AcDbEntity
  8
LAYERGROUP-1
  6
CONTINUOUS
 62
     3
100
AcDbLine
 10
336.51981
 20
251.452902
 30
0.0
 11
302.771929
 21
251.452902
 31
0.0
  0
LINE
  5
158
330
1F
100
AcDbEntity
  8
LAYERGROUP-1
  6
CONTINUOUS
 62
     3
100
AcDbLine
 10
301.908387
 20
259.852902
 30
0.0
 11
302.771929
 21
258.252902
 31
0.0
  0
LINE
  5
159
330
1F
100
AcDbEntity
  8
LAYERGROUP-1
  6
CONTINUOUS
 62
     3
100
AcDbLine
 10
301.703455
 20
249.852902
 30
0.0
 11
302.771929
 21
251.452902
 31
0.0
  0
LINE
  5
15A
330
1F
100
AcDbEntity
  8
LAYERGROUP-1
  6
CENTER
 62
     6
100
AcDbLine
 10
340.560519
 20
254.852902
 30
0.0
 11
304.540827
 21
254.852902
 31
0.0
  0
LINE
  5
15B
330
1F
100
AcDbEntity
  8
GR1-1
  6
CONTINUOUS
 62
     3
100
AcDbLine
 10
133.571929
 20
290.548976
 30
0.0
 11
133.071929
 21
291.090476
 31
0.0
  0
LINE
  5
15C
330
1F
100
AcDbEntity
  8
GR1-1
  6
CONTINUOUS
 62
     3
100
AcDbLine
 10
133.071929
 20
291.090476
 30
0.0
 11
133.071929
 21
296.007476
 31
0.0
  0
LINE
  5
15D
330
1F
100
AcDbEntity
  8
GR1-1
  6
CONTINUOUS
 62
     3
100
AcDbLine
 10
133.071929
 20
296.007476
 30
0.0
 11
133.571929
 21
296.548976
 31
0.0
  0
LINE
  5
15E
330
1F
100
AcDbEntity
  8
GR1-1
  6
CONTINUOUS
 62
     3
100
AcDbLine
 10
133.571929
 20
296.548976
 30
0.0
 11
134.198839
 21
296.548976
 31
0.0
  0
LINE
  5
15F
330
1F
100
AcDbEntity
  8
GR1-1
  6
CONTINUOUS
 62
     3
100
AcDbLine
 10
134.198839
 20
290.548976
 30
0.0
 11
133.571929
 21
290.548976
 31
0.0
  0
LINE
  5
160
330
1F
100
AcDbEntity
  8
GR1-1
  6
CONTINUOUS
 62
     6
100
AcDbLine
 10
133.571929
 20
290.548976
 30
0.0
 11
133.571929
 21
296.548976
 31
0.0
  0
LINE
  5
161
330
1F
100
AcDbEntity
  8
GR1-1
  6
CONTINUOUS
 62
     6
100
AcDbLine
 10
133.071929
 20
296.007476
 30
0.0
 11
134.198839
 21
296.007476
 31
0.0
  0
LINE
  5
162
330
1F
100
AcDbEntity
  8
GR1-1
  6
CONTINUOUS
 62
     6
100
AcDbLine
 10
134.198839
 20
291.090476
 30
0.0
 11
133.071929
 21
291.090476
 31
0.0
  0
ARC
  5
163
330
1F
100
AcDbEntity
  8
LAYERGROUP-1
  6
CONTINUOUS
 62
     3
100
AcDbCircle
 10
279.743961
 20
281.429563
 30
0.0
 40
7.0
100
AcDbArc
 50
3.0
 51
90.0
  0
ARC
  5
164
330
1F
100
AcDbEntity
  8
LAYERGROUP-1
  6
CONTINUOUS
 62
     3
100
AcDbCircle
 10
279.743961
 20
281.429563
 30
0.0
 40
17.0
100
AcDbArc
 50
3.0
 51
90.0
  0
ARC
  5
165
330
1F
100
AcDbEntity
  8
LAYERGROUP-1
  6
CENTER
 62
     6
100
AcDbCircle
 10
279.743961
 20
281.429563
 30
0.0
 40
12.0
100
AcDbArc
 50
3.0
 51
90.0
  0
ARC
  5
166
330
1F
100
AcDbEntity
  8
LAYERGROUP-1
  6
CONTINUOUS
 62
     3
100
AcDbCircle
 10
304.568346
 20
266.327825
 30
0.0
 40
7.0
100
AcDbArc
 50
183.0
 51
247.666683
  0
ARC
  5
167
330
1F
100
AcDbEntity
  8
LAYERGROUP-1
  6
CENTER
 62
     6
100
AcDbCircle
 10
304.540827
 20
266.852902
 30
0.0
 40
12.0
100
AcDbArc
 50
183.0
 51
270.0
  0
ARC
  5
168
330
1F
100
AcDbEntity
  8
LAYERGROUP-1
  6
CONTINUOUS
 62
     3
100
AcDbCircle
 10
304.553436
 20
266.612306
 30
0.0
 40
17.0
100
AcDbArc
 50
183.0
 51
260.349023
  0
LINE
  5
169
330
1F
100
AcDbEntity
  8
LAYERGROUP-1
  6
CONTINUOUS
 62
     3
100
AcDbLine
 10
296.720663
 20
282.319275
 30
0.0
 11
297.577939
 21
265.961473
 31
0.0
  0
LINE
  5
16A
330
1F
100
AcDbEntity
  8
LAYERGROUP-1
  6
CENTER
 62
     6
100
AcDbLine
 10
291.727515
 20
282.057595
 30
0.0
 11
292.557273
 21
266.224871
 31
0.0
  0
LINE
  5
16B
330
1F
100
AcDbEntity
  8
LAYERGROUP-1
  6
CONTINUOUS
 62
     3
100
AcDbLine
 10
286.734367
 20
281.795915
 30
0.0
 11
287.576734
 21
265.722595
 31
0.0
  0
LINE
  5
16C
330
1F
100
AcDbEntity
  8
LAYERGROUP-1
  6
CONTINUOUS
 62
     3
100
AcDbLine
 10
224.573839
 20
294.729563
 30
0.0
 11
224.573839
 21
293.553047
 31
0.0
  0
LINE
  5
16D
330
1F
100
AcDbEntity
  8
LAYERGROUP-1
  6
CONTINUOUS
 62
     3
100
AcDbLine
 10
223.173839
 20
294.729563
 30
0.0
 11
223.173839
 21
293.553047
 31
0.0
  0
LINE
  5
16E
330
1F
100
AcDbEntity
  8
LAYERGROUP-1
  6
CONTINUOUS
 62
     3
100
AcDbLine
 10
223.173839
 20
293.553047
 30
0.0
 11
224.573839
 21
293.553047
 31
0.0
  0
LINE
  5
16F
330
1F
100
AcDbEntity
  8
LAYERGROUP-1
  6
CONTINUOUS
 62
     6
100
AcDbLine
 10
223.173839
 20
294.409344
 30
0.0
 11
224.573839
 21
294.409344
 31
0.0
  0
LINE
  5
170
330
1F
100
AcDbEntity
  8
LAYERGROUP-1
  6
CONTINUOUS
 62
     3
100
AcDbLine
 10
222.073839
 20
298.517563
 30
0.0
 11
222.073839
 21
288.229563
 31
0.0
  0
LINE
  5
171
330
1F
100
AcDbEntity
  8
LAYERGROUP-1
  6
CONTINUOUS
 62
     3
100
AcDbLine
 10
222.073839
 20
292.754484
 30
0.0
 11
180.073839
 21
292.754484
 31
0.0
  0
LINE
  5
172
330
1F
100
AcDbEntity
  8
LAYERGROUP-1
  6
CONTINUOUS
 62
     6
100
AcDbLine
 10
222.073839
 20
289.478212
 30
0.0
 11
180.073839
 21
289.478212
 31
0.0
  0
LINE
  5
173
330
1F
100
AcDbEntity
  8
LAYERGROUP-1
  6
CONTINUOUS
 62
     3
100
AcDbLine
 10
180.073839
 20
298.517563
 30
0.0
 11
180.073839
 21
288.229563
 31
0.0
  0
LINE
  5
174
330
1F
100
AcDbEntity
  8
LAYERGROUP-1
  6
CONTINUOUS
 62
     3
100
AcDbLine
 10
177.573839
 20
294.729563
 30
0.0
 11
177.573839
 21
293.553047
 31
0.0
  0
LINE
  5
175
330
1F
100
AcDbEntity
  8
LAYERGROUP-1
  6
CONTINUOUS
 62
     3
100
AcDbLine
 10
178.973839
 20
294.729563
 30
0.0
 11
178.973839
 21
293.553047
 31
0.0
  0
LINE
  5
176
330
1F
100
AcDbEntity
  8
LAYERGROUP-1
  6
CONTINUOUS
 62
     3
100
AcDbLine
 10
178.973839
 20
293.553047
 30
0.0
 11
177.573839
 21
293.553047
 31
0.0
  0
LINE
  5
177
330
1F
100
AcDbEntity
  8
LAYERGROUP-1
  6
CONTINUOUS
 62
     6
100
AcDbLine
 10
178.973839
 20
294.409344
 30
0.0
 11
177.573839
 21
294.409344
 31
0.0
  0
LINE
  5
178
330
1F
100
AcDbEntity
  8
0-1
  6
CONTINUOUS
 62
     3
100
AcDbLine
 10
223.073839
 20
294.729563
 30
0.0
 11
223.073839
 21
288.429563
 31
0.0
  0
LINE
  5
179
330
1F
100
AcDbEntity
  8
LAYERGROUP-1
  6
CONTINUOUS
 62
     3
100
AcDbLine
 10
223.073839
 20
290.729563
 30
0.0
 11
222.073839
 21
290.729563
 31
0.0
  0
LINE
  5
17A
330
1F
100
AcDbEntity
  8
LAYERGROUP-1
  6
CENTER
 62
     6
100
AcDbLine
 10
144.541258
 20
297.729563
 30
0.0
 11
259.034077
 21
297.729563
 31
0.0
  0
LINE
  5
17B
330
1F
100
AcDbEntity
  8
GR1-1
  6
CONTINUOUS
 62
     3
100
AcDbLine
 10
139.298839
 20
298.429563
 30
0.0
 11
138.852257
 21
299.203066
 31
0.0
  0
LINE
  5
17C
330
1F
100
AcDbEntity
  8
GR1-1
  6
CONTINUOUS
 62
     3
100
AcDbLine
 10
138.852257
 20
299.203065
 30
0.0
 11
136.145421
 21
299.203066
 31
0.0
  0
ARC
  5
17D
330
1F
100
AcDbEntity
  8
GR1-1
  6
CONTINUOUS
 62
     3
100
AcDbCircle
 10
138.254662
 20
297.75969
 30
0.0
 40
2.555822748422663
100
AcDbArc
 50
145.615753
 51
214.384247
  0
LINE
  5
17E
330
1F
100
AcDbEntity
  8
GR1-1
  6
CONTINUOUS
 62
     3
100
AcDbLine
 10
136.145421
 20
296.316315
 30
0.0
 11
138.852257
 21
296.316315
 31
0.0
  0
ARC
  5
17F
330
1F
100
AcDbEntity
  8
GR1-1
  6
CONTINUOUS
 62
     3
100
AcDbCircle
 10
136.743016
 20
297.75969
 30
0.0
 40
2.555822748422663
100
AcDbArc
 50
-34.384247
 51
34.384247
  0
LINE
  5
180
330
1F
100
AcDbEntity
  8
GR1-1
  6
CONTINUOUS
 62
     3
100
AcDbLine
 10
136.14542
 20
299.203065
 30
0.0
 11
135.698839
 21
298.429563
 31
0.0
  0
LINE
  5
181
330
1F
100
AcDbEntity
  8
GR1-1
  6
CONTINUOUS
 62
     3
100
AcDbLine
 10
135.698839
 20
298.429563
 30
0.0
 11
134.948839
 21
298.429563
 31
0.0
  0
ARC
  5
182
330
1F
100
AcDbEntity
  8
GR1-1
  6
CONTINUOUS
 62
     3
100
AcDbCircle
 10
134.948839
 20
297.679563
 30
0.0
 40
0.75
100
AcDbArc
 50
90.0
 51
180.0
  0
LINE
  5
183
330
1F
100
AcDbEntity
  8
GR1-1
  6
CONTINUOUS
 62
     3
100
AcDbLine
 10
134.198839
 20
297.679563
 30
0.0
 11
134.198839
 21
289.179563
 31
0.0
  0
ARC
  5
184
330
1F
100
AcDbEntity
  8
GR1-1
  6
CONTINUOUS
 62
     3
100
AcDbCircle
 10
134.948839
 20
289.179563
 30
0.0
 40
0.75
100
AcDbArc
 50
180.0
 51
270.0
  0
LINE
  5
185
330
1F
100
AcDbEntity
  8
GR1-1
  6
CONTINUOUS
 62
     3
100
AcDbLine
 10
134.948839
 20
288.429563
 30
0.0
 11
135.698839
 21
288.429563
 31
0.0
  0
LINE
  5
186
330
1F
100
AcDbEntity
  8
GR1-1
  6
CONTINUOUS
 62
     3
100
AcDbLine
 10
135.698839
 20
288.429563
 30
0.0
 11
136.145421
 21
287.656061
 31
0.0
  0
LINE
  5
187
330
1F
100
AcDbEntity
  8
GR1-1
  6
CONTINUOUS
 62
     3
100
AcDbLine
 10
136.145421
 20
287.656061
 30
0.0
 11
138.852257
 21
287.656061
 31
0.0
  0
ARC
  5
188
330
1F
100
AcDbEntity
  8
GR1-1
  6
CONTINUOUS
 62
     3
100
AcDbCircle
 10
136.743016
 20
289.099436
 30
0.0
 40
2.555822748422663
100
AcDbArc
 50
-34.384247
 51
34.384247
  0
LINE
  5
189
330
1F
100
AcDbEntity
  8
GR1-1
  6
CONTINUOUS
 62
     3
100
AcDbLine
 10
138.852257
 20
290.542812
 30
0.0
 11
136.145421
 21
290.542812
 31
0.0
  0
ARC
  5
18A
330
1F
100
AcDbEntity
  8
GR1-1
  6
CONTINUOUS
 62
     3
100
AcDbCircle
 10
138.254662
 20
289.099436
 30
0.0
 40
2.555822748422663
100
AcDbArc
 50
145.615753
 51
214.384247
  0
LINE
  5
18B
330
1F
100
AcDbEntity
  8
GR1-1
  6
CONTINUOUS
 62
     3
100
AcDbLine
 10
138.852257
 20
287.656061
 30
0.0
 11
139.298839
 21
288.429563
 31
0.0
  0
ARC
  5
18C
330
1F
100
AcDbEntity
  8
GR1-1
  6
CONTINUOUS
 62
     3
100
AcDbCircle
 10
129.745421
 20
293.429563
 30
0.0
 40
9.553418012614543
100
AcDbArc
 50
-17.587954
 51
17.587954
  0
ARC
  5
18D
330
1F
100
AcDbEntity
  8
GR1-1
  6
CONTINUOUS
 62
     3
100
AcDbCircle
 10
145.252257
 20
293.429563
 30
0.0
 40
9.553418012614543
100
AcDbArc
 50
162.412046
 51
197.587954
  0
LINE
  5
18E
330
1F
100
AcDbEntity
  8
GR1-1
  6
CONTINUOUS
 62
     6
100
AcDbLine
 10
135.698839
 20
298.429563
 30
0.0
 11
135.698839
 21
288.429563
 31
0.0
  0
LINE
  5
18F
330
1F
100
AcDbEntity
  8
GR1-1
  6
CONTINUOUS
 62
     3
100
AcDbLine
 10
151.073839
 20
302.729563
 30
0.0
 11
150.627257
 21
303.503066
 31
0.0
  0
LINE
  5
190
330
1F
100
AcDbEntity
  8
GR1-1
  6
CONTINUOUS
 62
     3
100
AcDbLine
 10
150.627257
 20
303.503065
 30
0.0
 11
147.920421
 21
303.503066
 31
0.0
  0
ARC
  5
191
330
1F
100
AcDbEntity
  8
GR1-1
  6
CONTINUOUS
 62
     3
100
AcDbCircle
 10
150.029662
 20
302.05969
 30
0.0
 40
2.555822748422663
100
AcDbArc
 50
145.615753
 51
214.384247
  0
LINE
  5
192
330
1F
100
AcDbEntity
  8
GR1-1
  6
CONTINUOUS
 62
     3
100
AcDbLine
 10
147.920421
 20
300.616315
 30
0.0
 11
150.627257
 21
300.616315
 31
0.0
  0
ARC
  5
193
330
1F
100
AcDbEntity
  8
GR1-1
  6
CONTINUOUS
 62
     3
100
AcDbCircle
 10
148.518016
 20
302.05969
 30
0.0
 40
2.555822748422663
100
AcDbArc
 50
-34.384247
 51
34.384247
  0
LINE
  5
194
330
1F
100
AcDbEntity
  8
GR1-1
  6
CONTINUOUS
 62
     3
100
AcDbLine
 10
147.92042
 20
303.503065
 30
0.0
 11
147.473839
 21
302.729563
 31
0.0
  0
LINE
  5
195
330
1F
100
AcDbEntity
  8
GR1-1
  6
CONTINUOUS
 62
     3
100
AcDbLine
 10
147.473839
 20
302.729563
 30
0.0
 11
146.723839
 21
302.729563
 31
0.0
  0
ARC
  5
196
330
1F
100
AcDbEntity
  8
GR1-1
  6
CONTINUOUS
 62
     3
100
AcDbCircle
 10
146.723839
 20
301.979563
 30
0.0
 40
0.75
100
AcDbArc
 50
90.0
 51
180.0
  0
LINE
  5
197
330
1F
100
AcDbEntity
  8
GR1-1
  6
CONTINUOUS
 62
     3
100
AcDbLine
 10
145.973839
 20
301.979563
 30
0.0
 11
145.973839
 21
293.479563
 31
0.0
  0
ARC
  5
198
330
1F
100
AcDbEntity
  8
GR1-1
  6
CONTINUOUS
 62
     3
100
AcDbCircle
 10
146.723839
 20
293.479563
 30
0.0
 40
0.75
100
AcDbArc
 50
180.0
 51
270.0
  0
LINE
  5
199
330
1F
100
AcDbEntity
  8
GR1-1
  6
CONTINUOUS
 62
     3
100
AcDbLine
 10
146.723839
 20
292.729563
 30
0.0
 11
147.473839
 21
292.729563
 31
0.0
  0
LINE
  5
19A
330
1F
100
AcDbEntity
  8
GR1-1
  6
CONTINUOUS
 62
     3
100
AcDbLine
 10
147.473839
 20
292.729563
 30
0.0
 11
147.920421
 21
291.956061
 31
0.0
  0
LINE
  5
19B
330
1F
100
AcDbEntity
  8
GR1-1
  6
CONTINUOUS
 62
     3
100
AcDbLine
 10
147.920421
 20
291.956061
 30
0.0
 11
150.627257
 21
291.956061
 31
0.0
  0
ARC
  5
19C
330
1F
100
AcDbEntity
  8
GR1-1
  6
CONTINUOUS
 62
     3
100
AcDbCircle
 10
148.518016
 20
293.399436
 30
0.0
 40
2.555822748422663
100
AcDbArc
 50
-34.384247
 51
34.384247
  0
LINE
  5
19D
330
1F
100
AcDbEntity
  8
GR1-1
  6
CONTINUOUS
 62
     3
100
AcDbLine
 10
150.627257
 20
294.842812
 30
0.0
 11
147.920421
 21
294.842812
 31
0.0
  0
ARC
  5
19E
330
1F
100
AcDbEntity
  8
GR1-1
  6
CONTINUOUS
 62
     3
100
AcDbCircle
 10
150.029662
 20
293.399436
 30
0.0
 40
2.555822748422663
100
AcDbArc
 50
145.615753
 51
214.384247
  0
LINE
  5
19F
330
1F
100
AcDbEntity
  8
GR1-1
  6
CONTINUOUS
 62
     3
100
AcDbLine
 10
150.627257
 20
291.956061
 30
0.0
 11
151.073839
 21
292.729563
 31
0.0
  0
ARC
  5
1A0
330
1F
100
AcDbEntity
  8
GR1-1
  6
CONTINUOUS
 62
     3
100
AcDbCircle
 10
141.520421
 20
297.729563
 30
0.0
 40
9.553418012614543
100
AcDbArc
 50
-17.587954
 51
17.587954
  0
ARC
  5
1A1
330
1F
100
AcDbEntity
  8
GR1-1
  6
CONTINUOUS
 62
     3
100
AcDbCircle
 10
157.027257
 20
297.729563
 30
0.0
 40
9.553418012614543
100
AcDbArc
 50
162.412046
 51
197.587954
  0
LINE
  5
1A2
330
1F
100
AcDbEntity
  8
GR1-1
  6
CONTINUOUS
 62
     6
100
AcDbLine
 10
147.473839
 20
302.729563
 30
0.0
 11
147.473839
 21
292.729563
 31
0.0
  0
LINE
  5
1A3
330
1F
100
AcDbEntity
  8
GR1-1
  6
CONTINUOUS
 62
     3
100
AcDbLine
 10
251.047403
 20
300.616315
 30
0.0
 11
254.312146
 21
300.616315
 31
0.0
  0
ARC
  5
1A4
330
1F
100
AcDbEntity
  8
GR1-1
  6
CONTINUOUS
 62
     3
100
AcDbCircle
 10
253.263036
 20
302.05969
 30
0.0
 40
1.784366509561449
100
AcDbArc
 50
-53.988685
 51
53.988685
  0
LINE
  5
1A5
330
1F
100
AcDbEntity
  8
GR1-1
  6
CONTINUOUS
 62
     3
100
AcDbLine
 10
254.312146
 20
303.503066
 30
0.0
 11
251.047403
 21
303.503066
 31
0.0
  0
LINE
  5
1A6
330
1F
100
AcDbEntity
  8
GR1-1
  6
CONTINUOUS
 62
     3
100
AcDbLine
 10
251.047403
 20
294.842812
 30
0.0
 11
254.312146
 21
294.842812
 31
0.0
  0
ARC
  5
1A7
330
1F
100
AcDbEntity
  8
GR1-1
  6
CONTINUOUS
 62
     3
100
AcDbCircle
 10
249.012822
 20
297.729563
 30
0.0
 40
6.0345803552766
100
AcDbArc
 50
-28.578881
 51
28.578881
  0
ARC
  5
1A8
330
1F
100
AcDbEntity
  8
GR1-1
  6
CONTINUOUS
 62
     3
100
AcDbCircle
 10
253.263036
 20
293.399436
 30
0.0
 40
1.784366509561449
100
AcDbArc
 50
-53.988685
 51
53.988685
  0
LINE
  5
1A9
330
1F
100
AcDbEntity
  8
GR1-1
  6
CONTINUOUS
 62
     3
100
AcDbLine
 10
254.312146
 20
291.956061
 30
0.0
 11
251.047403
 21
291.956061
 31
0.0
  0
LINE
  5
1AA
330
1F
100
AcDbEntity
  8
0-1
  6
CONTINUOUS
 62
     3
100
AcDbLine
 10
262.848839
 20
288.429563
 30
0.0
 11
279.743961
 21
288.429563
 31
0.0
  0
LINE
  5
1AB
330
1F
100
AcDbEntity
  8
0-1
  6
CONTINUOUS
 62
     3
100
AcDbLine
 10
262.848839
 20
298.429563
 30
0.0
 11
279.743961
 21
298.429563
 31
0.0
  0
LINE
  5
1AC
330
1F
100
AcDbEntity
  8
LAYERGROUP-1
  6
CONTINUOUS
 62
     3
100
AcDbLine
 10
155.073839
 20
294.729563
 30
0.0
 11
180.073839
 21
294.729563
 31
0.0
  0
LINE
  5
1AD
330
1F
100
AcDbEntity
  8
GR1-1
  6
CONTINUOUS
 62
     6
100
AcDbLine
 10
155.073839
 20
295.271063
 30
0.0
 11
174.873839
 21
295.271063
 31
0.0
  0
LINE
  5
1AE
330
1F
100
AcDbEntity
  8
GR1-1
  6
CONTINUOUS
 62
     6
100
AcDbLine
 10
173.873839
 20
298.517563
 30
0.0
 11
173.873839
 21
295.271063
 31
0.0
  0
LINE
  5
1AF
330
1F
100
AcDbEntity
  8
GR1-1
  6
CONTINUOUS
 62
     6
100
AcDbLine
 10
174.873839
 20
298.517563
 30
0.0
 11
174.873839
 21
294.729563
 31
0.0
  0
LINE
  5
1B0
330
1F
100
AcDbEntity
  8
LAYERGROUP-1
  6
CONTINUOUS
 62
     6
100
AcDbLine
 10
174.873839
 20
294.729563
 30
0.0
 11
173.873839
 21
295.271063
 31
0.0
  0
LINE
  5
1B1
330
1F
100
AcDbEntity
  8
LAYERGROUP-1
  6
CONTINUOUS
 62
     3
100
AcDbLine
 10
222.073839
 20
294.729563
 30
0.0
 11
247.073839
 21
294.729563
 31
0.0
  0
LINE
  5
1B2
330
1F
100
AcDbEntity
  8
0-1
  6
CENTER
 62
     6
100
AcDbLine
 10
530.839994
 20
283.672065
 30
0.0
 11
530.839994
 21
301.963429
 31
0.0
  0
LINE
  5
1B3
330
1F
100
AcDbEntity
  8
0-1
  6
CENTER
 62
     6
100
AcDbLine
 10
539.905447
 20
293.429563
 30
0.0
 11
519.719621
 21
293.429563
 31
0.0
  0
LINE
  5
1B4
330
1F
100
AcDbEntity
  8
0-1
  6
CENTER
 62
     6
100
AcDbLine
 10
479.081507
 20
297.729563
 30
0.0
 11
465.800257
 21
297.729563
 31
0.0
  0
LINE
  5
1B5
330
1F
100
AcDbEntity
  8
0-1
  6
CENTER
 62
     6
100
AcDbLine
 10
472.239994
 20
291.742303
 30
0.0
 11
472.239994
 21
303.429803
 31
0.0
  0
LINE
  5
1B6
330
1F
100
AcDbEntity
  8
0-1
  6
CENTER
 62
     6
100
AcDbLine
 10
530.839994
 20
293.429563
 30
0.0
 11
451.746118
 21
254.852902
 31
0.0
  0
LINE
  5
1B7
330
1F
100
AcDbEntity
  8
0-1
  6
CENTER
 62
     6
100
AcDbLine
 10
441.727066
 20
254.852902
 30
0.0
 11
460.107794
 21
254.852902
 31
0.0
  0
ARC
  5
1B8
330
1F
100
AcDbEntity
  8
0-1
  6
CONTINUOUS
 62
     3
100
AcDbCircle
 10
451.746118
 20
254.852902
 30
0.0
 40
5.0
100
AcDbArc
 50
222.843643
 51
317.156357
  0
ARC
  5
1B9
330
1F
100
AcDbEntity
  8
0-1
  6
CONTINUOUS
 62
     3
100
AcDbCircle
 10
451.746118
 20
254.852902
 30
0.0
 40
5.0
100
AcDbArc
 50
42.843643
 51
137.156357
  0
LINE
  5
1BA
330
1F
100
AcDbEntity
  8
0-1
  6
CONTINUOUS
 62
     3
100
AcDbLine
 10
456.180945
 20
251.452902
 30
0.0
 11
453.937974
 21
250.358932
 31
0.0
  0
ARC
  5
1BB
330
1F
100
AcDbEntity
  8
LAYERGROUP-1
  6
CONTINUOUS
 62
     3
100
AcDbCircle
 10
454.246118
 20
254.852902
 30
0.0
 40
4.5
100
AcDbArc
 50
-49.073937
 51
49.073937
  0
ARC
  5
1BC
330
1F
100
AcDbEntity
  8
LAYERGROUP-1
  6
CONTINUOUS
 62
     3
100
AcDbCircle
 10
449.246118
 20
254.852902
 30
0.0
 40
4.5
100
AcDbArc
 50
130.926063
 51
229.073937
  0
LINE
  5
1BD
330
1F
100
AcDbEntity
  8
LAYERGROUP-1
  6
CONTINUOUS
 62
     3
100
AcDbLine
 10
446.298237
 20
258.252902
 30
0.0
 11
457.193999
 21
258.252902
 31
0.0
  0
LINE
  5
1BE
330
1F
100
AcDbEntity
  8
LAYERGROUP-1
  6
CONTINUOUS
 62
     3
100
AcDbLine
 10
446.298237
 20
251.452902
 30
0.0
 11
457.193999
 21
251.452902
 31
0.0
  0
LINE
  5
1BF
330
1F
100
AcDbEntity
  8
LAYERGROUP-1
  6
CENTER
 62
     6
100
AcDbLine
 10
451.746118
 20
265.305122
 30
0.0
 11
451.746118
 21
246.533583
 31
0.0
  0
LINE
  5
1C0
330
1F
100
AcDbEntity
  8
0-1
  6
CENTER
 62
     6
100
AcDbLine
 10
453.446118
 20
383.322867
 30
0.0
 11
453.446118
 21
345.571207
 31
0.0
  0
LINE
  5
1C1
330
1F
100
AcDbEntity
  8
0-1
  6
CONTINUOUS
 62
     3
100
AcDbLine
 10
460.446118
 20
380.816541
 30
0.0
 11
460.446118
 21
351.746316
 31
0.0
  0
LINE
  5
1C2
330
1F
100
AcDbEntity
  8
0-1
  6
CONTINUOUS
 62
     3
100
AcDbLine
 10
460.446118
 20
380.816541
 30
0.0
 11
458.499753
 21
384.187744
 31
0.0
  0
ARC
  5
1C3
330
1F
100
AcDbEntity
  8
0-1
  6
CONTINUOUS
 62
     3
100
AcDbCircle
 10
453.446118
 20
358.887744
 30
0.0
 40
10.0
100
AcDbArc
 50
225.572996
 51
314.427004
  0
LINE
  5
1C4
330
1F
100
AcDbEntity
  8
0-1
  6
CONTINUOUS
 62
     3
100
AcDbLine
 10
446.446118
 20
380.816541
 30
0.0
 11
448.392483
 21
384.187744
 31
0.0
  0
LINE
  5
1C5
330
1F
100
AcDbEntity
  8
0-1
  6
CONTINUOUS
 62
     3
100
AcDbLine
 10
446.446118
 20
380.816541
 30
0.0
 11
446.446118
 21
351.746316
 31
0.0
  0
LINE
  5
1C6
330
1F
100
AcDbEntity
  8
LAYERGROUP-1
  6
CONTINUOUS
 62
     6
100
AcDbLine
 10
451.108894
 20
382.235935
 30
0.0
 11
450.012188
 21
380.135486
 31
0.0
  0
LINE
  5
1C7
330
1F
100
AcDbEntity
  8
LAYERGROUP-1
  6
CONTINUOUS
 62
     6
100
AcDbLine
 10
450.012188
 20
380.135486
 30
0.0
 11
451.108894
 21
378.235935
 31
0.0
  0
LINE
  5
1C8
330
1F
100
AcDbEntity
  8
LAYERGROUP-1
  6
CONTINUOUS
 62
     6
100
AcDbLine
 10
451.108894
 20
378.235935
 30
0.0
 11
452.2056
 21
380.135486
 31
0.0
  0
LINE
  5
1C9
330
1F
100
AcDbEntity
  8
LAYERGROUP-1
  6
CONTINUOUS
 62
     6
100
AcDbLine
 10
452.2056
 20
380.135486
 30
0.0
 11
451.108894
 21
382.235935
 31
0.0
  0
LINE
  5
1CA
330
1F
100
AcDbEntity
  8
LAYERGROUP-1
  6
CONTINUOUS
 62
     6
100
AcDbLine
 10
454.572996
 20
382.235935
 30
0.0
 11
453.418295
 21
380.235935
 31
0.0
  0
LINE
  5
1CB
330
1F
100
AcDbEntity
  8
LAYERGROUP-1
  6
CONTINUOUS
 62
     6
100
AcDbLine
 10
453.418295
 20
380.235935
 30
0.0
 11
454.572996
 21
378.235935
 31
0.0
  0
LINE
  5
1CC
330
1F
100
AcDbEntity
  8
LAYERGROUP-1
  6
CONTINUOUS
 62
     6
100
AcDbLine
 10
454.572996
 20
378.235935
 30
0.0
 11
455.727696
 21
380.235935
 31
0.0
  0
LINE
  5
1CD
330
1F
100
AcDbEntity
  8
LAYERGROUP-1
  6
CONTINUOUS
 62
     6
100
AcDbLine
 10
455.727696
 20
380.235935
 30
0.0
 11
454.572996
 21
382.235935
 31
0.0
  0
LINE
  5
1CE
330
1F
100
AcDbEntity
  8
LAYERGROUP-1
  6
CONTINUOUS
 62
     6
100
AcDbLine
 10
448.799493
 20
380.235935
 30
0.0
 11
447.644792
 21
378.235935
 31
0.0
  0
LINE
  5
1CF
330
1F
100
AcDbEntity
  8
LAYERGROUP-1
  6
CONTINUOUS
 62
     6
100
AcDbLine
 10
447.644792
 20
378.235935
 30
0.0
 11
446.490092
 21
380.235935
 31
0.0
  0
LINE
  5
1D0
330
1F
100
AcDbEntity
  8
LAYERGROUP-1
  6
CONTINUOUS
 62
     6
100
AcDbLine
 10
446.490092
 20
380.235935
 30
0.0
 11
447.644792
 21
382.235935
 31
0.0
  0
LINE
  5
1D1
330
1F
100
AcDbEntity
  8
LAYERGROUP-1
  6
CONTINUOUS
 62
     6
100
AcDbLine
 10
447.644792
 20
382.235935
 30
0.0
 11
448.799493
 21
380.235935
 31
0.0
  0
LINE
  5
1D2
330
1F
100
AcDbEntity
  8
LAYERGROUP-1
  6
CONTINUOUS
 62
     6
100
AcDbLine
 10
452.235772
 20
384.187744
 30
0.0
 11
451.686244
 21
383.235935
 31
0.0
  0
LINE
  5
1D3
330
1F
100
AcDbEntity
  8
LAYERGROUP-1
  6
CONTINUOUS
 62
     6
100
AcDbLine
 10
451.686244
 20
383.235935
 30
0.0
 11
452.840945
 21
381.235935
 31
0.0
  0
LINE
  5
1D4
330
1F
100
AcDbEntity
  8
LAYERGROUP-1
  6
CONTINUOUS
 62
     6
100
AcDbLine
 10
452.840945
 20
381.235935
 30
0.0
 11
453.995645
 21
383.235935
 31
0.0
  0
LINE
  5
1D5
330
1F
100
AcDbEntity
  8
LAYERGROUP-1
  6
CONTINUOUS
 62
     6
100
AcDbLine
 10
453.995645
 20
383.235935
 30
0.0
 11
453.446118
 21
384.187744
 31
0.0
  0
LINE
  5
1D6
330
1F
100
AcDbEntity
  8
LAYERGROUP-1
  6
CONTINUOUS
 62
     6
100
AcDbLine
 10
455.699873
 20
384.187744
 30
0.0
 11
455.150346
 21
383.235935
 31
0.0
  0
LINE
  5
1D7
330
1F
100
AcDbEntity
  8
LAYERGROUP-1
  6
CONTINUOUS
 62
     6
100
AcDbLine
 10
455.150346
 20
383.235935
 30
0.0
 11
456.305046
 21
381.235935
 31
0.0
  0
LINE
  5
1D8
330
1F
100
AcDbEntity
  8
LAYERGROUP-1
  6
CONTINUOUS
 62
     6
100
AcDbLine
 10
456.305046
 20
381.235935
 30
0.0
 11
457.459747
 21
383.235935
 31
0.0
  0
LINE
  5
1D9
330
1F
100
AcDbEntity
  8
LAYERGROUP-1
  6
CONTINUOUS
 62
     6
100
AcDbLine
 10
457.459747
 20
383.235935
 30
0.0
 11
456.91022
 21
384.187744
 31
0.0
  0
LINE
  5
1DA
330
1F
100
AcDbEntity
  8
LAYERGROUP-1
  6
CONTINUOUS
 62
     6
100
AcDbLine
 10
458.037097
 20
382.235935
 30
0.0
 11
456.882397
 21
380.235935
 31
0.0
  0
LINE
  5
1DB
330
1F
100
AcDbEntity
  8
LAYERGROUP-1
  6
CONTINUOUS
 62
     6
100
AcDbLine
 10
456.882397
 20
380.235935
 30
0.0
 11
458.037097
 21
378.235935
 31
0.0
  0
LINE
  5
1DC
330
1F
100
AcDbEntity
  8
LAYERGROUP-1
  6
CONTINUOUS
 62
     6
100
AcDbLine
 10
458.037097
 20
378.235935
 30
0.0
 11
459.191798
 21
380.235935
 31
0.0
  0
LINE
  5
1DD
330
1F
100
AcDbEntity
  8
LAYERGROUP-1
  6
CONTINUOUS
 62
     6
100
AcDbLine
 10
459.191798
 20
380.235935
 30
0.0
 11
458.037097
 21
382.235935
 31
0.0
  0
LINE
  5
1DE
330
1F
100
AcDbEntity
  8
LAYERGROUP-1
  6
CONTINUOUS
 62
     6
100
AcDbLine
 10
458.831864
 20
383.612511
 30
0.0
 11
458.614447
 21
383.235935
 31
0.0
  0
LINE
  5
1DF
330
1F
100
AcDbEntity
  8
LAYERGROUP-1
  6
CONTINUOUS
 62
     6
100
AcDbLine
 10
458.614447
 20
383.235935
 30
0.0
 11
459.769148
 21
381.235935
 31
0.0
  0
LINE
  5
1E0
330
1F
100
AcDbEntity
  8
LAYERGROUP-1
  6
CONTINUOUS
 62
     6
100
AcDbLine
 10
459.769148
 20
381.235935
 30
0.0
 11
459.986564
 21
381.612511
 31
0.0
  0
LINE
  5
1E1
330
1F
100
AcDbEntity
  8
LAYERGROUP-1
  6
CONTINUOUS
 62
     6
100
AcDbLine
 10
448.222143
 20
383.235935
 30
0.0
 11
449.376843
 21
381.235935
 31
0.0
  0
LINE
  5
1E2
330
1F
100
AcDbEntity
  8
LAYERGROUP-1
  6
CONTINUOUS
 62
     6
100
AcDbLine
 10
449.376843
 20
381.235935
 30
0.0
 11
450.531544
 21
383.235935
 31
0.0
  0
LINE
  5
1E3
330
1F
100
AcDbEntity
  8
LAYERGROUP-1
  6
CONTINUOUS
 62
     6
100
AcDbLine
 10
450.531544
 20
383.235935
 30
0.0
 11
449.982016
 21
384.187744
 31
0.0
  0
LINE
  5
1E4
330
1F
100
AcDbEntity
  8
LAYERGROUP-1
  6
CONTINUOUS
 62
     6
100
AcDbLine
 10
448.77167
 20
384.187744
 30
0.0
 11
448.222143
 21
383.235935
 31
0.0
  0
LINE
  5
1E5
330
1F
100
AcDbEntity
  8
LAYERGROUP-1
  6
CONTINUOUS
 62
     6
100
AcDbLine
 10
449.376843
 20
379.235935
 30
0.0
 11
448.222143
 21
377.235935
 31
0.0
  0
LINE
  5
1E6
330
1F
100
AcDbEntity
  8
LAYERGROUP-1
  6
CONTINUOUS
 62
     6
100
AcDbLine
 10
448.222143
 20
377.235935
 30
0.0
 11
449.376843
 21
375.235935
 31
0.0
  0
LINE
  5
1E7
330
1F
100
AcDbEntity
  8
LAYERGROUP-1
  6
CONTINUOUS
 62
     6
100
AcDbLine
 10
449.376843
 20
375.235935
 30
0.0
 11
450.531544
 21
377.235935
 31
0.0
  0
LINE
  5
1E8
330
1F
100
AcDbEntity
  8
LAYERGROUP-1
  6
CONTINUOUS
 62
     6
100
AcDbLine
 10
450.531544
 20
377.235935
 30
0.0
 11
449.376843
 21
379.235935
 31
0.0
  0
LINE
  5
1E9
330
1F
100
AcDbEntity
  8
LAYERGROUP-1
  6
CONTINUOUS
 62
     6
100
AcDbLine
 10
452.840945
 20
379.235935
 30
0.0
 11
451.686244
 21
377.235935
 31
0.0
  0
LINE
  5
1EA
330
1F
100
AcDbEntity
  8
LAYERGROUP-1
  6
CONTINUOUS
 62
     6
100
AcDbLine
 10
451.686244
 20
377.235935
 30
0.0
 11
452.840945
 21
375.235935
 31
0.0
  0
LINE
  5
1EB
330
1F
100
AcDbEntity
  8
LAYERGROUP-1
  6
CONTINUOUS
 62
     6
100
AcDbLine
 10
452.840945
 20
375.235935
 30
0.0
 11
453.995645
 21
377.235935
 31
0.0
  0
LINE
  5
1EC
330
1F
100
AcDbEntity
  8
LAYERGROUP-1
  6
CONTINUOUS
 62
     6
100
AcDbLine
 10
453.995645
 20
377.235935
 30
0.0
 11
452.840945
 21
379.235935
 31
0.0
  0
LINE
  5
1ED
330
1F
100
AcDbEntity
  8
LAYERGROUP-1
  6
CONTINUOUS
 62
     6
100
AcDbLine
 10
456.305046
 20
379.235935
 30
0.0
 11
455.150346
 21
377.235935
 31
0.0
  0
LINE
  5
1EE
330
1F
100
AcDbEntity
  8
LAYERGROUP-1
  6
CONTINUOUS
 62
     6
100
AcDbLine
 10
455.150346
 20
377.235935
 30
0.0
 11
456.305046
 21
375.235935
 31
0.0
  0
LINE
  5
1EF
330
1F
100
AcDbEntity
  8
LAYERGROUP-1
  6
CONTINUOUS
 62
     6
100
AcDbLine
 10
456.305046
 20
375.235935
 30
0.0
 11
457.459747
 21
377.235935
 31
0.0
  0
LINE
  5
1F0
330
1F
100
AcDbEntity
  8
LAYERGROUP-1
  6
CONTINUOUS
 62
     6
100
AcDbLine
 10
457.459747
 20
377.235935
 30
0.0
 11
456.305046
 21
379.235935
 31
0.0
  0
LINE
  5
1F1
330
1F
100
AcDbEntity
  8
LAYERGROUP-1
  6
CONTINUOUS
 62
     6
100
AcDbLine
 10
459.769148
 20
379.235935
 30
0.0
 11
458.614447
 21
377.235935
 31
0.0
  0
LINE
  5
1F2
330
1F
100
AcDbEntity
  8
LAYERGROUP-1
  6
CONTINUOUS
 62
     6
100
AcDbLine
 10
458.614447
 20
377.235935
 30
0.0
 11
459.769148
 21
375.235935
 31
0.0
  0
LINE
  5
1F3
330
1F
100
AcDbEntity
  8
LAYERGROUP-1
  6
CONTINUOUS
 62
     6
100
AcDbLine
 10
459.769148
 20
375.235935
 30
0.0
 11
460.446118
 21
376.408481
 31
0.0
  0
LINE
  5
1F4
330
1F
100
AcDbEntity
  8
LAYERGROUP-1
  6
CONTINUOUS
 62
     6
100
AcDbLine
 10
459.769148
 20
379.235935
 30
0.0
 11
460.446118
 21
378.063388
 31
0.0
  0
LINE
  5
1F5
330
1F
100
AcDbEntity
  8
LAYERGROUP-1
  6
CONTINUOUS
 62
     6
100
AcDbLine
 10
446.446118
 20
378.3121
 30
0.0
 11
447.067442
 21
377.235935
 31
0.0
  0
LINE
  5
1F6
330
1F
100
AcDbEntity
  8
LAYERGROUP-1
  6
CONTINUOUS
 62
     6
100
AcDbLine
 10
447.067442
 20
377.235935
 30
0.0
 11
446.446118
 21
376.15977
 31
0.0
  0
LINE
  5
1F7
330
1F
100
AcDbEntity
  8
LAYERGROUP-1
  6
CONTINUOUS
 62
     6
100
AcDbLine
 10
446.490092
 20
374.235935
 30
0.0
 11
447.644792
 21
372.235935
 31
0.0
  0
LINE
  5
1F8
330
1F
100
AcDbEntity
  8
LAYERGROUP-1
  6
CONTINUOUS
 62
     6
100
AcDbLine
 10
447.644792
 20
372.235935
 30
0.0
 11
448.799493
 21
374.235935
 31
0.0
  0
LINE
  5
1F9
330
1F
100
AcDbEntity
  8
LAYERGROUP-1
  6
CONTINUOUS
 62
     6
100
AcDbLine
 10
448.799493
 20
374.235935
 30
0.0
 11
447.644792
 21
376.235935
 31
0.0
  0
LINE
  5
1FA
330
1F
100
AcDbEntity
  8
LAYERGROUP-1
  6
CONTINUOUS
 62
     6
100
AcDbLine
 10
447.644792
 20
376.235935
 30
0.0
 11
446.490092
 21
374.235935
 31
0.0
  0
LINE
  5
1FB
330
1F
100
AcDbEntity
  8
LAYERGROUP-1
  6
CONTINUOUS
 62
     6
100
AcDbLine
 10
446.446118
 20
372.3121
 30
0.0
 11
447.067442
 21
371.235935
 31
0.0
  0
LINE
  5
1FC
330
1F
100
AcDbEntity
  8
LAYERGROUP-1
  6
CONTINUOUS
 62
     6
100
AcDbLine
 10
447.067442
 20
371.235935
 30
0.0
 11
446.446118
 21
370.15977
 31
0.0
  0
LINE
  5
1FD
330
1F
100
AcDbEntity
  8
LAYERGROUP-1
  6
CONTINUOUS
 62
     6
100
AcDbLine
 10
447.644792
 20
370.235935
 30
0.0
 11
446.490092
 21
368.235935
 31
0.0
  0
LINE
  5
1FE
330
1F
100
AcDbEntity
  8
LAYERGROUP-1
  6
CONTINUOUS
 62
     6
100
AcDbLine
 10
446.490092
 20
368.235935
 30
0.0
 11
447.644792
 21
366.235935
 31
0.0
  0
LINE
  5
1FF
330
1F
100
AcDbEntity
  8
LAYERGROUP-1
  6
CONTINUOUS
 62
     6
100
AcDbLine
 10
447.644792
 20
366.235935
 30
0.0
 11
448.799493
 21
368.235935
 31
0.0
  0
LINE
  5
200
330
1F
100
AcDbEntity
  8
LAYERGROUP-1
  6
CONTINUOUS
 62
     6
100
AcDbLine
 10
448.799493
 20
368.235935
 30
0.0
 11
447.644792
 21
370.235935
 31
0.0
  0
LINE
  5
201
330
1F
100
AcDbEntity
  8
LAYERGROUP-1
  6
CONTINUOUS
 62
     6
100
AcDbLine
 10
449.376843
 20
373.235935
 30
0.0
 11
448.222143
 21
371.235935
 31
0.0
  0
LINE
  5
202
330
1F
100
AcDbEntity
  8
LAYERGROUP-1
  6
CONTINUOUS
 62
     6
100
AcDbLine
 10
448.222143
 20
371.235935
 30
0.0
 11
449.376843
 21
369.235935
 31
0.0
  0
LINE
  5
203
330
1F
100
AcDbEntity
  8
LAYERGROUP-1
  6
CONTINUOUS
 62
     6
100
AcDbLine
 10
449.376843
 20
369.235935
 30
0.0
 11
450.531544
 21
371.235935
 31
0.0
  0
LINE
  5
204
330
1F
100
AcDbEntity
  8
LAYERGROUP-1
  6
CONTINUOUS
 62
     6
100
AcDbLine
 10
450.531544
 20
371.235935
 30
0.0
 11
449.376843
 21
373.235935
 31
0.0
  0
LINE
  5
205
330
1F
100
AcDbEntity
  8
LAYERGROUP-1
  6
CONTINUOUS
 62
     6
100
AcDbLine
 10
451.108894
 20
376.235935
 30
0.0
 11
449.954193
 21
374.235935
 31
0.0
  0
LINE
  5
206
330
1F
100
AcDbEntity
  8
LAYERGROUP-1
  6
CONTINUOUS
 62
     6
100
AcDbLine
 10
449.954193
 20
374.235935
 30
0.0
 11
451.108894
 21
372.235935
 31
0.0
  0
LINE
  5
207
330
1F
100
AcDbEntity
  8
LAYERGROUP-1
  6
CONTINUOUS
 62
     6
100
AcDbLine
 10
451.108894
 20
372.235935
 30
0.0
 11
452.263594
 21
374.235935
 31
0.0
  0
LINE
  5
208
330
1F
100
AcDbEntity
  8
LAYERGROUP-1
  6
CONTINUOUS
 62
     6
100
AcDbLine
 10
452.263594
 20
374.235935
 30
0.0
 11
451.108894
 21
376.235935
 31
0.0
  0
LINE
  5
209
330
1F
100
AcDbEntity
  8
LAYERGROUP-1
  6
CONTINUOUS
 62
     6
100
AcDbLine
 10
454.572996
 20
376.235935
 30
0.0
 11
453.446118
 21
374.187744
 31
0.0
  0
LINE
  5
20A
330
1F
100
AcDbEntity
  8
LAYERGROUP-1
  6
CONTINUOUS
 62
     6
100
AcDbLine
 10
453.446118
 20
374.187744
 30
0.0
 11
454.572996
 21
372.235935
 31
0.0
  0
LINE
  5
20B
330
1F
100
AcDbEntity
  8
LAYERGROUP-1
  6
CONTINUOUS
 62
     6
100
AcDbLine
 10
454.572996
 20
372.235935
 30
0.0
 11
455.727696
 21
374.235935
 31
0.0
  0
LINE
  5
20C
330
1F
100
AcDbEntity
  8
LAYERGROUP-1
  6
CONTINUOUS
 62
     6
100
AcDbLine
 10
455.727696
 20
374.235935
 30
0.0
 11
454.572996
 21
376.235935
 31
0.0
  0
LINE
  5
20D
330
1F
100
AcDbEntity
  8
LAYERGROUP-1
  6
CONTINUOUS
 62
     6
100
AcDbLine
 10
458.037097
 20
376.235935
 30
0.0
 11
456.882397
 21
374.235935
 31
0.0
  0
LINE
  5
20E
330
1F
100
AcDbEntity
  8
LAYERGROUP-1
  6
CONTINUOUS
 62
     6
100
AcDbLine
 10
456.882397
 20
374.235935
 30
0.0
 11
458.037097
 21
372.235935
 31
0.0
  0
LINE
  5
20F
330
1F
100
AcDbEntity
  8
LAYERGROUP-1
  6
CONTINUOUS
 62
     6
100
AcDbLine
 10
458.037097
 20
372.235935
 30
0.0
 11
459.191798
 21
374.235935
 31
0.0
  0
LINE
  5
210
330
1F
100
AcDbEntity
  8
LAYERGROUP-1
  6
CONTINUOUS
 62
     6
100
AcDbLine
 10
459.191798
 20
374.235935
 30
0.0
 11
458.037097
 21
376.235935
 31
0.0
  0
LINE
  5
211
330
1F
100
AcDbEntity
  8
LAYERGROUP-1
  6
CONTINUOUS
 62
     6
100
AcDbLine
 10
456.305046
 20
373.235935
 30
0.0
 11
455.150346
 21
371.235935
 31
0.0
  0
LINE
  5
212
330
1F
100
AcDbEntity
  8
LAYERGROUP-1
  6
CONTINUOUS
 62
     6
100
AcDbLine
 10
455.150346
 20
371.235935
 30
0.0
 11
456.305046
 21
369.235935
 31
0.0
  0
LINE
  5
213
330
1F
100
AcDbEntity
  8
LAYERGROUP-1
  6
CONTINUOUS
 62
     6
100
AcDbLine
 10
456.305046
 20
369.235935
 30
0.0
 11
457.459747
 21
371.235935
 31
0.0
  0
LINE
  5
214
330
1F
100
AcDbEntity
  8
LAYERGROUP-1
  6
CONTINUOUS
 62
     6
100
AcDbLine
 10
457.459747
 20
371.235935
 30
0.0
 11
456.305046
 21
373.235935
 31
0.0
  0
LINE
  5
215
330
1F
100
AcDbEntity
  8
LAYERGROUP-1
  6
CONTINUOUS
 62
     6
100
AcDbLine
 10
452.840945
 20
373.235935
 30
0.0
 11
451.686244
 21
371.235935
 31
0.0
  0
LINE
  5
216
330
1F
100
AcDbEntity
  8
LAYERGROUP-1
  6
CONTINUOUS
 62
     6
100
AcDbLine
 10
451.686244
 20
371.235935
 30
0.0
 11
452.840945
 21
369.235935
 31
0.0
  0
LINE
  5
217
330
1F
100
AcDbEntity
  8
LAYERGROUP-1
  6
CONTINUOUS
 62
     6
100
AcDbLine
 10
452.840945
 20
369.235935
 30
0.0
 11
453.995645
 21
371.235935
 31
0.0
  0
LINE
  5
218
330
1F
100
AcDbEntity
  8
LAYERGROUP-1
  6
CONTINUOUS
 62
     6
100
AcDbLine
 10
453.995645
 20
371.235935
 30
0.0
 11
452.840945
 21
373.235935
 31
0.0
  0
LINE
  5
219
330
1F
100
AcDbEntity
  8
LAYERGROUP-1
  6
CONTINUOUS
 62
     6
100
AcDbLine
 10
451.108894
 20
370.235935
 30
0.0
 11
449.954193
 21
368.235935
 31
0.0
  0
LINE
  5
21A
330
1F
100
AcDbEntity
  8
LAYERGROUP-1
  6
CONTINUOUS
 62
     6
100
AcDbLine
 10
449.954193
 20
368.235935
 30
0.0
 11
451.108894
 21
366.235935
 31
0.0
  0
LINE
  5
21B
330
1F
100
AcDbEntity
  8
LAYERGROUP-1
  6
CONTINUOUS
 62
     6
100
AcDbLine
 10
451.108894
 20
366.235935
 30
0.0
 11
452.263594
 21
368.235935
 31
0.0
  0
LINE
  5
21C
330
1F
100
AcDbEntity
  8
LAYERGROUP-1
  6
CONTINUOUS
 62
     6
100
AcDbLine
 10
452.263594
 20
368.235935
 30
0.0
 11
451.108894
 21
370.235935
 31
0.0
  0
LINE
  5
21D
330
1F
100
AcDbEntity
  8
LAYERGROUP-1
  6
CONTINUOUS
 62
     6
100
AcDbLine
 10
459.769148
 20
373.235935
 30
0.0
 11
458.614447
 21
371.235935
 31
0.0
  0
LINE
  5
21E
330
1F
100
AcDbEntity
  8
LAYERGROUP-1
  6
CONTINUOUS
 62
     6
100
AcDbLine
 10
458.614447
 20
371.235935
 30
0.0
 11
459.769148
 21
369.235935
 31
0.0
  0
LINE
  5
21F
330
1F
100
AcDbEntity
  8
LAYERGROUP-1
  6
CONTINUOUS
 62
     6
100
AcDbLine
 10
459.769148
 20
369.235935
 30
0.0
 11
460.446118
 21
370.408481
 31
0.0
  0
LINE
  5
220
330
1F
100
AcDbEntity
  8
LAYERGROUP-1
  6
CONTINUOUS
 62
     6
100
AcDbLine
 10
458.037097
 20
370.235935
 30
0.0
 11
456.882397
 21
368.235935
 31
0.0
  0
LINE
  5
221
330
1F
100
AcDbEntity
  8
LAYERGROUP-1
  6
CONTINUOUS
 62
     6
100
AcDbLine
 10
456.882397
 20
368.235935
 30
0.0
 11
458.037097
 21
366.235935
 31
0.0
  0
LINE
  5
222
330
1F
100
AcDbEntity
  8
LAYERGROUP-1
  6
CONTINUOUS
 62
     6
100
AcDbLine
 10
458.037097
 20
366.235935
 30
0.0
 11
459.191798
 21
368.235935
 31
0.0
  0
LINE
  5
223
330
1F
100
AcDbEntity
  8
LAYERGROUP-1
  6
CONTINUOUS
 62
     6
100
AcDbLine
 10
459.191798
 20
368.235935
 30
0.0
 11
458.037097
 21
370.235935
 31
0.0
  0
LINE
  5
224
330
1F
100
AcDbEntity
  8
LAYERGROUP-1
  6
CONTINUOUS
 62
     6
100
AcDbLine
 10
454.572996
 20
370.235935
 30
0.0
 11
453.446118
 21
368.187744
 31
0.0
  0
LINE
  5
225
330
1F
100
AcDbEntity
  8
LAYERGROUP-1
  6
CONTINUOUS
 62
     6
100
AcDbLine
 10
453.446118
 20
368.187744
 30
0.0
 11
454.572996
 21
366.235935
 31
0.0
  0
LINE
  5
226
330
1F
100
AcDbEntity
  8
LAYERGROUP-1
  6
CONTINUOUS
 62
     6
100
AcDbLine
 10
454.572996
 20
366.235935
 30
0.0
 11
455.727696
 21
368.235935
 31
0.0
  0
LINE
  5
227
330
1F
100
AcDbEntity
  8
LAYERGROUP-1
  6
CONTINUOUS
 62
     6
100
AcDbLine
 10
455.727696
 20
368.235935
 30
0.0
 11
454.572996
 21
370.235935
 31
0.0
  0
LINE
  5
228
330
1F
100
AcDbEntity
  8
LAYERGROUP-1
  6
CONTINUOUS
 62
     6
100
AcDbLine
 10
446.446118
 20
366.3121
 30
0.0
 11
447.067442
 21
365.235935
 31
0.0
  0
LINE
  5
229
330
1F
100
AcDbEntity
  8
LAYERGROUP-1
  6
CONTINUOUS
 62
     6
100
AcDbLine
 10
447.067442
 20
365.235935
 30
0.0
 11
446.446118
 21
364.15977
 31
0.0
  0
LINE
  5
22A
330
1F
100
AcDbEntity
  8
LAYERGROUP-1
  6
CONTINUOUS
 62
     6
100
AcDbLine
 10
447.644792
 20
364.235935
 30
0.0
 11
446.490092
 21
362.235935
 31
0.0
  0
LINE
  5
22B
330
1F
100
AcDbEntity
  8
LAYERGROUP-1
  6
CONTINUOUS
 62
     6
100
AcDbLine
 10
446.490092
 20
362.235935
 30
0.0
 11
447.644792
 21
360.235935
 31
0.0
  0
LINE
  5
22C
330
1F
100
AcDbEntity
  8
LAYERGROUP-1
  6
CONTINUOUS
 62
     6
100
AcDbLine
 10
447.644792
 20
360.235935
 30
0.0
 11
448.799493
 21
362.235935
 31
0.0
  0
LINE
  5
22D
330
1F
100
AcDbEntity
  8
LAYERGROUP-1
  6
CONTINUOUS
 62
     6
100
AcDbLine
 10
448.799493
 20
362.235935
 30
0.0
 11
447.644792
 21
364.235935
 31
0.0
  0
LINE
  5
22E
330
1F
100
AcDbEntity
  8
LAYERGROUP-1
  6
CONTINUOUS
 62
     6
100
AcDbLine
 10
449.376843
 20
367.235935
 30
0.0
 11
448.222143
 21
365.235935
 31
0.0
  0
LINE
  5
22F
330
1F
100
AcDbEntity
  8
LAYERGROUP-1
  6
CONTINUOUS
 62
     6
100
AcDbLine
 10
448.222143
 20
365.235935
 30
0.0
 11
449.376843
 21
363.235935
 31
0.0
  0
LINE
  5
230
330
1F
100
AcDbEntity
  8
LAYERGROUP-1
  6
CONTINUOUS
 62
     6
100
AcDbLine
 10
449.376843
 20
363.235935
 30
0.0
 11
450.531544
 21
365.235935
 31
0.0
  0
LINE
  5
231
330
1F
100
AcDbEntity
  8
LAYERGROUP-1
  6
CONTINUOUS
 62
     6
100
AcDbLine
 10
450.531544
 20
365.235935
 30
0.0
 11
449.376843
 21
367.235935
 31
0.0
  0
LINE
  5
232
330
1F
100
AcDbEntity
  8
LAYERGROUP-1
  6
CONTINUOUS
 62
     6
100
AcDbLine
 10
452.840945
 20
367.235935
 30
0.0
 11
451.686244
 21
365.235935
 31
0.0
  0
LINE
  5
233
330
1F
100
AcDbEntity
  8
LAYERGROUP-1
  6
CONTINUOUS
 62
     6
100
AcDbLine
 10
451.686244
 20
365.235935
 30
0.0
 11
452.840945
 21
363.235935
 31
0.0
  0
LINE
  5
234
330
1F
100
AcDbEntity
  8
LAYERGROUP-1
  6
CONTINUOUS
 62
     6
100
AcDbLine
 10
452.840945
 20
363.235935
 30
0.0
 11
453.995645
 21
365.235935
 31
0.0
  0
LINE
  5
235
330
1F
100
AcDbEntity
  8
LAYERGROUP-1
  6
CONTINUOUS
 62
     6
100
AcDbLine
 10
453.995645
 20
365.235935
 30
0.0
 11
452.840945
 21
367.235935
 31
0.0
  0
LINE
  5
236
330
1F
100
AcDbEntity
  8
LAYERGROUP-1
  6
CONTINUOUS
 62
     6
100
AcDbLine
 10
451.108894
 20
364.235935
 30
0.0
 11
449.954193
 21
362.235935
 31
0.0
  0
LINE
  5
237
330
1F
100
AcDbEntity
  8
LAYERGROUP-1
  6
CONTINUOUS
 62
     6
100
AcDbLine
 10
449.954193
 20
362.235935
 30
0.0
 11
451.108894
 21
360.235935
 31
0.0
  0
LINE
  5
238
330
1F
100
AcDbEntity
  8
LAYERGROUP-1
  6
CONTINUOUS
 62
     6
100
AcDbLine
 10
451.108894
 20
360.235935
 30
0.0
 11
452.263594
 21
362.235935
 31
0.0
  0
LINE
  5
239
330
1F
100
AcDbEntity
  8
LAYERGROUP-1
  6
CONTINUOUS
 62
     6
100
AcDbLine
 10
452.263594
 20
362.235935
 30
0.0
 11
451.108894
 21
364.235935
 31
0.0
  0
LINE
  5
23A
330
1F
100
AcDbEntity
  8
LAYERGROUP-1
  6
CONTINUOUS
 62
     6
100
AcDbLine
 10
449.376843
 20
361.235935
 30
0.0
 11
448.222143
 21
359.235935
 31
0.0
  0
LINE
  5
23B
330
1F
100
AcDbEntity
  8
LAYERGROUP-1
  6
CONTINUOUS
 62
     6
100
AcDbLine
 10
448.222143
 20
359.235935
 30
0.0
 11
449.376843
 21
357.235935
 31
0.0
  0
LINE
  5
23C
330
1F
100
AcDbEntity
  8
LAYERGROUP-1
  6
CONTINUOUS
 62
     6
100
AcDbLine
 10
449.376843
 20
357.235935
 30
0.0
 11
450.531544
 21
359.235935
 31
0.0
  0
LINE
  5
23D
330
1F
100
AcDbEntity
  8
LAYERGROUP-1
  6
CONTINUOUS
 62
     6
100
AcDbLine
 10
450.531544
 20
359.235935
 30
0.0
 11
449.376843
 21
361.235935
 31
0.0
  0
LINE
  5
23E
330
1F
100
AcDbEntity
  8
LAYERGROUP-1
  6
CONTINUOUS
 62
     6
100
AcDbLine
 10
446.446118
 20
360.3121
 30
0.0
 11
447.067442
 21
359.235935
 31
0.0
  0
LINE
  5
23F
330
1F
100
AcDbEntity
  8
LAYERGROUP-1
  6
CONTINUOUS
 62
     6
100
AcDbLine
 10
447.067442
 20
359.235935
 30
0.0
 11
446.446118
 21
358.15977
 31
0.0
  0
LINE
  5
240
330
1F
100
AcDbEntity
  8
LAYERGROUP-1
  6
CONTINUOUS
 62
     6
100
AcDbLine
 10
447.644792
 20
358.235935
 30
0.0
 11
446.490092
 21
356.235935
 31
0.0
  0
LINE
  5
241
330
1F
100
AcDbEntity
  8
LAYERGROUP-1
  6
CONTINUOUS
 62
     6
100
AcDbLine
 10
446.490092
 20
356.235935
 30
0.0
 11
447.644792
 21
354.235935
 31
0.0
  0
LINE
  5
242
330
1F
100
AcDbEntity
  8
LAYERGROUP-1
  6
CONTINUOUS
 62
     6
100
AcDbLine
 10
447.644792
 20
354.235935
 30
0.0
 11
448.799493
 21
356.235935
 31
0.0
  0
LINE
  5
243
330
1F
100
AcDbEntity
  8
LAYERGROUP-1
  6
CONTINUOUS
 62
     6
100
AcDbLine
 10
448.799493
 20
356.235935
 30
0.0
 11
447.644792
 21
358.235935
 31
0.0
  0
LINE
  5
244
330
1F
100
AcDbEntity
  8
LAYERGROUP-1
  6
CONTINUOUS
 62
     6
100
AcDbLine
 10
452.840945
 20
361.235935
 30
0.0
 11
451.686244
 21
359.235935
 31
0.0
  0
LINE
  5
245
330
1F
100
AcDbEntity
  8
LAYERGROUP-1
  6
CONTINUOUS
 62
     6
100
AcDbLine
 10
451.686244
 20
359.235935
 30
0.0
 11
452.840945
 21
357.235935
 31
0.0
  0
LINE
  5
246
330
1F
100
AcDbEntity
  8
LAYERGROUP-1
  6
CONTINUOUS
 62
     6
100
AcDbLine
 10
452.840945
 20
357.235935
 30
0.0
 11
453.995645
 21
359.235935
 31
0.0
  0
LINE
  5
247
330
1F
100
AcDbEntity
  8
LAYERGROUP-1
  6
CONTINUOUS
 62
     6
100
AcDbLine
 10
453.995645
 20
359.235935
 30
0.0
 11
452.840945
 21
361.235935
 31
0.0
  0
LINE
  5
248
330
1F
100
AcDbEntity
  8
LAYERGROUP-1
  6
CONTINUOUS
 62
     6
100
AcDbLine
 10
451.108894
 20
358.235935
 30
0.0
 11
449.954193
 21
356.235935
 31
0.0
  0
LINE
  5
249
330
1F
100
AcDbEntity
  8
LAYERGROUP-1
  6
CONTINUOUS
 62
     6
100
AcDbLine
 10
449.954193
 20
356.235935
 30
0.0
 11
451.108894
 21
354.235935
 31
0.0
  0
LINE
  5
24A
330
1F
100
AcDbEntity
  8
LAYERGROUP-1
  6
CONTINUOUS
 62
     6
100
AcDbLine
 10
451.108894
 20
354.235935
 30
0.0
 11
452.263594
 21
356.235935
 31
0.0
  0
LINE
  5
24B
330
1F
100
AcDbEntity
  8
LAYERGROUP-1
  6
CONTINUOUS
 62
     6
100
AcDbLine
 10
452.263594
 20
356.235935
 30
0.0
 11
451.108894
 21
358.235935
 31
0.0
  0
LINE
  5
24C
330
1F
100
AcDbEntity
  8
LAYERGROUP-1
  6
CONTINUOUS
 62
     6
100
AcDbLine
 10
456.305046
 20
367.235935
 30
0.0
 11
455.150346
 21
365.235935
 31
0.0
  0
LINE
  5
24D
330
1F
100
AcDbEntity
  8
LAYERGROUP-1
  6
CONTINUOUS
 62
     6
100
AcDbLine
 10
455.150346
 20
365.235935
 30
0.0
 11
456.305046
 21
363.235935
 31
0.0
  0
LINE
  5
24E
330
1F
100
AcDbEntity
  8
LAYERGROUP-1
  6
CONTINUOUS
 62
     6
100
AcDbLine
 10
456.305046
 20
363.235935
 30
0.0
 11
457.459747
 21
365.235935
 31
0.0
  0
LINE
  5
24F
330
1F
100
AcDbEntity
  8
LAYERGROUP-1
  6
CONTINUOUS
 62
     6
100
AcDbLine
 10
457.459747
 20
365.235935
 30
0.0
 11
456.305046
 21
367.235935
 31
0.0
  0
LINE
  5
250
330
1F
100
AcDbEntity
  8
LAYERGROUP-1
  6
CONTINUOUS
 62
     6
100
AcDbLine
 10
454.572996
 20
364.235935
 30
0.0
 11
453.418295
 21
362.235935
 31
0.0
  0
LINE
  5
251
330
1F
100
AcDbEntity
  8
LAYERGROUP-1
  6
CONTINUOUS
 62
     6
100
AcDbLine
 10
453.418295
 20
362.235935
 30
0.0
 11
454.572996
 21
360.235935
 31
0.0
  0
LINE
  5
252
330
1F
100
AcDbEntity
  8
LAYERGROUP-1
  6
CONTINUOUS
 62
     6
100
AcDbLine
 10
454.572996
 20
360.235935
 30
0.0
 11
455.727696
 21
362.235935
 31
0.0
  0
LINE
  5
253
330
1F
100
AcDbEntity
  8
LAYERGROUP-1
  6
CONTINUOUS
 62
     6
100
AcDbLine
 10
455.727696
 20
362.235935
 30
0.0
 11
454.572996
 21
364.235935
 31
0.0
  0
LINE
  5
254
330
1F
100
AcDbEntity
  8
LAYERGROUP-1
  6
CONTINUOUS
 62
     6
100
AcDbLine
 10
459.769148
 20
367.235935
 30
0.0
 11
458.614447
 21
365.235935
 31
0.0
  0
LINE
  5
255
330
1F
100
AcDbEntity
  8
LAYERGROUP-1
  6
CONTINUOUS
 62
     6
100
AcDbLine
 10
458.614447
 20
365.235935
 30
0.0
 11
459.769148
 21
363.235935
 31
0.0
  0
LINE
  5
256
330
1F
100
AcDbEntity
  8
LAYERGROUP-1
  6
CONTINUOUS
 62
     6
100
AcDbLine
 10
459.769148
 20
363.235935
 30
0.0
 11
460.446118
 21
364.408481
 31
0.0
  0
LINE
  5
257
330
1F
100
AcDbEntity
  8
LAYERGROUP-1
  6
CONTINUOUS
 62
     6
100
AcDbLine
 10
460.446118
 20
366.063388
 30
0.0
 11
459.769148
 21
367.235935
 31
0.0
  0
LINE
  5
258
330
1F
100
AcDbEntity
  8
LAYERGROUP-1
  6
CONTINUOUS
 62
     6
100
AcDbLine
 10
460.446118
 20
362.063388
 30
0.0
 11
460.346498
 21
362.235935
 31
0.0
  0
LINE
  5
259
330
1F
100
AcDbEntity
  8
LAYERGROUP-1
  6
CONTINUOUS
 62
     6
100
AcDbLine
 10
459.769148
 20
361.235935
 30
0.0
 11
460.446118
 21
360.063388
 31
0.0
  0
LINE
  5
25A
330
1F
100
AcDbEntity
  8
LAYERGROUP-1
  6
CONTINUOUS
 62
     6
100
AcDbLine
 10
459.769148
 20
361.235935
 30
0.0
 11
458.614447
 21
359.235935
 31
0.0
  0
LINE
  5
25B
330
1F
100
AcDbEntity
  8
LAYERGROUP-1
  6
CONTINUOUS
 62
     6
100
AcDbLine
 10
458.614447
 20
359.235935
 30
0.0
 11
459.769148
 21
357.235935
 31
0.0
  0
LINE
  5
25C
330
1F
100
AcDbEntity
  8
LAYERGROUP-1
  6
CONTINUOUS
 62
     6
100
AcDbLine
 10
459.769148
 20
357.235935
 30
0.0
 11
460.446118
 21
358.408481
 31
0.0
  0
LINE
  5
25D
330
1F
100
AcDbEntity
  8
LAYERGROUP-1
  6
CONTINUOUS
 62
     6
100
AcDbLine
 10
459.191798
 20
362.235935
 30
0.0
 11
458.037097
 21
360.235935
 31
0.0
  0
LINE
  5
25E
330
1F
100
AcDbEntity
  8
LAYERGROUP-1
  6
CONTINUOUS
 62
     6
100
AcDbLine
 10
458.037097
 20
360.235935
 30
0.0
 11
456.882397
 21
362.235935
 31
0.0
  0
LINE
  5
25F
330
1F
100
AcDbEntity
  8
LAYERGROUP-1
  6
CONTINUOUS
 62
     6
100
AcDbLine
 10
456.882397
 20
362.235935
 30
0.0
 11
458.037097
 21
364.235935
 31
0.0
  0
LINE
  5
260
330
1F
100
AcDbEntity
  8
LAYERGROUP-1
  6
CONTINUOUS
 62
     6
100
AcDbLine
 10
458.037097
 20
364.235935
 30
0.0
 11
459.191798
 21
362.235935
 31
0.0
  0
LINE
  5
261
330
1F
100
AcDbEntity
  8
LAYERGROUP-1
  6
CONTINUOUS
 62
     6
100
AcDbLine
 10
456.305046
 20
361.235935
 30
0.0
 11
455.150346
 21
359.235935
 31
0.0
  0
LINE
  5
262
330
1F
100
AcDbEntity
  8
LAYERGROUP-1
  6
CONTINUOUS
 62
     6
100
AcDbLine
 10
455.150346
 20
359.235935
 30
0.0
 11
456.305046
 21
357.235935
 31
0.0
  0
LINE
  5
263
330
1F
100
AcDbEntity
  8
LAYERGROUP-1
  6
CONTINUOUS
 62
     6
100
AcDbLine
 10
456.305046
 20
357.235935
 30
0.0
 11
457.459747
 21
359.235935
 31
0.0
  0
LINE
  5
264
330
1F
100
AcDbEntity
  8
LAYERGROUP-1
  6
CONTINUOUS
 62
     6
100
AcDbLine
 10
457.459747
 20
359.235935
 30
0.0
 11
456.305046
 21
361.235935
 31
0.0
  0
LINE
  5
265
330
1F
100
AcDbEntity
  8
LAYERGROUP-1
  6
CONTINUOUS
 62
     6
100
AcDbLine
 10
458.037097
 20
358.235935
 30
0.0
 11
456.882397
 21
356.235935
 31
0.0
  0
LINE
  5
266
330
1F
100
AcDbEntity
  8
LAYERGROUP-1
  6
CONTINUOUS
 62
     6
100
AcDbLine
 10
456.882397
 20
356.235935
 30
0.0
 11
458.037097
 21
354.235935
 31
0.0
  0
LINE
  5
267
330
1F
100
AcDbEntity
  8
LAYERGROUP-1
  6
CONTINUOUS
 62
     6
100
AcDbLine
 10
458.037097
 20
354.235935
 30
0.0
 11
459.191798
 21
356.235935
 31
0.0
  0
LINE
  5
268
330
1F
100
AcDbEntity
  8
LAYERGROUP-1
  6
CONTINUOUS
 62
     6
100
AcDbLine
 10
459.191798
 20
356.235935
 30
0.0
 11
458.037097
 21
358.235935
 31
0.0
  0
LINE
  5
269
330
1F
100
AcDbEntity
  8
LAYERGROUP-1
  6
CONTINUOUS
 62
     6
100
AcDbLine
 10
454.572996
 20
358.235935
 30
0.0
 11
453.418295
 21
356.235935
 31
0.0
  0
LINE
  5
26A
330
1F
100
AcDbEntity
  8
LAYERGROUP-1
  6
CONTINUOUS
 62
     6
100
AcDbLine
 10
453.418295
 20
356.235935
 30
0.0
 11
454.572996
 21
354.235935
 31
0.0
  0
LINE
  5
26B
330
1F
100
AcDbEntity
  8
LAYERGROUP-1
  6
CONTINUOUS
 62
     6
100
AcDbLine
 10
454.572996
 20
354.235935
 30
0.0
 11
455.727696
 21
356.235935
 31
0.0
  0
LINE
  5
26C
330
1F
100
AcDbEntity
  8
LAYERGROUP-1
  6
CONTINUOUS
 62
     6
100
AcDbLine
 10
455.727696
 20
356.235935
 30
0.0
 11
454.572996
 21
358.235935
 31
0.0
  0
LINE
  5
26D
330
1F
100
AcDbEntity
  8
LAYERGROUP-1
  6
CONTINUOUS
 62
     6
100
AcDbLine
 10
459.769148
 20
355.235935
 30
0.0
 11
458.614447
 21
353.235935
 31
0.0
  0
LINE
  5
26E
330
1F
100
AcDbEntity
  8
LAYERGROUP-1
  6
CONTINUOUS
 62
     6
100
AcDbLine
 10
458.614447
 20
353.235935
 30
0.0
 11
459.769148
 21
351.235935
 31
0.0
  0
LINE
  5
26F
330
1F
100
AcDbEntity
  8
LAYERGROUP-1
  6
CONTINUOUS
 62
     6
100
AcDbLine
 10
459.769148
 20
351.235935
 30
0.0
 11
460.446118
 21
352.408481
 31
0.0
  0
LINE
  5
270
330
1F
100
AcDbEntity
  8
LAYERGROUP-1
  6
CONTINUOUS
 62
     6
100
AcDbLine
 10
459.769148
 20
355.235935
 30
0.0
 11
460.446118
 21
354.063388
 31
0.0
  0
LINE
  5
271
330
1F
100
AcDbEntity
  8
LAYERGROUP-1
  6
CONTINUOUS
 62
     6
100
AcDbLine
 10
458.037097
 20
352.235935
 30
0.0
 11
458.998461
 21
350.570804
 31
0.0
  0
LINE
  5
272
330
1F
100
AcDbEntity
  8
LAYERGROUP-1
  6
CONTINUOUS
 62
     6
100
AcDbLine
 10
458.037097
 20
352.235935
 30
0.0
 11
456.882397
 21
350.235935
 31
0.0
  0
LINE
  5
273
330
1F
100
AcDbEntity
  8
LAYERGROUP-1
  6
CONTINUOUS
 62
     6
100
AcDbLine
 10
456.882397
 20
350.235935
 30
0.0
 11
457.231212
 21
349.631769
 31
0.0
  0
LINE
  5
274
330
1F
100
AcDbEntity
  8
LAYERGROUP-1
  6
CONTINUOUS
 62
     6
100
AcDbLine
 10
455.727696
 20
350.235935
 30
0.0
 11
455.021403
 21
349.0126
 31
0.0
  0
LINE
  5
275
330
1F
100
AcDbEntity
  8
LAYERGROUP-1
  6
CONTINUOUS
 62
     6
100
AcDbLine
 10
454.18106
 20
348.914788
 30
0.0
 11
453.418295
 21
350.235935
 31
0.0
  0
LINE
  5
276
330
1F
100
AcDbEntity
  8
LAYERGROUP-1
  6
CONTINUOUS
 62
     6
100
AcDbLine
 10
453.418295
 20
350.235935
 30
0.0
 11
454.572996
 21
352.235935
 31
0.0
  0
LINE
  5
277
330
1F
100
AcDbEntity
  8
LAYERGROUP-1
  6
CONTINUOUS
 62
     6
100
AcDbLine
 10
454.572996
 20
352.235935
 30
0.0
 11
455.727696
 21
350.235935
 31
0.0
  0
LINE
  5
278
330
1F
100
AcDbEntity
  8
LAYERGROUP-1
  6
CONTINUOUS
 62
     6
100
AcDbLine
 10
456.305046
 20
355.235935
 30
0.0
 11
455.150346
 21
353.235935
 31
0.0
  0
LINE
  5
279
330
1F
100
AcDbEntity
  8
LAYERGROUP-1
  6
CONTINUOUS
 62
     6
100
AcDbLine
 10
455.150346
 20
353.235935
 30
0.0
 11
456.305046
 21
351.235935
 31
0.0
  0
LINE
  5
27A
330
1F
100
AcDbEntity
  8
LAYERGROUP-1
  6
CONTINUOUS
 62
     6
100
AcDbLine
 10
456.305046
 20
351.235935
 30
0.0
 11
457.459747
 21
353.235935
 31
0.0
  0
LINE
  5
27B
330
1F
100
AcDbEntity
  8
LAYERGROUP-1
  6
CONTINUOUS
 62
     6
100
AcDbLine
 10
457.459747
 20
353.235935
 30
0.0
 11
456.305046
 21
355.235935
 31
0.0
  0
LINE
  5
27C
330
1F
100
AcDbEntity
  8
LAYERGROUP-1
  6
CONTINUOUS
 62
     6
100
AcDbLine
 10
452.840945
 20
355.235935
 30
0.0
 11
451.686244
 21
353.235935
 31
0.0
  0
LINE
  5
27D
330
1F
100
AcDbEntity
  8
LAYERGROUP-1
  6
CONTINUOUS
 62
     6
100
AcDbLine
 10
451.686244
 20
353.235935
 30
0.0
 11
452.840945
 21
351.235935
 31
0.0
  0
LINE
  5
27E
330
1F
100
AcDbEntity
  8
LAYERGROUP-1
  6
CONTINUOUS
 62
     6
100
AcDbLine
 10
452.840945
 20
351.235935
 30
0.0
 11
453.995645
 21
353.235935
 31
0.0
  0
LINE
  5
27F
330
1F
100
AcDbEntity
  8
LAYERGROUP-1
  6
CONTINUOUS
 62
     6
100
AcDbLine
 10
453.995645
 20
353.235935
 30
0.0
 11
452.840945
 21
355.235935
 31
0.0
  0
LINE
  5
280
330
1F
100
AcDbEntity
  8
LAYERGROUP-1
  6
CONTINUOUS
 62
     6
100
AcDbLine
 10
449.376843
 20
355.235935
 30
0.0
 11
448.222143
 21
353.235935
 31
0.0
  0
LINE
  5
281
330
1F
100
AcDbEntity
  8
LAYERGROUP-1
  6
CONTINUOUS
 62
     6
100
AcDbLine
 10
448.222143
 20
353.235935
 30
0.0
 11
449.376843
 21
351.235935
 31
0.0
  0
LINE
  5
282
330
1F
100
AcDbEntity
  8
LAYERGROUP-1
  6
CONTINUOUS
 62
     6
100
AcDbLine
 10
449.376843
 20
351.235935
 30
0.0
 11
450.531544
 21
353.235935
 31
0.0
  0
LINE
  5
283
330
1F
100
AcDbEntity
  8
LAYERGROUP-1
  6
CONTINUOUS
 62
     6
100
AcDbLine
 10
450.531544
 20
353.235935
 30
0.0
 11
449.376843
 21
355.235935
 31
0.0
  0
LINE
  5
284
330
1F
100
AcDbEntity
  8
LAYERGROUP-1
  6
CONTINUOUS
 62
     6
100
AcDbLine
 10
451.108894
 20
352.235935
 30
0.0
 11
449.954193
 21
350.235935
 31
0.0
  0
LINE
  5
285
330
1F
100
AcDbEntity
  8
LAYERGROUP-1
  6
CONTINUOUS
 62
     6
100
AcDbLine
 10
449.954193
 20
350.235935
 30
0.0
 11
450.471167
 21
349.340511
 31
0.0
  0
LINE
  5
286
330
1F
100
AcDbEntity
  8
LAYERGROUP-1
  6
CONTINUOUS
 62
     6
100
AcDbLine
 10
451.108894
 20
352.235935
 30
0.0
 11
452.263594
 21
350.235935
 31
0.0
  0
LINE
  5
287
330
1F
100
AcDbEntity
  8
LAYERGROUP-1
  6
CONTINUOUS
 62
     6
100
AcDbLine
 10
452.263594
 20
350.235935
 30
0.0
 11
451.58598
 21
349.062273
 31
0.0
  0
LINE
  5
288
330
1F
100
AcDbEntity
  8
LAYERGROUP-1
  6
CONTINUOUS
 62
     6
100
AcDbLine
 10
447.644792
 20
352.235935
 30
0.0
 11
447.048065
 21
351.202373
 31
0.0
  0
LINE
  5
289
330
1F
100
AcDbEntity
  8
LAYERGROUP-1
  6
CONTINUOUS
 62
     6
100
AcDbLine
 10
446.446118
 20
354.3121
 30
0.0
 11
447.067442
 21
353.235935
 31
0.0
  0
LINE
  5
28A
330
1F
100
AcDbEntity
  8
LAYERGROUP-1
  6
CONTINUOUS
 62
     6
100
AcDbLine
 10
447.067442
 20
353.235935
 30
0.0
 11
446.446118
 21
352.15977
 31
0.0
  0
LINE
  5
28B
330
1F
100
AcDbEntity
  8
LAYERGROUP-1
  6
CONTINUOUS
 62
     6
100
AcDbLine
 10
447.644792
 20
352.235935
 30
0.0
 11
448.799493
 21
350.235935
 31
0.0
  0
LINE
  5
28C
330
1F
100
AcDbEntity
  8
LAYERGROUP-1
  6
CONTINUOUS
 62
     6
100
AcDbLine
 10
448.799493
 20
350.235935
 30
0.0
 11
448.70977
 21
350.08053
 31
0.0
  0
LINE
  5
28D
330
1F
100
AcDbEntity
  8
LAYERGROUP-1
  6
CONTINUOUS
 62
     6
100
AcDbLine
 10
452.840945
 20
349.235935
 30
0.0
 11
452.639917
 21
348.887744
 31
0.0
  0
LINE
  5
28E
330
1F
100
AcDbEntity
  8
LAYERGROUP-1
  6
CONTINUOUS
 62
     6
100
AcDbLine
 10
452.840945
 20
349.235935
 30
0.0
 11
453.041973
 21
348.887744
 31
0.0
  0
LINE
  5
28F
330
1F
100
AcDbEntity
  8
LAYERGROUP-1
  6
CONTINUOUS
 62
     6
100
AcDbLine
 10
448.392483
 20
384.187744
 30
0.0
 11
458.499753
 21
384.187744
 31
0.0
  0
ARC
  5
290
330
1F
100
AcDbEntity
  8
LAYERGROUP-1
  6
CONTINUOUS
 62
     3
100
AcDbCircle
 10
520.539994
 20
407.215713
 30
0.0
 40
7.0
100
AcDbArc
 50
273.0
 51
349.048229
  0
ARC
  5
291
330
1F
100
AcDbEntity
  8
LAYERGROUP-1
  6
CONTINUOUS
 62
     3
100
AcDbCircle
 10
520.539994
 20
407.215713
 30
0.0
 40
17.0
100
AcDbArc
 50
273.0
 51
355.513273
  0
LINE
  5
292
330
1F
100
AcDbEntity
  8
LAYERGROUP-1
  6
CONTINUOUS
 62
     3
100
AcDbLine
 10
464.556407
 20
397.272131
 30
0.0
 11
520.906346
 21
400.225306
 31
0.0
  0
LINE
  5
293
330
1F
100
AcDbEntity
  8
LAYERGROUP-1
  6
CONTINUOUS
 62
     3
100
AcDbLine
 10
463.909981
 20
387.22453
 30
0.0
 11
521.429705
 21
390.239011
 31
0.0
  0
ARC
  5
294
330
1F
100
AcDbEntity
  8
LAYERGROUP-1
  6
CONTINUOUS
 62
     3
100
AcDbCircle
 10
464.276333
 20
380.234123
 30
0.0
 40
7.0
100
AcDbArc
 50
93.0
 51
145.611385
  0
ARC
  5
295
330
1F
100
AcDbEntity
  8
LAYERGROUP-1
  6
CONTINUOUS
 62
     3
100
AcDbCircle
 10
464.934565
 20
380.268619
 30
0.0
 40
17.0
100
AcDbArc
 50
93.0
 51
166.671325
  0
ARC
  5
296
330
1F
100
AcDbEntity
  8
LAYERGROUP-1
  6
CENTER
 62
     6
100
AcDbCircle
 10
520.539994
 20
407.215713
 30
0.0
 40
12.0
100
AcDbArc
 50
273.0
 51
360.0
  0
ARC
  5
297
330
1F
100
AcDbEntity
  8
LAYERGROUP-1
  6
CENTER
 62
     6
100
AcDbCircle
 10
464.785391
 20
380.260801
 30
0.0
 40
12.0
100
AcDbArc
 50
93.0
 51
160.898344
  0
LINE
  5
298
330
1F
100
AcDbEntity
  8
LAYERGROUP-1
  6
CENTER
 62
     6
100
AcDbLine
 10
464.15736
 20
392.244356
 30
0.0
 11
521.168026
 21
395.232158
 31
0.0
  0
LINE
  5
299
330
1F
100
AcDbEntity
  8
LAYERGROUP-1
  6
CONTINUOUS
 62
     7
100
AcDbLine
 10
604.629489
 20
423.385834
 30
0.0
 11
624.571604
 21
423.385834
 31
0.0
  0
ARC
  5
29A
330
1F
100
AcDbEntity
  8
0-1
  6
CONTINUOUS
 62
     3
100
AcDbCircle
 10
537.539994
 20
292.229563
 30
0.0
 40
0.5
100
AcDbArc
 50
270.0
 51
360.0
  0
ARC
  5
29B
330
1F
100
AcDbEntity
  8
0-1
  6
CONTINUOUS
 62
     3
100
AcDbCircle
 10
532.764032
 20
294.729563
 30
0.0
 40
5.0
100
AcDbArc
 50
23.969483
 51
92.56815
  0
LINE
  5
29C
330
1F
100
AcDbEntity
  8
0-1
  6
CONTINUOUS
 62
     3
100
AcDbLine
 10
538.039994
 20
292.229563
 30
0.0
 11
538.039994
 21
293.429563
 31
0.0
  0
LINE
  5
29D
330
1F
100
AcDbEntity
  8
0-1
  6
CONTINUOUS
 62
     3
100
AcDbLine
 10
537.539994
 20
291.729563
 30
0.0
 11
537.237312
 21
291.729563
 31
0.0
  0
ARC
  5
29E
330
1F
100
AcDbEntity
  8
0-1
  6
CONTINUOUS
 62
     3
100
AcDbCircle
 10
529.839994
 20
293.429563
 30
0.0
 40
8.200000000000046
100
AcDbArc
 50
0.0
 51
23.969482
  0
ARC
  5
29F
330
1F
100
AcDbEntity
  8
0-1
  6
CONTINUOUS
 62
     3
100
AcDbCircle
 10
530.839994
 20
293.429563
 30
0.0
 40
5.200000000000046
100
AcDbArc
 50
289.200533
 51
320.273537
  0
ARC
  5
2A0
330
1F
100
AcDbEntity
  8
0-1
  6
CONTINUOUS
 62
     3
100
AcDbCircle
 10
532.714584
 20
288.046635
 30
0.0
 40
0.5
100
AcDbArc
 50
109.200524
 51
196.019776
  0
LINE
  5
2A1
330
1F
100
AcDbEntity
  8
0-1
  6
CONTINUOUS
 62
     3
100
AcDbLine
 10
533.03185
 20
288.935593
 30
0.0
 11
457.968967
 21
252.324979
 31
0.0
  0
ARC
  5
2A2
330
1F
100
AcDbEntity
  8
0-1
  6
CONTINUOUS
 62
     3
100
AcDbCircle
 10
530.839994
 20
293.429563
 30
0.0
 40
5.0
100
AcDbArc
 50
-64.0
 51
116.0
  0
LINE
  5
2A3
330
1F
100
AcDbEntity
  8
0-1
  6
CONTINUOUS
 62
     3
100
AcDbLine
 10
535.654296
 20
294.779563
 30
0.0
 11
537.754296
 21
294.779563
 31
0.0
  0
LINE
  5
2A4
330
1F
100
AcDbEntity
  8
0-1
  6
CONTINUOUS
 62
     3
100
AcDbLine
 10
535.654296
 20
292.079563
 30
0.0
 11
537.754296
 21
292.079563
 31
0.0
  0
ARC
  5
2A5
330
1F
100
AcDbEntity
  8
0-1
  6
CONTINUOUS
 62
     3
100
AcDbCircle
 10
532.939994
 20
293.429563
 30
0.0
 40
5.0
100
AcDbArc
 50
-15.664267
 51
15.664267
  0
LINE
  5
2A6
330
1F
100
AcDbEntity
  8
LAYERGROUP-1
  6
CONTINUOUS
 62
     3
100
AcDbLine
 10
533.839994
 20
289.429563
 30
0.0
 11
537.754296
 21
292.079563
 31
0.0
  0
LINE
  5
2A7
330
1F
100
AcDbEntity
  8
LAYERGROUP-1
  6
CONTINUOUS
 62
     3
100
AcDbLine
 10
533.839994
 20
297.429563
 30
0.0
 11
537.754296
 21
294.779563
 31
0.0
  0
LINE
  5
2A8
330
1F
100
AcDbEntity
  8
0-1
  6
CONTINUOUS
 62
     3
100
AcDbLine
 10
528.648138
 20
297.923534
 30
0.0
 11
449.554263
 21
259.346873
 31
0.0
  0
LINE
  5
2A9
330
1F
100
AcDbEntity
  8
LAYERGROUP-1
  6
CONTINUOUS
 62
     3
100
AcDbLine
 10
445.760055
 20
252.007316
 30
0.0
 11
428.698234
 21
178.104449
 31
0.0
  0
DIMENSION
  5
2AA
330
1F
100
AcDbEntity
  8
LAYERGROUP-1
100
AcDbDimension
  2
*D27
 10
338.071929
 20
365.793522
 30
0.0
 11
269.572876
 21
366.793518
 31
0.0
 70
    32
  3
FXDIMINFO
100
AcDbAlignedDimension
 13
201.073839
 23
355.793522
 33
0.0
 14
338.071929
 24
267.416861
 34
0.0
 50
180.0
100
AcDbRotatedDimension
1001
ACAD
1000
DSTYLE
1002
{
1070
     7
1000
FXTIP_ARROW_E
1070
     6
1000
FXTIP_ARROW_S
1070
   173
1070
     1
1002
}
  0
ARC
  5
2B4
330
1F
100
AcDbEntity
  8
GR1-1
  6
CONTINUOUS
 62
     3
100
AcDbCircle
 10
201.073839
 20
328.973563
 30
0.0
 40
5.556
100
AcDbArc
 50
43.777894
 51
136.222106
  0
ARC
  5
2B5
330
1F
100
AcDbEntity
  8
GR1-1
  6
CONTINUOUS
 62
     3
100
AcDbCircle
 10
212.135002
 20
328.973563
 30
0.0
 40
5.556
100
AcDbArc
 50
43.777894
 51
136.222106
  0
ARC
  5
2B6
330
1F
100
AcDbEntity
  8
GR1-1
  6
CONTINUOUS
 62
     3
100
AcDbCircle
 10
222.792254
 20
328.973563
 30
0.0
 40
5.556
100
AcDbArc
 50
43.777894
 51
136.222106
  0
ARC
  5
2B7
330
1F
100
AcDbEntity
  8
GR1-1
  6
CONTINUOUS
 62
     3
100
AcDbCircle
 10
232.656432
 20
328.973563
 30
0.0
 40
5.556
100
AcDbArc
 50
43.777894
 51
136.222106
  0
ARC
  5
2B8
330
1F
100
AcDbEntity
  8
GR1-1
  6
CONTINUOUS
 62
     3
100
AcDbCircle
 10
241.367336
 20
328.973563
 30
0.0
 40
5.556
100
AcDbArc
 50
43.777894
 51
136.222106
  0
ARC
  5
2B9
330
1F
100
AcDbEntity
  8
GR1-1
  6
CONTINUOUS
 62
     3
100
AcDbCircle
 10
248.606876
 20
328.973563
 30
0.0
 40
5.556
100
AcDbArc
 50
43.777894
 51
130.655283
  0
ARC
  5
2BA
330
1F
100
AcDbEntity
  8
GR1-1
  6
CONTINUOUS
 62
     3
100
AcDbCircle
 10
254.110693
 20
328.973563
 30
0.0
 40
5.556
100
AcDbArc
 50
43.777894
 51
119.68979
  0
ARC
  5
2BB
330
1F
100
AcDbEntity
  8
GR1-1
  6
CONTINUOUS
 62
     3
100
AcDbCircle
 10
257.677808
 20
328.973563
 30
0.0
 40
5.556
100
AcDbArc
 50
43.777894
 51
108.724297
  0
ARC
  5
2BC
330
1F
100
AcDbEntity
  8
GR1-1
  6
CONTINUOUS
 62
     3
100
AcDbCircle
 10
259.173759
 20
328.973563
 30
0.0
 40
5.556
100
AcDbArc
 50
43.777894
 51
97.736928
  0
ARC
  5
2BD
330
1F
100
AcDbEntity
  8
GR1-1
  6
CONTINUOUS
 62
     3
100
AcDbCircle
 10
190.012676
 20
328.973563
 30
0.0
 40
5.556
100
AcDbArc
 50
43.777894
 51
136.222106
  0
ARC
  5
2BE
330
1F
100
AcDbEntity
  8
GR1-1
  6
CONTINUOUS
 62
     3
100
AcDbCircle
 10
179.355425
 20
328.973563
 30
0.0
 40
5.556
100
AcDbArc
 50
43.777894
 51
136.222106
  0
ARC
  5
2BF
330
1F
100
AcDbEntity
  8
GR1-1
  6
CONTINUOUS
 62
     3
100
AcDbCircle
 10
169.491246
 20
328.973563
 30
0.0
 40
5.556
100
AcDbArc
 50
43.777894
 51
136.222106
  0
ARC
  5
2C0
330
1F
100
AcDbEntity
  8
GR1-1
  6
CONTINUOUS
 62
     3
100
AcDbCircle
 10
160.780342
 20
328.973563
 30
0.0
 40
5.556
100
AcDbArc
 50
43.777894
 51
136.222106
  0
ARC
  5
2C1
330
1F
100
AcDbEntity
  8
GR1-1
  6
CONTINUOUS
 62
     3
100
AcDbCircle
 10
153.540802
 20
328.973563
 30
0.0
 40
5.556
100
AcDbArc
 50
49.344717
 51
136.222106
  0
ARC
  5
2C2
330
1F
100
AcDbEntity
  8
GR1-1
  6
CONTINUOUS
 62
     3
100
AcDbCircle
 10
148.036985
 20
328.973563
 30
0.0
 40
5.556
100
AcDbArc
 50
60.31021
 51
136.222106
  0
ARC
  5
2C3
330
1F
100
AcDbEntity
  8
GR1-1
  6
CONTINUOUS
 62
     3
100
AcDbCircle
 10
144.46987
 20
328.973563
 30
0.0
 40
5.556
100
AcDbArc
 50
71.275703
 51
136.222106
  0
ARC
  5
2C4
330
1F
100
AcDbEntity
  8
GR1-1
  6
CONTINUOUS
 62
     3
100
AcDbCircle
 10
142.973919
 20
328.973563
 30
0.0
 40
5.556
100
AcDbArc
 50
82.263072
 51
136.222106
  0
ARC
  5
2C5
330
1F
100
AcDbEntity
  8
LAYERGROUP-1
  6
CONTINUOUS
 62
     3
100
AcDbCircle
 10
473.309994
 20
328.417563
 30
0.0
 40
8.199999999999999
100
AcDbArc
 50
180.0
 51
270.0
  0
LINE
  5
2C6
330
1F
100
AcDbEntity
  8
LAYERGROUP-1
  6
CONTINUOUS
 62
     3
100
AcDbLine
 10
465.109994
 20
332.817563
 30
0.0
 11
465.109994
 21
328.417563
 31
0.0
  0
ARC
  5
2C7
330
1F
100
AcDbEntity
  8
GR1-1
  6
CONTINUOUS
 62
     3
100
AcDbCircle
 10
466.827655
 20
342.529563
 30
0.0
 40
8.0
100
AcDbArc
 50
204.361978
 51
270.0
  0
LINE
  5
2C8
330
1F
100
AcDbEntity
  8
GR1-1
  6
CONTINUOUS
 62
     3
100
AcDbLine
 10
452.539994
 20
339.229563
 30
0.0
 11
452.539994
 21
343.229563
 31
0.0
  0
LINE
  5
2C9
330
1F
100
AcDbEntity
  8
0-1
  6
CONTINUOUS
 62
     3
100
AcDbLine
 10
532.764032
 20
299.729563
 30
0.0
 11
529.503755
 21
299.729563
 31
0.0
  0
ARC
  5
2CA
330
1F
100
AcDbEntity
  8
0-1
  6
CONTINUOUS
 62
     3
100
AcDbCircle
 10
528.621152
 20
298.679967
 30
0.0
 40
0.5
100
AcDbArc
 50
-67.090882
 51
16.019761
  0
LINE
  5
2CB
330
1F
100
AcDbEntity
  8
0-1
  6
CONTINUOUS
 62
     3
100
AcDbLine
 10
532.710823
 20
286.247935
 30
0.0
 11
532.234001
 21
287.908651
 31
0.0
  0
ARC
  5
2CC
330
1F
100
AcDbEntity
  8
0-1
  6
CONTINUOUS
 62
     3
100
AcDbCircle
 10
529.839994
 20
293.429563
 30
0.0
 40
8.200000000000046
100
AcDbArc
 50
247.545606
 51
288.084638
  0
ARC
  5
2CD
330
1F
100
AcDbEntity
  8
0-1
  6
CONTINUOUS
 62
     3
100
AcDbCircle
 10
529.503755
 20
299.229563
 30
0.0
 40
0.5
100
AcDbArc
 50
90.0
 51
196.019776
  0
ARC
  5
2CE
330
1F
100
AcDbEntity
  8
0-1
  6
CONTINUOUS
 62
     3
100
AcDbCircle
 10
530.839994
 20
293.429563
 30
0.0
 40
5.200000000000046
100
AcDbArc
 50
112.909121
 51
131.942369
  0
ARC
  5
2CF
330
1F
100
AcDbEntity
  8
0-1
  6
CONTINUOUS
 62
     3
100
AcDbCircle
 10
532.23024
 20
286.109951
 30
0.0
 40
0.5
100
AcDbArc
 50
-71.915353
 51
16.019762
  0
LINE
  5
2D0
330
1F
100
AcDbEntity
  8
0-1
  6
CONTINUOUS
 62
     3
100
AcDbLine
 10
529.101735
 20
298.817951
 30
0.0
 11
529.023171
 21
299.091579
 31
0.0
  0
LINE
  5
2D1
330
1F
100
AcDbEntity
  8
GR1-1
  6
CONTINUOUS
 62
     3
100
AcDbLine
 10
467.239994
 20
300.616315
 30
0.0
 11
472.239994
 21
303.503066
 31
0.0
  0
LINE
  5
2D2
330
1F
100
AcDbEntity
  8
GR1-1
  6
CONTINUOUS
 62
     3
100
AcDbLine
 10
472.239994
 20
303.503066
 30
0.0
 11
477.239994
 21
300.616315
 31
0.0
  0
LINE
  5
2D3
330
1F
100
AcDbEntity
  8
GR1-1
  6
CONTINUOUS
 62
     3
100
AcDbLine
 10
477.239994
 20
300.616315
 30
0.0
 11
477.239994
 21
294.842812
 31
0.0
  0
LINE
  5
2D4
330
1F
100
AcDbEntity
  8
GR1-1
  6
CONTINUOUS
 62
     3
100
AcDbLine
 10
477.239994
 20
294.842812
 30
0.0
 11
472.239994
 21
291.956061
 31
0.0
  0
LINE
  5
2D5
330
1F
100
AcDbEntity
  8
GR1-1
  6
CONTINUOUS
 62
     3
100
AcDbLine
 10
472.239994
 20
291.956061
 30
0.0
 11
467.239994
 21
294.842812
 31
0.0
  0
LINE
  5
2D6
330
1F
100
AcDbEntity
  8
GR1-1
  6
CONTINUOUS
 62
     3
100
AcDbLine
 10
467.239994
 20
294.842812
 30
0.0
 11
467.239994
 21
300.616315
 31
0.0
  0
CIRCLE
  5
2D7
330
1F
100
AcDbEntity
  8
GR1-1
  6
CONTINUOUS
 62
     6
100
AcDbCircle
 10
472.239994
 20
297.729563
 30
0.0
 40
4.5
  0
ARC
  5
2D8
330
1F
100
AcDbEntity
  8
GR1-1
  6
CONTINUOUS
 62
     3
100
AcDbCircle
 10
532.539994
 20
328.973563
 30
0.0
 40
5.556
100
AcDbArc
 50
43.777894
 51
136.222106
  0
ARC
  5
2D9
330
1F
100
AcDbEntity
  8
GR1-1
  6
CONTINUOUS
 62
     3
100
AcDbCircle
 10
543.601157
 20
328.973563
 30
0.0
 40
5.556
100
AcDbArc
 50
43.777894
 51
136.222106
  0
ARC
  5
2DA
330
1F
100
AcDbEntity
  8
GR1-1
  6
CONTINUOUS
 62
     3
100
AcDbCircle
 10
554.258408
 20
328.973563
 30
0.0
 40
5.556
100
AcDbArc
 50
43.777894
 51
136.222106
  0
ARC
  5
2DB
330
1F
100
AcDbEntity
  8
GR1-1
  6
CONTINUOUS
 62
     3
100
AcDbCircle
 10
564.122587
 20
328.973563
 30
0.0
 40
5.556
100
AcDbArc
 50
43.777894
 51
136.222106
  0
ARC
  5
2DC
330
1F
100
AcDbEntity
  8
GR1-1
  6
CONTINUOUS
 62
     3
100
AcDbCircle
 10
572.833491
 20
328.973563
 30
0.0
 40
5.556
100
AcDbArc
 50
43.777894
 51
136.222106
  0
ARC
  5
2DD
330
1F
100
AcDbEntity
  8
GR1-1
  6
CONTINUOUS
 62
     3
100
AcDbCircle
 10
580.073031
 20
328.973563
 30
0.0
 40
5.556
100
AcDbArc
 50
43.777894
 51
130.655283
  0
ARC
  5
2DE
330
1F
100
AcDbEntity
  8
GR1-1
  6
CONTINUOUS
 62
     3
100
AcDbCircle
 10
585.576848
 20
328.973563
 30
0.0
 40
5.556
100
AcDbArc
 50
43.777894
 51
119.68979
  0
ARC
  5
2DF
330
1F
100
AcDbEntity
  8
GR1-1
  6
CONTINUOUS
 62
     3
100
AcDbCircle
 10
589.143963
 20
328.973563
 30
0.0
 40
5.556
100
AcDbArc
 50
43.777894
 51
108.724297
  0
ARC
  5
2E0
330
1F
100
AcDbEntity
  8
GR1-1
  6
CONTINUOUS
 62
     3
100
AcDbCircle
 10
590.639914
 20
328.973563
 30
0.0
 40
5.556
100
AcDbArc
 50
43.777894
 51
97.736928
  0
ARC
  5
2E1
330
1F
100
AcDbEntity
  8
GR1-1
  6
CONTINUOUS
 62
     3
100
AcDbCircle
 10
521.478831
 20
328.973563
 30
0.0
 40
5.556
100
AcDbArc
 50
43.777894
 51
136.222106
  0
ARC
  5
2E2
330
1F
100
AcDbEntity
  8
GR1-1
  6
CONTINUOUS
 62
     3
100
AcDbCircle
 10
510.82158
 20
328.973563
 30
0.0
 40
5.556
100
AcDbArc
 50
43.777894
 51
136.222106
  0
ARC
  5
2E3
330
1F
100
AcDbEntity
  8
GR1-1
  6
CONTINUOUS
 62
     3
100
AcDbCircle
 10
500.957401
 20
328.973563
 30
0.0
 40
5.556
100
AcDbArc
 50
43.777894
 51
136.222106
  0
ARC
  5
2E4
330
1F
100
AcDbEntity
  8
GR1-1
  6
CONTINUOUS
 62
     3
100
AcDbCircle
 10
492.246497
 20
328.973563
 30
0.0
 40
5.556
100
AcDbArc
 50
43.777894
 51
136.222106
  0
ARC
  5
2E5
330
1F
100
AcDbEntity
  8
GR1-1
  6
CONTINUOUS
 62
     3
100
AcDbCircle
 10
485.006957
 20
328.973563
 30
0.0
 40
5.556
100
AcDbArc
 50
49.344717
 51
136.222106
  0
ARC
  5
2E6
330
1F
100
AcDbEntity
  8
GR1-1
  6
CONTINUOUS
 62
     3
100
AcDbCircle
 10
479.50314
 20
328.973563
 30
0.0
 40
5.556
100
AcDbArc
 50
60.31021
 51
136.222106
  0
ARC
  5
2E7
330
1F
100
AcDbEntity
  8
GR1-1
  6
CONTINUOUS
 62
     3
100
AcDbCircle
 10
475.936025
 20
328.973563
 30
0.0
 40
5.556
100
AcDbArc
 50
71.275703
 51
136.222106
  0
ARC
  5
2E8
330
1F
100
AcDbEntity
  8
GR1-1
  6
CONTINUOUS
 62
     3
100
AcDbCircle
 10
474.440074
 20
328.973563
 30
0.0
 40
5.556
100
AcDbArc
 50
82.263072
 51
136.222106
  0
LINE
  5
2E9
330
1F
100
AcDbEntity
  8
LAYERGROUP-1
  6
CONTINUOUS
 62
     6
100
AcDbLine
 10
493.539994
 20
269.674128
 30
0.0
 11
493.539994
 21
174.052745
 31
0.0
  0
LINE
  5
2EA
330
1F
100
AcDbEntity
  8
LAYERGROUP-1
  6
CONTINUOUS
 62
     3
100
AcDbLine
 10
247.073839
 20
175.729563
 30
0.0
 11
246.573839
 21
175.729563
 31
0.0
  0
LINE
  5
2EB
330
1F
100
AcDbEntity
  8
LAYERGROUP-1
  6
CONTINUOUS
 62
     3
100
AcDbLine
 10
247.073839
 20
150.729563
 30
0.0
 11
246.573839
 21
150.729563
 31
0.0
  0
LINE
  5
2EC
330
1F
100
AcDbEntity
  8
GR1-1
  6
CONTINUOUS
 62
     3
100
AcDbLine
 10
256.573839
 20
175.729563
 30
0.0
 11
256.573839
 21
150.729563
 31
0.0
  0
LINE
  5
2ED
330
1F
100
AcDbEntity
  8
GR1-1
  6
CONTINUOUS
 62
     3
100
AcDbLine
 10
251.073839
 20
179.229563
 30
0.0
 11
251.073839
 21
147.229563
 31
0.0
  0
LINE
  5
2EE
330
1F
100
AcDbEntity
  8
GR1-1
  6
CONTINUOUS
 62
     6
100
AcDbLine
 10
255.073839
 20
179.229563
 30
0.0
 11
255.073839
 21
147.229563
 31
0.0
  0
LINE
  5
2EF
330
1F
100
AcDbEntity
  8
GR1-1
  6
CONTINUOUS
 62
     3
100
AcDbLine
 10
251.073839
 20
179.229563
 30
0.0
 11
255.073839
 21
179.229563
 31
0.0
  0
LINE
  5
2F0
330
1F
100
AcDbEntity
  8
GR1-1
  6
CONTINUOUS
 62
     3
100
AcDbLine
 10
255.073839
 20
179.229563
 30
0.0
 11
256.573839
 21
175.729563
 31
0.0
  0
LINE
  5
2F1
330
1F
100
AcDbEntity
  8
GR1-1
  6
CONTINUOUS
 62
     3
100
AcDbLine
 10
251.073839
 20
147.229563
 30
0.0
 11
255.073839
 21
147.229563
 31
0.0
  0
LINE
  5
2F2
330
1F
100
AcDbEntity
  8
GR1-1
  6
CONTINUOUS
 62
     3
100
AcDbLine
 10
255.073839
 20
147.229563
 30
0.0
 11
256.573839
 21
150.729563
 31
0.0
  0
LINE
  5
2F3
330
1F
100
AcDbEntity
  8
LAYERGROUP-1
  6
CONTINUOUS
 62
     3
100
AcDbLine
 10
135.145636
 20
177.08597
 30
0.0
 11
134.073839
 21
175.229563
 31
0.0
  0
LINE
  5
2F4
330
1F
100
AcDbEntity
  8
LAYERGROUP-1
  6
CONTINUOUS
 62
     3
100
AcDbLine
 10
134.073839
 20
175.229563
 30
0.0
 11
134.073839
 21
151.229563
 31
0.0
  0
LINE
  5
2F5
330
1F
100
AcDbEntity
  8
LAYERGROUP-1
  6
CONTINUOUS
 62
     3
100
AcDbLine
 10
134.073839
 20
151.229563
 30
0.0
 11
135.145636
 21
149.373157
 31
0.0
  0
ARC
  5
2F6
330
1F
100
AcDbEntity
  8
LAYERGROUP-1
  6
CONTINUOUS
 62
     3
100
AcDbCircle
 10
140.207814
 20
173.621868
 30
0.0
 40
6.133974596215551
100
AcDbArc
 50
145.615753
 51
214.384247
  0
ARC
  5
2F7
330
1F
100
AcDbEntity
  8
LAYERGROUP-1
  6
CONTINUOUS
 62
     3
100
AcDbCircle
 10
157.002042
 20
163.229563
 30
0.0
 40
22.92820323027533
100
AcDbArc
 50
162.412046
 51
197.587954
  0
ARC
  5
2F8
330
1F
100
AcDbEntity
  8
LAYERGROUP-1
  6
CONTINUOUS
 62
     3
100
AcDbCircle
 10
140.207814
 20
152.837258
 30
0.0
 40
6.133974596215551
100
AcDbArc
 50
145.615753
 51
214.384247
  0
LINE
  5
2F9
330
1F
100
AcDbEntity
  8
LAYERGROUP-1
  6
CONTINUOUS
 62
     3
100
AcDbLine
 10
135.145636
 20
149.373157
 30
0.0
 11
147.073839
 21
149.373157
 31
0.0
  0
LINE
  5
2FA
330
1F
100
AcDbEntity
  8
LAYERGROUP-1
  6
CONTINUOUS
 62
     3
100
AcDbLine
 10
147.073839
 20
177.229563
 30
0.0
 11
147.073839
 21
149.229563
 31
0.0
  0
LINE
  5
2FB
330
1F
100
AcDbEntity
  8
LAYERGROUP-1
  6
CONTINUOUS
 62
     3
100
AcDbLine
 10
147.073839
 20
177.08597
 30
0.0
 11
135.145636
 21
177.08597
 31
0.0
  0
LINE
  5
2FC
330
1F
100
AcDbEntity
  8
LAYERGROUP-1
  6
CONTINUOUS
 62
     3
100
AcDbLine
 10
135.145636
 20
170.157767
 30
0.0
 11
147.073839
 21
170.157767
 31
0.0
  0
LINE
  5
2FD
330
1F
100
AcDbEntity
  8
LAYERGROUP-1
  6
CONTINUOUS
 62
     3
100
AcDbLine
 10
135.145636
 20
156.30136
 30
0.0
 11
147.073839
 21
156.30136
 31
0.0
  0
LINE
  5
2FE
330
1F
100
AcDbEntity
  8
LAYERGROUP-1
  6
CONTINUOUS
 62
     3
100
AcDbLine
 10
147.073839
 20
149.229563
 30
0.0
 11
151.073839
 21
149.229563
 31
0.0
  0
LINE
  5
2FF
330
1F
100
AcDbEntity
  8
LAYERGROUP-1
  6
CONTINUOUS
 62
     3
100
AcDbLine
 10
151.073839
 20
177.229563
 30
0.0
 11
147.073839
 21
177.229563
 31
0.0
  0
LINE
  5
300
330
1F
100
AcDbEntity
  8
LAYERGROUP-1
  6
CONTINUOUS
 62
     3
100
AcDbLine
 10
147.073839
 20
165.538964
 30
0.0
 11
151.073839
 21
163.229563
 31
0.0
  0
LINE
  5
301
330
1F
100
AcDbEntity
  8
LAYERGROUP-1
  6
CONTINUOUS
 62
     3
100
AcDbLine
 10
147.073839
 20
163.229563
 30
0.0
 11
151.073839
 21
160.920162
 31
0.0
  0
LINE
  5
302
330
1F
100
AcDbEntity
  8
LAYERGROUP-1
  6
CONTINUOUS
 62
     3
100
AcDbLine
 10
155.073839
 20
175.729563
 30
0.0
 11
155.573839
 21
175.729563
 31
0.0
  0
LINE
  5
303
330
1F
100
AcDbEntity
  8
LAYERGROUP-1
  6
CONTINUOUS
 62
     3
100
AcDbLine
 10
155.073839
 20
150.729563
 30
0.0
 11
155.573839
 21
150.729563
 31
0.0
  0
LINE
  5
304
330
1F
100
AcDbEntity
  8
GR1-1
  6
CONTINUOUS
 62
     3
100
AcDbLine
 10
133.073839
 20
155.229563
 30
0.0
 11
134.073839
 21
155.229563
 31
0.0
  0
LINE
  5
305
330
1F
100
AcDbEntity
  8
GR1-1
  6
CONTINUOUS
 62
     3
100
AcDbLine
 10
134.073839
 20
171.229563
 30
0.0
 11
133.073839
 21
171.229563
 31
0.0
  0
LINE
  5
306
330
1F
100
AcDbEntity
  8
GR1-1
  6
CONTINUOUS
 62
     3
100
AcDbLine
 10
133.073839
 20
171.229563
 30
0.0
 11
132.073839
 21
170.229563
 31
0.0
  0
LINE
  5
307
330
1F
100
AcDbEntity
  8
GR1-1
  6
CONTINUOUS
 62
     3
100
AcDbLine
 10
132.073839
 20
170.229563
 30
0.0
 11
132.073839
 21
156.229563
 31
0.0
  0
LINE
  5
308
330
1F
100
AcDbEntity
  8
GR1-1
  6
CONTINUOUS
 62
     3
100
AcDbLine
 10
132.073839
 20
156.229563
 30
0.0
 11
133.073839
 21
155.229563
 31
0.0
  0
LINE
  5
309
330
1F
100
AcDbEntity
  8
GR1-1
  6
CONTINUOUS
 62
     6
100
AcDbLine
 10
134.073839
 20
170.147063
 30
0.0
 11
132.073839
 21
170.147063
 31
0.0
  0
LINE
  5
30A
330
1F
100
AcDbEntity
  8
GR1-1
  6
CONTINUOUS
 62
     6
100
AcDbLine
 10
133.073839
 20
171.229563
 30
0.0
 11
133.073839
 21
155.229563
 31
0.0
  0
LINE
  5
30B
330
1F
100
AcDbEntity
  8
GR1-1
  6
CONTINUOUS
 62
     6
100
AcDbLine
 10
132.073839
 20
156.312063
 30
0.0
 11
134.073839
 21
156.312063
 31
0.0
  0
CIRCLE
  5
30C
330
1F
100
AcDbEntity
  8
GR1-1
  6
CONTINUOUS
 62
     6
100
AcDbCircle
 10
461.539994
 20
163.231372
 30
0.0
 40
12.5
  0
CIRCLE
  5
30D
330
1F
100
AcDbEntity
  8
GR1-1
  6
CONTINUOUS
 62
     3
100
AcDbCircle
 10
461.539994
 20
163.229563
 30
0.0
 40
16.00180880828665
  0
DIMENSION
  5
30E
330
1F
100
AcDbEntity
  8
LAYERGROUP-1
100
AcDbDimension
  2
*D28
 10
122.061621
 20
288.229563
 30
0.0
 11
121.061615
 21
163.229538
 31
0.0
 70
    33
  3
FXDIMINFO
100
AcDbAlignedDimension
 13
201.073839
 23
38.229563
 33
0.0
 14
201.073839
 24
288.229563
 34
0.0
1001
ACAD
1000
DSTYLE
1002
{
1070
     7
1000
FXTIP_ARROW_E
1070
     6
1000
FXTIP_ARROW_S
1070
   173
1070
     1
1002
}
  0
LINE
  5
318
330
1F
100
AcDbEntity
  8
LAYERGROUP-1
  6
CENTER
 62
     6
100
AcDbLine
 10
619.127903
 20
485.885834
 30
0.0
 11
328.756787
 21
485.885834
 31
0.0
  0
LINE
  5
319
330
1F
100
AcDbEntity
  8
LAYERGROUP-1
  6
CONTINUOUS
 62
     3
100
AcDbLine
 10
447.414316
 20
485.885834
 30
0.0
 11
447.414316
 21
522.585834
 31
0.0
  0
ARC
  5
31A
330
1F
100
AcDbEntity
  8
LAYERGROUP-1
  6
CONTINUOUS
 62
     3
100
AcDbCircle
 10
460.414316
 20
522.585834
 30
0.0
 40
13.0
100
AcDbArc
 50
127.280457
 51
180.0
  0
ARC
  5
31B
330
1F
100
AcDbEntity
  8
GR1-1
  6
CONTINUOUS
 62
     3
100
AcDbCircle
 10
532.539994
 20
485.885834
 30
0.0
 40
32.15000000000002
100
AcDbArc
 50
0.0
 51
180.0
  0
INSERT
  5
31F
330
1F
100
AcDbEntity
  8
0
100
AcDbBlockReference
  2
BLKF031
 10
0.0
 20
0.0
 30
0.0
  0
INSERT
  5
327
330
1F
100
AcDbEntity
  8
0
100
AcDbBlockReference
  2
BLKF032
 10
0.0
 20
0.0
 30
0.0
  0
LINE
  5
32C
330
1F
100
AcDbEntity
  8
GR1-1
  6
CONTINUOUS
 62
     3
100
AcDbLine
 10
596.539994
 20
565.885834
 30
0.0
 11
468.539994
 21
565.885834
 31
0.0
  0
CIRCLE
  5
32D
330
1F
100
AcDbEntity
  8
GR1-1
  6
CONTINUOUS
 62
     3
100
AcDbCircle
 10
470.039994
 20
548.385834
 30
0.0
 40
7.0
  0
LINE
  5
32E
330
1F
100
AcDbEntity
  8
GR1-1
  6
CONTINUOUS
 62
     3
100
AcDbLine
 10
452.539994
 20
549.885834
 30
0.0
 11
452.539994
 21
485.885834
 31
0.0
  0
LINE
  5
32F
330
1F
100
AcDbEntity
  8
GR1-1
  6
CONTINUOUS
 62
     3
100
AcDbLine
 10
612.539994
 20
485.885834
 30
0.0
 11
612.539994
 21
549.885834
 31
0.0
  0
CIRCLE
  5
330
330
1F
100
AcDbEntity
  8
GR1-1
  6
CONTINUOUS
 62
     3
100
AcDbCircle
 10
595.039994
 20
548.385834
 30
0.0
 40
7.0
  0
ARC
  5
331
330
1F
100
AcDbEntity
  8
GR1-1
  6
CONTINUOUS
 62
     3
100
AcDbCircle
 10
596.539994
 20
549.885834
 30
0.0
 40
16.0
100
AcDbArc
 50
0.0
 51
90.0
  0
ARC
  5
332
330
1F
100
AcDbEntity
  8
GR1-1
  6
CONTINUOUS
 62
     3
100
AcDbCircle
 10
468.539994
 20
549.885834
 30
0.0
 40
16.0
100
AcDbArc
 50
90.0
 51
180.0
  0
ARC
  5
333
330
1F
100
AcDbEntity
  8
GR1-1
  6
CONTINUOUS
 62
     6
100
AcDbCircle
 10
532.539994
 20
485.885834
 30
0.0
 40
68.5
100
AcDbArc
 50
0.0
 51
180.0
  0
ARC
  5
334
330
1F
100
AcDbEntity
  8
GR1-1
  6
CONTINUOUS
 62
     6
100
AcDbCircle
 10
532.539994
 20
485.885834
 30
0.0
 40
50.0
100
AcDbArc
 50
0.0
 51
180.0
  0
ARC
  5
335
330
1F
100
AcDbEntity
  8
LAYERGROUP-1
  6
CONTINUOUS
 62
     3
100
AcDbCircle
 10
532.539994
 20
485.885834
 30
0.0
 40
43.15
100
AcDbArc
 50
0.0
 51
180.0
  0
LINE
  5
336
330
1F
100
AcDbEntity
  8
LAYERGROUP-1
  6
CONTINUOUS
 62
     3
100
AcDbLine
 10
427.853076
 20
535.885834
 30
0.0
 11
427.853076
 21
531.885834
 31
0.0
  0
LINE
  5
337
330
1F
100
AcDbEntity
  8
LAYERGROUP-1
  6
CONTINUOUS
 62
     3
100
AcDbLine
 10
452.539994
 20
535.885834
 30
0.0
 11
427.853076
 21
535.885834
 31
0.0
  0
LINE
  5
338
330
1F
100
AcDbEntity
  8
LAYERGROUP-1
  6
CONTINUOUS
 62
     3
100
AcDbLine
 10
451.330814
 20
531.885834
 30
0.0
 11
427.853076
 21
531.885834
 31
0.0
  0
LINE
  5
339
330
1F
100
AcDbEntity
  8
LAYERGROUP-1
  6
CONTINUOUS
 62
     7
100
AcDbLine
 10
604.629489
 20
548.385834
 30
0.0
 11
624.571604
 21
548.385834
 31
0.0
  0
DIMENSION
  5
33A
330
1F
100
AcDbEntity
  8
LAYERGROUP-1
100
AcDbDimension
  2
*D31
 10
646.09843
 20
548.385834
 30
0.0
 11
645.09845
 21
485.885803
 31
0.0
 70
    32
  3
FXDIMINFO
100
AcDbAlignedDimension
 13
604.56558
 23
423.385834
 33
0.0
 14
604.768612
 24
548.385834
 34
0.0
 50
270.0
100
AcDbRotatedDimension
1001
ACAD
1000
DSTYLE
1002
{
1070
     7
1000
FXTIP_ARROW_E
1070
     6
1000
FXTIP_ARROW_S
1070
   173
1070
     1
1002
}
  0
DIMENSION
  5
344
330
1F
100
AcDbEntity
  8
LAYERGROUP-1
100
AcDbDimension
  2
*D32
 10
661.61708
 20
565.885834
 30
0.0
 11
660.617126
 21
485.885803
 31
0.0
 70
    33
  3
FXDIMINFO
100
AcDbAlignedDimension
 13
596.539994
 23
405.885834
 33
0.0
 14
596.539994
 24
565.885834
 34
0.0
1001
ACAD
1000
DSTYLE
1002
{
1070
     7
1000
FXTIP_ARROW_E
1070
     6
1000
FXTIP_ARROW_S
1070
   173
1070
     1
1002
}
  0
TEXT
  5
34E
330
1F
100
AcDbEntity
  8
}}ﾊﾊGG血CCТ
  6
CONTINUOUS
 62
     7
100
AcDbText
 10
665.949036
 20
22.0
 30
0.0
 40
6.0
  1
W60A2UB-C01
 41
0.690583
  7
FX_VECTOR
 72
     5
 11
709.949036
 21
22.0
 31
0.0
100
AcDbText
  0
LINE
  5
34F
330
1F
100
AcDbEntity
  8
}}ﾊﾊGG血CCТ
  6
CENTER
 62
     6
100
AcDbLine
 10
595.039994
 20
347.403164
 30
0.0
 11
595.039994
 21
332.817563
 31
0.0
  0
LINE
  5
350
330
1F
100
AcDbEntity
  8
}}ﾊﾊGG血CCТ
  6
CENTER
 62
     6
100
AcDbLine
 10
470.039994
 20
347.403164
 30
0.0
 11
470.039994
 21
332.817563
 31
0.0
  0
LINE
  5
351
330
1F
100
AcDbEntity
  8
}}ﾊﾊGG血CCТ
  6
CENTER
 62
     6
100
AcDbLine
 10
263.573839
 20
347.403164
 30
0.0
 11
263.573839
 21
332.817563
 31
0.0
  0
LINE
  5
352
330
1F
100
AcDbEntity
  8
}}ﾊﾊGG血CCТ
  6
CENTER
 62
     6
100
AcDbLine
 10
138.573839
 20
347.403164
 30
0.0
 11
138.573839
 21
332.817563
 31
0.0
  0
LINE
  5
353
330
1F
100
AcDbEntity
  8
GR1-1
  6
CONTINUOUS
 62
     3
100
AcDbLine
 10
452.539994
 20
430.385834
 30
0.0
 11
449.038185
 21
430.385834
 31
0.0
  0
LINE
  5
354
330
1F
100
AcDbEntity
  8
GR1-1
  6
CONTINUOUS
 62
     3
100
AcDbLine
 10
452.539994
 20
435.885834
 30
0.0
 11
445.538185
 21
435.885834
 31
0.0
  0
LINE
  5
355
330
1F
100
AcDbEntity
  8
GR1-1
  6
CONTINUOUS
 62
     6
100
AcDbLine
 10
452.539994
 20
431.885834
 30
0.0
 11
445.538185
 21
431.885834
 31
0.0
  0
LINE
  5
356
330
1F
100
AcDbEntity
  8
GR1-1
  6
CONTINUOUS
 62
     3
100
AcDbLine
 10
445.538185
 20
435.885834
 30
0.0
 11
445.538185
 21
431.885834
 31
0.0
  0
LINE
  5
357
330
1F
100
AcDbEntity
  8
GR1-1
  6
CONTINUOUS
 62
     3
100
AcDbLine
 10
445.538185
 20
431.885834
 30
0.0
 11
449.038185
 21
430.385834
 31
0.0
  0
LINE
  5
358
330
1F
100
AcDbEntity
  8
LAYERGROUP-1
  6
CONTINUOUS
 62
     3
100
AcDbLine
 10
449.539994
 20
551.814037
 30
0.0
 11
451.396401
 21
552.885834
 31
0.0
  0
LINE
  5
359
330
1F
100
AcDbEntity
  8
LAYERGROUP-1
  6
CONTINUOUS
 62
     3
100
AcDbLine
 10
451.396401
 20
552.885834
 30
0.0
 11
452.82376
 21
552.885834
 31
0.0
  0
LINE
  5
35A
330
1F
100
AcDbEntity
  8
LAYERGROUP-1
  6
CONTINUOUS
 62
     3
100
AcDbLine
 10
447.539994
 20
539.885834
 30
0.0
 11
452.539994
 21
539.885834
 31
0.0
  0
LINE
  5
35B
330
1F
100
AcDbEntity
  8
LAYERGROUP-1
  6
CONTINUOUS
 62
     3
100
AcDbLine
 10
447.539994
 20
535.885834
 30
0.0
 11
447.539994
 21
539.885834
 31
0.0
  0
ARC
  5
35C
330
1F
100
AcDbEntity
  8
LAYERGROUP-1
  6
CONTINUOUS
 62
     3
100
AcDbCircle
 10
455.539994
 20
535.555707
 30
0.0
 40
17.33012701892242
100
AcDbArc
 50
99.153091
 51
110.256158
  0
LINE
  5
35D
330
1F
100
AcDbEntity
  8
LAYERGROUP-1
  6
CONTINUOUS
 62
     3
100
AcDbLine
 10
449.539994
 20
551.814037
 30
0.0
 11
449.539994
 21
539.885834
 31
0.0
  0
ARC
  5
35E
330
1F
100
AcDbEntity
  8
}}ﾊﾊGG血CCТ
  6
CONTINUOUS
 62
     7
100
AcDbCircle
 10
532.539994
 20
485.885834
 30
0.0
 40
159.52587
100
AcDbArc
 50
217.040269
 51
240.27709
  0
DIMENSION
  5
35F
330
1F
100
AcDbEntity
  8
}}ﾊﾊGG血CCТ
100
AcDbDimension
  2
*D33
 10
532.539994
 20
485.885834
 30
0.0
 11
421.37262
 21
399.389069
 31
0.0
 70
   164
  3
FXDIMINFO
100
AcDbRadialDimension
 15
408.116324
 25
386.049701
 35
0.0
 40
0.0
1001
ACAD
1000
DSTYLE
1002
{
1070
     6
1000
FXTIP_ARROW_S
1070
   173
1070
     1
1002
}
  0
LINE
  5
366
330
1F
100
AcDbEntity
  8
}}ﾊﾊGG血CCТ
  6
CONTINUOUS
 62
     3
100
AcDbLine
 10
255.047403
 20
293.429563
 30
0.0
 11
255.047403
 21
302.05969
 31
0.0
  0
DIMENSION
  5
367
330
1F
100
AcDbEntity
  8
}}ﾊﾊGG血CCТ
100
AcDbDimension
  2
*D34
 10
245.873839
 20
23.439388
 30
0.0
 11
201.073837
 21
24.439388
 31
0.0
 70
    33
  3
FXDIMINFO
100
AcDbAlignedDimension
 13
156.273839
 23
146.979563
 33
0.0
 14
245.873839
 24
146.979563
 34
0.0
1001
ACAD
1000
DSTYLE
1002
{
1070
     7
1000
FXTIP_ARROW_E
1070
     6
1000
FXTIP_ARROW_S
1070
   173
1070
     1
1002
}
  0
ARC
  5
371
330
1F
100
AcDbEntity
  8
GR1-1
  6
CONTINUOUS
 62
     7
100
AcDbCircle
 10
521.039994
 20
485.885834
 30
0.0
 40
4.5
100
AcDbArc
 50
90.0
 51
270.0
  0
ARC
  5
372
330
1F
100
AcDbEntity
  8
GR1-1
  6
CONTINUOUS
 62
     7
100
AcDbCircle
 10
522.539994
 20
485.885834
 30
0.0
 40
40.5
100
AcDbArc
 50
338.831551
 51
348.463041
  0
ARC
  5
373
330
1F
100
AcDbEntity
  8
GR1-1
  6
CONTINUOUS
 62
     7
100
AcDbCircle
 10
564.50352
 20
469.635834
 30
0.0
 40
4.5
100
AcDbArc
 50
158.831551
 51
185.491039
  0
ARC
  5
374
330
1F
100
AcDbEntity
  8
GR1-1
  6
CONTINUOUS
 62
     7
100
AcDbCircle
 10
559.28234
 20
478.385834
 30
0.0
 40
3.0
100
AcDbArc
 50
-11.536959
 51
90.0
  0
ARC
  5
375
330
1F
100
AcDbEntity
  8
GR1-1
  6
CONTINUOUS
 62
     7
100
AcDbCircle
 10
559.28234
 20
493.385834
 30
0.0
 40
3.0
100
AcDbArc
 50
-90.0
 51
11.536959
  0
ARC
  5
376
330
1F
100
AcDbEntity
  8
GR1-1
  6
CONTINUOUS
 62
     7
100
AcDbCircle
 10
522.539994
 20
485.885834
 30
0.0
 40
40.5
100
AcDbArc
 50
11.536959
 51
21.168449
  0
LINE
  5
377
330
1F
100
AcDbEntity
  8
GR1-1
  6
CONTINUOUS
 62
     7
100
AcDbLine
 10
559.28234
 20
481.385834
 30
0.0
 11
521.039994
 21
481.385834
 31
0.0
  0
LINE
  5
378
330
1F
100
AcDbEntity
  8
GR1-1
  6
CONTINUOUS
 62
     7
100
AcDbLine
 10
559.28234
 20
490.385834
 30
0.0
 11
521.039994
 21
490.385834
 31
0.0
  0
LINE
  5
379
330
1F
100
AcDbEntity
  8
GR1-1
  6
CONTINUOUS
 62
     6
100
AcDbLine
 10
537.539994
 20
464.385834
 30
0.0
 11
527.539994
 21
464.385834
 31
0.0
  0
LINE
  5
37A
330
1F
100
AcDbEntity
  8
GR1-1
  6
CONTINUOUS
 62
     6
100
AcDbLine
 10
537.539994
 20
507.385834
 30
0.0
 11
537.539994
 21
517.998916
 31
0.0
  0
LINE
  5
37B
330
1F
100
AcDbEntity
  8
GR1-1
  6
CONTINUOUS
 62
     6
100
AcDbLine
 10
527.539994
 20
507.385834
 30
0.0
 11
527.539994
 21
517.998916
 31
0.0
  0
LINE
  5
37C
330
1F
100
AcDbEntity
  8
GR1-1
  6
CONTINUOUS
 62
     6
100
AcDbLine
 10
537.539994
 20
507.385834
 30
0.0
 11
527.539994
 21
507.385834
 31
0.0
  0
LINE
  5
37D
330
1F
100
AcDbEntity
  8
GR1-1
  6
CONTINUOUS
 62
     7
100
AcDbLine
 10
548.43546
 20
463.873694
 30
0.0
 11
551.761331
 21
460.11448
 31
0.0
  0
ARC
  5
37E
330
1F
100
AcDbEntity
  8
GR1-1
  6
CONTINUOUS
 62
     7
100
AcDbCircle
 10
546.188593
 20
461.885834
 30
0.0
 40
3.0
100
AcDbArc
 50
41.5
 51
90.0
  0
LINE
  5
37F
330
1F
100
AcDbEntity
  8
GR1-1
  6
CONTINUOUS
 62
     7
100
AcDbLine
 10
549.334207
 20
464.668838
 30
0.0
 11
552.711656
 21
460.851327
 31
0.0
  0
LINE
  5
380
330
1F
100
AcDbEntity
  8
GR1-1
  6
CONTINUOUS
 62
     7
100
AcDbLine
 10
548.43546
 20
463.873694
 30
0.0
 11
549.334207
 21
464.668838
 31
0.0
  0
LINE
  5
381
330
1F
100
AcDbEntity
  8
GR1-1
  6
CONTINUOUS
 62
     7
100
AcDbLine
 10
546.188593
 20
464.885834
 30
0.0
 11
508.196155
 21
464.885834
 31
0.0
  0
LINE
  5
382
330
1F
100
AcDbEntity
  8
GR1-1
  6
CONTINUOUS
 62
     7
100
AcDbLine
 10
548.43546
 20
507.897974
 30
0.0
 11
551.761331
 21
511.657188
 31
0.0
  0
ARC
  5
383
330
1F
100
AcDbEntity
  8
GR1-1
  6
CONTINUOUS
 62
     7
100
AcDbCircle
 10
546.188593
 20
509.885834
 30
0.0
 40
3.0
100
AcDbArc
 50
270.0
 51
318.5
  0
LINE
  5
384
330
1F
100
AcDbEntity
  8
GR1-1
  6
CONTINUOUS
 62
     7
100
AcDbLine
 10
549.334207
 20
507.10283
 30
0.0
 11
552.711656
 21
510.920342
 31
0.0
  0
LINE
  5
385
330
1F
100
AcDbEntity
  8
GR1-1
  6
CONTINUOUS
 62
     7
100
AcDbLine
 10
548.43546
 20
507.897974
 30
0.0
 11
549.334207
 21
507.10283
 31
0.0
  0
LINE
  5
386
330
1F
100
AcDbEntity
  8
GR1-1
  6
CONTINUOUS
 62
     7
100
AcDbLine
 10
546.188593
 20
506.885834
 30
0.0
 11
508.196155
 21
506.885834
 31
0.0
  0
LINE
  5
387
330
1F
100
AcDbEntity
  8
GR1-1
  6
CONTINUOUS
 62
     6
100
AcDbLine
 10
537.539994
 20
464.385834
 30
0.0
 11
538.539994
 21
464.885834
 31
0.0
  0
LINE
  5
388
330
1F
100
AcDbEntity
  8
GR1-1
  6
CONTINUOUS
 62
     6
100
AcDbLine
 10
527.539994
 20
464.385834
 30
0.0
 11
526.539994
 21
464.885834
 31
0.0
  0
LINE
  5
389
330
1F
100
AcDbEntity
  8
GR1-1
  6
CONTINUOUS
 62
     6
100
AcDbLine
 10
537.539994
 20
507.385834
 30
0.0
 11
538.539994
 21
506.885834
 31
0.0
  0
LINE
  5
38A
330
1F
100
AcDbEntity
  8
GR1-1
  6
CONTINUOUS
 62
     6
100
AcDbLine
 10
527.539994
 20
507.385834
 30
0.0
 11
526.539994
 21
506.885834
 31
0.0
  0
ARC
  5
38B
330
1F
100
AcDbEntity
  8
GR1-1
  6
CONTINUOUS
 62
     7
100
AcDbCircle
 10
564.50352
 20
502.135834
 30
0.0
 40
4.5
100
AcDbArc
 50
174.508961
 51
201.168449
  0
LINE
  5
38C
330
1F
100
AcDbEntity
  8
GR1-1
  6
CONTINUOUS
 62
     6
100
AcDbLine
 10
537.539994
 20
464.385834
 30
0.0
 11
537.539994
 21
453.772753
 31
0.0
  0
LINE
  5
38D
330
1F
100
AcDbEntity
  8
GR1-1
  6
CONTINUOUS
 62
     6
100
AcDbLine
 10
527.539994
 20
464.385834
 30
0.0
 11
527.539994
 21
453.772753
 31
0.0
  0
LINE
  5
38E
330
1F
100
AcDbEntity
  8
GR1-1
  6
CONTINUOUS
 62
     6
100
AcDbLine
 10
527.539994
 20
507.385834
 30
0.0
 11
526.539994
 21
506.885834
 31
0.0
  0
LINE
  5
38F
330
1F
100
AcDbEntity
  8
GR1-1
  6
CONTINUOUS
 62
     6
100
AcDbLine
 10
537.539994
 20
507.385834
 30
0.0
 11
538.539994
 21
506.885834
 31
0.0
  0
ARC
  5
390
330
1F
100
AcDbEntity
  8
}}ﾊﾊGG血CCТ
  6
CONTINUOUS
 62
     6
100
AcDbCircle
 10
532.539994
 20
476.385834
 30
0.0
 40
13.00000000000059
100
AcDbArc
 50
247.380135
 51
292.619865
  0
ARC
  5
391
330
1F
100
AcDbEntity
  8
}}ﾊﾊGG血CCТ
  6
CONTINUOUS
 62
     6
100
AcDbCircle
 10
532.539994
 20
495.385834
 30
0.0
 40
13.00000000000059
100
AcDbArc
 50
67.380135
 51
112.619865
  0
LINE
  5
392
330
1F
100
AcDbEntity
  8
GR1-1
  6
CONTINUOUS
 62
     3
100
AcDbLine
 10
145.346929
 20
294.848976
 30
0.0
 11
144.846929
 21
295.390476
 31
0.0
  0
LINE
  5
393
330
1F
100
AcDbEntity
  8
GR1-1
  6
CONTINUOUS
 62
     3
100
AcDbLine
 10
144.846929
 20
295.390476
 30
0.0
 11
144.846929
 21
300.307476
 31
0.0
  0
LINE
  5
394
330
1F
100
AcDbEntity
  8
GR1-1
  6
CONTINUOUS
 62
     3
100
AcDbLine
 10
144.846929
 20
300.307476
 30
0.0
 11
145.346929
 21
300.848976
 31
0.0
  0
LINE
  5
395
330
1F
100
AcDbEntity
  8
GR1-1
  6
CONTINUOUS
 62
     3
100
AcDbLine
 10
145.346929
 20
300.848976
 30
0.0
 11
145.973839
 21
300.848976
 31
0.0
  0
LINE
  5
396
330
1F
100
AcDbEntity
  8
GR1-1
  6
CONTINUOUS
 62
     3
100
AcDbLine
 10
145.973839
 20
294.848976
 30
0.0
 11
145.346929
 21
294.848976
 31
0.0
  0
LINE
  5
397
330
1F
100
AcDbEntity
  8
GR1-1
  6
CONTINUOUS
 62
     6
100
AcDbLine
 10
145.346929
 20
294.848976
 30
0.0
 11
145.346929
 21
300.848976
 31
0.0
  0
LINE
  5
398
330
1F
100
AcDbEntity
  8
GR1-1
  6
CONTINUOUS
 62
     6
100
AcDbLine
 10
144.846929
 20
300.307476
 30
0.0
 11
145.973839
 21
300.307476
 31
0.0
  0
LINE
  5
399
330
1F
100
AcDbEntity
  8
GR1-1
  6
CONTINUOUS
 62
     6
100
AcDbLine
 10
145.973839
 20
295.390476
 30
0.0
 11
144.846929
 21
295.390476
 31
0.0
  0
INSERT
  5
39D
330
1F
100
AcDbEntity
  8
0
100
AcDbBlockReference
  2
BLKF037
 10
0.0
 20
0.0
 30
0.0
  0
LINE
  5
3C7
330
1F
100
AcDbEntity
  8
LAYERGROUP-1
  6
CONTINUOUS
 62
     3
100
AcDbLine
 10
179.073839
 20
38.229563
 30
0.0
 11
223.073839
 21
38.229563
 31
0.0
  0
ARC
  5
3C8
330
1F
100
AcDbEntity
  8
LAYERGROUP-1
  6
CONTINUOUS
 62
     3
100
AcDbCircle
 10
179.073839
 20
43.229563
 30
0.0
 40
5.0
100
AcDbArc
 50
180.0
 51
270.0
  0
ARC
  5
3C9
330
1F
100
AcDbEntity
  8
LAYERGROUP-1
  6
CONTINUOUS
 62
     3
100
AcDbCircle
 10
223.073839
 20
43.229563
 30
0.0
 40
5.0
100
AcDbArc
 50
270.0
 51
360.0
  0
LINE
  5
3CA
330
1F
100
AcDbEntity
  8
LAYERGROUP-1
  6
CONTINUOUS
 62
     3
100
AcDbLine
 10
171.305984
 20
119.921851
 30
0.0
 11
174.073839
 21
118.631179
 31
0.0
  0
ARC
  5
3CB
330
1F
100
AcDbEntity
  8
LAYERGROUP-1
  6
CONTINUOUS
 62
     3
100
AcDbCircle
 10
172.573839
 20
122.640774
 30
0.0
 40
3.0
100
AcDbArc
 50
180.0
 51
245.0
  0
LINE
  5
3CC
330
1F
100
AcDbEntity
  8
LAYERGROUP-1
  6
CONTINUOUS
 62
     3
100
AcDbLine
 10
169.573839
 20
122.640774
 30
0.0
 11
169.573839
 21
203.818352
 31
0.0
  0
LINE
  5
3CD
330
1F
100
AcDbEntity
  8
LAYERGROUP-1
  6
CONTINUOUS
 62
     3
100
AcDbLine
 10
155.573839
 20
179.479563
 30
0.0
 11
169.573839
 21
179.479563
 31
0.0
  0
LINE
  5
3CE
330
1F
100
AcDbEntity
  8
LAYERGROUP-1
  6
CONTINUOUS
 62
     3
100
AcDbLine
 10
155.573839
 20
146.979563
 30
0.0
 11
169.573839
 21
146.979563
 31
0.0
  0
LINE
  5
3CF
330
1F
100
AcDbEntity
  8
LAYERGROUP-1
  6
CONTINUOUS
 62
     3
100
AcDbLine
 10
155.573839
 20
146.979563
 30
0.0
 11
155.573839
 21
179.479563
 31
0.0
  0
ARC
  5
3D0
330
1F
100
AcDbEntity
  8
LAYERGROUP-1
  6
CONTINUOUS
 62
     3
100
AcDbCircle
 10
173.673839
 20
118.376351
 30
0.0
 40
0.4
100
AcDbArc
 50
0.0
 51
65.0
  0
LINE
  5
3D1
330
1F
100
AcDbEntity
  8
LAYERGROUP-1
  6
CONTINUOUS
 62
     3
100
AcDbLine
 10
179.073839
 20
288.229563
 30
0.0
 11
223.073839
 21
288.229563
 31
0.0
  0
ARC
  5
3D2
330
1F
100
AcDbEntity
  8
LAYERGROUP-1
  6
CONTINUOUS
 62
     3
100
AcDbCircle
 10
179.073839
 20
283.229563
 30
0.0
 40
5.0
100
AcDbArc
 50
90.0
 51
180.0
  0
ARC
  5
3D3
330
1F
100
AcDbEntity
  8
LAYERGROUP-1
  6
CONTINUOUS
 62
     3
100
AcDbCircle
 10
223.073839
 20
283.229563
 30
0.0
 40
5.0
100
AcDbArc
 50
0.0
 51
90.0
  0
LINE
  5
3D4
330
1F
100
AcDbEntity
  8
LAYERGROUP-1
  6
CONTINUOUS
 62
     3
100
AcDbLine
 10
171.305984
 20
206.537276
 30
0.0
 11
174.073839
 21
207.827948
 31
0.0
  0
ARC
  5
3D5
330
1F
100
AcDbEntity
  8
LAYERGROUP-1
  6
CONTINUOUS
 62
     3
100
AcDbCircle
 10
172.573839
 20
203.818352
 30
0.0
 40
3.0
100
AcDbArc
 50
115.0
 51
180.0
  0
LINE
  5
3D6
330
1F
100
AcDbEntity
  8
LAYERGROUP-1
  6
CONTINUOUS
 62
     3
100
AcDbLine
 10
174.073839
 20
283.229563
 30
0.0
 11
174.073839
 21
43.229563
 31
0.0
  0
ARC
  5
3D7
330
1F
100
AcDbEntity
  8
LAYERGROUP-1
  6
CONTINUOUS
 62
     3
100
AcDbCircle
 10
173.673839
 20
208.082776
 30
0.0
 40
0.4
100
AcDbArc
 50
295.0
 51
360.0
  0
LINE
  5
3D8
330
1F
100
AcDbEntity
  8
LAYERGROUP-1
  6
CONTINUOUS
 62
     3
100
AcDbLine
 10
230.841694
 20
119.921851
 30
0.0
 11
228.073839
 21
118.631179
 31
0.0
  0
ARC
  5
3D9
330
1F
100
AcDbEntity
  8
LAYERGROUP-1
  6
CONTINUOUS
 62
     3
100
AcDbCircle
 10
229.573839
 20
122.640774
 30
0.0
 40
3.0
100
AcDbArc
 50
295.0
 51
360.0
  0
LINE
  5
3DA
330
1F
100
AcDbEntity
  8
LAYERGROUP-1
  6
CONTINUOUS
 62
     3
100
AcDbLine
 10
232.573839
 20
122.640774
 30
0.0
 11
232.573839
 21
203.818352
 31
0.0
  0
LINE
  5
3DB
330
1F
100
AcDbEntity
  8
LAYERGROUP-1
  6
CONTINUOUS
 62
     3
100
AcDbLine
 10
246.573839
 20
179.479563
 30
0.0
 11
232.573839
 21
179.479563
 31
0.0
  0
LINE
  5
3DC
330
1F
100
AcDbEntity
  8
LAYERGROUP-1
  6
CONTINUOUS
 62
     3
100
AcDbLine
 10
246.573839
 20
146.979563
 30
0.0
 11
232.573839
 21
146.979563
 31
0.0
  0
LINE
  5
3DD
330
1F
100
AcDbEntity
  8
LAYERGROUP-1
  6
CONTINUOUS
 62
     3
100
AcDbLine
 10
246.573839
 20
146.979563
 30
0.0
 11
246.573839
 21
179.479563
 31
0.0
  0
ARC
  5
3DE
330
1F
100
AcDbEntity
  8
LAYERGROUP-1
  6
CONTINUOUS
 62
     3
100
AcDbCircle
 10
228.473839
 20
118.376351
 30
0.0
 40
0.4
100
AcDbArc
 50
115.0
 51
180.0
  0
LINE
  5
3DF
330
1F
100
AcDbEntity
  8
LAYERGROUP-1
  6
CONTINUOUS
 62
     3
100
AcDbLine
 10
230.841694
 20
206.537276
 30
0.0
 11
228.073839
 21
207.827948
 31
0.0
  0
ARC
  5
3E0
330
1F
100
AcDbEntity
  8
LAYERGROUP-1
  6
CONTINUOUS
 62
     3
100
AcDbCircle
 10
229.573839
 20
203.818352
 30
0.0
 40
3.0
100
AcDbArc
 50
0.0
 51
65.0
  0
LINE
  5
3E1
330
1F
100
AcDbEntity
  8
LAYERGROUP-1
  6
CONTINUOUS
 62
     3
100
AcDbLine
 10
228.073839
 20
283.229563
 30
0.0
 11
228.073839
 21
43.229563
 31
0.0
  0
ARC
  5
3E2
330
1F
100
AcDbEntity
  8
LAYERGROUP-1
  6
CONTINUOUS
 62
     3
100
AcDbCircle
 10
228.473839
 20
208.082776
 30
0.0
 40
0.4
100
AcDbArc
 50
180.0
 51
245.0
  0
DIMENSION
  5
3E3
330
1F
100
AcDbEntity
  8
}}ﾊﾊGG血CCТ
100
AcDbDimension
  2
*D38
 10
228.073839
 20
30.307188
 30
0.0
 11
201.073837
 21
31.307188
 31
0.0
 70
    33
  3
FXDIMINFO
100
AcDbAlignedDimension
 13
174.073839
 23
43.229563
 33
0.0
 14
228.073839
 24
43.229563
 34
0.0
1001
ACAD
1000
DSTYLE
1002
{
1070
     7
1000
FXTIP_ARROW_E
1070
     6
1000
FXTIP_ARROW_S
1070
   173
1070
     1
1002
}
  0
ARC
  5
3ED
330
1F
100
AcDbEntity
  8
LAYERGROUP-1
  6
CONTINUOUS
 62
     6
100
AcDbCircle
 10
461.539994
 20
163.229563
 30
0.0
 40
42.5
100
AcDbArc
 50
-226.728905
 51
16.934728
  0
ARC
  5
3EE
330
1F
100
AcDbEntity
  8
LAYERGROUP-1
  6
CONTINUOUS
 62
     6
100
AcDbCircle
 10
461.539994
 20
163.229563
 30
0.0
 40
49.26146104324738
100
AcDbArc
 50
-237.149785
 51
23.688738
  0
ARC
  5
3EF
330
1F
100
AcDbEntity
  8
LAYERGROUP-1
  6
CONTINUOUS
 62
     6
100
AcDbCircle
 10
461.539994
 20
163.229563
 30
0.0
 40
103.2367301929153
100
AcDbArc
 50
-262.978082
 51
42.989542
  0
ARC
  5
3F0
330
1F
100
AcDbEntity
  8
LAYERGROUP-1
  6
CONTINUOUS
 62
     6
100
AcDbCircle
 10
461.539994
 20
163.229563
 30
0.0
 40
105.0
100
AcDbArc
 50
-263.328312
 51
43.26544
  0
LINE
  5
3F1
330
1F
100
AcDbEntity
  8
LAYERGROUP-1
  6
CONTINUOUS
 62
     3
100
AcDbLine
 10
449.039994
 20
531.885834
 30
0.0
 11
449.039994
 21
531.385834
 31
0.0
  0
LINE
  5
3F2
330
1F
100
AcDbEntity
  8
LAYERGROUP-1
  6
CONTINUOUS
 62
     3
100
AcDbLine
 10
449.039994
 20
439.885834
 30
0.0
 11
449.039994
 21
440.385834
 31
0.0
  0
LINE
  5
3F3
330
1F
100
AcDbEntity
  8
LAYERGROUP-1
  6
CONTINUOUS
 62
     3
100
AcDbLine
 10
447.414316
 20
454.385834
 30
0.0
 11
420.951205
 21
454.385834
 31
0.0
  0
LINE
  5
3F4
330
1F
100
AcDbEntity
  8
LAYERGROUP-1
  6
CONTINUOUS
 62
     3
100
AcDbLine
 10
445.289994
 20
440.385834
 30
0.0
 11
445.289994
 21
454.385834
 31
0.0
  0
LINE
  5
3F5
330
1F
100
AcDbEntity
  8
LAYERGROUP-1
  6
CONTINUOUS
 62
     3
100
AcDbLine
 10
450.845617
 20
440.385834
 30
0.0
 11
445.289994
 21
440.385834
 31
0.0
  0
LINE
  5
3F6
330
1F
100
AcDbEntity
  8
LAYERGROUP-1
  6
CONTINUOUS
 62
     3
100
AcDbLine
 10
336.539994
 20
463.885834
 30
0.0
 11
336.539994
 21
507.885834
 31
0.0
  0
ARC
  5
3F7
330
1F
100
AcDbEntity
  8
LAYERGROUP-1
  6
CONTINUOUS
 62
     3
100
AcDbCircle
 10
341.539994
 20
463.885834
 30
0.0
 40
5.0
100
AcDbArc
 50
180.0
 51
270.0
  0
ARC
  5
3F8
330
1F
100
AcDbEntity
  8
LAYERGROUP-1
  6
CONTINUOUS
 62
     3
100
AcDbCircle
 10
341.539994
 20
507.885834
 30
0.0
 40
5.0
100
AcDbArc
 50
90.0
 51
180.0
  0
LINE
  5
3F9
330
1F
100
AcDbEntity
  8
LAYERGROUP-1
  6
CONTINUOUS
 62
     3
100
AcDbLine
 10
418.232281
 20
456.117979
 30
0.0
 11
416.94161
 21
458.885834
 31
0.0
  0
ARC
  5
3FA
330
1F
100
AcDbEntity
  8
LAYERGROUP-1
  6
CONTINUOUS
 62
     3
100
AcDbCircle
 10
420.951205
 20
457.385834
 30
0.0
 40
3.0
100
AcDbArc
 50
205.0
 51
270.0
  0
LINE
  5
3FB
330
1F
100
AcDbEntity
  8
LAYERGROUP-1
  6
CONTINUOUS
 62
     3
100
AcDbLine
 10
341.539994
 20
458.885834
 30
0.0
 11
447.414316
 21
458.885834
 31
0.0
  0
ARC
  5
3FC
330
1F
100
AcDbEntity
  8
LAYERGROUP-1
  6
CONTINUOUS
 62
     3
100
AcDbCircle
 10
416.686781
 20
458.485834
 30
0.0
 40
0.4
100
AcDbArc
 50
25.0
 51
90.0
  0
LINE
  5
3FD
330
1F
100
AcDbEntity
  8
LAYERGROUP-1
  6
CONTINUOUS
 62
     3
100
AcDbLine
 10
447.414316
 20
517.385834
 30
0.0
 11
420.951205
 21
517.385834
 31
0.0
  0
LINE
  5
3FE
330
1F
100
AcDbEntity
  8
LAYERGROUP-1
  6
CONTINUOUS
 62
     3
100
AcDbLine
 10
445.289994
 20
531.385834
 30
0.0
 11
445.289994
 21
517.385834
 31
0.0
  0
LINE
  5
3FF
330
1F
100
AcDbEntity
  8
LAYERGROUP-1
  6
CONTINUOUS
 62
     3
100
AcDbLine
 10
450.845617
 20
531.385834
 30
0.0
 11
445.289994
 21
531.385834
 31
0.0
  0
LINE
  5
400
330
1F
100
AcDbEntity
  8
LAYERGROUP-1
  6
CONTINUOUS
 62
     3
100
AcDbLine
 10
418.232281
 20
515.653689
 30
0.0
 11
416.94161
 21
512.885834
 31
0.0
  0
ARC
  5
401
330
1F
100
AcDbEntity
  8
LAYERGROUP-1
  6
CONTINUOUS
 62
     3
100
AcDbCircle
 10
420.951205
 20
514.385834
 30
0.0
 40
3.0
100
AcDbArc
 50
90.0
 51
155.0
  0
LINE
  5
402
330
1F
100
AcDbEntity
  8
LAYERGROUP-1
  6
CONTINUOUS
 62
     3
100
AcDbLine
 10
341.539994
 20
512.885834
 30
0.0
 11
447.414316
 21
512.885834
 31
0.0
  0
ARC
  5
403
330
1F
100
AcDbEntity
  8
LAYERGROUP-1
  6
CONTINUOUS
 62
     3
100
AcDbCircle
 10
416.686781
 20
513.285834
 30
0.0
 40
0.4
100
AcDbArc
 50
270.0
 51
335.0
  0
LINE
  5
404
330
1F
100
AcDbEntity
  8
GR1-1
  6
CONTINUOUS
 62
    66
100
AcDbLine
 10
527.539994
 20
507.385834
 30
0.0
 11
527.539994
 21
464.385834
 31
0.0
  0
LINE
  5
405
330
1F
100
AcDbEntity
  8
GR1-1
  6
CONTINUOUS
 62
    66
100
AcDbLine
 10
537.539994
 20
507.385834
 30
0.0
 11
537.539994
 21
464.385834
 31
0.0
  0
ENDSEC
  0
SECTION
  2
OBJECTS
  0
DICTIONARY
  5
C
330
0
100
AcDbDictionary
  3
ACAD_GROUP
350
D
  3
ACAD_LAYOUT
350
1A
  3
ACAD_MLINESTYLE
350
17
  3
ACAD_PLOTSETTINGS
350
19
  3
ACDBHEADERROUNDTRIPXREC
350
406
  0
DICTIONARY
  5
D
102
{ACAD_REACTORS
330
C
102
}
330
C
100
AcDbDictionary
  0
DICTIONARY
  5
1A
102
{ACAD_REACTORS
330
C
102
}
330
C
100
AcDbDictionary
  0
DICTIONARY
  5
17
102
{ACAD_REACTORS
330
C
102
}
330
C
100
AcDbDictionary
  3
STANDARD
350
18
  0
DICTIONARY
  5
19
102
{ACAD_REACTORS
330
C
102
}
330
C
100
AcDbDictionary
  0
DICTIONARY
  5
406
102
{ACAD_REACTORS
330
C
102
}
330
C
100
AcDbDictionary
  3
CEPSNTYPE
350
40F
  3
DIMSTYLEDATA
350
425
  3
FINGERPRINTGUID
350
410
  3
HYPERLINKBASE
350
409
  3
INSUNITS
350
40E
  3
LAYOUTDICT
350
40B
  3
LWETCUNION
350
40D
  3
PLOTSETDICT
350
40C
  3
PSVPSCALE
350
412
  3
PUCSBASE
350
415
  3
PUCSORGBACK
350
41B
  3
PUCSORGBOTTOM
350
417
  3
PUCSORGFRONT
350
41A
  3
PUCSORGLEFT
350
418
  3
PUCSORGRIGHT
350
419
  3
PUCSORGTOP
350
416
  3
PUCSORTHOREF
350
413
  3
PUCSORTHOVIEW
350
414
  3
STYLESHEET
350
40A
  3
TSTACKALIGN
350
407
  3
TSTACKSIZE
350
408
  3
UCSBASE
350
41E
  3
UCSORGBACK
350
424
  3
UCSORGBOTTOM
350
420
  3
UCSORGFRONT
350
423
  3
UCSORGLEFT
350
421
  3
UCSORGRIGHT
350
422
  3
UCSORGTOP
350
41F
  3
UCSORTHOREF
350
41C
  3
UCSORTHOVIEW
350
41D
  3
VERSIONGUID
350
411
  0
MLINESTYLE
  5
18
102
{ACAD_REACTORS
330
17
102
}
330
17
100
AcDbMlineStyle
  2
Standard
 70
     0
  3

 62
   256
 51
90.0
 52
90.0
 71
     2
 49
0.5
 62
   256
  6
BYLAYER
 49
-0.5
 62
   256
  6
BYLAYER
  0
XRECORD
  5
40F
102
{ACAD_REACTORS
330
406
102
}
330
406
100
AcDbXrecord
 90
        0
  0
XRECORD
  5
425
102
{ACAD_REACTORS
330
406
102
}
330
406
100
AcDbXrecord
1000
DSTYLE
1002
{
1070
   179
 70
     2
1070
   171
 70
     3
1070
   143
 40
0.03937
1070
   274
 70
     3
1070
    41
 40
4.0
1070
   343
340
41
1070
   344
340
47
1070
   141
 40
2.5
1070
   176
 70
     7
1070
   177
 70
     7
1070
   178
 70
     7
1070
   271
 70
     2
1070
    46
 40
6.0
1070
    43
 40
10.0
1070
    44
 40
1.0
1070
    42
 40
1.0
1070
   147
 40
1.0
1070
   341
340
41
1070
   173
 70
     1
1070
    77
 70
     1
1070
   272
 70
     2
1070
    73
 70
     0
1070
   172
 70
     1
1070
    74
 70
     0
1070
   283
 70
     0
1070
   340
340
3F
1070
   140
 40
4.0
1070
   284
 70
     8
1070
    78
 70
     8
1002
}
  0
XRECORD
  5
410
102
{ACAD_REACTORS
330
406
102
}
330
406
100
AcDbXrecord
  1
{A913C21D-3EF2-4E7D-AB84-FF841EE46505}
  0
XRECORD
  5
409
102
{ACAD_REACTORS
330
406
102
}
330
406
100
AcDbXrecord
  1

  0
XRECORD
  5
40E
102
{ACAD_REACTORS
330
406
102
}
330
406
100
AcDbXrecord
 90
        1
  0
XRECORD
  5
40B
102
{ACAD_REACTORS
330
406
102
}
330
406
100
AcDbXrecord
340
1A
  0
XRECORD
  5
40D
102
{ACAD_REACTORS
330
406
102
}
330
406
100
AcDbXrecord
 90
    10781
  0
XRECORD
  5
40C
102
{ACAD_REACTORS
330
406
102
}
330
406
100
AcDbXrecord
340
19
  0
XRECORD
  5
412
102
{ACAD_REACTORS
330
406
102
}
330
406
100
AcDbXrecord
 40
0.0
  0
XRECORD
  5
415
102
{ACAD_REACTORS
330
406
102
}
330
406
100
AcDbXrecord
340
0
  0
XRECORD
  5
41B
102
{ACAD_REACTORS
330
406
102
}
330
406
100
AcDbXrecord
 10
0.0
 20
0.0
 30
0.0
  0
XRECORD
  5
417
102
{ACAD_REACTORS
330
406
102
}
330
406
100
AcDbXrecord
 10
0.0
 20
0.0
 30
0.0
  0
XRECORD
  5
41A
102
{ACAD_REACTORS
330
406
102
}
330
406
100
AcDbXrecord
 10
0.0
 20
0.0
 30
0.0
  0
XRECORD
  5
418
102
{ACAD_REACTORS
330
406
102
}
330
406
100
AcDbXrecord
 10
0.0
 20
0.0
 30
0.0
  0
XRECORD
  5
419
102
{ACAD_REACTORS
330
406
102
}
330
406
100
AcDbXrecord
 10
0.0
 20
0.0
 30
0.0
  0
XRECORD
  5
416
102
{ACAD_REACTORS
330
406
102
}
330
406
100
AcDbXrecord
 10
0.0
 20
0.0
 30
0.0
  0
XRECORD
  5
413
102
{ACAD_REACTORS
330
406
102
}
330
406
100
AcDbXrecord
340
0
  0
XRECORD
  5
414
102
{ACAD_REACTORS
330
406
102
}
330
406
100
AcDbXrecord
 70
     0
  0
XRECORD
  5
40A
102
{ACAD_REACTORS
330
406
102
}
330
406
100
AcDbXrecord
  1

  0
XRECORD
  5
407
102
{ACAD_REACTORS
330
406
102
}
330
406
100
AcDbXrecord
 90
        1
  0
XRECORD
  5
408
102
{ACAD_REACTORS
330
406
102
}
330
406
100
AcDbXrecord
 90
       70
  0
XRECORD
  5
41E
102
{ACAD_REACTORS
330
406
102
}
330
406
100
AcDbXrecord
340
0
  0
XRECORD
  5
424
102
{ACAD_REACTORS
330
406
102
}
330
406
100
AcDbXrecord
 10
0.0
 20
0.0
 30
0.0
  0
XRECORD
  5
420
102
{ACAD_REACTORS
330
406
102
}
330
406
100
AcDbXrecord
 10
0.0
 20
0.0
 30
0.0
  0
XRECORD
  5
423
102
{ACAD_REACTORS
330
406
102
}
330
406
100
AcDbXrecord
 10
0.0
 20
0.0
 30
0.0
  0
XRECORD
  5
421
102
{ACAD_REACTORS
330
406
102
}
330
406
100
AcDbXrecord
 10
0.0
 20
0.0
 30
0.0
  0
XRECORD
  5
422
102
{ACAD_REACTORS
330
406
102
}
330
406
100
AcDbXrecord
 10
0.0
 20
0.0
 30
0.0
  0
XRECORD
  5
41F
102
{ACAD_REACTORS
330
406
102
}
330
406
100
AcDbXrecord
 10
0.0
 20
0.0
 30
0.0
  0
XRECORD
  5
41C
102
{ACAD_REACTORS
330
406
102
}
330
406
100
AcDbXrecord
340
0
  0
XRECORD
  5
41D
102
{ACAD_REACTORS
330
406
102
}
330
406
100
AcDbXrecord
 70
     0
  0
XRECORD
  5
411
102
{ACAD_REACTORS
330
406
102
}
330
406
100
AcDbXrecord
  1
{FAEB1C32-E019-11D5-929B-00C0DF256EC4}
  0
ENDSEC
  0
EOF
