  0
SECTION
  2
HEADER
  9
$ACADVER
  1
AC1014
  9
$ACADMAINTVER
 70
     9
  9
$DWGCODEPAGE
  3
ANSI_932
  9
$INSBASE
 10
0.0
 20
0.0
 30
0.0
  9
$EXTMIN
 10
0.0
 20
0.0
 30
0.0
  9
$EXTMAX
 10
841.0
 20
594.0
 30
0.0
  9
$LIMMIN
 10
0.0
 20
0.0
  9
$LIMMAX
 10
841.0
 20
594.0
  9
$ORTHOMODE
 70
     0
  9
$REGENMODE
 70
     1
  9
$FILLMODE
 70
     1
  9
$QTEXTMODE
 70
     0
  9
$MIRRTEXT
 70
     1
  9
$DRAGMODE
 70
     2
  9
$LTSCALE
 40
1.0
  9
$OSMODE
 70
    37
  9
$ATTMODE
 70
     1
  9
$TEXTSIZE
 40
0.2
  9
$TRACEWID
 40
0.05
  9
$TEXTSTYLE
  7
STYLE1
  9
$CLAYER
  8
0
  9
$CELTYPE
  6
BYLAYER
  9
$CECOLOR
 62
   256
  9
$CELTSCALE
 40
1.0
  9
$DELOBJ
 70
     1
  9
$DISPSILH
 70
     0
  9
$DIMSCALE
 40
1.0
  9
$DIMASZ
 40
4.0
  9
$DIMEXO
 40
1.0
  9
$DIMDLI
 40
10.0
  9
$DIMRND
 40
0.0
  9
$DIMDLE
 40
6.0
  9
$DIMEXE
 40
1.0
  9
$DIMTP
 40
0.0
  9
$DIMTM
 40
0.0
  9
$DIMTXT
 40
4.0
  9
$DIMCEN
 40
2.5
  9
$DIMTSZ
 40
0.0
  9
$DIMTOL
 70
     0
  9
$DIMLIM
 70
     0
  9
$DIMTIH
 70
     0
  9
$DIMTOH
 70
     0
  9
$DIMSE1
 70
     0
  9
$DIMSE2
 70
     0
  9
$DIMTAD
 70
     1
  9
$DIMZIN
 70
     8
  9
$DIMBLK
  1

  9
$DIMASO
 70
     1
  9
$DIMSHO
 70
     1
  9
$DIMPOST
  1

  9
$DIMAPOST
  1

  9
$DIMALT
 70
     0
  9
$DIMALTD
 70
     3
  9
$DIMALTF
 40
0.03937
  9
$DIMLFAC
 40
1.0
  9
$DIMTOFL
 70
     1
  9
$DIMTVP
 40
0.0
  9
$DIMTIX
 70
     0
  9
$DIMSOXD
 70
     0
  9
$DIMSAH
 70
     1
  9
$DIMBLK1
  1
FXTIP_ARROW_S
  9
$DIMBLK2
  1
FXTIP_ARROW_E
  9
$DIMSTYLE
  2
FXDIMINFO
  9
$DIMCLRD
 70
     7
  9
$DIMCLRE
 70
     7
  9
$DIMCLRT
 70
     7
  9
$DIMTFAC
 40
1.0
  9
$DIMGAP
 40
1.0
  9
$DIMJUST
 70
     0
  9
$DIMSD1
 70
     0
  9
$DIMSD2
 70
     0
  9
$DIMTOLJ
 70
     0
  9
$DIMTZIN
 70
     8
  9
$DIMALTZ
 70
     0
  9
$DIMALTTZ
 70
     0
  9
$DIMFIT
 70
     3
  9
$DIMUPT
 70
     0
  9
$DIMUNIT
 70
     2
  9
$DIMDEC
 70
     2
  9
$DIMTDEC
 70
     2
  9
$DIMALTU
 70
     2
  9
$DIMALTTD
 70
     3
  9
$DIMTXSTY
  7
STYLE1
  9
$DIMAUNIT
 70
     0
  9
$LUNITS
 70
     2
  9
$LUPREC
 70
     4
  9
$SKETCHINC
 40
0.1
  9
$FILLETRAD
 40
0.5
  9
$AUNITS
 70
     0
  9
$AUPREC
 70
     0
  9
$MENU
  1
.
  9
$ELEVATION
 40
0.0
  9
$PELEVATION
 40
0.0
  9
$THICKNESS
 40
0.0
  9
$LIMCHECK
 70
     0
  9
$CHAMFERA
 40
0.5
  9
$CHAMFERB
 40
0.5
  9
$CHAMFERC
 40
1.0
  9
$CHAMFERD
 40
0.0
  9
$SKPOLY
 70
     0
  9
$TDCREATE
 40
2455308.465587882
  9
$TDUPDATE
 40
2455308.465587894
  9
$TDINDWG
 40
0.0000000116
  9
$TDUSRTIMER
 40
0.0000000116
  9
$USRTIMER
 70
     1
  9
$ANGBASE
 50
0.0
  9
$ANGDIR
 70
     0
  9
$PDMODE
 70
     0
  9
$PDSIZE
 40
0.0
  9
$PLINEWID
 40
0.0
  9
$COORDS
 70
     1
  9
$SPLFRAME
 70
     0
  9
$SPLINETYPE
 70
     6
  9
$SPLINESEGS
 70
     8
  9
$ATTDIA
 70
     0
  9
$ATTREQ
 70
     1
  9
$HANDLING
 70
     1
  9
$HANDSEED
  5
356
  9
$SURFTAB1
 70
     6
  9
$SURFTAB2
 70
     6
  9
$SURFTYPE
 70
     6
  9
$SURFU
 70
     6
  9
$SURFV
 70
     6
  9
$UCSNAME
  2

  9
$UCSORG
 10
0.0
 20
0.0
 30
0.0
  9
$UCSXDIR
 10
1.0
 20
0.0
 30
0.0
  9
$UCSYDIR
 10
0.0
 20
1.0
 30
0.0
  9
$PUCSNAME
  2

  9
$PUCSORG
 10
0.0
 20
0.0
 30
0.0
  9
$PUCSXDIR
 10
1.0
 20
0.0
 30
0.0
  9
$PUCSYDIR
 10
0.0
 20
1.0
 30
0.0
  9
$USERI1
 70
     0
  9
$USERI2
 70
     0
  9
$USERI3
 70
     0
  9
$USERI4
 70
     0
  9
$USERI5
 70
     0
  9
$USERR1
 40
0.0
  9
$USERR2
 40
0.0
  9
$USERR3
 40
0.0
  9
$USERR4
 40
0.0
  9
$USERR5
 40
0.0
  9
$WORLDVIEW
 70
     1
  9
$SHADEDGE
 70
     3
  9
$SHADEDIF
 70
    70
  9
$TILEMODE
 70
     1
  9
$MAXACTVP
 70
    64
  9
$PINSBASE
 10
0.0
 20
0.0
 30
0.0
  9
$PLIMCHECK
 70
     0
  9
$PEXTMIN
 10
1.000000E+20
 20
1.000000E+20
 30
1.000000E+20
  9
$PEXTMAX
 10
-1.000000E+20
 20
-1.000000E+20
 30
-1.000000E+20
  9
$PLIMMIN
 10
0.0
 20
0.0
  9
$PLIMMAX
 10
12.0
 20
9.0
  9
$UNITMODE
 70
     0
  9
$VISRETAIN
 70
     1
  9
$PLINEGEN
 70
     0
  9
$PSLTSCALE
 70
     1
  9
$TREEDEPTH
 70
  3020
  9
$PICKSTYLE
 70
     1
  9
$CMLSTYLE
  2
STANDARD
  9
$CMLJUST
 70
     0
  9
$CMLSCALE
 40
1.0
  9
$PROXYGRAPHICS
 70
     1
  9
$MEASUREMENT
 70
     0
  0
ENDSEC
  0
SECTION
  2
CLASSES
  0
CLASS
  1
ACDBDICTIONARYWDFLT
  2
AcDbDictionaryWithDefault
  3
ObjectDBX Classes
 90
        0
280
     0
281
     0
  0
CLASS
  1
XRECORD
  2
AcDbXrecord
  3
AutoCAD 2000
 90
        0
280
     0
281
     0
  0
CLASS
  1
LWPOLYLINE
  2
AcDbPolyline
  3
AutoCAD 2000
 90
        0
280
     0
281
     1
  0
CLASS
  1
HATCH
  2
AcDbHatch
  3
AutoCAD 2000
 90
        0
280
     0
281
     1
  0
CLASS
  1
ACDBPLACEHOLDER
  2
AcDbPlaceHolder
  3
ObjectDBX Classes
 90
        0
280
     0
281
     0
  0
CLASS
  1
LAYOUT
  2
AcDbLayout
  3
ObjectDBX Classes
 90
        0
280
     0
281
     0
  0
ENDSEC
  0
SECTION
  2
TABLES
  0
TABLE
  2
VPORT
  5
8
330
0
100
AcDbSymbolTable
 70
     1
  0
VPORT
  5
29
330
8
100
AcDbSymbolTableRecord
100
AcDbViewportTableRecord
  2
*ACTIVE
 70
     0
 10
0.0
 20
0.0
 11
1.0
 21
1.0
 12
420.5
 22
297.0
 13
0.0
 23
0.0
 14
0.5
 24
0.5
 15
0.5
 25
0.5
 16
0.0
 26
0.0
 36
1.0
 17
0.0
 27
0.0
 37
0.0
 40
594.0
 41
1.415825
 42
50.0
 43
0.0
 44
0.0
 50
0.0
 51
0.0
 71
     0
 72
   100
 73
     1
 74
     3
 75
     0
 76
     0
 77
     0
 78
     0
  0
ENDTAB
  0
TABLE
  2
LTYPE
  5
5
330
0
100
AcDbSymbolTable
 70
     4
  0
LTYPE
  5
14
330
5
100
AcDbSymbolTableRecord
100
AcDbLinetypeTableRecord
  2
BYBLOCK
 70
     0
  3

 72
    65
 73
     0
 40
0.0
  0
LTYPE
  5
15
330
5
100
AcDbSymbolTableRecord
100
AcDbLinetypeTableRecord
  2
BYLAYER
 70
     0
  3

 72
    65
 73
     0
 40
0.0
  0
LTYPE
  5
16
330
5
100
AcDbSymbolTableRecord
100
AcDbLinetypeTableRecord
  2
CONTINUOUS
 70
     0
  3
--------------------
 72
    65
 73
     0
 40
0.0
  0
LTYPE
  5
2A
330
5
100
AcDbSymbolTableRecord
100
AcDbLinetypeTableRecord
  2
CENTER
 70
     0
  3
Center ____ _ ____ _ ____ _ ____ _ ____ _ ____
 72
    65
 73
     4
 40
13.0
 49
10.0
 74
     0
 49
-1.0
 74
     0
 49
1.0
 74
     0
 49
-1.0
 74
     0
  0
LTYPE
  5
2B
330
5
100
AcDbSymbolTableRecord
100
AcDbLinetypeTableRecord
  2
PHANTOM
 70
     0
  3
Phantom ______  __  __  ______  __  __  ______
 72
    65
 73
     6
 40
15.0
 49
10.0
 74
     0
 49
-1.0
 74
     0
 49
1.0
 74
     0
 49
-1.0
 74
     0
 49
1.0
 74
     0
 49
-1.0
 74
     0
  0
LTYPE
  5
2C
330
5
100
AcDbSymbolTableRecord
100
AcDbLinetypeTableRecord
  2
DASHED
 70
     0
  3
Dashed __ __ __ __ __ __ __ __ __ __ __ __ __ _
 72
    65
 73
     2
 40
4.0
 49
3.0
 74
     0
 49
-1.0
 74
     0
  0
ENDTAB
  0
TABLE
  2
LAYER
  5
2
330
0
100
AcDbSymbolTable
 70
    20
  0
LAYER
  5
10
330
2
100
AcDbSymbolTableRecord
100
AcDbLayerTableRecord
  2
0
 70
     0
 62
     7
  6
CONTINUOUS
  0
LAYER
  5
2D
330
2
100
AcDbSymbolTableRecord
100
AcDbLayerTableRecord
  2
LAYERGROUP-1
 70
     0
 62
     3
  6
CONTINUOUS
  0
LAYER
  5
3D
330
2
100
AcDbSymbolTableRecord
100
AcDbLayerTableRecord
  2
}}ﾊﾊGG血CCТ
 70
     0
 62
     3
  6
CONTINUOUS
  0
LAYER
  5
A9
330
2
100
AcDbSymbolTableRecord
100
AcDbLayerTableRecord
  2
GR1-1
 70
     0
 62
     7
  6
CONTINUOUS
  0
LAYER
  5
213
330
2
100
AcDbSymbolTableRecord
100
AcDbLayerTableRecord
  2
0-1
 70
     0
 62
     7
  6
CONTINUOUS
  0
ENDTAB
  0
TABLE
  2
STYLE
  5
3
330
0
100
AcDbSymbolTable
 70
     4
  0
STYLE
  5
11
330
3
100
AcDbSymbolTableRecord
100
AcDbTextStyleTableRecord
  2
STANDARD
 70
     0
 40
0.0
 41
1.0
 50
0.0
 71
     0
 42
0.2
  3
txt
  4

  0
STYLE
  5
3F
330
3
100
AcDbSymbolTableRecord
100
AcDbTextStyleTableRecord
  2
STYLE1
 70
     0
 40
0.0
 41
1.0
 50
0.0
 71
     0
 42
0.2
  3
MONOTXT.SHX
  4
extfont.shx
  0
STYLE
  5
40
330
3
100
AcDbSymbolTableRecord
100
AcDbTextStyleTableRecord
  2
FX_VECTOR
 70
     0
 40
0.0
 41
1.0
 50
0.0
 71
     0
 42
0.2
  3
MONOTXT.SHX
  4
BIGFONT.SHX
  0
ENDTAB
  0
TABLE
  2
VIEW
  5
6
330
0
100
AcDbSymbolTable
 70
     0
  0
ENDTAB
  0
TABLE
  2
UCS
  5
7
330
0
100
AcDbSymbolTable
 70
     0
  0
ENDTAB
  0
TABLE
  2
APPID
  5
9
330
0
100
AcDbSymbolTable
 70
     1
  0
APPID
  5
12
330
9
100
AcDbSymbolTableRecord
100
AcDbRegAppTableRecord
  2
ACAD
 70
     0
  0
ENDTAB
  0
TABLE
  2
DIMSTYLE
  5
A
330
0
100
AcDbSymbolTable
 70
     2
  0
DIMSTYLE
105
27
330
A
100
AcDbSymbolTableRecord
100
AcDbDimStyleTableRecord
  2
STANDARD
 70
     0
  3

  4

  5

  6

  7

 40
1.0
 41
0.18
 42
0.0625
 43
0.38
 44
0.18
 45
0.0
 46
0.0
 47
0.0
 48
0.0
140
0.18
141
0.09
142
0.0
143
25.4
144
1.0
145
0.0
146
1.0
147
0.09
 71
     0
 72
     0
 73
     1
 74
     1
 75
     0
 76
     0
 77
     0
 78
     0
170
     0
171
     2
172
     0
173
     0
174
     0
175
     0
176
     0
177
     0
178
     0
270
     2
271
     4
272
     4
273
     2
274
     2
340
11
275
     0
280
     0
281
     0
282
     0
283
     1
284
     0
285
     0
286
     0
287
     3
288
     0
  0
DIMSTYLE
105
A7
102
{ACAD_REACTORS
330
255
330
25F
102
}
330
A
100
AcDbSymbolTableRecord
100
AcDbDimStyleTableRecord
  2
FXDIMINFO
 70
     0
  3

  4

  5

  6
FXTIP_ARROW_S
  7
FXTIP_ARROW_E
 40
1.0
 41
4.0
 42
1.0
 43
10.0
 44
1.0
 45
0.0
 46
6.0
 47
0.0
 48
0.0
140
4.0
141
2.5
142
0.0
143
0.03937
144
1.0
145
0.0
146
1.0
147
1.0
 71
     0
 72
     0
 73
     0
 74
     0
 75
     0
 76
     0
 77
     1
 78
     8
170
     0
171
     3
172
     1
173
     1
174
     0
175
     0
176
     7
177
     7
178
     7
179
     2
270
     2
271
     2
272
     2
273
     2
274
     3
340
3F
275
     0
280
     0
281
     0
282
     0
283
     0
284
     8
285
     0
286
     0
287
     3
288
     0
  0
ENDTAB
  0
TABLE
  2
BLOCK_RECORD
  5
1
330
0
100
AcDbSymbolTable
 70
    24
  0
BLOCK_RECORD
  5
1F
330
1
100
AcDbSymbolTableRecord
100
AcDbBlockTableRecord
  2
*MODEL_SPACE
  0
BLOCK_RECORD
  5
1B
330
1
100
AcDbSymbolTableRecord
100
AcDbBlockTableRecord
  2
*PAPER_SPACE
  0
BLOCK_RECORD
  5
41
330
1
100
AcDbSymbolTableRecord
100
AcDbBlockTableRecord
  2
FXTIP_ARROW_S
  0
BLOCK_RECORD
  5
47
330
1
100
AcDbSymbolTableRecord
100
AcDbBlockTableRecord
  2
FXTIP_ARROW_E
  0
BLOCK_RECORD
  5
4D
330
1
100
AcDbSymbolTableRecord
100
AcDbBlockTableRecord
  2
FXTIP_BLACKDOT_S
  0
BLOCK_RECORD
  5
53
330
1
100
AcDbSymbolTableRecord
100
AcDbBlockTableRecord
  2
FXTIP_BLACKDOT_E
  0
BLOCK_RECORD
  5
59
330
1
100
AcDbSymbolTableRecord
100
AcDbBlockTableRecord
  2
FXTIP_TRIANGLE_S
  0
BLOCK_RECORD
  5
60
330
1
100
AcDbSymbolTableRecord
100
AcDbBlockTableRecord
  2
FXTIP_TRIANGLE_E
  0
BLOCK_RECORD
  5
67
330
1
100
AcDbSymbolTableRecord
100
AcDbBlockTableRecord
  2
FXTIP_ARCHITECT_S
  0
BLOCK_RECORD
  5
6D
330
1
100
AcDbSymbolTableRecord
100
AcDbBlockTableRecord
  2
FXTIP_ARCHITECT_E
  0
BLOCK_RECORD
  5
73
330
1
100
AcDbSymbolTableRecord
100
AcDbBlockTableRecord
  2
FXTIP_CIVIL_S
  0
BLOCK_RECORD
  5
79
330
1
100
AcDbSymbolTableRecord
100
AcDbBlockTableRecord
  2
FXTIP_CIVIL_E
  0
BLOCK_RECORD
  5
7F
330
1
100
AcDbSymbolTableRecord
100
AcDbBlockTableRecord
  2
FXTIP_WHITEDOT_S
  0
BLOCK_RECORD
  5
84
330
1
100
AcDbSymbolTableRecord
100
AcDbBlockTableRecord
  2
FXTIP_WHITEDOT_E
  0
BLOCK_RECORD
  5
89
330
1
100
AcDbSymbolTableRecord
100
AcDbBlockTableRecord
  2
FXTIP_UPARROW_S
  0
BLOCK_RECORD
  5
8E
330
1
100
AcDbSymbolTableRecord
100
AcDbBlockTableRecord
  2
FXTIP_UPARROW_E
  0
BLOCK_RECORD
  5
93
330
1
100
AcDbSymbolTableRecord
100
AcDbBlockTableRecord
  2
FXTIP_DOWNARROW_S
  0
BLOCK_RECORD
  5
98
330
1
100
AcDbSymbolTableRecord
100
AcDbBlockTableRecord
  2
FXTIP_DOWNARROW_E
  0
BLOCK_RECORD
  5
9D
330
1
100
AcDbSymbolTableRecord
100
AcDbBlockTableRecord
  2
FXTIP_BLACKTRIANGLE_S
  0
BLOCK_RECORD
  5
A2
330
1
100
AcDbSymbolTableRecord
100
AcDbBlockTableRecord
  2
FXTIP_BLACKTRIANGLE_E
  0
BLOCK_RECORD
  5
203
330
1
100
AcDbSymbolTableRecord
100
AcDbBlockTableRecord
  2
BLKF021
  0
BLOCK_RECORD
  5
20F
330
1
100
AcDbSymbolTableRecord
100
AcDbBlockTableRecord
  2
BLKF022
  0
BLOCK_RECORD
  5
218
330
1
100
AcDbSymbolTableRecord
100
AcDbBlockTableRecord
  2
BLKF023
  0
BLOCK_RECORD
  5
256
330
1
100
AcDbSymbolTableRecord
100
AcDbBlockTableRecord
  2
*D22
  0
BLOCK_RECORD
  5
260
330
1
100
AcDbSymbolTableRecord
100
AcDbBlockTableRecord
  2
*D23
  0
ENDTAB
  0
ENDSEC
  0
SECTION
  2
BLOCKS
  0
BLOCK
  5
20
330
1F
100
AcDbEntity
  8
0
100
AcDbBlockBegin
  2
*MODEL_SPACE
 70
     0
 71
     0
 10
0.0
 20
0.0
 30
0.0
  3
*MODEL_SPACE
  1

  0
ENDBLK
  5
21
330
1F
100
AcDbEntity
  8
0
100
AcDbBlockEnd
  0
BLOCK
  5
1C
330
1B
100
AcDbEntity
 67
     1
  8
0
100
AcDbBlockBegin
  2
*PAPER_SPACE
 70
     0
 71
     0
 10
0.0
 20
0.0
 30
0.0
  3
*PAPER_SPACE
  1

  0
ENDBLK
  5
1D
330
1B
100
AcDbEntity
 67
     1
  8
0
100
AcDbBlockEnd
  0
BLOCK
  5
42
330
41
100
AcDbEntity
  8
0
100
AcDbBlockBegin
  2
FXTIP_ARROW_S
 70
     0
 71
     0
 10
0.0
 20
0.0
 30
0.0
  3
FXTIP_ARROW_S
  1

  0
LINE
  5
44
330
41
100
AcDbEntity
  8
0
  6
CONTINUOUS
 62
     0
100
AcDbLine
 10
0.0
 20
0.0
 30
0.0
 11
-1.0
 21
0.0
 31
0.0
  0
LINE
  5
45
330
41
100
AcDbEntity
  8
0
  6
CONTINUOUS
 62
     0
100
AcDbLine
 10
0.0
 20
0.0
 30
0.0
 11
-0.965926
 21
-0.258819
 31
0.0
  0
LINE
  5
46
330
41
100
AcDbEntity
  8
0
  6
CONTINUOUS
 62
     0
100
AcDbLine
 10
0.0
 20
0.0
 30
0.0
 11
-0.965926
 21
0.258819
 31
0.0
  0
ENDBLK
  5
43
330
41
100
AcDbEntity
  8
0
100
AcDbBlockEnd
  0
BLOCK
  5
48
330
47
100
AcDbEntity
  8
0
100
AcDbBlockBegin
  2
FXTIP_ARROW_E
 70
     0
 71
     0
 10
0.0
 20
0.0
 30
0.0
  3
FXTIP_ARROW_E
  1

  0
LINE
  5
4A
330
47
100
AcDbEntity
  8
0
  6
CONTINUOUS
 62
     0
100
AcDbLine
 10
0.0
 20
0.0
 30
0.0
 11
-1.0
 21
0.0
 31
0.0
  0
LINE
  5
4B
330
47
100
AcDbEntity
  8
0
  6
CONTINUOUS
 62
     0
100
AcDbLine
 10
0.0
 20
0.0
 30
0.0
 11
-0.965926
 21
0.258819
 31
0.0
  0
LINE
  5
4C
330
47
100
AcDbEntity
  8
0
  6
CONTINUOUS
 62
     0
100
AcDbLine
 10
0.0
 20
0.0
 30
0.0
 11
-0.965926
 21
-0.258819
 31
0.0
  0
ENDBLK
  5
49
330
47
100
AcDbEntity
  8
0
100
AcDbBlockEnd
  0
BLOCK
  5
4E
330
4D
100
AcDbEntity
  8
0
100
AcDbBlockBegin
  2
FXTIP_BLACKDOT_S
 70
     0
 71
     0
 10
0.0
 20
0.0
 30
0.0
  3
FXTIP_BLACKDOT_S
  1

  0
LINE
  5
50
330
4D
100
AcDbEntity
  8
0
  6
CONTINUOUS
 62
     0
100
AcDbLine
 10
0.0
 20
0.0
 30
0.0
 11
-1.0
 21
0.0
 31
0.0
  0
LWPOLYLINE
  5
51
330
4D
100
AcDbEntity
  8
0
  6
CONTINUOUS
 62
     0
100
AcDbPolyline
 90
        2
 70
     1
 10
-0.25
 20
0.0
 40
0.5
 41
0.5
 42
1.0
 10
0.25
 20
0.0
 40
0.5
 41
0.5
 42
1.0
  0
CIRCLE
  5
52
330
4D
100
AcDbEntity
  8
0
  6
CONTINUOUS
 62
     0
100
AcDbCircle
 10
0.0
 20
0.0
 30
0.0
 40
0.5
  0
ENDBLK
  5
4F
330
4D
100
AcDbEntity
  8
0
100
AcDbBlockEnd
  0
BLOCK
  5
54
330
53
100
AcDbEntity
  8
0
100
AcDbBlockBegin
  2
FXTIP_BLACKDOT_E
 70
     0
 71
     0
 10
0.0
 20
0.0
 30
0.0
  3
FXTIP_BLACKDOT_E
  1

  0
LINE
  5
56
330
53
100
AcDbEntity
  8
0
  6
CONTINUOUS
 62
     0
100
AcDbLine
 10
0.0
 20
0.0
 30
0.0
 11
-1.0
 21
0.0
 31
0.0
  0
LWPOLYLINE
  5
57
330
53
100
AcDbEntity
  8
0
  6
CONTINUOUS
 62
     0
100
AcDbPolyline
 90
        2
 70
     1
 10
-0.25
 20
0.0
 40
0.5
 41
0.5
 42
1.0
 10
0.25
 20
0.0
 40
0.5
 41
0.5
 42
1.0
  0
CIRCLE
  5
58
330
53
100
AcDbEntity
  8
0
  6
CONTINUOUS
 62
     0
100
AcDbCircle
 10
0.0
 20
0.0
 30
0.0
 40
0.5
  0
ENDBLK
  5
55
330
53
100
AcDbEntity
  8
0
100
AcDbBlockEnd
  0
BLOCK
  5
5A
330
59
100
AcDbEntity
  8
0
100
AcDbBlockBegin
  2
FXTIP_TRIANGLE_S
 70
     0
 71
     0
 10
0.0
 20
0.0
 30
0.0
  3
FXTIP_TRIANGLE_S
  1

  0
LINE
  5
5C
330
59
100
AcDbEntity
  8
0
  6
CONTINUOUS
 62
     0
100
AcDbLine
 10
0.0
 20
0.0
 30
0.0
 11
-1.0
 21
0.0
 31
0.0
  0
LINE
  5
5D
330
59
100
AcDbEntity
  8
0
  6
CONTINUOUS
 62
     0
100
AcDbLine
 10
0.0
 20
0.0
 30
0.0
 11
-0.965926
 21
-0.258819
 31
0.0
  0
LINE
  5
5E
330
59
100
AcDbEntity
  8
0
  6
CONTINUOUS
 62
     0
100
AcDbLine
 10
0.0
 20
0.0
 30
0.0
 11
-0.965926
 21
0.258819
 31
0.0
  0
LINE
  5
5F
330
59
100
AcDbEntity
  8
0
  6
CONTINUOUS
 62
     0
100
AcDbLine
 10
-0.965926
 20
-0.258819
 30
0.0
 11
-0.965926
 21
0.258819
 31
0.0
  0
ENDBLK
  5
5B
330
59
100
AcDbEntity
  8
0
100
AcDbBlockEnd
  0
BLOCK
  5
61
330
60
100
AcDbEntity
  8
0
100
AcDbBlockBegin
  2
FXTIP_TRIANGLE_E
 70
     0
 71
     0
 10
0.0
 20
0.0
 30
0.0
  3
FXTIP_TRIANGLE_E
  1

  0
LINE
  5
63
330
60
100
AcDbEntity
  8
0
  6
CONTINUOUS
 62
     0
100
AcDbLine
 10
0.0
 20
0.0
 30
0.0
 11
-1.0
 21
0.0
 31
0.0
  0
LINE
  5
64
330
60
100
AcDbEntity
  8
0
  6
CONTINUOUS
 62
     0
100
AcDbLine
 10
0.0
 20
0.0
 30
0.0
 11
-0.965926
 21
0.258819
 31
0.0
  0
LINE
  5
65
330
60
100
AcDbEntity
  8
0
  6
CONTINUOUS
 62
     0
100
AcDbLine
 10
0.0
 20
0.0
 30
0.0
 11
-0.965926
 21
-0.258819
 31
0.0
  0
LINE
  5
66
330
60
100
AcDbEntity
  8
0
  6
CONTINUOUS
 62
     0
100
AcDbLine
 10
-0.965926
 20
0.258819
 30
0.0
 11
-0.965926
 21
-0.258819
 31
0.0
  0
ENDBLK
  5
62
330
60
100
AcDbEntity
  8
0
100
AcDbBlockEnd
  0
BLOCK
  5
68
330
67
100
AcDbEntity
  8
0
100
AcDbBlockBegin
  2
FXTIP_ARCHITECT_S
 70
     0
 71
     0
 10
0.0
 20
0.0
 30
0.0
  3
FXTIP_ARCHITECT_S
  1

  0
LINE
  5
6A
330
67
100
AcDbEntity
  8
0
  6
CONTINUOUS
 62
     0
100
AcDbLine
 10
0.0
 20
0.0
 30
0.0
 11
-1.0
 21
0.0
 31
0.0
  0
LINE
  5
6B
330
67
100
AcDbEntity
  8
0
  6
CONTINUOUS
 62
     0
100
AcDbLine
 10
0.0
 20
0.0
 30
0.0
 11
-0.707107
 21
-0.707107
 31
0.0
  0
LINE
  5
6C
330
67
100
AcDbEntity
  8
0
  6
CONTINUOUS
 62
     0
100
AcDbLine
 10
0.0
 20
0.0
 30
0.0
 11
0.707107
 21
0.707107
 31
0.0
  0
ENDBLK
  5
69
330
67
100
AcDbEntity
  8
0
100
AcDbBlockEnd
  0
BLOCK
  5
6E
330
6D
100
AcDbEntity
  8
0
100
AcDbBlockBegin
  2
FXTIP_ARCHITECT_E
 70
     0
 71
     0
 10
0.0
 20
0.0
 30
0.0
  3
FXTIP_ARCHITECT_E
  1

  0
LINE
  5
70
330
6D
100
AcDbEntity
  8
0
  6
CONTINUOUS
 62
     0
100
AcDbLine
 10
0.0
 20
0.0
 30
0.0
 11
-1.0
 21
0.0
 31
0.0
  0
LINE
  5
71
330
6D
100
AcDbEntity
  8
0
  6
CONTINUOUS
 62
     0
100
AcDbLine
 10
0.0
 20
0.0
 30
0.0
 11
0.707107
 21
0.707107
 31
0.0
  0
LINE
  5
72
330
6D
100
AcDbEntity
  8
0
  6
CONTINUOUS
 62
     0
100
AcDbLine
 10
0.0
 20
0.0
 30
0.0
 11
-0.707107
 21
-0.707107
 31
0.0
  0
ENDBLK
  5
6F
330
6D
100
AcDbEntity
  8
0
100
AcDbBlockEnd
  0
BLOCK
  5
74
330
73
100
AcDbEntity
  8
0
100
AcDbBlockBegin
  2
FXTIP_CIVIL_S
 70
     0
 71
     0
 10
0.0
 20
0.0
 30
0.0
  3
FXTIP_CIVIL_S
  1

  0
LINE
  5
76
330
73
100
AcDbEntity
  8
0
  6
CONTINUOUS
 62
     0
100
AcDbLine
 10
0.0
 20
0.0
 30
0.0
 11
-1.0
 21
0.0
 31
0.0
  0
LINE
  5
77
330
73
100
AcDbEntity
  8
0
  6
CONTINUOUS
 62
     0
100
AcDbLine
 10
0.0
 20
-0.0625
 30
0.0
 11
-1.0
 21
-0.0625
 31
0.0
  0
LINE
  5
78
330
73
100
AcDbEntity
  8
0
  6
CONTINUOUS
 62
     0
100
AcDbLine
 10
0.0
 20
-0.125
 30
0.0
 11
-1.0
 21
-0.125
 31
0.0
  0
ENDBLK
  5
75
330
73
100
AcDbEntity
  8
0
100
AcDbBlockEnd
  0
BLOCK
  5
7A
330
79
100
AcDbEntity
  8
0
100
AcDbBlockBegin
  2
FXTIP_CIVIL_E
 70
     0
 71
     0
 10
0.0
 20
0.0
 30
0.0
  3
FXTIP_CIVIL_E
  1

  0
LINE
  5
7C
330
79
100
AcDbEntity
  8
0
  6
CONTINUOUS
 62
     0
100
AcDbLine
 10
0.0
 20
0.0
 30
0.0
 11
-1.0
 21
0.0
 31
0.0
  0
LINE
  5
7D
330
79
100
AcDbEntity
  8
0
  6
CONTINUOUS
 62
     0
100
AcDbLine
 10
0.0
 20
0.0625
 30
0.0
 11
-1.0
 21
0.0625
 31
0.0
  0
LINE
  5
7E
330
79
100
AcDbEntity
  8
0
  6
CONTINUOUS
 62
     0
100
AcDbLine
 10
0.0
 20
0.125
 30
0.0
 11
-1.0
 21
0.125
 31
0.0
  0
ENDBLK
  5
7B
330
79
100
AcDbEntity
  8
0
100
AcDbBlockEnd
  0
BLOCK
  5
80
330
7F
100
AcDbEntity
  8
0
100
AcDbBlockBegin
  2
FXTIP_WHITEDOT_S
 70
     0
 71
     0
 10
0.0
 20
0.0
 30
0.0
  3
FXTIP_WHITEDOT_S
  1

  0
LINE
  5
82
330
7F
100
AcDbEntity
  8
0
  6
CONTINUOUS
 62
     0
100
AcDbLine
 10
0.0
 20
0.0
 30
0.0
 11
-1.0
 21
0.0
 31
0.0
  0
CIRCLE
  5
83
330
7F
100
AcDbEntity
  8
0
  6
CONTINUOUS
 62
     0
100
AcDbCircle
 10
0.0
 20
0.0
 30
0.0
 40
0.5
  0
ENDBLK
  5
81
330
7F
100
AcDbEntity
  8
0
100
AcDbBlockEnd
  0
BLOCK
  5
85
330
84
100
AcDbEntity
  8
0
100
AcDbBlockBegin
  2
FXTIP_WHITEDOT_E
 70
     0
 71
     0
 10
0.0
 20
0.0
 30
0.0
  3
FXTIP_WHITEDOT_E
  1

  0
LINE
  5
87
330
84
100
AcDbEntity
  8
0
  6
CONTINUOUS
 62
     0
100
AcDbLine
 10
0.0
 20
0.0
 30
0.0
 11
-1.0
 21
0.0
 31
0.0
  0
CIRCLE
  5
88
330
84
100
AcDbEntity
  8
0
  6
CONTINUOUS
 62
     0
100
AcDbCircle
 10
0.0
 20
0.0
 30
0.0
 40
0.5
  0
ENDBLK
  5
86
330
84
100
AcDbEntity
  8
0
100
AcDbBlockEnd
  0
BLOCK
  5
8A
330
89
100
AcDbEntity
  8
0
100
AcDbBlockBegin
  2
FXTIP_UPARROW_S
 70
     0
 71
     0
 10
0.0
 20
0.0
 30
0.0
  3
FXTIP_UPARROW_S
  1

  0
LINE
  5
8C
330
89
100
AcDbEntity
  8
0
  6
CONTINUOUS
 62
     0
100
AcDbLine
 10
0.0
 20
0.0
 30
0.0
 11
-1.0
 21
0.0
 31
0.0
  0
LINE
  5
8D
330
89
100
AcDbEntity
  8
0
  6
CONTINUOUS
 62
     0
100
AcDbLine
 10
0.0
 20
0.0
 30
0.0
 11
-0.965926
 21
-0.258819
 31
0.0
  0
ENDBLK
  5
8B
330
89
100
AcDbEntity
  8
0
100
AcDbBlockEnd
  0
BLOCK
  5
8F
330
8E
100
AcDbEntity
  8
0
100
AcDbBlockBegin
  2
FXTIP_UPARROW_E
 70
     0
 71
     0
 10
0.0
 20
0.0
 30
0.0
  3
FXTIP_UPARROW_E
  1

  0
LINE
  5
91
330
8E
100
AcDbEntity
  8
0
  6
CONTINUOUS
 62
     0
100
AcDbLine
 10
0.0
 20
0.0
 30
0.0
 11
-1.0
 21
0.0
 31
0.0
  0
LINE
  5
92
330
8E
100
AcDbEntity
  8
0
  6
CONTINUOUS
 62
     0
100
AcDbLine
 10
0.0
 20
0.0
 30
0.0
 11
-0.965926
 21
0.258819
 31
0.0
  0
ENDBLK
  5
90
330
8E
100
AcDbEntity
  8
0
100
AcDbBlockEnd
  0
BLOCK
  5
94
330
93
100
AcDbEntity
  8
0
100
AcDbBlockBegin
  2
FXTIP_DOWNARROW_S
 70
     0
 71
     0
 10
0.0
 20
0.0
 30
0.0
  3
FXTIP_DOWNARROW_S
  1

  0
LINE
  5
96
330
93
100
AcDbEntity
  8
0
  6
CONTINUOUS
 62
     0
100
AcDbLine
 10
0.0
 20
0.0
 30
0.0
 11
-1.0
 21
0.0
 31
0.0
  0
LINE
  5
97
330
93
100
AcDbEntity
  8
0
  6
CONTINUOUS
 62
     0
100
AcDbLine
 10
0.0
 20
0.0
 30
0.0
 11
-0.965926
 21
0.258819
 31
0.0
  0
ENDBLK
  5
95
330
93
100
AcDbEntity
  8
0
100
AcDbBlockEnd
  0
BLOCK
  5
99
330
98
100
AcDbEntity
  8
0
100
AcDbBlockBegin
  2
FXTIP_DOWNARROW_E
 70
     0
 71
     0
 10
0.0
 20
0.0
 30
0.0
  3
FXTIP_DOWNARROW_E
  1

  0
LINE
  5
9B
330
98
100
AcDbEntity
  8
0
  6
CONTINUOUS
 62
     0
100
AcDbLine
 10
0.0
 20
0.0
 30
0.0
 11
-1.0
 21
0.0
 31
0.0
  0
LINE
  5
9C
330
98
100
AcDbEntity
  8
0
  6
CONTINUOUS
 62
     0
100
AcDbLine
 10
0.0
 20
0.0
 30
0.0
 11
-0.965926
 21
-0.258819
 31
0.0
  0
ENDBLK
  5
9A
330
98
100
AcDbEntity
  8
0
100
AcDbBlockEnd
  0
BLOCK
  5
9E
330
9D
100
AcDbEntity
  8
0
100
AcDbBlockBegin
  2
FXTIP_BLACKTRIANGLE_S
 70
     0
 71
     0
 10
0.0
 20
0.0
 30
0.0
  3
FXTIP_BLACKTRIANGLE_S
  1

  0
LINE
  5
A0
330
9D
100
AcDbEntity
  8
0
  6
CONTINUOUS
 62
     0
100
AcDbLine
 10
0.0
 20
0.0
 30
0.0
 11
-1.0
 21
0.0
 31
0.0
  0
SOLID
  5
A1
330
9D
100
AcDbEntity
  8
0
  6
CONTINUOUS
 62
     0
100
AcDbTrace
 10
0.0
 20
0.0
 30
0.0
 11
-0.965926
 21
-0.258819
 31
0.0
 12
-0.965926
 22
0.258819
 32
0.0
 13
-0.965926
 23
0.258819
 33
0.0
  0
ENDBLK
  5
9F
330
9D
100
AcDbEntity
  8
0
100
AcDbBlockEnd
  0
BLOCK
  5
A3
330
A2
100
AcDbEntity
  8
0
100
AcDbBlockBegin
  2
FXTIP_BLACKTRIANGLE_E
 70
     0
 71
     0
 10
0.0
 20
0.0
 30
0.0
  3
FXTIP_BLACKTRIANGLE_E
  1

  0
LINE
  5
A5
330
A2
100
AcDbEntity
  8
0
  6
CONTINUOUS
 62
     0
100
AcDbLine
 10
0.0
 20
0.0
 30
0.0
 11
-1.0
 21
0.0
 31
0.0
  0
SOLID
  5
A6
330
A2
100
AcDbEntity
  8
0
  6
CONTINUOUS
 62
     0
100
AcDbTrace
 10
0.0
 20
0.0
 30
0.0
 11
-0.965926
 21
0.258819
 31
0.0
 12
-0.965926
 22
-0.258819
 32
0.0
 13
-0.965926
 23
-0.258819
 33
0.0
  0
ENDBLK
  5
A4
330
A2
100
AcDbEntity
  8
0
100
AcDbBlockEnd
  0
BLOCK
  5
204
330
203
100
AcDbEntity
  8
0
100
AcDbBlockBegin
  2
BLKF021
 70
     0
 71
     0
 10
0.0
 20
0.0
 30
0.0
  3
BLKF021
  1

  0
LINE
  5
207
330
203
100
AcDbEntity
  8
}}ﾊﾊGG血CCТ
  6
CONTINUOUS
 62
     7
100
AcDbLine
 10
20.0
 20
20.0
 30
0.0
 11
821.0
 21
20.0
 31
0.0
  0
LINE
  5
208
330
203
100
AcDbEntity
  8
}}ﾊﾊGG血CCТ
  6
CONTINUOUS
 62
     7
100
AcDbLine
 10
20.0
 20
20.0
 30
0.0
 11
20.0
 21
574.0
 31
0.0
  0
LINE
  5
209
330
203
100
AcDbEntity
  8
}}ﾊﾊGG血CCТ
  6
CONTINUOUS
 62
     7
100
AcDbLine
 10
20.0
 20
574.0
 30
0.0
 11
821.0
 21
574.0
 31
0.0
  0
LINE
  5
20A
330
203
100
AcDbEntity
  8
}}ﾊﾊGG血CCТ
  6
CONTINUOUS
 62
     7
100
AcDbLine
 10
821.0
 20
574.0
 30
0.0
 11
821.0
 21
20.0
 31
0.0
  0
LINE
  5
20B
330
203
100
AcDbEntity
  8
}}ﾊﾊGG血CCТ
  6
CONTINUOUS
 62
     7
100
AcDbLine
 10
564.0
 20
20.0
 30
0.0
 11
564.0
 21
30.0
 31
0.0
  0
TEXT
  5
20C
330
203
100
AcDbEntity
  8
}}ﾊﾊGG血CCТ
  6
CONTINUOUS
 62
     7
100
AcDbText
 10
548.738831
 20
21.596878
 30
0.0
 40
6.648749
  1
品名
 41
1.083413
  7
FX_VECTOR
 72
     5
 11
560.058371
 21
21.596878
 31
0.0
100
AcDbText
  0
LINE
  5
20D
330
203
100
AcDbEntity
  8
}}ﾊﾊGG血CCТ
  6
CONTINUOUS
 62
     7
100
AcDbLine
 10
644.0
 20
30.0
 30
0.0
 11
644.0
 21
20.0
 31
0.0
  0
LINE
  5
20E
330
203
100
AcDbEntity
  8
}}ﾊﾊGG血CCТ
  6
CONTINUOUS
 62
     7
100
AcDbLine
 10
544.0
 20
30.0
 30
0.0
 11
821.0
 21
30.0
 31
0.0
  0
INSERT
  5
212
330
203
100
AcDbEntity
  8
0
100
AcDbBlockReference
  2
BLKF022
 10
0.0
 20
0.0
 30
0.0
  0
INSERT
  5
21B
330
203
100
AcDbEntity
  8
0
100
AcDbBlockReference
  2
BLKF023
 10
0.0
 20
0.0
 30
0.0
  0
HATCH
  5
22B
330
203
100
AcDbEntity
  8
GR1-1
  6
CONTINUOUS
 62
     7
100
AcDbHatch
 10
0.0
 20
0.0
 30
0.0
210
0.0
220
0.0
230
1.0
  2

 70
     0
 71
     1
 91
        2
 92
        0
 93
        4
 72
     1
 10
749.8018997861325
 20
27.91346152
 11
755.8018997861325
 21
27.91346152
 72
     1
 10
755.8018997861325
 20
27.91346152
 11
755.8018997861325
 21
21.91346152
 72
     1
 10
755.8018997861325
 20
21.91346152
 11
749.8018997861325
 21
21.91346152
 72
     1
 10
749.8018997861325
 20
21.91346152
 11
749.8018997861325
 21
27.91346152
 97
        0
 92
        0
 93
       15
 72
     1
 10
752.8018997861325
 20
27.76923076000002
 11
749.9461305461325
 21
24.91346152
 72
     1
 10
749.9461305461325
 20
24.91346152
 11
752.8018997861325
 21
22.05769228000001
 72
     1
 10
752.8018997861325
 20
22.05769228000001
 11
754.3595920661326
 21
23.61538462
 72
     1
 10
754.3595920661326
 20
23.61538462
 11
754.3595920661326
 21
22.98076924
 72
     1
 10
754.3595920661326
 20
22.98076924
 11
755.2249766861326
 21
22.98076924
 72
     1
 10
755.2249766861326
 20
22.98076924
 11
755.2249766861326
 21
25.00000000000001
 72
     1
 10
755.2249766861326
 20
25.00000000000001
 11
752.8018997861325
 21
25.00000000000001
 72
     1
 10
752.8018997861325
 20
25.00000000000001
 11
752.8018997861325
 21
24.13461538000001
 72
     1
 10
752.8018997861325
 20
24.13461538000001
 11
753.2461305461325
 21
24.13461538000001
 72
     1
 10
753.2461305461325
 20
24.13461538000001
 11
752.8018997861325
 21
23.69038462
 72
     1
 10
752.8018997861325
 20
23.69038462
 11
751.5788228861325
 21
24.91346152
 72
     1
 10
751.5788228861325
 20
24.91346152
 11
752.8018997861325
 21
26.13653842000003
 72
     1
 10
752.8018997861325
 20
26.13653842000003
 11
753.5922844061325
 21
25.3461538
 72
     1
 10
753.5922844061325
 20
25.3461538
 11
755.2249766861326
 21
25.3461538
 72
     1
 10
755.2249766861326
 20
25.3461538
 11
752.8018997861325
 21
27.76923076000002
 97
        0
 75
     0
 76
     0
 52
45.0
 41
0.05
 77
     0
 78
     1
 53
45.0
 43
0.0
 44
0.0
 45
-0.0353553390593274
 46
0.0353553390593274
 79
     0
 98
        0
  0
TEXT
  5
22C
330
203
100
AcDbEntity
  8
}}ﾊﾊGG血CCТ
  6
CONTINUOUS
 62
     7
100
AcDbText
 10
760.225769
 20
21.461285
 30
0.0
 40
7.170908
  1
GOLD CASTER
 41
0.63978
  7
FX_VECTOR
 72
     5
 11
806.977636
 21
21.461285
 31
0.0
100
AcDbText
  0
LINE
  5
22D
330
203
100
AcDbEntity
  8
}}ﾊﾊGG血CCТ
  6
CONTINUOUS
 62
     7
100
AcDbLine
 10
664.0
 20
20.0
 30
0.0
 11
664.0
 21
30.0
 31
0.0
  0
TEXT
  5
22E
330
203
100
AcDbEntity
  8
}}ﾊﾊGG血CCТ
  6
CONTINUOUS
 62
     7
100
AcDbText
 10
648.738831
 20
21.596878
 30
0.0
 40
6.648749
  1
図番
 41
1.083413
  7
FX_VECTOR
 72
     5
 11
660.058371
 21
21.596878
 31
0.0
100
AcDbText
  0
LINE
  5
22F
330
203
100
AcDbEntity
  8
}}ﾊﾊGG血CCТ
  6
CONTINUOUS
 62
     7
100
AcDbLine
 10
744.0
 20
30.0
 30
0.0
 11
744.0
 21
20.0
 31
0.0
  0
LINE
  5
230
330
203
100
AcDbEntity
  8
}}ﾊﾊGG血CCТ
  6
CONTINUOUS
 62
     7
100
AcDbLine
 10
544.0
 20
30.0
 30
0.0
 11
544.0
 21
20.0
 31
0.0
  0
ENDBLK
  5
205
330
203
100
AcDbEntity
  8
0
100
AcDbBlockEnd
  0
BLOCK
  5
210
330
20F
100
AcDbEntity
  8
0
100
AcDbBlockBegin
  2
BLKF022
 70
     0
 71
     0
 10
0.0
 20
0.0
 30
0.0
  3
BLKF022
  1

  0
LINE
  5
214
330
20F
100
AcDbEntity
  8
0-1
  6
CONTINUOUS
 62
     7
100
AcDbLine
 10
755.8019
 20
27.913462
 30
0.0
 11
749.8019
 21
27.913462
 31
0.0
  0
LINE
  5
215
330
20F
100
AcDbEntity
  8
0-1
  6
CONTINUOUS
 62
     7
100
AcDbLine
 10
749.8019
 20
27.913462
 30
0.0
 11
749.8019
 21
21.913462
 31
0.0
  0
LINE
  5
216
330
20F
100
AcDbEntity
  8
0-1
  6
CONTINUOUS
 62
     7
100
AcDbLine
 10
749.8019
 20
21.913462
 30
0.0
 11
755.8019
 21
21.913462
 31
0.0
  0
LINE
  5
217
330
20F
100
AcDbEntity
  8
0-1
  6
CONTINUOUS
 62
     7
100
AcDbLine
 10
755.8019
 20
21.913462
 30
0.0
 11
755.8019
 21
27.913462
 31
0.0
  0
ENDBLK
  5
211
330
20F
100
AcDbEntity
  8
0
100
AcDbBlockEnd
  0
BLOCK
  5
219
330
218
100
AcDbEntity
  8
0
100
AcDbBlockBegin
  2
BLKF023
 70
     0
 71
     0
 10
0.0
 20
0.0
 30
0.0
  3
BLKF023
  1

  0
LINE
  5
21C
330
218
100
AcDbEntity
  8
0-1
  6
CONTINUOUS
 62
     7
100
AcDbLine
 10
755.224977
 20
25.346154
 30
0.0
 11
752.8019
 21
27.769231
 31
0.0
  0
LINE
  5
21D
330
218
100
AcDbEntity
  8
0-1
  6
CONTINUOUS
 62
     7
100
AcDbLine
 10
752.8019
 20
27.769231
 30
0.0
 11
749.946131
 21
24.913462
 31
0.0
  0
LINE
  5
21E
330
218
100
AcDbEntity
  8
0-1
  6
CONTINUOUS
 62
     7
100
AcDbLine
 10
749.946131
 20
24.913462
 30
0.0
 11
752.8019
 21
22.057692
 31
0.0
  0
LINE
  5
21F
330
218
100
AcDbEntity
  8
0-1
  6
CONTINUOUS
 62
     7
100
AcDbLine
 10
752.8019
 20
22.057692
 30
0.0
 11
754.359592
 21
23.615385
 31
0.0
  0
LINE
  5
220
330
218
100
AcDbEntity
  8
0-1
  6
CONTINUOUS
 62
     7
100
AcDbLine
 10
754.359592
 20
23.615385
 30
0.0
 11
754.359592
 21
22.980769
 31
0.0
  0
LINE
  5
221
330
218
100
AcDbEntity
  8
0-1
  6
CONTINUOUS
 62
     7
100
AcDbLine
 10
754.359592
 20
22.980769
 30
0.0
 11
755.224977
 21
22.980769
 31
0.0
  0
LINE
  5
222
330
218
100
AcDbEntity
  8
0-1
  6
CONTINUOUS
 62
     7
100
AcDbLine
 10
755.224977
 20
22.980769
 30
0.0
 11
755.224977
 21
25.0
 31
0.0
  0
LINE
  5
223
330
218
100
AcDbEntity
  8
0-1
  6
CONTINUOUS
 62
     7
100
AcDbLine
 10
755.224977
 20
25.0
 30
0.0
 11
752.8019
 21
25.0
 31
0.0
  0
LINE
  5
224
330
218
100
AcDbEntity
  8
0-1
  6
CONTINUOUS
 62
     7
100
AcDbLine
 10
752.8019
 20
25.0
 30
0.0
 11
752.8019
 21
24.134615
 31
0.0
  0
LINE
  5
225
330
218
100
AcDbEntity
  8
0-1
  6
CONTINUOUS
 62
     7
100
AcDbLine
 10
752.8019
 20
24.134615
 30
0.0
 11
753.246131
 21
24.134615
 31
0.0
  0
LINE
  5
226
330
218
100
AcDbEntity
  8
0-1
  6
CONTINUOUS
 62
     7
100
AcDbLine
 10
753.246131
 20
24.134615
 30
0.0
 11
752.8019
 21
23.690385
 31
0.0
  0
LINE
  5
227
330
218
100
AcDbEntity
  8
0-1
  6
CONTINUOUS
 62
     7
100
AcDbLine
 10
752.8019
 20
23.690385
 30
0.0
 11
751.578823
 21
24.913462
 31
0.0
  0
LINE
  5
228
330
218
100
AcDbEntity
  8
0-1
  6
CONTINUOUS
 62
     7
100
AcDbLine
 10
751.578823
 20
24.913462
 30
0.0
 11
752.8019
 21
26.136538
 31
0.0
  0
LINE
  5
229
330
218
100
AcDbEntity
  8
0-1
  6
CONTINUOUS
 62
     7
100
AcDbLine
 10
752.8019
 20
26.136538
 30
0.0
 11
753.592284
 21
25.346154
 31
0.0
  0
LINE
  5
22A
330
218
100
AcDbEntity
  8
0-1
  6
CONTINUOUS
 62
     7
100
AcDbLine
 10
753.592284
 20
25.346154
 30
0.0
 11
755.224977
 21
25.346154
 31
0.0
  0
ENDBLK
  5
21A
330
218
100
AcDbEntity
  8
0
100
AcDbBlockEnd
  0
BLOCK
  5
257
330
256
100
AcDbEntity
  8
0
100
AcDbBlockBegin
  2
*D22
 70
     1
 71
     0
 10
0.0
 20
0.0
 30
0.0
  3
*D22
  1

  0
TEXT
  5
259
330
256
100
AcDbEntity
  8
LAYERGROUP-1
  6
CONTINUOUS
 62
     7
100
AcDbText
 10
271.521515
 20
65.770958
 30
0.0
 40
4.0
  1
45
 41
0.851351
  7
FX_VECTOR
 72
     5
 11
277.521515
 21
65.770958
 31
0.0
100
AcDbText
  0
LINE
  5
25A
330
256
100
AcDbEntity
  8
LAYERGROUP-1
  6
CONTINUOUS
 62
     7
100
AcDbLine
 10
252.021508
 20
64.770959
 30
0.0
 11
297.021508
 21
64.770959
 31
0.0
  0
INSERT
  5
25B
330
256
100
AcDbEntity
  8
LAYERGROUP-1
  6
CONTINUOUS
 62
     7
100
AcDbBlockReference
  2
FXTIP_ARROW_S
 10
252.021508
 20
64.770959
 30
0.0
 41
4.0
 42
4.0
 50
180.0
  0
INSERT
  5
25C
330
256
100
AcDbEntity
  8
LAYERGROUP-1
  6
CONTINUOUS
 62
     7
100
AcDbBlockReference
  2
FXTIP_ARROW_E
 10
297.021508
 20
64.770959
 30
0.0
 41
4.0
 42
4.0
 50
360.0
  0
LINE
  5
25D
330
256
100
AcDbEntity
  8
LAYERGROUP-1
  6
CONTINUOUS
 62
     7
100
AcDbLine
 10
252.021508
 20
100.24206
 30
0.0
 11
252.021508
 21
63.770959
 31
0.0
  0
LINE
  5
25E
330
256
100
AcDbEntity
  8
LAYERGROUP-1
  6
CONTINUOUS
 62
     7
100
AcDbLine
 10
297.021508
 20
100.24206
 30
0.0
 11
297.021508
 21
63.770959
 31
0.0
  0
ENDBLK
  5
258
330
256
100
AcDbEntity
  8
0
100
AcDbBlockEnd
  0
BLOCK
  5
261
330
260
100
AcDbEntity
  8
0
100
AcDbBlockBegin
  2
*D23
 70
     1
 71
     0
 10
0.0
 20
0.0
 30
0.0
  3
*D23
  1

  0
TEXT
  5
263
330
260
100
AcDbEntity
  8
LAYERGROUP-1
  6
CONTINUOUS
 62
     7
100
AcDbText
 10
350.196808
 20
155.241776
 30
0.0
 40
4.0
  1
%%c150
 50
90.0
 41
0.828947
  7
FX_VECTOR
 72
     5
 11
350.196808
 21
167.241776
 31
0.0
100
AcDbText
  0
LINE
  5
264
330
260
100
AcDbEntity
  8
LAYERGROUP-1
  6
CONTINUOUS
 62
     7
100
AcDbLine
 10
351.196805
 20
86.24178
 30
0.0
 11
351.196805
 21
236.24178
 31
0.0
  0
INSERT
  5
265
330
260
100
AcDbEntity
  8
LAYERGROUP-1
  6
CONTINUOUS
 62
     7
100
AcDbBlockReference
  2
FXTIP_ARROW_S
 10
351.196805
 20
86.24178
 30
0.0
 41
4.0
 42
4.0
 50
270.0
  0
INSERT
  5
266
330
260
100
AcDbEntity
  8
LAYERGROUP-1
  6
CONTINUOUS
 62
     7
100
AcDbBlockReference
  2
FXTIP_ARROW_E
 10
351.196805
 20
236.24178
 30
0.0
 41
4.0
 42
4.0
 50
90.0
  0
LINE
  5
267
330
260
100
AcDbEntity
  8
LAYERGROUP-1
  6
CONTINUOUS
 62
     7
100
AcDbLine
 10
275.521508
 20
86.24178
 30
0.0
 11
352.196805
 21
86.24178
 31
0.0
  0
LINE
  5
268
330
260
100
AcDbEntity
  8
LAYERGROUP-1
  6
CONTINUOUS
 62
     7
100
AcDbLine
 10
275.521508
 20
236.24178
 30
0.0
 11
352.196805
 21
236.24178
 31
0.0
  0
ENDBLK
  5
262
330
260
100
AcDbEntity
  8
0
100
AcDbBlockEnd
  0
ENDSEC
  0
SECTION
  2
ENTITIES
  0
TEXT
  5
A8
330
1F
100
AcDbEntity
  8
}}ﾊﾊGG血CCТ
  6
CONTINUOUS
 62
     7
100
AcDbText
 10
566.0
 20
22.0
 30
0.0
 40
6.0
  1
ＷＫＰ－１５０　ＲＢ
 41
0.79096
  7
FX_VECTOR
 72
     5
 11
606.0
 21
22.0
 31
0.0
100
AcDbText
  0
LINE
  5
AA
330
1F
100
AcDbEntity
  8
GR1-1
  6
CONTINUOUS
 62
     3
100
AcDbLine
 10
243.521508
 20
141.74178
 30
0.0
 11
246.521508
 21
141.74178
 31
0.0
  0
LINE
  5
AB
330
1F
100
AcDbEntity
  8
GR1-1
  6
CENTER
 62
     6
100
AcDbLine
 10
223.587991
 20
161.24178
 30
0.0
 11
315.050944
 21
161.24178
 31
0.0
  0
LINE
  5
AC
330
1F
100
AcDbEntity
  8
GR1-1
  6
CENTER
 62
     6
100
AcDbLine
 10
274.521508
 20
78.048595
 30
0.0
 11
274.521508
 21
295.827894
 31
0.0
  0
LINE
  5
AD
330
1F
100
AcDbEntity
  8
LAYERGROUP-1
  6
CONTINUOUS
 62
     3
100
AcDbLine
 10
246.521508
 20
141.74178
 30
0.0
 11
246.521508
 21
277.723165
 31
0.0
  0
LINE
  5
AE
330
1F
100
AcDbEntity
  8
LAYERGROUP-1
  6
CONTINUOUS
 62
     3
100
AcDbLine
 10
215.521508
 20
284.24178
 30
0.0
 11
333.521508
 21
284.24178
 31
0.0
  0
LINE
  5
AF
330
1F
100
AcDbEntity
  8
LAYERGROUP-1
  6
CONTINUOUS
 62
     3
100
AcDbLine
 10
215.521508
 20
281.24178
 30
0.0
 11
333.521508
 21
281.24178
 31
0.0
  0
LINE
  5
B0
330
1F
100
AcDbEntity
  8
LAYERGROUP-1
  6
CONTINUOUS
 62
     3
100
AcDbLine
 10
210.521508
 20
279.24178
 30
0.0
 11
210.521508
 21
235.84178
 31
0.0
  0
LINE
  5
B1
330
1F
100
AcDbEntity
  8
LAYERGROUP-1
  6
CONTINUOUS
 62
     3
100
AcDbLine
 10
243.521508
 20
141.74178
 30
0.0
 11
243.521508
 21
146.74178
 31
0.0
  0
ARC
  5
B2
330
1F
100
AcDbEntity
  8
LAYERGROUP-1
  6
CONTINUOUS
 62
     3
100
AcDbCircle
 10
206.774893
 20
146.74178
 30
0.0
 40
36.74661505014252
100
AcDbArc
 50
0.0
 51
43.737438
  0
ARC
  5
B3
330
1F
100
AcDbEntity
  8
LAYERGROUP-1
  6
CONTINUOUS
 62
     3
100
AcDbCircle
 10
205.362504
 20
141.74178
 30
0.0
 40
41.15900376238414
100
AcDbArc
 50
0.0
 51
44.319852
  0
LINE
  5
B4
330
1F
100
AcDbEntity
  8
LAYERGROUP-1
  6
CONTINUOUS
 62
     3
100
AcDbLine
 10
213.521508
 20
279.24178
 30
0.0
 11
213.521508
 21
235.84178
 31
0.0
  0
LINE
  5
B5
330
1F
100
AcDbEntity
  8
LAYERGROUP-1
  6
CONTINUOUS
 62
     3
100
AcDbLine
 10
338.521508
 20
279.24178
 30
0.0
 11
338.521508
 21
235.84178
 31
0.0
  0
LINE
  5
B6
330
1F
100
AcDbEntity
  8
LAYERGROUP-1
  6
CONTINUOUS
 62
     3
100
AcDbLine
 10
335.521508
 20
279.24178
 30
0.0
 11
335.521508
 21
235.84178
 31
0.0
  0
LINE
  5
B7
330
1F
100
AcDbEntity
  8
LAYERGROUP-1
  6
CONTINUOUS
 62
     3
100
AcDbLine
 10
253.764149
 20
278.24178
 30
0.0
 11
295.278867
 21
278.24178
 31
0.0
  0
LINE
  5
B8
330
1F
100
AcDbEntity
  8
LAYERGROUP-1
  6
CONTINUOUS
 62
     3
100
AcDbLine
 10
249.814401
 20
280.948887
 30
0.0
 11
251.642828
 21
279.12046
 31
0.0
  0
ARC
  5
B9
330
1F
100
AcDbEntity
  8
LAYERGROUP-1
  6
CONTINUOUS
 62
     3
100
AcDbCircle
 10
249.107295
 20
280.24178
 30
0.0
 40
1.0
100
AcDbArc
 50
45.0
 51
90.0
  0
ARC
  5
BA
330
1F
100
AcDbEntity
  8
LAYERGROUP-1
  6
CONTINUOUS
 62
     3
100
AcDbCircle
 10
253.764149
 20
281.24178
 30
0.0
 40
3.0
100
AcDbArc
 50
225.0
 51
270.0
  0
ARC
  5
BB
330
1F
100
AcDbEntity
  8
LAYERGROUP-1
  6
CONTINUOUS
 62
     3
100
AcDbCircle
 10
251.521508
 20
277.723165
 30
0.0
 40
5.0
100
AcDbArc
 50
135.273529
 51
180.0
  0
ARC
  5
BC
330
1F
100
AcDbEntity
  8
LAYERGROUP-1
  6
CONTINUOUS
 62
     3
100
AcDbCircle
 10
215.521508
 20
279.24178
 30
0.0
 40
5.0
100
AcDbArc
 50
90.0
 51
180.0
  0
ARC
  5
BD
330
1F
100
AcDbEntity
  8
LAYERGROUP-1
  6
CONTINUOUS
 62
     3
100
AcDbCircle
 10
215.521508
 20
279.24178
 30
0.0
 40
2.0
100
AcDbArc
 50
90.0
 51
180.0
  0
LINE
  5
BE
330
1F
100
AcDbEntity
  8
LAYERGROUP-1
  6
CONTINUOUS
 62
     3
100
AcDbLine
 10
299.228615
 20
280.948887
 30
0.0
 11
297.400188
 21
279.12046
 31
0.0
  0
ARC
  5
BF
330
1F
100
AcDbEntity
  8
LAYERGROUP-1
  6
CONTINUOUS
 62
     3
100
AcDbCircle
 10
299.935722
 20
280.24178
 30
0.0
 40
1.0
100
AcDbArc
 50
90.0
 51
135.0
  0
ARC
  5
C0
330
1F
100
AcDbEntity
  8
LAYERGROUP-1
  6
CONTINUOUS
 62
     3
100
AcDbCircle
 10
295.278867
 20
281.24178
 30
0.0
 40
3.0
100
AcDbArc
 50
270.0
 51
315.0
  0
ARC
  5
C1
330
1F
100
AcDbEntity
  8
LAYERGROUP-1
  6
CONTINUOUS
 62
     3
100
AcDbCircle
 10
333.521508
 20
279.24178
 30
0.0
 40
5.0
100
AcDbArc
 50
0.0
 51
90.0
  0
ARC
  5
C2
330
1F
100
AcDbEntity
  8
LAYERGROUP-1
  6
CONTINUOUS
 62
     3
100
AcDbCircle
 10
333.521508
 20
279.24178
 30
0.0
 40
2.0
100
AcDbArc
 50
0.0
 51
90.0
  0
LINE
  5
C3
330
1F
100
AcDbEntity
  8
GR1-1
  6
CONTINUOUS
 62
     3
100
AcDbLine
 10
494.461311
 20
284.24178
 30
0.0
 11
614.461311
 21
284.24178
 31
0.0
  0
ARC
  5
C4
330
1F
100
AcDbEntity
  8
GR1-1
  6
CONTINUOUS
 62
     3
100
AcDbCircle
 10
554.461311
 20
167.74178
 30
0.0
 40
26.0
100
AcDbArc
 50
199.225689
 51
340.774311
  0
TEXT
  5
C5
330
1F
100
AcDbEntity
  8
GR1-1
  6
CONTINUOUS
 62
     7
100
AcDbText
 10
550.065674
 20
231.084656
 30
0.0
 40
9.394314
  1
KP-150
 50
270.0
 41
0.689106
  7
FX_VECTOR
 72
     5
 11
550.065674
 21
192.550871
 31
0.0
100
AcDbText
  0
LINE
  5
C6
330
1F
100
AcDbEntity
  8
GR1-1
  6
CENTER
 62
     6
100
AcDbLine
 10
554.461311
 20
295.827894
 30
0.0
 11
554.461311
 21
78.048595
 31
0.0
  0
LINE
  5
C7
330
1F
100
AcDbEntity
  8
GR1-1
  6
CONTINUOUS
 62
     6
100
AcDbLine
 10
575.961311
 20
157.825371
 30
0.0
 11
575.961311
 21
277.360975
 31
0.0
  0
LINE
  5
C8
330
1F
100
AcDbEntity
  8
GR1-1
  6
CONTINUOUS
 62
     6
100
AcDbLine
 10
532.961311
 20
277.360975
 30
0.0
 11
532.961311
 21
157.825371
 31
0.0
  0
LINE
  5
C9
330
1F
100
AcDbEntity
  8
LAYERGROUP-1
  6
CONTINUOUS
 62
     3
100
AcDbLine
 10
494.461311
 20
284.24178
 30
0.0
 11
494.461311
 21
281.24178
 31
0.0
  0
ARC
  5
CA
330
1F
100
AcDbEntity
  8
LAYERGROUP-1
  6
CONTINUOUS
 62
     3
100
AcDbCircle
 10
930.448994
 20
325.261899
 30
0.0
 40
433.1281949120437
100
AcDbArc
 50
187.117115
 51
197.318304
  0
LINE
  5
CB
330
1F
100
AcDbEntity
  8
LAYERGROUP-1
  6
CONTINUOUS
 62
     3
100
AcDbLine
 10
516.95634
 20
196.328357
 30
0.0
 11
529.911361
 21
159.180239
 31
0.0
  0
ARC
  5
CC
330
1F
100
AcDbEntity
  8
LAYERGROUP-1
  6
CONTINUOUS
 62
     3
100
AcDbCircle
 10
178.473628
 20
325.261899
 30
0.0
 40
433.1281949120437
100
AcDbArc
 50
342.681696
 51
352.882885
  0
LINE
  5
CD
330
1F
100
AcDbEntity
  8
LAYERGROUP-1
  6
CONTINUOUS
 62
     3
100
AcDbLine
 10
591.966282
 20
196.328357
 30
0.0
 11
579.01126
 21
159.180239
 31
0.0
  0
LINE
  5
CE
330
1F
100
AcDbEntity
  8
LAYERGROUP-1
  6
CONTINUOUS
 62
     3
100
AcDbLine
 10
519.789026
 20
197.316227
 30
0.0
 11
524.430674
 21
184.006447
 31
0.0
  0
ARC
  5
CF
330
1F
100
AcDbEntity
  8
LAYERGROUP-1
  6
CONTINUOUS
 62
     3
100
AcDbCircle
 10
343.245626
 20
131.4815
 30
0.0
 40
188.6448831706998
100
AcDbArc
 50
9.49132
 51
16.166699
  0
ARC
  5
D0
330
1F
100
AcDbEntity
  8
LAYERGROUP-1
  6
CONTINUOUS
 62
     3
100
AcDbCircle
 10
554.175062
 20
166.746132
 30
0.0
 40
25.21212859655067
100
AcDbArc
 50
189.49132
 51
212.710627
  0
ARC
  5
D1
330
1F
100
AcDbEntity
  8
LAYERGROUP-1
  6
CONTINUOUS
 62
     3
100
AcDbCircle
 10
492.266929
 20
275.455009
 30
0.0
 40
9.056635687174312
100
AcDbArc
 50
-8.319111
 51
75.977937
  0
ARC
  5
D2
330
1F
100
AcDbEntity
  8
LAYERGROUP-1
  6
CONTINUOUS
 62
     3
100
AcDbCircle
 10
706.309225
 20
282.01277
 30
0.0
 40
204.853966778855
100
AcDbArc
 50
190.921347
 51
204.436153
  0
LINE
  5
D3
330
1F
100
AcDbEntity
  8
GR1-1
  6
CONTINUOUS
 62
     3
100
AcDbLine
 10
502.461311
 20
399.601777
 30
0.0
 11
503.893975
 21
399.601777
 31
0.0
  0
LINE
  5
D4
330
1F
100
AcDbEntity
  8
GR1-1
  6
CENTER
 62
     6
100
AcDbLine
 10
554.461311
 20
404.478658
 30
0.0
 11
554.461311
 21
493.140538
 31
0.0
  0
LINE
  5
D5
330
1F
100
AcDbEntity
  8
GR1-1
  6
CONTINUOUS
 62
     3
100
AcDbLine
 10
494.461311
 20
388.101777
 30
0.0
 11
494.461311
 21
504.101777
 31
0.0
  0
LINE
  5
D6
330
1F
100
AcDbEntity
  8
GR1-1
  6
CONTINUOUS
 62
     3
100
AcDbLine
 10
500.461311
 20
382.101777
 30
0.0
 11
509.346605
 21
382.101777
 31
0.0
  0
ARC
  5
D7
330
1F
100
AcDbEntity
  8
GR1-1
  6
CONTINUOUS
 62
     3
100
AcDbCircle
 10
597.961311
 20
402.601777
 30
0.0
 40
5.5
100
AcDbArc
 50
45.0
 51
225.0
  0
LINE
  5
D8
330
1F
100
AcDbEntity
  8
GR1-1
  6
CONTINUOUS
 62
     3
100
AcDbLine
 10
594.072224
 20
398.71269
 30
0.0
 11
597.072224
 21
395.71269
 31
0.0
  0
ARC
  5
D9
330
1F
100
AcDbEntity
  8
GR1-1
  6
CONTINUOUS
 62
     3
100
AcDbCircle
 10
600.961311
 20
399.601777
 30
0.0
 40
5.5
100
AcDbArc
 50
-135.0
 51
45.0
  0
LINE
  5
DA
330
1F
100
AcDbEntity
  8
GR1-1
  6
CONTINUOUS
 62
     3
100
AcDbLine
 10
604.850398
 20
403.490864
 30
0.0
 11
601.850398
 21
406.490864
 31
0.0
  0
LINE
  5
DB
330
1F
100
AcDbEntity
  8
GR1-1
  6
CONTINUOUS
 62
     3
100
AcDbLine
 10
514.850398
 20
398.71269
 30
0.0
 11
511.850398
 21
395.71269
 31
0.0
  0
ARC
  5
DC
330
1F
100
AcDbEntity
  8
GR1-1
  6
CONTINUOUS
 62
     3
100
AcDbCircle
 10
510.961311
 20
402.601777
 30
0.0
 40
5.5
100
AcDbArc
 50
-45.0
 51
135.0
  0
LINE
  5
DD
330
1F
100
AcDbEntity
  8
GR1-1
  6
CONTINUOUS
 62
     3
100
AcDbLine
 10
507.072224
 20
406.490864
 30
0.0
 11
504.072224
 21
403.490864
 31
0.0
  0
ARC
  5
DE
330
1F
100
AcDbEntity
  8
GR1-1
  6
CONTINUOUS
 62
     3
100
AcDbCircle
 10
507.961311
 20
399.601777
 30
0.0
 40
5.5
100
AcDbArc
 50
135.0
 51
315.0
  0
LINE
  5
DF
330
1F
100
AcDbEntity
  8
GR1-1
  6
CONTINUOUS
 62
     6
100
AcDbLine
 10
597.961311
 20
411.101777
 30
0.0
 11
597.961311
 21
406.101777
 31
0.0
  0
LINE
  5
E0
330
1F
100
AcDbEntity
  8
GR1-1
  6
CONTINUOUS
 62
     6
100
AcDbLine
 10
597.961311
 20
404.601777
 30
0.0
 11
597.961311
 21
400.601777
 31
0.0
  0
LINE
  5
E1
330
1F
100
AcDbEntity
  8
GR1-1
  6
CONTINUOUS
 62
     6
100
AcDbLine
 10
597.461311
 20
399.601777
 30
0.0
 11
592.461311
 21
399.601777
 31
0.0
  0
LINE
  5
E2
330
1F
100
AcDbEntity
  8
GR1-1
  6
CONTINUOUS
 62
     6
100
AcDbLine
 10
594.461311
 20
402.601777
 30
0.0
 11
589.461311
 21
402.601777
 31
0.0
  0
LINE
  5
E3
330
1F
100
AcDbEntity
  8
GR1-1
  6
CONTINUOUS
 62
     6
100
AcDbLine
 10
595.961311
 20
402.601777
 30
0.0
 11
599.961311
 21
402.601777
 31
0.0
  0
LINE
  5
E4
330
1F
100
AcDbEntity
  8
GR1-1
  6
CONTINUOUS
 62
     6
100
AcDbLine
 10
600.961311
 20
403.101777
 30
0.0
 11
600.961311
 21
408.101777
 31
0.0
  0
LINE
  5
E5
330
1F
100
AcDbEntity
  8
GR1-1
  6
CONTINUOUS
 62
     6
100
AcDbLine
 10
601.461311
 20
402.601777
 30
0.0
 11
606.461311
 21
402.601777
 31
0.0
  0
LINE
  5
E6
330
1F
100
AcDbEntity
  8
GR1-1
  6
CONTINUOUS
 62
     6
100
AcDbLine
 10
604.461311
 20
399.601777
 30
0.0
 11
609.461311
 21
399.601777
 31
0.0
  0
LINE
  5
E7
330
1F
100
AcDbEntity
  8
GR1-1
  6
CONTINUOUS
 62
     6
100
AcDbLine
 10
602.961311
 20
399.601777
 30
0.0
 11
598.961311
 21
399.601777
 31
0.0
  0
LINE
  5
E8
330
1F
100
AcDbEntity
  8
GR1-1
  6
CONTINUOUS
 62
     6
100
AcDbLine
 10
597.961311
 20
399.101777
 30
0.0
 11
597.961311
 21
394.101777
 31
0.0
  0
LINE
  5
E9
330
1F
100
AcDbEntity
  8
GR1-1
  6
CONTINUOUS
 62
     6
100
AcDbLine
 10
600.961311
 20
396.101777
 30
0.0
 11
600.961311
 21
391.101777
 31
0.0
  0
LINE
  5
EA
330
1F
100
AcDbEntity
  8
GR1-1
  6
CONTINUOUS
 62
     6
100
AcDbLine
 10
600.961311
 20
397.601777
 30
0.0
 11
600.961311
 21
401.601777
 31
0.0
  0
LINE
  5
EB
330
1F
100
AcDbEntity
  8
GR1-1
  6
CONTINUOUS
 62
     6
100
AcDbLine
 10
507.961311
 20
391.101777
 30
0.0
 11
507.961311
 21
396.101777
 31
0.0
  0
LINE
  5
EC
330
1F
100
AcDbEntity
  8
GR1-1
  6
CONTINUOUS
 62
     6
100
AcDbLine
 10
507.961311
 20
397.601777
 30
0.0
 11
507.961311
 21
401.601777
 31
0.0
  0
LINE
  5
ED
330
1F
100
AcDbEntity
  8
GR1-1
  6
CONTINUOUS
 62
     6
100
AcDbLine
 10
507.461311
 20
402.601777
 30
0.0
 11
502.461311
 21
402.601777
 31
0.0
  0
LINE
  5
EE
330
1F
100
AcDbEntity
  8
GR1-1
  6
CONTINUOUS
 62
     6
100
AcDbLine
 10
504.461311
 20
399.601777
 30
0.0
 11
499.461311
 21
399.601777
 31
0.0
  0
LINE
  5
EF
330
1F
100
AcDbEntity
  8
GR1-1
  6
CONTINUOUS
 62
     6
100
AcDbLine
 10
505.961311
 20
399.601777
 30
0.0
 11
509.961311
 21
399.601777
 31
0.0
  0
LINE
  5
F0
330
1F
100
AcDbEntity
  8
GR1-1
  6
CONTINUOUS
 62
     6
100
AcDbLine
 10
510.961311
 20
399.101777
 30
0.0
 11
510.961311
 21
394.101777
 31
0.0
  0
LINE
  5
F1
330
1F
100
AcDbEntity
  8
GR1-1
  6
CONTINUOUS
 62
     6
100
AcDbLine
 10
511.461311
 20
399.601777
 30
0.0
 11
516.461311
 21
399.601777
 31
0.0
  0
LINE
  5
F2
330
1F
100
AcDbEntity
  8
GR1-1
  6
CONTINUOUS
 62
     6
100
AcDbLine
 10
514.461311
 20
402.601777
 30
0.0
 11
519.461311
 21
402.601777
 31
0.0
  0
LINE
  5
F3
330
1F
100
AcDbEntity
  8
GR1-1
  6
CONTINUOUS
 62
     6
100
AcDbLine
 10
512.961311
 20
402.601777
 30
0.0
 11
508.961311
 21
402.601777
 31
0.0
  0
LINE
  5
F4
330
1F
100
AcDbEntity
  8
GR1-1
  6
CONTINUOUS
 62
     6
100
AcDbLine
 10
507.961311
 20
403.101777
 30
0.0
 11
507.961311
 21
408.101777
 31
0.0
  0
LINE
  5
F5
330
1F
100
AcDbEntity
  8
GR1-1
  6
CONTINUOUS
 62
     6
100
AcDbLine
 10
510.961311
 20
406.101777
 30
0.0
 11
510.961311
 21
411.101777
 31
0.0
  0
LINE
  5
F6
330
1F
100
AcDbEntity
  8
GR1-1
  6
CONTINUOUS
 62
     6
100
AcDbLine
 10
510.961311
 20
404.601777
 30
0.0
 11
510.961311
 21
400.601777
 31
0.0
  0
ARC
  5
F7
330
1F
100
AcDbEntity
  8
LAYERGROUP-1
  6
CONTINUOUS
 62
     3
100
AcDbCircle
 10
500.461311
 20
388.101777
 30
0.0
 40
6.0
100
AcDbArc
 50
180.0
 51
270.0
  0
LINE
  5
F8
330
1F
100
AcDbEntity
  8
GR1-1
  6
CONTINUOUS
 62
     3
100
AcDbLine
 10
614.461311
 20
388.101777
 30
0.0
 11
614.461311
 21
504.101777
 31
0.0
  0
ARC
  5
F9
330
1F
100
AcDbEntity
  8
LAYERGROUP-1
  6
CONTINUOUS
 62
     3
100
AcDbCircle
 10
608.461311
 20
388.101777
 30
0.0
 40
6.0
100
AcDbArc
 50
270.0
 51
360.0
  0
LINE
  5
FA
330
1F
100
AcDbEntity
  8
GR1-1
  6
CONTINUOUS
 62
     3
100
AcDbLine
 10
599.449264
 20
382.101777
 30
0.0
 11
608.461311
 21
382.101777
 31
0.0
  0
LINE
  5
FB
330
1F
100
AcDbEntity
  8
GR1-1
  6
CONTINUOUS
 62
     6
100
AcDbLine
 10
508.461311
 20
426.701777
 30
0.0
 11
508.461311
 21
465.501777
 31
0.0
  0
ARC
  5
FC
330
1F
100
AcDbEntity
  8
GR1-1
  6
CONTINUOUS
 62
     6
100
AcDbCircle
 10
510.461311
 20
426.701777
 30
0.0
 40
2.0
100
AcDbArc
 50
180.0
 51
301.771824
  0
LINE
  5
FD
330
1F
100
AcDbEntity
  8
GR1-1
  6
CONTINUOUS
 62
     6
100
AcDbLine
 10
511.514386
 20
425.001473
 30
0.0
 11
523.546395
 21
432.453446
 31
0.0
  0
ARC
  5
FE
330
1F
100
AcDbEntity
  8
GR1-1
  6
CONTINUOUS
 62
     6
100
AcDbCircle
 10
529.338311
 20
423.101777
 30
0.0
 40
11.0
100
AcDbArc
 50
90.0
 51
121.771824
  0
LINE
  5
FF
330
1F
100
AcDbEntity
  8
GR1-1
  6
CONTINUOUS
 62
     6
100
AcDbLine
 10
529.338311
 20
434.101777
 30
0.0
 11
579.584311
 21
434.101777
 31
0.0
  0
LINE
  5
100
330
1F
100
AcDbEntity
  8
GR1-1
  6
PHANTOM
 62
     6
100
AcDbLine
 10
504.461311
 20
426.701777
 30
0.0
 11
504.461311
 21
465.501777
 31
0.0
  0
ARC
  5
101
330
1F
100
AcDbEntity
  8
GR1-1
  6
PHANTOM
 62
     6
100
AcDbCircle
 10
510.461311
 20
426.701777
 30
0.0
 40
6.0
100
AcDbArc
 50
180.0
 51
301.771824
  0
LINE
  5
102
330
1F
100
AcDbEntity
  8
GR1-1
  6
PHANTOM
 62
     6
100
AcDbLine
 10
513.620538
 20
421.600867
 30
0.0
 11
525.652546
 21
429.052839
 31
0.0
  0
ARC
  5
103
330
1F
100
AcDbEntity
  8
GR1-1
  6
PHANTOM
 62
     6
100
AcDbCircle
 10
529.338311
 20
423.101777
 30
0.0
 40
7.0
100
AcDbArc
 50
90.0
 51
121.771824
  0
LINE
  5
104
330
1F
100
AcDbEntity
  8
GR1-1
  6
PHANTOM
 62
     6
100
AcDbLine
 10
529.338311
 20
430.101777
 30
0.0
 11
579.584311
 21
430.101777
 31
0.0
  0
LINE
  5
105
330
1F
100
AcDbEntity
  8
LAYERGROUP-1
  6
DASHED
 62
     6
100
AcDbLine
 10
608.461311
 20
385.101777
 30
0.0
 11
599.576017
 21
385.101777
 31
0.0
  0
LINE
  5
106
330
1F
100
AcDbEntity
  8
LAYERGROUP-1
  6
DASHED
 62
     6
100
AcDbLine
 10
509.346605
 20
385.101777
 30
0.0
 11
500.461311
 21
385.101777
 31
0.0
  0
LINE
  5
107
330
1F
100
AcDbEntity
  8
GR1-1
  6
CONTINUOUS
 62
     6
100
AcDbLine
 10
600.461311
 20
426.701777
 30
0.0
 11
600.461311
 21
465.501777
 31
0.0
  0
ARC
  5
108
330
1F
100
AcDbEntity
  8
GR1-1
  6
CONTINUOUS
 62
     6
100
AcDbCircle
 10
598.461311
 20
426.701777
 30
0.0
 40
2.0
100
AcDbArc
 50
238.228176
 51
360.0
  0
LINE
  5
109
330
1F
100
AcDbEntity
  8
GR1-1
  6
CONTINUOUS
 62
     6
100
AcDbLine
 10
597.408235
 20
425.001473
 30
0.0
 11
585.376227
 21
432.453446
 31
0.0
  0
ARC
  5
10A
330
1F
100
AcDbEntity
  8
GR1-1
  6
CONTINUOUS
 62
     6
100
AcDbCircle
 10
579.584311
 20
423.101777
 30
0.0
 40
11.0
100
AcDbArc
 50
58.228176
 51
90.0
  0
LINE
  5
10B
330
1F
100
AcDbEntity
  8
GR1-1
  6
PHANTOM
 62
     6
100
AcDbLine
 10
604.461311
 20
426.701777
 30
0.0
 11
604.461311
 21
465.501777
 31
0.0
  0
ARC
  5
10C
330
1F
100
AcDbEntity
  8
GR1-1
  6
PHANTOM
 62
     6
100
AcDbCircle
 10
598.461311
 20
426.701777
 30
0.0
 40
6.0
100
AcDbArc
 50
238.228176
 51
360.0
  0
LINE
  5
10D
330
1F
100
AcDbEntity
  8
GR1-1
  6
PHANTOM
 62
     6
100
AcDbLine
 10
595.302084
 20
421.600867
 30
0.0
 11
583.270075
 21
429.052839
 31
0.0
  0
ARC
  5
10E
330
1F
100
AcDbEntity
  8
GR1-1
  6
PHANTOM
 62
     6
100
AcDbCircle
 10
579.584311
 20
423.101777
 30
0.0
 40
7.0
100
AcDbArc
 50
58.228176
 51
90.0
  0
LINE
  5
10F
330
1F
100
AcDbEntity
  8
LAYERGROUP-1
  6
CONTINUOUS
 62
     3
100
AcDbLine
 10
589.133595
 20
197.316227
 30
0.0
 11
584.491948
 21
184.006447
 31
0.0
  0
ARC
  5
110
330
1F
100
AcDbEntity
  8
LAYERGROUP-1
  6
CONTINUOUS
 62
     3
100
AcDbCircle
 10
765.676996
 20
131.4815
 30
0.0
 40
188.6448831706998
100
AcDbArc
 50
163.833301
 51
170.50868
  0
ARC
  5
111
330
1F
100
AcDbEntity
  8
LAYERGROUP-1
  6
CONTINUOUS
 62
     3
100
AcDbCircle
 10
554.74756
 20
166.746132
 30
0.0
 40
25.21212859655067
100
AcDbArc
 50
327.289373
 51
350.50868
  0
ARC
  5
112
330
1F
100
AcDbEntity
  8
LAYERGROUP-1
  6
CONTINUOUS
 62
     3
100
AcDbCircle
 10
402.613397
 20
282.01277
 30
0.0
 40
204.853966778855
100
AcDbArc
 50
335.563847
 51
349.078653
  0
ARC
  5
113
330
1F
100
AcDbEntity
  8
LAYERGROUP-1
  6
CONTINUOUS
 62
     3
100
AcDbCircle
 10
489.551979
 20
271.274411
 30
0.0
 40
11.11080477991544
100
AcDbArc
 50
1.67009
 51
63.777888
  0
ARC
  5
114
330
1F
100
AcDbEntity
  8
LAYERGROUP-1
  6
CONTINUOUS
 62
     3
100
AcDbCircle
 10
524.890431
 20
270.684642
 30
0.0
 40
23.91379534426953
100
AcDbArc
 50
171.680889
 51
187.664423
  0
LINE
  5
115
330
1F
100
AcDbEntity
  8
LAYERGROUP-1
  6
CONTINUOUS
 62
     3
100
AcDbLine
 10
614.461311
 20
284.24178
 30
0.0
 11
614.461311
 21
281.24178
 31
0.0
  0
ARC
  5
116
330
1F
100
AcDbEntity
  8
LAYERGROUP-1
  6
CONTINUOUS
 62
     3
100
AcDbCircle
 10
616.655693
 20
275.455009
 30
0.0
 40
9.056635687174312
100
AcDbArc
 50
104.022063
 51
188.319111
  0
ARC
  5
117
330
1F
100
AcDbEntity
  8
LAYERGROUP-1
  6
CONTINUOUS
 62
     3
100
AcDbCircle
 10
619.370643
 20
271.274411
 30
0.0
 40
11.11080477991544
100
AcDbArc
 50
116.222112
 51
178.32991
  0
ARC
  5
118
330
1F
100
AcDbEntity
  8
LAYERGROUP-1
  6
CONTINUOUS
 62
     3
100
AcDbCircle
 10
584.032191
 20
270.684642
 30
0.0
 40
23.91379534426953
100
AcDbArc
 50
-7.664423
 51
8.319111
  0
ARC
  5
119
330
1F
100
AcDbEntity
  8
LAYERGROUP-1
  6
DASHED
 62
     6
100
AcDbCircle
 10
608.461311
 20
402.444705
 30
0.0
 40
17.342927600228
100
AcDbArc
 50
270.0
 51
288.963059
  0
ARC
  5
11A
330
1F
100
AcDbEntity
  8
LAYERGROUP-1
  6
DASHED
 62
     6
100
AcDbCircle
 10
500.461311
 20
402.444705
 30
0.0
 40
17.342927600228
100
AcDbArc
 50
251.036941
 51
270.0
  0
LINE
  5
11B
330
1F
100
AcDbEntity
  8
GR1-1
  6
CONTINUOUS
 62
     3
100
AcDbLine
 10
248.021508
 20
171.24178
 30
0.0
 11
246.521508
 21
171.24178
 31
0.0
  0
LINE
  5
11C
330
1F
100
AcDbEntity
  8
GR1-1
  6
CONTINUOUS
 62
     3
100
AcDbLine
 10
246.521508
 20
151.24178
 30
0.0
 11
248.021508
 21
151.24178
 31
0.0
  0
CIRCLE
  5
11D
330
1F
100
AcDbEntity
  8
GR1-1
  6
CONTINUOUS
 62
     3
100
AcDbCircle
 10
554.461311
 20
161.24178
 30
0.0
 40
13.0
  0
LINE
  5
11E
330
1F
100
AcDbEntity
  8
GR1-1
  6
CENTER
 62
     6
100
AcDbLine
 10
632.759771
 20
161.24178
 30
0.0
 11
475.756445
 21
161.24178
 31
0.0
  0
LINE
  5
11F
330
1F
100
AcDbEntity
  8
GR1-1
  6
CONTINUOUS
 62
     3
100
AcDbLine
 10
502.461311
 20
492.601777
 30
0.0
 11
503.893975
 21
492.601777
 31
0.0
  0
LINE
  5
120
330
1F
100
AcDbEntity
  8
GR1-1
  6
CONTINUOUS
 62
     3
100
AcDbLine
 10
500.461311
 20
510.101777
 30
0.0
 11
509.346605
 21
510.101777
 31
0.0
  0
ARC
  5
121
330
1F
100
AcDbEntity
  8
GR1-1
  6
CONTINUOUS
 62
     3
100
AcDbCircle
 10
597.961311
 20
489.601777
 30
0.0
 40
5.5
100
AcDbArc
 50
135.0
 51
315.0
  0
LINE
  5
122
330
1F
100
AcDbEntity
  8
GR1-1
  6
CONTINUOUS
 62
     3
100
AcDbLine
 10
594.072224
 20
493.490864
 30
0.0
 11
597.072224
 21
496.490864
 31
0.0
  0
ARC
  5
123
330
1F
100
AcDbEntity
  8
GR1-1
  6
CONTINUOUS
 62
     3
100
AcDbCircle
 10
600.961311
 20
492.601777
 30
0.0
 40
5.5
100
AcDbArc
 50
-45.0
 51
135.0
  0
LINE
  5
124
330
1F
100
AcDbEntity
  8
GR1-1
  6
CONTINUOUS
 62
     3
100
AcDbLine
 10
604.850398
 20
488.71269
 30
0.0
 11
601.850398
 21
485.71269
 31
0.0
  0
LINE
  5
125
330
1F
100
AcDbEntity
  8
GR1-1
  6
CONTINUOUS
 62
     3
100
AcDbLine
 10
514.850398
 20
493.490864
 30
0.0
 11
511.850398
 21
496.490864
 31
0.0
  0
ARC
  5
126
330
1F
100
AcDbEntity
  8
GR1-1
  6
CONTINUOUS
 62
     3
100
AcDbCircle
 10
510.961311
 20
489.601777
 30
0.0
 40
5.5
100
AcDbArc
 50
-135.0
 51
45.0
  0
LINE
  5
127
330
1F
100
AcDbEntity
  8
GR1-1
  6
CONTINUOUS
 62
     3
100
AcDbLine
 10
507.072224
 20
485.71269
 30
0.0
 11
504.072224
 21
488.71269
 31
0.0
  0
ARC
  5
128
330
1F
100
AcDbEntity
  8
GR1-1
  6
CONTINUOUS
 62
     3
100
AcDbCircle
 10
507.961311
 20
492.601777
 30
0.0
 40
5.5
100
AcDbArc
 50
45.0
 51
225.0
  0
LINE
  5
129
330
1F
100
AcDbEntity
  8
GR1-1
  6
CONTINUOUS
 62
     6
100
AcDbLine
 10
597.961311
 20
481.101777
 30
0.0
 11
597.961311
 21
486.101777
 31
0.0
  0
LINE
  5
12A
330
1F
100
AcDbEntity
  8
GR1-1
  6
CONTINUOUS
 62
     6
100
AcDbLine
 10
597.961311
 20
487.601777
 30
0.0
 11
597.961311
 21
491.601777
 31
0.0
  0
LINE
  5
12B
330
1F
100
AcDbEntity
  8
GR1-1
  6
CONTINUOUS
 62
     6
100
AcDbLine
 10
597.461311
 20
492.601777
 30
0.0
 11
592.461311
 21
492.601777
 31
0.0
  0
LINE
  5
12C
330
1F
100
AcDbEntity
  8
GR1-1
  6
CONTINUOUS
 62
     6
100
AcDbLine
 10
594.461311
 20
489.601777
 30
0.0
 11
589.461311
 21
489.601777
 31
0.0
  0
LINE
  5
12D
330
1F
100
AcDbEntity
  8
GR1-1
  6
CONTINUOUS
 62
     6
100
AcDbLine
 10
595.961311
 20
489.601777
 30
0.0
 11
599.961311
 21
489.601777
 31
0.0
  0
LINE
  5
12E
330
1F
100
AcDbEntity
  8
GR1-1
  6
CONTINUOUS
 62
     6
100
AcDbLine
 10
600.961311
 20
489.101777
 30
0.0
 11
600.961311
 21
484.101777
 31
0.0
  0
LINE
  5
12F
330
1F
100
AcDbEntity
  8
GR1-1
  6
CONTINUOUS
 62
     6
100
AcDbLine
 10
601.461311
 20
489.601777
 30
0.0
 11
606.461311
 21
489.601777
 31
0.0
  0
LINE
  5
130
330
1F
100
AcDbEntity
  8
GR1-1
  6
CONTINUOUS
 62
     6
100
AcDbLine
 10
604.461311
 20
492.601777
 30
0.0
 11
609.461311
 21
492.601777
 31
0.0
  0
LINE
  5
131
330
1F
100
AcDbEntity
  8
GR1-1
  6
CONTINUOUS
 62
     6
100
AcDbLine
 10
602.961311
 20
492.601777
 30
0.0
 11
598.961311
 21
492.601777
 31
0.0
  0
LINE
  5
132
330
1F
100
AcDbEntity
  8
GR1-1
  6
CONTINUOUS
 62
     6
100
AcDbLine
 10
597.961311
 20
493.101777
 30
0.0
 11
597.961311
 21
498.101777
 31
0.0
  0
LINE
  5
133
330
1F
100
AcDbEntity
  8
GR1-1
  6
CONTINUOUS
 62
     6
100
AcDbLine
 10
600.961311
 20
496.101777
 30
0.0
 11
600.961311
 21
501.101777
 31
0.0
  0
LINE
  5
134
330
1F
100
AcDbEntity
  8
GR1-1
  6
CONTINUOUS
 62
     6
100
AcDbLine
 10
600.961311
 20
494.601777
 30
0.0
 11
600.961311
 21
490.601777
 31
0.0
  0
LINE
  5
135
330
1F
100
AcDbEntity
  8
GR1-1
  6
CONTINUOUS
 62
     6
100
AcDbLine
 10
507.961311
 20
501.101777
 30
0.0
 11
507.961311
 21
496.101777
 31
0.0
  0
LINE
  5
136
330
1F
100
AcDbEntity
  8
GR1-1
  6
CONTINUOUS
 62
     6
100
AcDbLine
 10
507.961311
 20
494.601777
 30
0.0
 11
507.961311
 21
490.601777
 31
0.0
  0
LINE
  5
137
330
1F
100
AcDbEntity
  8
GR1-1
  6
CONTINUOUS
 62
     6
100
AcDbLine
 10
507.461311
 20
489.601777
 30
0.0
 11
502.461311
 21
489.601777
 31
0.0
  0
LINE
  5
138
330
1F
100
AcDbEntity
  8
GR1-1
  6
CONTINUOUS
 62
     6
100
AcDbLine
 10
504.461311
 20
492.601777
 30
0.0
 11
499.461311
 21
492.601777
 31
0.0
  0
LINE
  5
139
330
1F
100
AcDbEntity
  8
GR1-1
  6
CONTINUOUS
 62
     6
100
AcDbLine
 10
505.961311
 20
492.601777
 30
0.0
 11
509.961311
 21
492.601777
 31
0.0
  0
LINE
  5
13A
330
1F
100
AcDbEntity
  8
GR1-1
  6
CONTINUOUS
 62
     6
100
AcDbLine
 10
510.961311
 20
493.101777
 30
0.0
 11
510.961311
 21
498.101777
 31
0.0
  0
LINE
  5
13B
330
1F
100
AcDbEntity
  8
GR1-1
  6
CONTINUOUS
 62
     6
100
AcDbLine
 10
511.461311
 20
492.601777
 30
0.0
 11
516.461311
 21
492.601777
 31
0.0
  0
LINE
  5
13C
330
1F
100
AcDbEntity
  8
GR1-1
  6
CONTINUOUS
 62
     6
100
AcDbLine
 10
514.461311
 20
489.601777
 30
0.0
 11
519.461311
 21
489.601777
 31
0.0
  0
LINE
  5
13D
330
1F
100
AcDbEntity
  8
GR1-1
  6
CONTINUOUS
 62
     6
100
AcDbLine
 10
512.961311
 20
489.601777
 30
0.0
 11
508.961311
 21
489.601777
 31
0.0
  0
LINE
  5
13E
330
1F
100
AcDbEntity
  8
GR1-1
  6
CONTINUOUS
 62
     6
100
AcDbLine
 10
507.961311
 20
489.101777
 30
0.0
 11
507.961311
 21
484.101777
 31
0.0
  0
LINE
  5
13F
330
1F
100
AcDbEntity
  8
GR1-1
  6
CONTINUOUS
 62
     6
100
AcDbLine
 10
510.961311
 20
486.101777
 30
0.0
 11
510.961311
 21
481.101777
 31
0.0
  0
LINE
  5
140
330
1F
100
AcDbEntity
  8
GR1-1
  6
CONTINUOUS
 62
     6
100
AcDbLine
 10
510.961311
 20
487.601777
 30
0.0
 11
510.961311
 21
491.601777
 31
0.0
  0
ARC
  5
141
330
1F
100
AcDbEntity
  8
LAYERGROUP-1
  6
CONTINUOUS
 62
     3
100
AcDbCircle
 10
500.461311
 20
504.101777
 30
0.0
 40
6.0
100
AcDbArc
 50
90.0
 51
180.0
  0
ARC
  5
142
330
1F
100
AcDbEntity
  8
LAYERGROUP-1
  6
CONTINUOUS
 62
     3
100
AcDbCircle
 10
608.461311
 20
504.101777
 30
0.0
 40
6.0
100
AcDbArc
 50
0.0
 51
90.0
  0
LINE
  5
143
330
1F
100
AcDbEntity
  8
GR1-1
  6
CONTINUOUS
 62
     3
100
AcDbLine
 10
608.461311
 20
510.101777
 30
0.0
 11
599.576017
 21
510.101777
 31
0.0
  0
ARC
  5
144
330
1F
100
AcDbEntity
  8
GR1-1
  6
CONTINUOUS
 62
     6
100
AcDbCircle
 10
510.461311
 20
465.501777
 30
0.0
 40
2.0
100
AcDbArc
 50
58.228176
 51
180.0
  0
LINE
  5
145
330
1F
100
AcDbEntity
  8
GR1-1
  6
CONTINUOUS
 62
     6
100
AcDbLine
 10
511.514386
 20
467.20208
 30
0.0
 11
523.546395
 21
459.750108
 31
0.0
  0
ARC
  5
146
330
1F
100
AcDbEntity
  8
GR1-1
  6
CONTINUOUS
 62
     6
100
AcDbCircle
 10
529.338311
 20
469.101777
 30
0.0
 40
11.0
100
AcDbArc
 50
238.228176
 51
270.0
  0
LINE
  5
147
330
1F
100
AcDbEntity
  8
GR1-1
  6
CONTINUOUS
 62
     6
100
AcDbLine
 10
529.338311
 20
458.101777
 30
0.0
 11
579.584311
 21
458.101777
 31
0.0
  0
ARC
  5
148
330
1F
100
AcDbEntity
  8
GR1-1
  6
PHANTOM
 62
     6
100
AcDbCircle
 10
510.461311
 20
465.501777
 30
0.0
 40
6.0
100
AcDbArc
 50
58.228176
 51
180.0
  0
LINE
  5
149
330
1F
100
AcDbEntity
  8
GR1-1
  6
PHANTOM
 62
     6
100
AcDbLine
 10
513.620538
 20
470.602687
 30
0.0
 11
525.652546
 21
463.150715
 31
0.0
  0
ARC
  5
14A
330
1F
100
AcDbEntity
  8
GR1-1
  6
PHANTOM
 62
     6
100
AcDbCircle
 10
529.338311
 20
469.101777
 30
0.0
 40
7.0
100
AcDbArc
 50
238.228176
 51
270.0
  0
LINE
  5
14B
330
1F
100
AcDbEntity
  8
GR1-1
  6
PHANTOM
 62
     6
100
AcDbLine
 10
529.338311
 20
462.101777
 30
0.0
 11
579.584311
 21
462.101777
 31
0.0
  0
LINE
  5
14C
330
1F
100
AcDbEntity
  8
LAYERGROUP-1
  6
DASHED
 62
     6
100
AcDbLine
 10
608.461311
 20
507.101777
 30
0.0
 11
599.576017
 21
507.101777
 31
0.0
  0
LINE
  5
14D
330
1F
100
AcDbEntity
  8
LAYERGROUP-1
  6
DASHED
 62
     6
100
AcDbLine
 10
509.346605
 20
507.101777
 30
0.0
 11
500.461311
 21
507.101777
 31
0.0
  0
ARC
  5
14E
330
1F
100
AcDbEntity
  8
GR1-1
  6
CONTINUOUS
 62
     6
100
AcDbCircle
 10
598.461311
 20
465.501777
 30
0.0
 40
2.0
100
AcDbArc
 50
0.0
 51
121.771824
  0
LINE
  5
14F
330
1F
100
AcDbEntity
  8
GR1-1
  6
CONTINUOUS
 62
     6
100
AcDbLine
 10
597.408235
 20
467.20208
 30
0.0
 11
585.376227
 21
459.750108
 31
0.0
  0
ARC
  5
150
330
1F
100
AcDbEntity
  8
GR1-1
  6
CONTINUOUS
 62
     6
100
AcDbCircle
 10
579.584311
 20
469.101777
 30
0.0
 40
11.0
100
AcDbArc
 50
270.0
 51
301.771824
  0
ARC
  5
151
330
1F
100
AcDbEntity
  8
GR1-1
  6
PHANTOM
 62
     6
100
AcDbCircle
 10
598.461311
 20
465.501777
 30
0.0
 40
6.0
100
AcDbArc
 50
0.0
 51
121.771824
  0
LINE
  5
152
330
1F
100
AcDbEntity
  8
GR1-1
  6
PHANTOM
 62
     6
100
AcDbLine
 10
595.302084
 20
470.602687
 30
0.0
 11
583.270075
 21
463.150715
 31
0.0
  0
ARC
  5
153
330
1F
100
AcDbEntity
  8
GR1-1
  6
PHANTOM
 62
     6
100
AcDbCircle
 10
579.584311
 20
469.101777
 30
0.0
 40
7.0
100
AcDbArc
 50
270.0
 51
301.771824
  0
ARC
  5
154
330
1F
100
AcDbEntity
  8
LAYERGROUP-1
  6
DASHED
 62
     6
100
AcDbCircle
 10
608.461311
 20
489.758849
 30
0.0
 40
17.342927600228
100
AcDbArc
 50
71.036941
 51
90.0
  0
ARC
  5
155
330
1F
100
AcDbEntity
  8
LAYERGROUP-1
  6
DASHED
 62
     6
100
AcDbCircle
 10
500.461311
 20
489.758849
 30
0.0
 40
17.342927600228
100
AcDbArc
 50
90.0
 51
108.963059
  0
LINE
  5
156
330
1F
100
AcDbEntity
  8
LAYERGROUP-1
  6
CENTER
 62
     6
100
AcDbLine
 10
637.508464
 20
446.101777
 30
0.0
 11
471.414157
 21
446.101777
 31
0.0
  0
LINE
  5
157
330
1F
100
AcDbEntity
  8
GR1-1
  6
CONTINUOUS
 62
     3
100
AcDbLine
 10
542.461311
 20
477.601777
 30
0.0
 11
542.461311
 21
480.101777
 31
0.0
  0
LINE
  5
158
330
1F
100
AcDbEntity
  8
GR1-1
  6
CONTINUOUS
 62
     3
100
AcDbLine
 10
542.961311
 20
480.601777
 30
0.0
 11
565.961311
 21
480.601777
 31
0.0
  0
LINE
  5
159
330
1F
100
AcDbEntity
  8
GR1-1
  6
CONTINUOUS
 62
     3
100
AcDbLine
 10
565.461311
 20
480.901777
 30
0.0
 11
565.461311
 21
488.301777
 31
0.0
  0
ARC
  5
15A
330
1F
100
AcDbEntity
  8
GR1-1
  6
CONTINUOUS
 62
     3
100
AcDbCircle
 10
565.161311
 20
488.301777
 30
0.0
 40
0.3
100
AcDbArc
 50
0.0
 51
90.0
  0
LINE
  5
15B
330
1F
100
AcDbEntity
  8
GR1-1
  6
CONTINUOUS
 62
     3
100
AcDbLine
 10
565.161311
 20
488.601777
 30
0.0
 11
543.761311
 21
488.601777
 31
0.0
  0
ARC
  5
15C
330
1F
100
AcDbEntity
  8
GR1-1
  6
CONTINUOUS
 62
     3
100
AcDbCircle
 10
543.761311
 20
488.301777
 30
0.0
 40
0.3
100
AcDbArc
 50
90.0
 51
180.0
  0
LINE
  5
15D
330
1F
100
AcDbEntity
  8
GR1-1
  6
CONTINUOUS
 62
     3
100
AcDbLine
 10
543.461311
 20
488.301777
 30
0.0
 11
543.461311
 21
480.901777
 31
0.0
  0
ARC
  5
15E
330
1F
100
AcDbEntity
  8
GR1-1
  6
CONTINUOUS
 62
     3
100
AcDbCircle
 10
543.761311
 20
480.901777
 30
0.0
 40
0.3
100
AcDbArc
 50
180.0
 51
270.0
  0
ARC
  5
15F
330
1F
100
AcDbEntity
  8
GR1-1
  6
CONTINUOUS
 62
     3
100
AcDbCircle
 10
542.961311
 20
480.101777
 30
0.0
 40
0.5
100
AcDbArc
 50
90.0
 51
180.0
  0
ARC
  5
160
330
1F
100
AcDbEntity
  8
GR1-1
  6
CONTINUOUS
 62
     3
100
AcDbCircle
 10
548.961311
 20
496.487727
 30
0.0
 40
15.88594976734669
100
AcDbArc
 50
249.743842
 51
290.256158
  0
LINE
  5
161
330
1F
100
AcDbEntity
  8
GR1-1
  6
CONTINUOUS
 62
     3
100
AcDbLine
 10
554.461311
 20
481.584257
 30
0.0
 11
554.461311
 21
487.619297
 31
0.0
  0
ARC
  5
162
330
1F
100
AcDbEntity
  8
GR1-1
  6
CONTINUOUS
 62
     3
100
AcDbCircle
 10
548.961311
 20
472.715827
 30
0.0
 40
15.88594976734669
100
AcDbArc
 50
69.743842
 51
110.256158
  0
ARC
  5
163
330
1F
100
AcDbEntity
  8
GR1-1
  6
CONTINUOUS
 62
     3
100
AcDbCircle
 10
559.961311
 20
472.715827
 30
0.0
 40
15.88594976734669
100
AcDbArc
 50
69.743842
 51
110.256158
  0
ARC
  5
164
330
1F
100
AcDbEntity
  8
GR1-1
  6
CONTINUOUS
 62
     3
100
AcDbCircle
 10
559.961311
 20
496.487727
 30
0.0
 40
15.88594976734669
100
AcDbArc
 50
249.743842
 51
290.256158
  0
ARC
  5
165
330
1F
100
AcDbEntity
  8
GR1-1
  6
CONTINUOUS
 62
     3
100
AcDbCircle
 10
565.161311
 20
480.901777
 30
0.0
 40
0.3
100
AcDbArc
 50
270.0
 51
360.0
  0
LINE
  5
166
330
1F
100
AcDbEntity
  8
GR1-1
  6
CONTINUOUS
 62
     3
100
AcDbLine
 10
566.461311
 20
480.101777
 30
0.0
 11
566.461311
 21
477.601777
 31
0.0
  0
ARC
  5
167
330
1F
100
AcDbEntity
  8
GR1-1
  6
CONTINUOUS
 62
     3
100
AcDbCircle
 10
565.961311
 20
477.601777
 30
0.0
 40
0.5
100
AcDbArc
 50
270.0
 51
360.0
  0
ARC
  5
168
330
1F
100
AcDbEntity
  8
GR1-1
  6
CONTINUOUS
 62
     3
100
AcDbCircle
 10
565.961311
 20
480.101777
 30
0.0
 40
0.5
100
AcDbArc
 50
0.0
 51
90.0
  0
ARC
  5
169
330
1F
100
AcDbEntity
  8
GR1-1
  6
CONTINUOUS
 62
     3
100
AcDbCircle
 10
542.961311
 20
477.601777
 30
0.0
 40
0.5
100
AcDbArc
 50
180.0
 51
270.0
  0
LINE
  5
16A
330
1F
100
AcDbEntity
  8
LAYERGROUP-1
  6
CENTER
 62
     6
100
AcDbLine
 10
597.961311
 20
292.477398
 30
0.0
 11
597.961311
 21
274.443507
 31
0.0
  0
LINE
  5
16B
330
1F
100
AcDbEntity
  8
LAYERGROUP-1
  6
CENTER
 62
     6
100
AcDbLine
 10
600.961311
 20
292.477398
 30
0.0
 11
600.961311
 21
274.443507
 31
0.0
  0
LINE
  5
16C
330
1F
100
AcDbEntity
  8
LAYERGROUP-1
  6
CENTER
 62
     6
100
AcDbLine
 10
510.961311
 20
292.477398
 30
0.0
 11
510.961311
 21
274.443507
 31
0.0
  0
LINE
  5
16D
330
1F
100
AcDbEntity
  8
LAYERGROUP-1
  6
CENTER
 62
     6
100
AcDbLine
 10
507.961311
 20
292.477398
 30
0.0
 11
507.961311
 21
274.443507
 31
0.0
  0
LINE
  5
16E
330
1F
100
AcDbEntity
  8
LAYERGROUP-1
  6
CENTER
 62
     6
100
AcDbLine
 10
318.021508
 20
292.477398
 30
0.0
 11
318.021508
 21
274.443507
 31
0.0
  0
LINE
  5
16F
330
1F
100
AcDbEntity
  8
LAYERGROUP-1
  6
CENTER
 62
     6
100
AcDbLine
 10
321.021508
 20
292.477398
 30
0.0
 11
321.021508
 21
274.443507
 31
0.0
  0
LINE
  5
170
330
1F
100
AcDbEntity
  8
LAYERGROUP-1
  6
CENTER
 62
     6
100
AcDbLine
 10
231.021508
 20
292.477398
 30
0.0
 11
231.021508
 21
274.443507
 31
0.0
  0
LINE
  5
171
330
1F
100
AcDbEntity
  8
LAYERGROUP-1
  6
CENTER
 62
     6
100
AcDbLine
 10
228.021508
 20
292.477398
 30
0.0
 11
228.021508
 21
274.443507
 31
0.0
  0
ARC
  5
172
330
1F
100
AcDbEntity
  8
LAYERGROUP-1
  6
CONTINUOUS
 62
     3
100
AcDbCircle
 10
310.880609
 20
235.84178
 30
0.0
 40
100.3591004811527
100
AcDbArc
 50
180.0
 51
219.395621
  0
ARC
  5
173
330
1F
100
AcDbEntity
  8
LAYERGROUP-1
  6
CONTINUOUS
 62
     3
100
AcDbCircle
 10
349.627043
 20
235.84178
 30
0.0
 40
136.1055345955319
100
AcDbArc
 50
180.0
 51
199.306763
  0
LINE
  5
174
330
1F
100
AcDbEntity
  8
GR1-1
  6
CONTINUOUS
 62
     3
100
AcDbLine
 10
305.521508
 20
141.74178
 30
0.0
 11
302.521508
 21
141.74178
 31
0.0
  0
LINE
  5
175
330
1F
100
AcDbEntity
  8
LAYERGROUP-1
  6
CONTINUOUS
 62
     3
100
AcDbLine
 10
302.521508
 20
141.74178
 30
0.0
 11
302.521508
 21
277.723165
 31
0.0
  0
LINE
  5
176
330
1F
100
AcDbEntity
  8
LAYERGROUP-1
  6
CONTINUOUS
 62
     3
100
AcDbLine
 10
305.521508
 20
141.74178
 30
0.0
 11
305.521508
 21
146.74178
 31
0.0
  0
ARC
  5
177
330
1F
100
AcDbEntity
  8
LAYERGROUP-1
  6
CONTINUOUS
 62
     3
100
AcDbCircle
 10
342.268123
 20
146.74178
 30
0.0
 40
36.74661505014252
100
AcDbArc
 50
136.262562
 51
180.0
  0
ARC
  5
178
330
1F
100
AcDbEntity
  8
LAYERGROUP-1
  6
CONTINUOUS
 62
     3
100
AcDbCircle
 10
343.680512
 20
141.74178
 30
0.0
 40
41.15900376238414
100
AcDbArc
 50
135.680148
 51
180.0
  0
ARC
  5
179
330
1F
100
AcDbEntity
  8
LAYERGROUP-1
  6
CONTINUOUS
 62
     3
100
AcDbCircle
 10
297.521508
 20
277.723165
 30
0.0
 40
5.0
100
AcDbArc
 50
0.0
 51
44.726471
  0
ARC
  5
17A
330
1F
100
AcDbEntity
  8
LAYERGROUP-1
  6
CONTINUOUS
 62
     3
100
AcDbCircle
 10
238.162408
 20
235.84178
 30
0.0
 40
100.3591004811527
100
AcDbArc
 50
320.604379
 51
360.0
  0
ARC
  5
17B
330
1F
100
AcDbEntity
  8
LAYERGROUP-1
  6
CONTINUOUS
 62
     3
100
AcDbCircle
 10
199.415974
 20
235.84178
 30
0.0
 40
136.1055345955319
100
AcDbArc
 50
-19.306763
 51
0.0
  0
LINE
  5
17C
330
1F
100
AcDbEntity
  8
GR1-1
  6
CONTINUOUS
 62
     3
100
AcDbLine
 10
310.021508
 20
151.239971
 30
0.0
 11
310.021508
 21
164.361926
 31
0.0
  0
LINE
  5
17D
330
1F
100
AcDbEntity
  8
GR1-1
  6
CONTINUOUS
 62
     3
100
AcDbLine
 10
305.521508
 20
148.239971
 30
0.0
 11
308.521508
 21
148.239971
 31
0.0
  0
LINE
  5
17E
330
1F
100
AcDbEntity
  8
GR1-1
  6
CONTINUOUS
 62
     3
100
AcDbLine
 10
308.521508
 20
148.239971
 30
0.0
 11
310.021508
 21
151.239971
 31
0.0
  0
LINE
  5
17F
330
1F
100
AcDbEntity
  8
GR1-1
  6
CONTINUOUS
 62
     3
100
AcDbLine
 10
302.521508
 20
151.239971
 30
0.0
 11
301.021508
 21
151.239971
 31
0.0
  0
LINE
  5
180
330
1F
100
AcDbEntity
  8
GR1-1
  6
CONTINUOUS
 62
     3
100
AcDbLine
 10
232.021508
 20
168.239971
 30
0.0
 11
231.021508
 21
168.239971
 31
0.0
  0
LINE
  5
181
330
1F
100
AcDbEntity
  8
GR1-1
  6
CONTINUOUS
 62
     3
100
AcDbLine
 10
231.021508
 20
168.239971
 30
0.0
 11
230.021508
 21
167.239971
 31
0.0
  0
LINE
  5
182
330
1F
100
AcDbEntity
  8
GR1-1
  6
CONTINUOUS
 62
     3
100
AcDbLine
 10
230.021508
 20
167.239971
 30
0.0
 11
230.021508
 21
155.239971
 31
0.0
  0
LINE
  5
183
330
1F
100
AcDbEntity
  8
GR1-1
  6
CONTINUOUS
 62
     3
100
AcDbLine
 10
230.021508
 20
155.239971
 30
0.0
 11
231.021508
 21
154.239971
 31
0.0
  0
LINE
  5
184
330
1F
100
AcDbEntity
  8
GR1-1
  6
CONTINUOUS
 62
     3
100
AcDbLine
 10
231.021508
 20
154.239971
 30
0.0
 11
232.021508
 21
154.239971
 31
0.0
  0
LINE
  5
185
330
1F
100
AcDbEntity
  8
GR1-1
  6
CONTINUOUS
 62
     6
100
AcDbLine
 10
231.021508
 20
154.239971
 30
0.0
 11
231.021508
 21
168.239971
 31
0.0
  0
LINE
  5
186
330
1F
100
AcDbEntity
  8
GR1-1
  6
CONTINUOUS
 62
     6
100
AcDbLine
 10
230.209508
 20
167.427971
 30
0.0
 11
232.021508
 21
167.427971
 31
0.0
  0
LINE
  5
187
330
1F
100
AcDbEntity
  8
GR1-1
  6
CONTINUOUS
 62
     6
100
AcDbLine
 10
230.209508
 20
155.051971
 30
0.0
 11
232.021508
 21
155.051971
 31
0.0
  0
LINE
  5
188
330
1F
100
AcDbEntity
  8
GR1-1
  6
CONTINUOUS
 62
     6
100
AcDbLine
 10
308.521508
 20
161.284121
 30
0.0
 11
308.521508
 21
148.239971
 31
0.0
  0
LINE
  5
189
330
1F
100
AcDbEntity
  8
GR1-1
  6
CONTINUOUS
 62
     3
100
AcDbLine
 10
240.021508
 20
162.393499
 30
0.0
 11
240.021508
 21
149.74178
 31
0.0
  0
ARC
  5
18A
330
1F
100
AcDbEntity
  8
GR1-1
  6
CONTINUOUS
 62
     3
100
AcDbCircle
 10
240.521508
 20
149.74178
 30
0.0
 40
0.5
100
AcDbArc
 50
180.0
 51
270.0
  0
LINE
  5
18B
330
1F
100
AcDbEntity
  8
GR1-1
  6
CONTINUOUS
 62
     3
100
AcDbLine
 10
240.521508
 20
149.24178
 30
0.0
 11
243.021508
 21
149.24178
 31
0.0
  0
ARC
  5
18C
330
1F
100
AcDbEntity
  8
GR1-1
  6
CONTINUOUS
 62
     3
100
AcDbCircle
 10
243.021508
 20
149.74178
 30
0.0
 40
0.5
100
AcDbArc
 50
270.0
 51
323.247266
  0
LINE
  5
18D
330
1F
100
AcDbEntity
  8
GR1-1
  6
CONTINUOUS
 62
     3
100
AcDbLine
 10
240.021508
 20
150.24178
 30
0.0
 11
239.039028
 21
148.540074
 31
0.0
  0
ARC
  5
18E
330
1F
100
AcDbEntity
  8
GR1-1
  6
CONTINUOUS
 62
     3
100
AcDbCircle
 10
234.398698
 20
151.7155
 30
0.0
 40
5.622810046529507
100
AcDbArc
 50
-34.384247
 51
34.384247
  0
LINE
  5
18F
330
1F
100
AcDbEntity
  8
GR1-1
  6
CONTINUOUS
 62
     3
100
AcDbLine
 10
239.039028
 20
154.890927
 30
0.0
 11
233.003989
 21
154.890927
 31
0.0
  0
ARC
  5
190
330
1F
100
AcDbEntity
  8
GR1-1
  6
CONTINUOUS
 62
     3
100
AcDbCircle
 10
237.644318
 20
151.7155
 30
0.0
 40
5.622810046529507
100
AcDbArc
 50
145.615753
 51
214.384247
  0
LINE
  5
191
330
1F
100
AcDbEntity
  8
GR1-1
  6
CONTINUOUS
 62
     3
100
AcDbLine
 10
233.003989
 20
148.540074
 30
0.0
 11
232.021508
 21
150.24178
 31
0.0
  0
LINE
  5
192
330
1F
100
AcDbEntity
  8
GR1-1
  6
CONTINUOUS
 62
     3
100
AcDbLine
 10
232.021508
 20
150.24178
 30
0.0
 11
232.021508
 21
172.24178
 31
0.0
  0
LINE
  5
193
330
1F
100
AcDbEntity
  8
GR1-1
  6
CONTINUOUS
 62
     3
100
AcDbLine
 10
232.021508
 20
172.24178
 30
0.0
 11
232.531538
 21
173.125178
 31
0.0
  0
ARC
  5
194
330
1F
100
AcDbEntity
  8
GR1-1
  6
CONTINUOUS
 62
     3
100
AcDbCircle
 10
237.644318
 20
170.768059
 30
0.0
 40
5.622810046529507
100
AcDbArc
 50
155.285605
 51
214.384247
  0
ARC
  5
195
330
1F
100
AcDbEntity
  8
GR1-1
  6
CONTINUOUS
 62
     3
100
AcDbCircle
 10
253.039028
 20
161.24178
 30
0.0
 40
21.01751962775467
100
AcDbArc
 50
162.412046
 51
197.587954
  0
LINE
  5
196
330
1F
100
AcDbEntity
  8
GR1-1
  6
CONTINUOUS
 62
     3
100
AcDbLine
 10
233.003989
 20
167.592633
 30
0.0
 11
237.033043
 21
167.592633
 31
0.0
  0
LINE
  5
197
330
1F
100
AcDbEntity
  8
GR1-1
  6
CONTINUOUS
 62
     3
100
AcDbLine
 10
239.039028
 20
148.540074
 30
0.0
 11
233.003989
 21
148.540074
 31
0.0
  0
ARC
  5
198
330
1F
100
AcDbEntity
  8
GR1-1
  6
CONTINUOUS
 62
     3
100
AcDbCircle
 10
219.003989
 20
161.24178
 30
0.0
 40
21.01751962775467
100
AcDbArc
 50
-17.587954
 51
3.348809
  0
LINE
  5
199
330
1F
100
AcDbEntity
  8
GR1-1
  6
CONTINUOUS
 62
     3
100
AcDbLine
 10
301.021508
 20
171.239971
 30
0.0
 11
302.521508
 21
171.239971
 31
0.0
  0
LINE
  5
19A
330
1F
100
AcDbEntity
  8
LAYERGROUP-1
  6
CONTINUOUS
 62
     3
100
AcDbLine
 10
538.499595
 20
415.101777
 30
0.0
 11
570.423027
 21
415.101777
 31
0.0
  0
LINE
  5
19B
330
1F
100
AcDbEntity
  8
LAYERGROUP-1
  6
CONTINUOUS
 62
     3
100
AcDbLine
 10
584.473433
 20
392.469328
 30
0.0
 11
577.910942
 21
409.918001
 31
0.0
  0
ARC
  5
19C
330
1F
100
AcDbEntity
  8
LAYERGROUP-1
  6
CONTINUOUS
 62
     3
100
AcDbCircle
 10
599.449264
 20
398.101777
 30
0.0
 40
16.0
100
AcDbArc
 50
200.61141
 51
270.0
  0
ARC
  5
19D
330
1F
100
AcDbEntity
  8
LAYERGROUP-1
  6
CONTINUOUS
 62
     3
100
AcDbCircle
 10
570.423027
 20
407.101777
 30
0.0
 40
8.0
100
AcDbArc
 50
20.61141
 51
90.0
  0
ARC
  5
19E
330
1F
100
AcDbEntity
  8
LAYERGROUP-1
  6
DASHED
 62
     6
100
AcDbCircle
 10
599.449264
 20
398.101777
 30
0.0
 40
13.0
100
AcDbArc
 50
200.61141
 51
270.0
  0
LINE
  5
19F
330
1F
100
AcDbEntity
  8
LAYERGROUP-1
  6
DASHED
 62
     6
100
AcDbLine
 10
587.281402
 20
393.525412
 30
0.0
 11
580.718911
 21
410.974085
 31
0.0
  0
ARC
  5
1A0
330
1F
100
AcDbEntity
  8
LAYERGROUP-1
  6
DASHED
 62
     6
100
AcDbCircle
 10
570.423027
 20
407.101777
 30
0.0
 40
11.0
100
AcDbArc
 50
20.61141
 51
90.0
  0
LINE
  5
1A1
330
1F
100
AcDbEntity
  8
LAYERGROUP-1
  6
DASHED
 62
     6
100
AcDbLine
 10
538.499595
 20
418.101777
 30
0.0
 11
570.423027
 21
418.101777
 31
0.0
  0
LINE
  5
1A2
330
1F
100
AcDbEntity
  8
LAYERGROUP-1
  6
CONTINUOUS
 62
     3
100
AcDbLine
 10
524.449189
 20
392.469328
 30
0.0
 11
531.01168
 21
409.918001
 31
0.0
  0
ARC
  5
1A3
330
1F
100
AcDbEntity
  8
LAYERGROUP-1
  6
CONTINUOUS
 62
     3
100
AcDbCircle
 10
509.473357
 20
398.101777
 30
0.0
 40
16.0
100
AcDbArc
 50
270.0
 51
339.38859
  0
ARC
  5
1A4
330
1F
100
AcDbEntity
  8
LAYERGROUP-1
  6
CONTINUOUS
 62
     3
100
AcDbCircle
 10
538.499595
 20
407.101777
 30
0.0
 40
8.0
100
AcDbArc
 50
90.0
 51
159.38859
  0
ARC
  5
1A5
330
1F
100
AcDbEntity
  8
LAYERGROUP-1
  6
DASHED
 62
     6
100
AcDbCircle
 10
509.473357
 20
398.101777
 30
0.0
 40
13.0
100
AcDbArc
 50
270.0
 51
339.38859
  0
LINE
  5
1A6
330
1F
100
AcDbEntity
  8
LAYERGROUP-1
  6
DASHED
 62
     6
100
AcDbLine
 10
521.64122
 20
393.525412
 30
0.0
 11
528.203711
 21
410.974085
 31
0.0
  0
ARC
  5
1A7
330
1F
100
AcDbEntity
  8
LAYERGROUP-1
  6
DASHED
 62
     6
100
AcDbCircle
 10
538.499595
 20
407.101777
 30
0.0
 40
11.0
100
AcDbArc
 50
90.0
 51
159.38859
  0
LINE
  5
1A8
330
1F
100
AcDbEntity
  8
LAYERGROUP-1
  6
CONTINUOUS
 62
     3
100
AcDbLine
 10
538.499595
 20
477.101777
 30
0.0
 11
570.423027
 21
477.101777
 31
0.0
  0
LINE
  5
1A9
330
1F
100
AcDbEntity
  8
LAYERGROUP-1
  6
CONTINUOUS
 62
     3
100
AcDbLine
 10
584.473433
 20
499.734226
 30
0.0
 11
577.910942
 21
482.285553
 31
0.0
  0
ARC
  5
1AA
330
1F
100
AcDbEntity
  8
LAYERGROUP-1
  6
CONTINUOUS
 62
     3
100
AcDbCircle
 10
599.449264
 20
494.101777
 30
0.0
 40
16.0
100
AcDbArc
 50
90.0
 51
159.38859
  0
ARC
  5
1AB
330
1F
100
AcDbEntity
  8
LAYERGROUP-1
  6
CONTINUOUS
 62
     3
100
AcDbCircle
 10
570.423027
 20
485.101777
 30
0.0
 40
8.0
100
AcDbArc
 50
270.0
 51
339.38859
  0
ARC
  5
1AC
330
1F
100
AcDbEntity
  8
LAYERGROUP-1
  6
DASHED
 62
     6
100
AcDbCircle
 10
599.449264
 20
494.101777
 30
0.0
 40
13.0
100
AcDbArc
 50
90.0
 51
159.38859
  0
LINE
  5
1AD
330
1F
100
AcDbEntity
  8
LAYERGROUP-1
  6
DASHED
 62
     6
100
AcDbLine
 10
587.281402
 20
498.678141
 30
0.0
 11
580.718911
 21
481.229468
 31
0.0
  0
ARC
  5
1AE
330
1F
100
AcDbEntity
  8
LAYERGROUP-1
  6
DASHED
 62
     6
100
AcDbCircle
 10
570.423027
 20
485.101777
 30
0.0
 40
11.0
100
AcDbArc
 50
270.0
 51
339.38859
  0
LINE
  5
1AF
330
1F
100
AcDbEntity
  8
LAYERGROUP-1
  6
DASHED
 62
     6
100
AcDbLine
 10
538.499595
 20
474.101777
 30
0.0
 11
570.423027
 21
474.101777
 31
0.0
  0
LINE
  5
1B0
330
1F
100
AcDbEntity
  8
LAYERGROUP-1
  6
CONTINUOUS
 62
     3
100
AcDbLine
 10
524.449189
 20
499.734226
 30
0.0
 11
531.01168
 21
482.285553
 31
0.0
  0
ARC
  5
1B1
330
1F
100
AcDbEntity
  8
LAYERGROUP-1
  6
CONTINUOUS
 62
     3
100
AcDbCircle
 10
509.473357
 20
494.101777
 30
0.0
 40
16.0
100
AcDbArc
 50
20.61141
 51
90.0
  0
ARC
  5
1B2
330
1F
100
AcDbEntity
  8
LAYERGROUP-1
  6
CONTINUOUS
 62
     3
100
AcDbCircle
 10
538.499595
 20
485.101777
 30
0.0
 40
8.0
100
AcDbArc
 50
200.61141
 51
270.0
  0
ARC
  5
1B3
330
1F
100
AcDbEntity
  8
LAYERGROUP-1
  6
DASHED
 62
     6
100
AcDbCircle
 10
509.473357
 20
494.101777
 30
0.0
 40
13.0
100
AcDbArc
 50
20.61141
 51
90.0
  0
LINE
  5
1B4
330
1F
100
AcDbEntity
  8
LAYERGROUP-1
  6
DASHED
 62
     6
100
AcDbLine
 10
521.64122
 20
498.678141
 30
0.0
 11
528.203711
 21
481.229468
 31
0.0
  0
ARC
  5
1B5
330
1F
100
AcDbEntity
  8
LAYERGROUP-1
  6
DASHED
 62
     6
100
AcDbCircle
 10
538.499595
 20
485.101777
 30
0.0
 40
11.0
100
AcDbArc
 50
200.61141
 51
270.0
  0
LINE
  5
1B6
330
1F
100
AcDbEntity
  8
GR1-1
  6
CONTINUOUS
 62
     3
100
AcDbLine
 10
544.459502
 20
410.601777
 30
0.0
 11
564.459502
 21
410.601777
 31
0.0
  0
LINE
  5
1B7
330
1F
100
AcDbEntity
  8
GR1-1
  6
CONTINUOUS
 62
     3
100
AcDbLine
 10
564.459502
 20
410.601777
 30
0.0
 11
567.459502
 21
412.101777
 31
0.0
  0
LINE
  5
1B8
330
1F
100
AcDbEntity
  8
GR1-1
  6
CONTINUOUS
 62
     3
100
AcDbLine
 10
567.459502
 20
412.101777
 30
0.0
 11
567.459502
 21
415.101777
 31
0.0
  0
LINE
  5
1B9
330
1F
100
AcDbEntity
  8
GR1-1
  6
CONTINUOUS
 62
     3
100
AcDbLine
 10
541.459502
 20
415.101777
 30
0.0
 11
541.459502
 21
412.101777
 31
0.0
  0
LINE
  5
1BA
330
1F
100
AcDbEntity
  8
GR1-1
  6
CONTINUOUS
 62
     3
100
AcDbLine
 10
541.459502
 20
412.101777
 30
0.0
 11
544.459502
 21
410.601777
 31
0.0
  0
LINE
  5
1BB
330
1F
100
AcDbEntity
  8
GR1-1
  6
CONTINUOUS
 62
     3
100
AcDbLine
 10
561.459502
 20
488.601777
 30
0.0
 11
561.459502
 21
489.601777
 31
0.0
  0
LINE
  5
1BC
330
1F
100
AcDbEntity
  8
GR1-1
  6
CONTINUOUS
 62
     3
100
AcDbLine
 10
561.459502
 20
489.601777
 30
0.0
 11
560.459502
 21
490.601777
 31
0.0
  0
LINE
  5
1BD
330
1F
100
AcDbEntity
  8
GR1-1
  6
CONTINUOUS
 62
     3
100
AcDbLine
 10
560.459502
 20
490.601777
 30
0.0
 11
548.459502
 21
490.601777
 31
0.0
  0
LINE
  5
1BE
330
1F
100
AcDbEntity
  8
GR1-1
  6
CONTINUOUS
 62
     3
100
AcDbLine
 10
548.459502
 20
490.601777
 30
0.0
 11
547.459502
 21
489.601777
 31
0.0
  0
LINE
  5
1BF
330
1F
100
AcDbEntity
  8
GR1-1
  6
CONTINUOUS
 62
     3
100
AcDbLine
 10
547.459502
 20
489.601777
 30
0.0
 11
547.459502
 21
488.601777
 31
0.0
  0
LINE
  5
1C0
330
1F
100
AcDbEntity
  8
GR1-1
  6
CONTINUOUS
 62
     6
100
AcDbLine
 10
547.459502
 20
489.601777
 30
0.0
 11
561.459502
 21
489.601777
 31
0.0
  0
LINE
  5
1C1
330
1F
100
AcDbEntity
  8
GR1-1
  6
CONTINUOUS
 62
     6
100
AcDbLine
 10
560.647502
 20
490.413777
 30
0.0
 11
560.647502
 21
488.601777
 31
0.0
  0
LINE
  5
1C2
330
1F
100
AcDbEntity
  8
GR1-1
  6
CONTINUOUS
 62
     6
100
AcDbLine
 10
548.271502
 20
490.413777
 30
0.0
 11
548.271502
 21
488.601777
 31
0.0
  0
LINE
  5
1C3
330
1F
100
AcDbEntity
  8
GR1-1
  6
CONTINUOUS
 62
     6
100
AcDbLine
 10
567.459502
 20
412.101777
 30
0.0
 11
541.459502
 21
412.101777
 31
0.0
  0
TEXT
  5
1C4
330
1F
100
AcDbEntity
  8
LAYERGROUP-1
  6
CONTINUOUS
 62
     7
100
AcDbText
 10
666.0
 20
22.0
 30
0.0
 40
6.0
  1
W40E0ALA-C02
 41
0.7
  7
FX_VECTOR
 72
     5
 11
714.0
 21
22.0
 31
0.0
100
AcDbText
  0
TEXT
  5
1C5
330
1F
100
AcDbEntity
  8
GR1-1
  6
CONTINUOUS
 62
     7
100
AcDbText
 10
473.244361
 20
520.011268
 30
0.0
 40
5.128473
  1
4-11
 50
45.0
 41
0.556378
  7
FX_VECTOR
 72
     5
 11
480.642358
 21
527.409265
 31
0.0
100
AcDbText
  0
LINE
  5
1C6
330
1F
100
AcDbEntity
  8
GR1-1
  6
CONTINUOUS
 62
     7
100
AcDbLine
 10
511.143291
 20
497.197971
 30
0.0
 11
480.976109
 21
527.365154
 31
0.0
  0
LINE
  5
1C7
330
1F
100
AcDbEntity
  8
GR1-1
  6
CONTINUOUS
 62
     7
100
AcDbLine
 10
503.365117
 20
489.419796
 30
0.0
 11
473.197934
 21
519.586979
 31
0.0
  0
LINE
  5
1C8
330
1F
100
AcDbEntity
  8
GR1-1
  6
CONTINUOUS
 62
     7
100
AcDbLine
 10
473.905041
 20
518.879872
 30
0.0
 11
481.683216
 21
526.658047
 31
0.0
  0
INSERT
  5
1C9
330
1F
100
AcDbEntity
  8
GR1-1
  6
CONTINUOUS
 62
     7
100
AcDbBlockReference
  2
FXTIP_ARROW_S
 10
473.905041
 20
518.879872
 30
0.0
 41
4.0
 42
4.0
 50
225.0
  0
INSERT
  5
1CA
330
1F
100
AcDbEntity
  8
GR1-1
  6
CONTINUOUS
 62
     7
100
AcDbBlockReference
  2
FXTIP_ARROW_E
 10
481.683216
 20
526.658047
 30
0.0
 41
4.0
 42
4.0
 50
45.0
  0
TEXT
  5
1CB
330
1F
100
AcDbEntity
  8
LAYERGROUP-1
  6
CONTINUOUS
 62
     7
100
AcDbText
 10
643.417725
 20
443.101776
 30
0.0
 40
4.0
  1
87
 50
90.0
 41
0.851351
  7
FX_VECTOR
 72
     5
 11
643.417725
 21
449.101776
 31
0.0
100
AcDbText
  0
LINE
  5
1CC
330
1F
100
AcDbEntity
  8
LAYERGROUP-1
  6
CONTINUOUS
 62
     7
100
AcDbLine
 10
644.4177
 20
402.601777
 30
0.0
 11
644.4177
 21
489.601777
 31
0.0
  0
INSERT
  5
1CD
330
1F
100
AcDbEntity
  8
LAYERGROUP-1
  6
CONTINUOUS
 62
     7
100
AcDbBlockReference
  2
FXTIP_ARROW_S
 10
644.4177
 20
402.601777
 30
0.0
 41
4.0
 42
4.0
 50
270.0
  0
INSERT
  5
1CE
330
1F
100
AcDbEntity
  8
LAYERGROUP-1
  6
CONTINUOUS
 62
     7
100
AcDbBlockReference
  2
FXTIP_ARROW_E
 10
644.4177
 20
489.601777
 30
0.0
 41
4.0
 42
4.0
 50
90.0
  0
LINE
  5
1CF
330
1F
100
AcDbEntity
  8
LAYERGROUP-1
  6
CONTINUOUS
 62
     7
100
AcDbLine
 10
607.461311
 20
402.601777
 30
0.0
 11
645.4177
 21
402.601777
 31
0.0
  0
LINE
  5
1D0
330
1F
100
AcDbEntity
  8
LAYERGROUP-1
  6
CONTINUOUS
 62
     7
100
AcDbLine
 10
607.461311
 20
489.601777
 30
0.0
 11
645.4177
 21
489.601777
 31
0.0
  0
TEXT
  5
1D1
330
1F
100
AcDbEntity
  8
LAYERGROUP-1
  6
CONTINUOUS
 62
     7
100
AcDbText
 10
654.956116
 20
443.101776
 30
0.0
 40
4.0
  1
93
 50
90.0
 41
0.851351
  7
FX_VECTOR
 72
     5
 11
654.956116
 21
449.101776
 31
0.0
100
AcDbText
  0
LINE
  5
1D2
330
1F
100
AcDbEntity
  8
LAYERGROUP-1
  6
CONTINUOUS
 62
     7
100
AcDbLine
 10
655.956141
 20
399.601777
 30
0.0
 11
655.956141
 21
492.601777
 31
0.0
  0
INSERT
  5
1D3
330
1F
100
AcDbEntity
  8
LAYERGROUP-1
  6
CONTINUOUS
 62
     7
100
AcDbBlockReference
  2
FXTIP_ARROW_S
 10
655.956141
 20
399.601777
 30
0.0
 41
4.0
 42
4.0
 50
270.0
  0
INSERT
  5
1D4
330
1F
100
AcDbEntity
  8
LAYERGROUP-1
  6
CONTINUOUS
 62
     7
100
AcDbBlockReference
  2
FXTIP_ARROW_E
 10
655.956141
 20
492.601777
 30
0.0
 41
4.0
 42
4.0
 50
90.0
  0
LINE
  5
1D5
330
1F
100
AcDbEntity
  8
LAYERGROUP-1
  6
CONTINUOUS
 62
     7
100
AcDbLine
 10
610.461311
 20
399.601777
 30
0.0
 11
656.956141
 21
399.601777
 31
0.0
  0
LINE
  5
1D6
330
1F
100
AcDbEntity
  8
LAYERGROUP-1
  6
CONTINUOUS
 62
     7
100
AcDbLine
 10
610.461311
 20
492.601777
 30
0.0
 11
656.956141
 21
492.601777
 31
0.0
  0
TEXT
  5
1D7
330
1F
100
AcDbEntity
  8
LAYERGROUP-1
  6
CONTINUOUS
 62
     7
100
AcDbText
 10
668.183105
 20
441.601776
 30
0.0
 40
4.0
  1
128
 50
90.0
 41
0.828947
  7
FX_VECTOR
 72
     5
 11
668.183105
 21
450.601776
 31
0.0
100
AcDbText
  0
LINE
  5
1D8
330
1F
100
AcDbEntity
  8
LAYERGROUP-1
  6
CONTINUOUS
 62
     7
100
AcDbLine
 10
669.183135
 20
382.101777
 30
0.0
 11
669.183135
 21
510.101777
 31
0.0
  0
INSERT
  5
1D9
330
1F
100
AcDbEntity
  8
LAYERGROUP-1
  6
CONTINUOUS
 62
     7
100
AcDbBlockReference
  2
FXTIP_ARROW_S
 10
669.183135
 20
382.101777
 30
0.0
 41
4.0
 42
4.0
 50
270.0
  0
INSERT
  5
1DA
330
1F
100
AcDbEntity
  8
LAYERGROUP-1
  6
CONTINUOUS
 62
     7
100
AcDbBlockReference
  2
FXTIP_ARROW_E
 10
669.183135
 20
510.101777
 30
0.0
 41
4.0
 42
4.0
 50
90.0
  0
LINE
  5
1DB
330
1F
100
AcDbEntity
  8
LAYERGROUP-1
  6
CONTINUOUS
 62
     7
100
AcDbLine
 10
609.461311
 20
382.101777
 30
0.0
 11
670.183135
 21
382.101777
 31
0.0
  0
LINE
  5
1DC
330
1F
100
AcDbEntity
  8
LAYERGROUP-1
  6
CONTINUOUS
 62
     7
100
AcDbLine
 10
609.461311
 20
510.101777
 30
0.0
 11
670.183135
 21
510.101777
 31
0.0
  0
TEXT
  5
1DD
330
1F
100
AcDbEntity
  8
LAYERGROUP-1
  6
CONTINUOUS
 62
     7
100
AcDbText
 10
551.461304
 20
365.516266
 30
0.0
 40
4.0
  1
87
 41
0.851351
  7
FX_VECTOR
 72
     5
 11
557.461304
 21
365.516266
 31
0.0
100
AcDbText
  0
LINE
  5
1DE
330
1F
100
AcDbEntity
  8
LAYERGROUP-1
  6
CONTINUOUS
 62
     7
100
AcDbLine
 10
510.961311
 20
364.516251
 30
0.0
 11
597.961311
 21
364.516251
 31
0.0
  0
INSERT
  5
1DF
330
1F
100
AcDbEntity
  8
LAYERGROUP-1
  6
CONTINUOUS
 62
     7
100
AcDbBlockReference
  2
FXTIP_ARROW_S
 10
510.961311
 20
364.516251
 30
0.0
 41
4.0
 42
4.0
 50
180.0
  0
INSERT
  5
1E0
330
1F
100
AcDbEntity
  8
LAYERGROUP-1
  6
CONTINUOUS
 62
     7
100
AcDbBlockReference
  2
FXTIP_ARROW_E
 10
597.961311
 20
364.516251
 30
0.0
 41
4.0
 42
4.0
 50
360.0
  0
LINE
  5
1E1
330
1F
100
AcDbEntity
  8
LAYERGROUP-1
  6
CONTINUOUS
 62
     7
100
AcDbLine
 10
510.961311
 20
393.101777
 30
0.0
 11
510.961311
 21
363.516251
 31
0.0
  0
LINE
  5
1E2
330
1F
100
AcDbEntity
  8
LAYERGROUP-1
  6
CONTINUOUS
 62
     7
100
AcDbLine
 10
597.961311
 20
393.101777
 30
0.0
 11
597.961311
 21
363.516251
 31
0.0
  0
TEXT
  5
1E3
330
1F
100
AcDbEntity
  8
LAYERGROUP-1
  6
CONTINUOUS
 62
     7
100
AcDbText
 10
551.461304
 20
354.259247
 30
0.0
 40
4.0
  1
93
 41
0.851351
  7
FX_VECTOR
 72
     5
 11
557.461304
 21
354.259247
 31
0.0
100
AcDbText
  0
LINE
  5
1E4
330
1F
100
AcDbEntity
  8
LAYERGROUP-1
  6
CONTINUOUS
 62
     7
100
AcDbLine
 10
507.961311
 20
353.259235
 30
0.0
 11
600.961311
 21
353.259235
 31
0.0
  0
INSERT
  5
1E5
330
1F
100
AcDbEntity
  8
LAYERGROUP-1
  6
CONTINUOUS
 62
     7
100
AcDbBlockReference
  2
FXTIP_ARROW_S
 10
507.961311
 20
353.259235
 30
0.0
 41
4.0
 42
4.0
 50
180.0
  0
INSERT
  5
1E6
330
1F
100
AcDbEntity
  8
LAYERGROUP-1
  6
CONTINUOUS
 62
     7
100
AcDbBlockReference
  2
FXTIP_ARROW_E
 10
600.961311
 20
353.259235
 30
0.0
 41
4.0
 42
4.0
 50
360.0
  0
LINE
  5
1E7
330
1F
100
AcDbEntity
  8
LAYERGROUP-1
  6
CONTINUOUS
 62
     7
100
AcDbLine
 10
507.961311
 20
390.101777
 30
0.0
 11
507.961311
 21
352.259235
 31
0.0
  0
LINE
  5
1E8
330
1F
100
AcDbEntity
  8
LAYERGROUP-1
  6
CONTINUOUS
 62
     7
100
AcDbLine
 10
600.961311
 20
390.101777
 30
0.0
 11
600.961311
 21
352.259235
 31
0.0
  0
TEXT
  5
1E9
330
1F
100
AcDbEntity
  8
LAYERGROUP-1
  6
CONTINUOUS
 62
     7
100
AcDbText
 10
549.961304
 20
340.750824
 30
0.0
 40
4.0
  1
120
 41
0.828947
  7
FX_VECTOR
 72
     5
 11
558.961304
 21
340.750824
 31
0.0
100
AcDbText
  0
LINE
  5
1EA
330
1F
100
AcDbEntity
  8
LAYERGROUP-1
  6
CONTINUOUS
 62
     7
100
AcDbLine
 10
494.461311
 20
339.750816
 30
0.0
 11
614.461311
 21
339.750816
 31
0.0
  0
INSERT
  5
1EB
330
1F
100
AcDbEntity
  8
LAYERGROUP-1
  6
CONTINUOUS
 62
     7
100
AcDbBlockReference
  2
FXTIP_ARROW_S
 10
494.461311
 20
339.750816
 30
0.0
 41
4.0
 42
4.0
 50
180.0
  0
INSERT
  5
1EC
330
1F
100
AcDbEntity
  8
LAYERGROUP-1
  6
CONTINUOUS
 62
     7
100
AcDbBlockReference
  2
FXTIP_ARROW_E
 10
614.461311
 20
339.750816
 30
0.0
 41
4.0
 42
4.0
 50
360.0
  0
LINE
  5
1ED
330
1F
100
AcDbEntity
  8
LAYERGROUP-1
  6
CONTINUOUS
 62
     7
100
AcDbLine
 10
494.461311
 20
387.101777
 30
0.0
 11
494.461311
 21
338.750816
 31
0.0
  0
LINE
  5
1EE
330
1F
100
AcDbEntity
  8
LAYERGROUP-1
  6
CONTINUOUS
 62
     7
100
AcDbLine
 10
614.461311
 20
387.101777
 30
0.0
 11
614.461311
 21
338.750816
 31
0.0
  0
TEXT
  5
1EF
330
1F
100
AcDbEntity
  8
LAYERGROUP-1
  6
CONTINUOUS
 62
     7
100
AcDbText
 10
643.634949
 20
218.241776
 30
0.0
 40
4.0
  1
123
 50
90.0
 41
0.828947
  7
FX_VECTOR
 72
     5
 11
643.634949
 21
227.241776
 31
0.0
100
AcDbText
  0
LINE
  5
1F0
330
1F
100
AcDbEntity
  8
LAYERGROUP-1
  6
CONTINUOUS
 62
     7
100
AcDbLine
 10
644.634952
 20
161.24178
 30
0.0
 11
644.634952
 21
284.24178
 31
0.0
  0
INSERT
  5
1F1
330
1F
100
AcDbEntity
  8
LAYERGROUP-1
  6
CONTINUOUS
 62
     7
100
AcDbBlockReference
  2
FXTIP_ARROW_S
 10
644.634952
 20
161.24178
 30
0.0
 41
4.0
 42
4.0
 50
270.0
  0
INSERT
  5
1F2
330
1F
100
AcDbEntity
  8
LAYERGROUP-1
  6
CONTINUOUS
 62
     7
100
AcDbBlockReference
  2
FXTIP_ARROW_E
 10
644.634952
 20
284.24178
 30
0.0
 41
4.0
 42
4.0
 50
90.0
  0
LINE
  5
1F3
330
1F
100
AcDbEntity
  8
LAYERGROUP-1
  6
CONTINUOUS
 62
     7
100
AcDbLine
 10
633.759771
 20
161.24178
 30
0.0
 11
645.634952
 21
161.24178
 31
0.0
  0
LINE
  5
1F4
330
1F
100
AcDbEntity
  8
LAYERGROUP-1
  6
CONTINUOUS
 62
     7
100
AcDbLine
 10
615.461311
 20
284.24178
 30
0.0
 11
667.825734
 21
284.24178
 31
0.0
  0
TEXT
  5
1F5
330
1F
100
AcDbEntity
  8
LAYERGROUP-1
  6
CONTINUOUS
 62
     7
100
AcDbText
 10
665.825745
 20
180.741776
 30
0.0
 40
4.0
  1
198
 50
90.0
 41
0.828947
  7
FX_VECTOR
 72
     5
 11
665.825745
 21
189.741776
 31
0.0
100
AcDbText
  0
LINE
  5
1F6
330
1F
100
AcDbEntity
  8
LAYERGROUP-1
  6
CONTINUOUS
 62
     7
100
AcDbLine
 10
666.825734
 20
86.24178
 30
0.0
 11
666.825734
 21
284.24178
 31
0.0
  0
INSERT
  5
1F7
330
1F
100
AcDbEntity
  8
LAYERGROUP-1
  6
CONTINUOUS
 62
     7
100
AcDbBlockReference
  2
FXTIP_ARROW_S
 10
666.825734
 20
86.24178
 30
0.0
 41
4.0
 42
4.0
 50
270.0
  0
INSERT
  5
1F8
330
1F
100
AcDbEntity
  8
LAYERGROUP-1
  6
CONTINUOUS
 62
     7
100
AcDbBlockReference
  2
FXTIP_ARROW_E
 10
666.825734
 20
284.24178
 30
0.0
 41
4.0
 42
4.0
 50
90.0
  0
LINE
  5
1F9
330
1F
100
AcDbEntity
  8
LAYERGROUP-1
  6
CONTINUOUS
 62
     7
100
AcDbLine
 10
555.461311
 20
86.24178
 30
0.0
 11
667.825734
 21
86.24178
 31
0.0
  0
TEXT
  5
1FA
330
1F
100
AcDbEntity
  8
LAYERGROUP-1
  6
CONTINUOUS
 62
     7
100
AcDbText
 10
271.521515
 20
53.818813
 30
0.0
 40
4.0
  1
53
 41
0.851351
  7
FX_VECTOR
 72
     5
 11
277.521515
 21
53.818813
 31
0.0
100
AcDbText
  0
LINE
  5
1FB
330
1F
100
AcDbEntity
  8
LAYERGROUP-1
  6
CONTINUOUS
 62
     7
100
AcDbLine
 10
248.021508
 20
52.818813
 30
0.0
 11
301.021508
 21
52.818813
 31
0.0
  0
INSERT
  5
1FC
330
1F
100
AcDbEntity
  8
LAYERGROUP-1
  6
CONTINUOUS
 62
     7
100
AcDbBlockReference
  2
FXTIP_ARROW_S
 10
248.021508
 20
52.818813
 30
0.0
 41
4.0
 42
4.0
 50
180.0
  0
INSERT
  5
1FD
330
1F
100
AcDbEntity
  8
LAYERGROUP-1
  6
CONTINUOUS
 62
     7
100
AcDbBlockReference
  2
FXTIP_ARROW_E
 10
301.021508
 20
52.818813
 30
0.0
 41
4.0
 42
4.0
 50
360.0
  0
LINE
  5
1FE
330
1F
100
AcDbEntity
  8
LAYERGROUP-1
  6
CONTINUOUS
 62
     7
100
AcDbLine
 10
248.021508
 20
146.24178
 30
0.0
 11
248.021508
 21
51.818813
 31
0.0
  0
LINE
  5
1FF
330
1F
100
AcDbEntity
  8
LAYERGROUP-1
  6
CONTINUOUS
 62
     7
100
AcDbLine
 10
301.021508
 20
146.24178
 30
0.0
 11
301.021508
 21
51.818813
 31
0.0
  0
ARC
  5
200
330
1F
100
AcDbEntity
  8
LAYERGROUP-1
  6
CONTINUOUS
 62
     3
100
AcDbCircle
 10
554.461311
 20
161.24178
 30
0.0
 40
75.00000000000011
100
AcDbArc
 50
0.0
 51
53.561048
  0
CIRCLE
  5
201
330
1F
100
AcDbEntity
  8
LAYERGROUP-1
  6
CONTINUOUS
 62
     3
100
AcDbCircle
 10
554.461311
 20
161.24178
 30
0.0
 40
10.69999999999999
  0
ARC
  5
202
330
1F
100
AcDbEntity
  8
LAYERGROUP-1
  6
CONTINUOUS
 62
     3
100
AcDbCircle
 10
554.461311
 20
161.24178
 30
0.0
 40
75.00000000000011
100
AcDbArc
 50
126.438952
 51
360.0
  0
INSERT
  5
206
330
1F
100
AcDbEntity
  8
0
100
AcDbBlockReference
  2
BLKF021
 10
0.0
 20
0.0
 30
0.0
  0
LINE
  5
231
330
1F
100
AcDbEntity
  8
LAYERGROUP-1
  6
CONTINUOUS
 62
     3
100
AcDbLine
 10
298.021508
 20
191.24178
 30
0.0
 11
297.021508
 21
195.836689
 31
0.0
  0
LINE
  5
232
330
1F
100
AcDbEntity
  8
LAYERGROUP-1
  6
CONTINUOUS
 62
     3
100
AcDbLine
 10
300.521508
 20
175.74178
 30
0.0
 11
298.021508
 21
175.74178
 31
0.0
  0
LINE
  5
233
330
1F
100
AcDbEntity
  8
LAYERGROUP-1
  6
CONTINUOUS
 62
     3
100
AcDbLine
 10
301.021508
 20
175.24178
 30
0.0
 11
300.521508
 21
175.74178
 31
0.0
  0
LINE
  5
234
330
1F
100
AcDbEntity
  8
LAYERGROUP-1
  6
CONTINUOUS
 62
     3
100
AcDbLine
 10
297.021508
 20
221.2415
 30
0.0
 11
297.021508
 21
101.24206
 31
0.0
  0
LINE
  5
235
330
1F
100
AcDbEntity
  8
}}ﾊﾊGG血CCТ
  6
CONTINUOUS
 62
     3
100
AcDbLine
 10
301.021508
 20
175.24178
 30
0.0
 11
301.021508
 21
147.24178
 31
0.0
  0
LINE
  5
236
330
1F
100
AcDbEntity
  8
}}ﾊﾊGG血CCТ
  6
CONTINUOUS
 62
     3
100
AcDbLine
 10
298.021508
 20
191.24178
 30
0.0
 11
298.021508
 21
131.24178
 31
0.0
  0
LINE
  5
237
330
1F
100
AcDbEntity
  8
GR1-1
  6
CONTINUOUS
 62
     6
100
AcDbLine
 10
289.521508
 20
232.964599
 30
0.0
 11
289.521508
 21
89.51896
 31
0.0
  0
LINE
  5
238
330
1F
100
AcDbEntity
  8
GR1-1
  6
CONTINUOUS
 62
     6
100
AcDbLine
 10
300.521508
 20
175.74178
 30
0.0
 11
300.521508
 21
146.74178
 31
0.0
  0
LINE
  5
239
330
1F
100
AcDbEntity
  8
LAYERGROUP-1
  6
CONTINUOUS
 62
     3
100
AcDbLine
 10
251.021508
 20
191.24178
 30
0.0
 11
252.021508
 21
195.836689
 31
0.0
  0
LINE
  5
23A
330
1F
100
AcDbEntity
  8
LAYERGROUP-1
  6
CONTINUOUS
 62
     3
100
AcDbLine
 10
248.521508
 20
175.74178
 30
0.0
 11
251.021508
 21
175.74178
 31
0.0
  0
LINE
  5
23B
330
1F
100
AcDbEntity
  8
LAYERGROUP-1
  6
CONTINUOUS
 62
     3
100
AcDbLine
 10
248.021508
 20
175.24178
 30
0.0
 11
248.521508
 21
175.74178
 31
0.0
  0
LINE
  5
23C
330
1F
100
AcDbEntity
  8
LAYERGROUP-1
  6
CONTINUOUS
 62
     3
100
AcDbLine
 10
252.021508
 20
221.2415
 30
0.0
 11
252.021508
 21
101.24206
 31
0.0
  0
LINE
  5
23D
330
1F
100
AcDbEntity
  8
}}ﾊﾊGG血CCТ
  6
CONTINUOUS
 62
     3
100
AcDbLine
 10
248.021508
 20
175.24178
 30
0.0
 11
248.021508
 21
147.24178
 31
0.0
  0
LINE
  5
23E
330
1F
100
AcDbEntity
  8
}}ﾊﾊGG血CCТ
  6
CONTINUOUS
 62
     3
100
AcDbLine
 10
251.021508
 20
191.24178
 30
0.0
 11
251.021508
 21
131.24178
 31
0.0
  0
LINE
  5
23F
330
1F
100
AcDbEntity
  8
GR1-1
  6
CONTINUOUS
 62
     6
100
AcDbLine
 10
259.521508
 20
232.964599
 30
0.0
 11
259.521508
 21
89.51896
 31
0.0
  0
LINE
  5
240
330
1F
100
AcDbEntity
  8
GR1-1
  6
CONTINUOUS
 62
     6
100
AcDbLine
 10
248.521508
 20
175.74178
 30
0.0
 11
248.521508
 21
146.74178
 31
0.0
  0
LINE
  5
241
330
1F
100
AcDbEntity
  8
LAYERGROUP-1
  6
CONTINUOUS
 62
     3
100
AcDbLine
 10
298.021508
 20
131.24178
 30
0.0
 11
297.021508
 21
126.64687
 31
0.0
  0
LINE
  5
242
330
1F
100
AcDbEntity
  8
LAYERGROUP-1
  6
CONTINUOUS
 62
     3
100
AcDbLine
 10
300.521508
 20
146.74178
 30
0.0
 11
298.021508
 21
146.74178
 31
0.0
  0
LINE
  5
243
330
1F
100
AcDbEntity
  8
LAYERGROUP-1
  6
CONTINUOUS
 62
     3
100
AcDbLine
 10
301.021508
 20
147.24178
 30
0.0
 11
300.521508
 21
146.74178
 31
0.0
  0
LINE
  5
244
330
1F
100
AcDbEntity
  8
0-1
  6
CONTINUOUS
 62
     3
100
AcDbLine
 10
291.630445
 20
91.904465
 30
0.0
 11
297.021508
 21
101.24206
 31
0.0
  0
ARC
  5
245
330
1F
100
AcDbEntity
  8
LAYERGROUP-1
  6
CONTINUOUS
 62
     3
100
AcDbCircle
 10
284.702242
 20
95.904465
 30
0.0
 40
8.0
100
AcDbArc
 50
288.550957
 51
330.0
  0
LINE
  5
246
330
1F
100
AcDbEntity
  8
}}ﾊﾊGG血CCТ
  6
CONTINUOUS
 62
     3
100
AcDbLine
 10
297.021508
 20
101.34206
 30
0.0
 11
297.021508
 21
101.24206
 31
0.0
  0
LINE
  5
247
330
1F
100
AcDbEntity
  8
LAYERGROUP-1
  6
CONTINUOUS
 62
     3
100
AcDbLine
 10
251.021508
 20
131.24178
 30
0.0
 11
252.021508
 21
126.64687
 31
0.0
  0
LINE
  5
248
330
1F
100
AcDbEntity
  8
LAYERGROUP-1
  6
CONTINUOUS
 62
     3
100
AcDbLine
 10
248.521508
 20
146.74178
 30
0.0
 11
251.021508
 21
146.74178
 31
0.0
  0
LINE
  5
249
330
1F
100
AcDbEntity
  8
LAYERGROUP-1
  6
CONTINUOUS
 62
     3
100
AcDbLine
 10
248.021508
 20
147.24178
 30
0.0
 11
248.521508
 21
146.74178
 31
0.0
  0
LINE
  5
24A
330
1F
100
AcDbEntity
  8
0-1
  6
CONTINUOUS
 62
     3
100
AcDbLine
 10
257.412571
 20
91.904465
 30
0.0
 11
252.021508
 21
101.24206
 31
0.0
  0
ARC
  5
24B
330
1F
100
AcDbEntity
  8
LAYERGROUP-1
  6
CONTINUOUS
 62
     3
100
AcDbCircle
 10
264.340774
 20
95.904465
 30
0.0
 40
8.0
100
AcDbArc
 50
210.0
 51
251.449043
  0
LINE
  5
24C
330
1F
100
AcDbEntity
  8
}}ﾊﾊGG血CCТ
  6
CONTINUOUS
 62
     3
100
AcDbLine
 10
252.021508
 20
101.34206
 30
0.0
 11
252.021508
 21
101.24206
 31
0.0
  0
ARC
  5
24D
330
1F
100
AcDbEntity
  8
0-1
  6
CONTINUOUS
 62
     3
100
AcDbCircle
 10
274.521508
 20
126.24178
 30
0.0
 40
40.0
100
AcDbArc
 50
251.449043
 51
288.550957
  0
LINE
  5
24E
330
1F
100
AcDbEntity
  8
0-1
  6
CONTINUOUS
 62
     3
100
AcDbLine
 10
291.630445
 20
230.579094
 30
0.0
 11
297.021508
 21
221.2415
 31
0.0
  0
ARC
  5
24F
330
1F
100
AcDbEntity
  8
LAYERGROUP-1
  6
CONTINUOUS
 62
     3
100
AcDbCircle
 10
284.702242
 20
226.579094
 30
0.0
 40
8.0
100
AcDbArc
 50
30.0
 51
71.449043
  0
LINE
  5
250
330
1F
100
AcDbEntity
  8
}}ﾊﾊGG血CCТ
  6
CONTINUOUS
 62
     3
100
AcDbLine
 10
297.021508
 20
221.1415
 30
0.0
 11
297.021508
 21
221.2415
 31
0.0
  0
LINE
  5
251
330
1F
100
AcDbEntity
  8
0-1
  6
CONTINUOUS
 62
     3
100
AcDbLine
 10
257.412571
 20
230.579094
 30
0.0
 11
252.021508
 21
221.2415
 31
0.0
  0
ARC
  5
252
330
1F
100
AcDbEntity
  8
LAYERGROUP-1
  6
CONTINUOUS
 62
     3
100
AcDbCircle
 10
264.340774
 20
226.579094
 30
0.0
 40
8.0
100
AcDbArc
 50
108.550957
 51
150.0
  0
LINE
  5
253
330
1F
100
AcDbEntity
  8
}}ﾊﾊGG血CCТ
  6
CONTINUOUS
 62
     3
100
AcDbLine
 10
252.021508
 20
221.1415
 30
0.0
 11
252.021508
 21
221.2415
 31
0.0
  0
ARC
  5
254
330
1F
100
AcDbEntity
  8
0-1
  6
CONTINUOUS
 62
     3
100
AcDbCircle
 10
274.521508
 20
196.24178
 30
0.0
 40
40.0
100
AcDbArc
 50
71.449043
 51
108.550957
  0
DIMENSION
  5
255
330
1F
100
AcDbEntity
  8
LAYERGROUP-1
100
AcDbDimension
  2
*D22
 10
297.021508
 20
64.770959
 30
0.0
 11
274.521515
 21
65.770958
 31
0.0
 70
    33
  3
FXDIMINFO
100
AcDbAlignedDimension
 13
252.021508
 23
101.24206
 33
0.0
 14
297.021508
 24
101.24206
 34
0.0
1001
ACAD
1000
DSTYLE
1002
{
1070
     7
1000
FXTIP_ARROW_E
1070
     6
1000
FXTIP_ARROW_S
1070
   173
1070
     1
1002
}
  0
DIMENSION
  5
25F
330
1F
100
AcDbEntity
  8
LAYERGROUP-1
100
AcDbDimension
  2
*D23
 10
351.196805
 20
236.24178
 30
0.0
 11
350.196808
 21
161.241776
 31
0.0
 70
    33
  3
FXDIMINFO
100
AcDbAlignedDimension
 13
274.521508
 23
86.24178
 33
0.0
 14
274.521508
 24
236.24178
 34
0.0
1001
ACAD
1000
DSTYLE
1002
{
1070
     7
1000
FXTIP_ARROW_E
1070
     6
1000
FXTIP_ARROW_S
1070
   173
1070
     1
1002
}
  0
ARC
  5
269
330
1F
100
AcDbEntity
  8
LAYERGROUP-1
  6
CONTINUOUS
 62
     6
100
AcDbCircle
 10
554.461311
 20
161.24178
 30
0.0
 40
53.5
100
AcDbArc
 50
-224.394478
 51
44.394478
  0
ARC
  5
26A
330
1F
100
AcDbEntity
  8
LAYERGROUP-1
  6
CONTINUOUS
 62
     6
100
AcDbCircle
 10
554.461311
 20
161.24178
 30
0.0
 40
30.0
100
AcDbArc
 50
-198.088774
 51
18.088774
  0
LINE
  5
26B
330
1F
100
AcDbEntity
  8
LAYERGROUP-1
  6
DASHED
 62
     6
100
AcDbLine
 10
522.600508
 20
180.143882
 30
0.0
 11
508.775477
 21
189.121962
 31
0.0
  0
LINE
  5
26C
330
1F
100
AcDbEntity
  8
LAYERGROUP-1
  6
DASHED
 62
     6
100
AcDbLine
 10
524.580929
 20
164.309803
 30
0.0
 11
501.113135
 21
165.539698
 31
0.0
  0
LINE
  5
26D
330
1F
100
AcDbEntity
  8
LAYERGROUP-1
  6
CONTINUOUS
 62
     6
100
AcDbLine
 10
521.794153
 20
182.456081
 30
0.0
 11
514.48231
 21
187.204446
 31
0.0
  0
LINE
  5
26E
330
1F
100
AcDbEntity
  8
LAYERGROUP-1
  6
CONTINUOUS
 62
     6
100
AcDbLine
 10
520.599817
 20
163.016386
 30
0.0
 11
506.857147
 21
163.736608
 31
0.0
  0
ARC
  5
26F
330
1F
100
AcDbEntity
  8
LAYERGROUP-1
  6
CONTINUOUS
 62
     6
100
AcDbCircle
 10
507.946642
 20
177.1404
 30
0.0
 40
12.0
100
AcDbArc
 50
57.0
 51
85.955024
  0
ARC
  5
270
330
1F
100
AcDbEntity
  8
LAYERGROUP-1
  6
CONTINUOUS
 62
     6
100
AcDbCircle
 10
507.485179
 20
175.720163
 30
0.0
 40
12.0
100
AcDbArc
 50
238.044976
 51
267.0
  0
ARC
  5
271
330
1F
100
AcDbEntity
  8
LAYERGROUP-1
  6
CONTINUOUS
 62
     6
100
AcDbCircle
 10
520.468977
 20
160.519812
 30
0.0
 40
2.5
100
AcDbArc
 50
1.21673
 51
87.0
  0
LINE
  5
272
330
1F
100
AcDbEntity
  8
LAYERGROUP-1
  6
CONTINUOUS
 62
     6
100
AcDbLine
 10
522.968413
 20
160.572898
 30
0.0
 11
524.580929
 21
164.309803
 31
0.0
  0
LINE
  5
273
330
1F
100
AcDbEntity
  8
LAYERGROUP-1
  6
CONTINUOUS
 62
     6
100
AcDbLine
 10
524.580929
 20
164.309803
 30
0.0
 11
520.599817
 21
163.016386
 31
0.0
  0
LINE
  5
274
330
1F
100
AcDbEntity
  8
LAYERGROUP-1
  6
DASHED
 62
     6
100
AcDbLine
 10
532.090913
 20
141.196449
 30
0.0
 11
513.827983
 21
126.40742
 31
0.0
  0
LINE
  5
275
330
1F
100
AcDbEntity
  8
LAYERGROUP-1
  6
DASHED
 62
     6
100
AcDbLine
 10
542.309902
 20
133.771919
 30
0.0
 11
533.888255
 21
111.832779
 31
0.0
  0
LINE
  5
276
330
1F
100
AcDbEntity
  8
LAYERGROUP-1
  6
CONTINUOUS
 62
     6
100
AcDbLine
 10
528.109874
 20
139.902807
 30
0.0
 11
517.415157
 21
131.242396
 31
0.0
  0
LINE
  5
277
330
1F
100
AcDbEntity
  8
LAYERGROUP-1
  6
CONTINUOUS
 62
     6
100
AcDbLine
 10
542.309783
 20
129.585969
 30
0.0
 11
537.378093
 21
116.738474
 31
0.0
  0
ARC
  5
278
330
1F
100
AcDbEntity
  8
LAYERGROUP-1
  6
CONTINUOUS
 62
     6
100
AcDbCircle
 10
524.967002
 20
121.916645
 30
0.0
 40
12.0
100
AcDbArc
 50
129.0
 51
157.955024
  0
ARC
  5
279
330
1F
100
AcDbEntity
  8
LAYERGROUP-1
  6
CONTINUOUS
 62
     6
100
AcDbCircle
 10
526.175127
 20
121.03889
 30
0.0
 40
12.0
100
AcDbArc
 50
310.044976
 51
339.0
  0
ARC
  5
27A
330
1F
100
AcDbEntity
  8
LAYERGROUP-1
  6
CONTINUOUS
 62
     6
100
AcDbCircle
 10
544.643735
 20
128.690049
 30
0.0
 40
2.5
100
AcDbArc
 50
73.21673
 51
159.0
  0
LINE
  5
27B
330
1F
100
AcDbEntity
  8
LAYERGROUP-1
  6
CONTINUOUS
 62
     6
100
AcDbLine
 10
545.365615
 20
131.083558
 30
0.0
 11
542.309902
 21
133.771919
 31
0.0
  0
LINE
  5
27C
330
1F
100
AcDbEntity
  8
LAYERGROUP-1
  6
CONTINUOUS
 62
     6
100
AcDbLine
 10
542.309902
 20
133.771919
 30
0.0
 11
542.309783
 21
129.585969
 31
0.0
  0
ARC
  5
27D
330
1F
100
AcDbEntity
  8
LAYERGROUP-1
  6
CONTINUOUS
 62
     6
100
AcDbCircle
 10
526.536573
 20
141.845672
 30
0.0
 40
2.5
100
AcDbArc
 50
-51.0
 51
34.78327
  0
LINE
  5
27E
330
1F
100
AcDbEntity
  8
LAYERGROUP-1
  6
CONTINUOUS
 62
     6
100
AcDbLine
 10
528.589862
 20
143.271856
 30
0.0
 11
532.090913
 21
141.196449
 31
0.0
  0
LINE
  5
27F
330
1F
100
AcDbEntity
  8
LAYERGROUP-1
  6
CONTINUOUS
 62
     6
100
AcDbLine
 10
532.090913
 20
141.196449
 30
0.0
 11
528.109874
 21
139.902807
 31
0.0
  0
LINE
  5
280
330
1F
100
AcDbEntity
  8
LAYERGROUP-1
  6
DASHED
 62
     6
100
AcDbLine
 10
566.61272
 20
133.771919
 30
0.0
 11
575.034367
 21
111.832779
 31
0.0
  0
LINE
  5
281
330
1F
100
AcDbEntity
  8
LAYERGROUP-1
  6
DASHED
 62
     6
100
AcDbLine
 10
576.831709
 20
141.196449
 30
0.0
 11
595.094639
 21
126.40742
 31
0.0
  0
LINE
  5
282
330
1F
100
AcDbEntity
  8
LAYERGROUP-1
  6
CONTINUOUS
 62
     6
100
AcDbLine
 10
566.612838
 20
129.585969
 30
0.0
 11
571.544529
 21
116.738474
 31
0.0
  0
LINE
  5
283
330
1F
100
AcDbEntity
  8
LAYERGROUP-1
  6
CONTINUOUS
 62
     6
100
AcDbLine
 10
580.812748
 20
139.902807
 30
0.0
 11
591.507465
 21
131.242396
 31
0.0
  0
ARC
  5
284
330
1F
100
AcDbEntity
  8
LAYERGROUP-1
  6
CONTINUOUS
 62
     6
100
AcDbCircle
 10
582.747494
 20
121.03889
 30
0.0
 40
12.0
100
AcDbArc
 50
201.0
 51
229.955024
  0
ARC
  5
285
330
1F
100
AcDbEntity
  8
LAYERGROUP-1
  6
CONTINUOUS
 62
     6
100
AcDbCircle
 10
583.95562
 20
121.916645
 30
0.0
 40
12.0
100
AcDbArc
 50
22.044976
 51
51.0
  0
ARC
  5
286
330
1F
100
AcDbEntity
  8
LAYERGROUP-1
  6
CONTINUOUS
 62
     6
100
AcDbCircle
 10
582.386049
 20
141.845672
 30
0.0
 40
2.5
100
AcDbArc
 50
145.21673
 51
231.0
  0
LINE
  5
287
330
1F
100
AcDbEntity
  8
LAYERGROUP-1
  6
CONTINUOUS
 62
     6
100
AcDbLine
 10
580.332759
 20
143.271856
 30
0.0
 11
576.831709
 21
141.196449
 31
0.0
  0
LINE
  5
288
330
1F
100
AcDbEntity
  8
LAYERGROUP-1
  6
CONTINUOUS
 62
     6
100
AcDbLine
 10
576.831709
 20
141.196449
 30
0.0
 11
580.812748
 21
139.902807
 31
0.0
  0
ARC
  5
289
330
1F
100
AcDbEntity
  8
LAYERGROUP-1
  6
CONTINUOUS
 62
     6
100
AcDbCircle
 10
564.278887
 20
128.690049
 30
0.0
 40
2.5
100
AcDbArc
 50
21.0
 51
106.78327
  0
LINE
  5
28A
330
1F
100
AcDbEntity
  8
LAYERGROUP-1
  6
CONTINUOUS
 62
     6
100
AcDbLine
 10
563.557007
 20
131.083558
 30
0.0
 11
566.61272
 21
133.771919
 31
0.0
  0
LINE
  5
28B
330
1F
100
AcDbEntity
  8
LAYERGROUP-1
  6
CONTINUOUS
 62
     6
100
AcDbLine
 10
566.61272
 20
133.771919
 30
0.0
 11
566.612838
 21
129.585969
 31
0.0
  0
LINE
  5
28C
330
1F
100
AcDbEntity
  8
LAYERGROUP-1
  6
DASHED
 62
     6
100
AcDbLine
 10
584.341693
 20
164.309803
 30
0.0
 11
607.809487
 21
165.539698
 31
0.0
  0
LINE
  5
28D
330
1F
100
AcDbEntity
  8
LAYERGROUP-1
  6
DASHED
 62
     6
100
AcDbLine
 10
586.322114
 20
180.143882
 30
0.0
 11
600.147145
 21
189.121962
 31
0.0
  0
LINE
  5
28E
330
1F
100
AcDbEntity
  8
LAYERGROUP-1
  6
CONTINUOUS
 62
     6
100
AcDbLine
 10
588.322805
 20
163.016386
 30
0.0
 11
602.065474
 21
163.736608
 31
0.0
  0
LINE
  5
28F
330
1F
100
AcDbEntity
  8
LAYERGROUP-1
  6
CONTINUOUS
 62
     6
100
AcDbLine
 10
587.128469
 20
182.456081
 30
0.0
 11
594.440312
 21
187.204446
 31
0.0
  0
ARC
  5
290
330
1F
100
AcDbEntity
  8
LAYERGROUP-1
  6
CONTINUOUS
 62
     6
100
AcDbCircle
 10
601.437443
 20
175.720163
 30
0.0
 40
12.0
100
AcDbArc
 50
273.0
 51
301.955024
  0
ARC
  5
291
330
1F
100
AcDbEntity
  8
LAYERGROUP-1
  6
CONTINUOUS
 62
     6
100
AcDbCircle
 10
600.97598
 20
177.1404
 30
0.0
 40
12.0
100
AcDbArc
 50
94.044976
 51
123.0
  0
ARC
  5
292
330
1F
100
AcDbEntity
  8
LAYERGROUP-1
  6
CONTINUOUS
 62
     6
100
AcDbCircle
 10
588.453645
 20
160.519812
 30
0.0
 40
2.5
100
AcDbArc
 50
93.0
 51
178.78327
  0
LINE
  5
293
330
1F
100
AcDbEntity
  8
LAYERGROUP-1
  6
CONTINUOUS
 62
     6
100
AcDbLine
 10
585.954208
 20
160.572898
 30
0.0
 11
584.341693
 21
164.309803
 31
0.0
  0
LINE
  5
294
330
1F
100
AcDbEntity
  8
LAYERGROUP-1
  6
CONTINUOUS
 62
     6
100
AcDbLine
 10
584.341693
 20
164.309803
 30
0.0
 11
588.322805
 21
163.016386
 31
0.0
  0
ARC
  5
295
330
1F
100
AcDbEntity
  8
LAYERGROUP-1
  6
CONTINUOUS
 62
     6
100
AcDbCircle
 10
554.461311
 20
161.24178
 30
0.0
 40
31.5
100
AcDbArc
 50
325.21673
 51
358.78327
  0
ARC
  5
296
330
1F
100
AcDbEntity
  8
LAYERGROUP-1
  6
CONTINUOUS
 62
     6
100
AcDbCircle
 10
554.461311
 20
161.24178
 30
0.0
 40
31.5
100
AcDbArc
 50
253.21673
 51
286.78327
  0
ARC
  5
297
330
1F
100
AcDbEntity
  8
LAYERGROUP-1
  6
CONTINUOUS
 62
     6
100
AcDbCircle
 10
554.461311
 20
161.24178
 30
0.0
 40
31.5
100
AcDbArc
 50
181.21673
 51
214.78327
  0
ARC
  5
298
330
1F
100
AcDbEntity
  8
LAYERGROUP-1
  6
CONTINUOUS
 62
     6
100
AcDbCircle
 10
554.461311
 20
161.24178
 30
0.0
 40
48.92
100
AcDbArc
 50
4.757096
 51
31.242904
  0
ARC
  5
299
330
1F
100
AcDbEntity
  8
LAYERGROUP-1
  6
CONTINUOUS
 62
     6
100
AcDbCircle
 10
554.461311
 20
161.24178
 30
0.0
 40
48.14
100
AcDbArc
 50
-39.010983
 51
3.010983
  0
ARC
  5
29A
330
1F
100
AcDbEntity
  8
LAYERGROUP-1
  6
CONTINUOUS
 62
     6
100
AcDbCircle
 10
554.461311
 20
161.24178
 30
0.0
 40
48.14
100
AcDbArc
 50
32.989017
 51
41.063028
  0
ARC
  5
29B
330
1F
100
AcDbEntity
  8
LAYERGROUP-1
  6
CONTINUOUS
 62
     6
100
AcDbCircle
 10
554.461311
 20
161.24178
 30
0.0
 40
48.92
100
AcDbArc
 50
148.757096
 51
175.242904
  0
ARC
  5
29C
330
1F
100
AcDbEntity
  8
LAYERGROUP-1
  6
CONTINUOUS
 62
     6
100
AcDbCircle
 10
554.461311
 20
161.24178
 30
0.0
 40
48.14
100
AcDbArc
 50
138.936972
 51
147.010983
  0
ARC
  5
29D
330
1F
100
AcDbEntity
  8
LAYERGROUP-1
  6
CONTINUOUS
 62
     6
100
AcDbCircle
 10
554.461311
 20
161.24178
 30
0.0
 40
48.92
100
AcDbArc
 50
220.757096
 51
247.242904
  0
ARC
  5
29E
330
1F
100
AcDbEntity
  8
LAYERGROUP-1
  6
CONTINUOUS
 62
     6
100
AcDbCircle
 10
554.461311
 20
161.24178
 30
0.0
 40
48.92
100
AcDbArc
 50
292.757096
 51
319.242904
  0
ARC
  5
29F
330
1F
100
AcDbEntity
  8
LAYERGROUP-1
  6
CONTINUOUS
 62
     6
100
AcDbCircle
 10
554.461311
 20
161.24178
 30
0.0
 40
48.14
100
AcDbArc
 50
176.989017
 51
219.010983
  0
ARC
  5
2A0
330
1F
100
AcDbEntity
  8
LAYERGROUP-1
  6
CONTINUOUS
 62
     6
100
AcDbCircle
 10
554.461311
 20
161.24178
 30
0.0
 40
48.14
100
AcDbArc
 50
248.989017
 51
291.010983
  0
TEXT
  5
2A1
330
1F
100
AcDbEntity
  8
LAYERGROUP-1
  6
CONTINUOUS
 62
     7
100
AcDbText
 10
521.757629
 20
139.030548
 30
0.0
 40
6.339136
  1
W
 50
121.0
 41
0.76408
  7
FX_VECTOR
 72
     5
 11
519.144196
 21
143.380032
 31
0.0
100
AcDbText
  0
TEXT
  5
2A2
330
1F
100
AcDbEntity
  8
LAYERGROUP-1
  6
CONTINUOUS
 62
     7
100
AcDbText
 10
515.393433
 20
155.453461
 30
0.0
 40
6.251131
  1
0
 50
94.5
 41
1.036712
  7
FX_VECTOR
 72
     5
 11
514.981819
 21
160.683508
 31
0.0
100
AcDbText
  0
TEXT
  5
2A3
330
1F
100
AcDbEntity
  8
LAYERGROUP-1
  6
CONTINUOUS
 62
     7
100
AcDbText
 10
516.211914
 20
150.861328
 30
0.0
 40
6.072946
  1
5
 50
101.5
 41
0.998947
  7
FX_VECTOR
 72
     5
 11
515.232815
 21
155.673754
 31
0.0
100
AcDbText
  0
TEXT
  5
2A4
330
1F
100
AcDbEntity
  8
LAYERGROUP-1
  6
CONTINUOUS
 62
     7
100
AcDbText
 10
517.421631
 20
147.321915
 30
0.0
 40
6.142267
  1
1
 50
108.0
 41
1.097353
  7
FX_VECTOR
 72
     5
 11
516.330616
 21
150.679714
 31
0.0
100
AcDbText
  0
TEXT
  5
2A5
330
1F
100
AcDbEntity
  8
LAYERGROUP-1
  6
CONTINUOUS
 62
     7
100
AcDbText
 10
519.210754
 20
142.992447
 30
0.0
 40
6.0
  1
-
 50
114.448181
 41
0.636364
  7
FX_VECTOR
 72
     5
 11
517.555274
 21
146.633791
 31
0.0
100
AcDbText
  0
ARC
  5
2A6
330
1F
100
AcDbEntity
  8
LAYERGROUP-1
  6
CONTINUOUS
 62
     3
100
AcDbCircle
 10
554.461311
 20
161.24178
 30
0.0
 40
57.00000000000009
100
AcDbArc
 50
-226.317049
 51
46.317049
  0
ARC
  5
2A7
330
1F
100
AcDbEntity
  8
LAYERGROUP-1
  6
CONTINUOUS
 62
     3
100
AcDbCircle
 10
554.461311
 20
161.24178
 30
0.0
 40
23.49999999999994
100
AcDbArc
 50
194.787338
 51
345.212662
  0
ARC
  5
2A8
330
1F
100
AcDbEntity
  8
LAYERGROUP-1
  6
DASHED
 62
     6
100
AcDbCircle
 10
554.461311
 20
161.24178
 30
0.0
 40
22.49999999999992
100
AcDbArc
 50
205.842413
 51
334.157587
  0
TEXT
  5
2A9
330
1F
100
AcDbEntity
  8
GR1-1
  6
CONTINUOUS
 62
     7
100
AcDbText
 10
499.727325
 20
129.029953
 30
0.0
 40
7.0
  1
G
 50
115.0
 41
1.0
  7
FX_VECTOR
 72
     5
 11
497.191616
 21
134.4678
 31
0.0
100
AcDbText
  0
TEXT
  5
2AA
330
1F
100
AcDbEntity
  8
GR1-1
  6
CONTINUOUS
 62
     7
100
AcDbText
 10
496.278046
 20
136.041489
 30
0.0
 40
7.0
  1
O
 50
108.0
 41
0.947368
  7
FX_VECTOR
 72
     5
 11
494.423944
 21
141.747828
 31
0.0
100
AcDbText
  0
TEXT
  5
2AB
330
1F
100
AcDbEntity
  8
GR1-1
  6
CONTINUOUS
 62
     7
100
AcDbText
 10
493.620392
 20
143.39238
 30
0.0
 40
7.0
  1
L
 50
101.0
 41
1.125
  7
FX_VECTOR
 72
     5
 11
492.475538
 21
149.282143
 31
0.0
100
AcDbText
  0
TEXT
  5
2AC
330
1F
100
AcDbEntity
  8
GR1-1
  6
CONTINUOUS
 62
     7
100
AcDbText
 10
491.924042
 20
150.969406
 30
0.0
 40
7.0
  1
D
 50
94.0
 41
1.0
  7
FX_VECTOR
 72
     5
 11
491.505503
 21
156.95479
 31
0.0
100
AcDbText
  0
TEXT
  5
2AD
330
1F
100
AcDbEntity
  8
GR1-1
  6
CONTINUOUS
 62
     7
100
AcDbText
 10
491.312408
 20
166.37645
 30
0.0
 40
7.0
  1
C
 50
80.0
 41
1.0
  7
FX_VECTOR
 72
     5
 11
492.354298
 21
172.285296
 31
0.0
100
AcDbText
  0
TEXT
  5
2AE
330
1F
100
AcDbEntity
  8
GR1-1
  6
CONTINUOUS
 62
     7
100
AcDbText
 10
492.485138
 20
173.580063
 30
0.0
 40
7.0
  1
A
 50
73.0
 41
1.058824
  7
FX_VECTOR
 72
     5
 11
494.239368
 21
179.317891
 31
0.0
100
AcDbText
  0
TEXT
  5
2AF
330
1F
100
AcDbEntity
  8
GR1-1
  6
CONTINUOUS
 62
     7
100
AcDbText
 10
494.16037
 20
181.11882
 30
0.0
 40
7.0
  1
S
 50
66.0
 41
1.058824
  7
FX_VECTOR
 72
     5
 11
496.60079
 21
186.600093
 31
0.0
100
AcDbText
  0
TEXT
  5
2B0
330
1F
100
AcDbEntity
  8
GR1-1
  6
CONTINUOUS
 62
     7
100
AcDbText
 10
497.008331
 20
187.987411
 30
0.0
 40
7.0
  1
T
 50
59.0
 41
1.2
  7
FX_VECTOR
 72
     5
 11
500.09856
 21
193.130415
 31
0.0
100
AcDbText
  0
TEXT
  5
2B1
330
1F
100
AcDbEntity
  8
GR1-1
  6
CONTINUOUS
 62
     7
100
AcDbText
 10
500.861542
 20
195.023544
 30
0.0
 40
7.0
  1
E
 50
52.0
 41
1.058824
  7
FX_VECTOR
 72
     5
 11
504.555511
 21
199.751609
 31
0.0
100
AcDbText
  0
TEXT
  5
2B2
330
1F
100
AcDbEntity
  8
GR1-1
  6
CONTINUOUS
 62
     7
100
AcDbText
 10
505.719818
 20
201.724655
 30
0.0
 40
7.0
  1
R
 50
45.0
 41
1.0
  7
FX_VECTOR
 72
     5
 11
509.962459
 21
205.967296
 31
0.0
100
AcDbText
  0
TEXT
  5
2B3
330
1F
100
AcDbEntity
  8
GR1-1
  6
CONTINUOUS
 62
     7
100
AcDbText
 10
612.860229
 20
185.536606
 30
0.0
 40
7.0
  1
1
 50
290.0
 41
1.636364
  7
FX_VECTOR
 72
     5
 11
614.91235
 21
179.89845
 31
0.0
100
AcDbText
  0
TEXT
  5
2B4
330
1F
100
AcDbEntity
  8
GR1-1
  6
CONTINUOUS
 62
     7
100
AcDbText
 10
615.766541
 20
177.011398
 30
0.0
 40
7.0
  1
5
 50
282.0
 41
1.058824
  7
FX_VECTOR
 72
     5
 11
617.014011
 21
171.142513
 31
0.0
100
AcDbText
  0
TEXT
  5
2B5
330
1F
100
AcDbEntity
  8
GR1-1
  6
CONTINUOUS
 62
     7
100
AcDbText
 10
617.316528
 20
168.486252
 30
0.0
 40
7.0
  1
0
 50
274.0
 41
1.058824
  7
FX_VECTOR
 72
     5
 11
617.735067
 21
162.500868
 31
0.0
100
AcDbText
  0
TEXT
  5
2B6
330
1F
100
AcDbEntity
  8
GR1-1
  6
CONTINUOUS
 62
     7
100
AcDbText
 10
617.704041
 20
159.379807
 30
0.0
 40
7.0
  1
X
 50
266.0
 41
1.058824
  7
FX_VECTOR
 72
     5
 11
617.285502
 21
153.394422
 31
0.0
100
AcDbText
  0
TEXT
  5
2B7
330
1F
100
AcDbEntity
  8
GR1-1
  6
CONTINUOUS
 62
     7
100
AcDbText
 10
616.929016
 20
151.048325
 30
0.0
 40
7.0
  1
4
 50
258.0
 41
1.0
  7
FX_VECTOR
 72
     5
 11
615.681546
 21
145.179439
 31
0.0
100
AcDbText
  0
TEXT
  5
2B8
330
1F
100
AcDbEntity
  8
GR1-1
  6
CONTINUOUS
 62
     7
100
AcDbText
 10
614.797729
 20
142.135666
 30
0.0
 40
7.0
  1
5
 50
250.0
 41
1.058824
  7
FX_VECTOR
 72
     5
 11
612.745609
 21
136.49751
 31
0.0
100
AcDbText
  0
LINE
  5
2B9
330
1F
100
AcDbEntity
  8
GR1-1
  6
CONTINUOUS
 62
     7
100
AcDbLine
 10
504.820137
 20
112.507768
 30
0.0
 11
500.805354
 21
116.966637
 31
0.0
  0
LINE
  5
2BA
330
1F
100
AcDbEntity
  8
GR1-1
  6
CONTINUOUS
 62
     7
100
AcDbLine
 10
500.805354
 20
116.966637
 30
0.0
 11
505.264223
 21
120.981421
 31
0.0
  0
LINE
  5
2BB
330
1F
100
AcDbEntity
  8
GR1-1
  6
CONTINUOUS
 62
     7
100
AcDbLine
 10
505.264223
 20
120.981421
 30
0.0
 11
509.279006
 21
116.522552
 31
0.0
  0
LINE
  5
2BC
330
1F
100
AcDbEntity
  8
GR1-1
  6
CONTINUOUS
 62
     7
100
AcDbLine
 10
509.279006
 20
116.522552
 30
0.0
 11
504.820137
 21
112.507768
 31
0.0
  0
LINE
  5
2BD
330
1F
100
AcDbEntity
  8
GR1-1
  6
CONTINUOUS
 62
     7
100
AcDbLine
 10
506.934767
 20
114.642664
 30
0.0
 11
502.940249
 21
114.852007
 31
0.0
  0
LINE
  5
2BE
330
1F
100
AcDbEntity
  8
GR1-1
  6
CONTINUOUS
 62
     7
100
AcDbLine
 10
502.940249
 20
114.852007
 30
0.0
 11
503.127389
 21
118.422843
 31
0.0
  0
LINE
  5
2BF
330
1F
100
AcDbEntity
  8
GR1-1
  6
CONTINUOUS
 62
     7
100
AcDbLine
 10
503.127389
 20
118.422843
 30
0.0
 11
504.073682
 21
117.371877
 31
0.0
  0
LINE
  5
2C0
330
1F
100
AcDbEntity
  8
GR1-1
  6
CONTINUOUS
 62
     7
100
AcDbLine
 10
504.073682
 20
117.371877
 30
0.0
 11
503.991214
 21
115.798301
 31
0.0
  0
LINE
  5
2C1
330
1F
100
AcDbEntity
  8
GR1-1
  6
CONTINUOUS
 62
     7
100
AcDbLine
 10
503.991214
 20
115.798301
 30
0.0
 11
505.988474
 21
115.693629
 31
0.0
  0
LINE
  5
2C2
330
1F
100
AcDbEntity
  8
GR1-1
  6
CONTINUOUS
 62
     7
100
AcDbLine
 10
505.988474
 20
115.693629
 30
0.0
 11
506.093145
 21
117.690888
 31
0.0
  0
LINE
  5
2C3
330
1F
100
AcDbEntity
  8
GR1-1
  6
CONTINUOUS
 62
     7
100
AcDbLine
 10
506.093145
 20
117.690888
 30
0.0
 11
505.043115
 21
117.745918
 31
0.0
  0
ARC
  5
2C4
330
1F
100
AcDbEntity
  8
GR1-1
  6
CONTINUOUS
 62
     7
100
AcDbCircle
 10
505.037881
 20
117.646055
 30
0.0
 40
0.1
100
AcDbArc
 50
87.0
 51
222.0
  0
LINE
  5
2C5
330
1F
100
AcDbEntity
  8
GR1-1
  6
CONTINUOUS
 62
     7
100
AcDbLine
 10
504.963567
 20
117.579142
 30
0.0
 11
505.413752
 21
117.07916
 31
0.0
  0
LINE
  5
2C6
330
1F
100
AcDbEntity
  8
GR1-1
  6
CONTINUOUS
 62
     7
100
AcDbLine
 10
505.413752
 20
117.07916
 30
0.0
 11
505.04218
 21
116.744595
 31
0.0
  0
LINE
  5
2C7
330
1F
100
AcDbEntity
  8
GR1-1
  6
CONTINUOUS
 62
     7
100
AcDbLine
 10
505.04218
 20
116.744595
 30
0.0
 11
503.149593
 21
118.846526
 31
0.0
  0
LINE
  5
2C8
330
1F
100
AcDbEntity
  8
GR1-1
  6
CONTINUOUS
 62
     7
100
AcDbLine
 10
503.149593
 20
118.846526
 30
0.0
 11
504.653956
 21
120.20106
 31
0.0
  0
LINE
  5
2C9
330
1F
100
AcDbEntity
  8
GR1-1
  6
CONTINUOUS
 62
     7
100
AcDbLine
 10
504.653956
 20
120.20106
 30
0.0
 11
505.323087
 21
119.457916
 31
0.0
  0
LINE
  5
2CA
330
1F
100
AcDbEntity
  8
GR1-1
  6
CONTINUOUS
 62
     7
100
AcDbLine
 10
505.323087
 20
119.457916
 30
0.0
 11
504.741279
 21
118.934054
 31
0.0
  0
ARC
  5
2CB
330
1F
100
AcDbEntity
  8
GR1-1
  6
CONTINUOUS
 62
     7
100
AcDbCircle
 10
504.808192
 20
118.859739
 30
0.0
 40
0.1
100
AcDbArc
 50
132.0
 51
267.0
  0
LINE
  5
2CC
330
1F
100
AcDbEntity
  8
GR1-1
  6
CONTINUOUS
 62
     7
100
AcDbLine
 10
504.802959
 20
118.759876
 30
0.0
 11
507.144111
 21
118.637182
 31
0.0
  0
LINE
  5
2CD
330
1F
100
AcDbEntity
  8
GR1-1
  6
CONTINUOUS
 62
     7
100
AcDbLine
 10
507.144111
 20
118.637182
 30
0.0
 11
506.934767
 21
114.642664
 31
0.0
  0
ARC
  5
2CE
330
1F
100
AcDbEntity
  8
LAYERGROUP-1
  6
CONTINUOUS
 62
     6
100
AcDbCircle
 10
554.461311
 20
161.24178
 30
0.0
 40
60.0
100
AcDbArc
 50
-227.794498
 51
47.794498
  0
LINE
  5
2CF
330
1F
100
AcDbEntity
  8
GR1-1
  6
CONTINUOUS
 62
     7
100
AcDbLine
 10
505.453481
 20
120.771228
 30
0.0
 11
505.05403
 21
120.792162
 31
0.0
  0
LINE
  5
2D0
330
1F
100
AcDbEntity
  8
GR1-1
  6
CONTINUOUS
 62
     7
100
AcDbLine
 10
505.64274
 20
120.561035
 30
0.0
 11
504.843836
 21
120.602903
 31
0.0
  0
LINE
  5
2D1
330
1F
100
AcDbEntity
  8
GR1-1
  6
CONTINUOUS
 62
     7
100
AcDbLine
 10
505.831999
 20
120.350842
 30
0.0
 11
504.633643
 21
120.413645
 31
0.0
  0
LINE
  5
2D2
330
1F
100
AcDbEntity
  8
GR1-1
  6
CONTINUOUS
 62
     7
100
AcDbLine
 10
506.021257
 20
120.140649
 30
0.0
 11
504.42345
 21
120.224386
 31
0.0
  0
LINE
  5
2D3
330
1F
100
AcDbEntity
  8
GR1-1
  6
CONTINUOUS
 62
     7
100
AcDbLine
 10
506.210516
 20
119.930455
 30
0.0
 11
504.832588
 21
120.00267
 31
0.0
  0
LINE
  5
2D4
330
1F
100
AcDbEntity
  8
GR1-1
  6
CONTINUOUS
 62
     7
100
AcDbLine
 10
504.455565
 20
120.022428
 30
0.0
 11
504.213257
 21
120.035127
 31
0.0
  0
LINE
  5
2D5
330
1F
100
AcDbEntity
  8
GR1-1
  6
CONTINUOUS
 62
     7
100
AcDbLine
 10
506.399775
 20
119.720262
 30
0.0
 11
505.021847
 21
119.792476
 31
0.0
  0
LINE
  5
2D6
330
1F
100
AcDbEntity
  8
GR1-1
  6
CONTINUOUS
 62
     7
100
AcDbLine
 10
504.245372
 20
119.83317
 30
0.0
 11
504.003064
 21
119.845869
 31
0.0
  0
LINE
  5
2D7
330
1F
100
AcDbEntity
  8
GR1-1
  6
CONTINUOUS
 62
     7
100
AcDbLine
 10
506.589034
 20
119.510069
 30
0.0
 11
505.211106
 21
119.582283
 31
0.0
  0
LINE
  5
2D8
330
1F
100
AcDbEntity
  8
GR1-1
  6
CONTINUOUS
 62
     7
100
AcDbLine
 10
504.035179
 20
119.643911
 30
0.0
 11
503.792871
 21
119.65661
 31
0.0
  0
LINE
  5
2D9
330
1F
100
AcDbEntity
  8
GR1-1
  6
CONTINUOUS
 62
     7
100
AcDbLine
 10
506.778292
 20
119.299876
 30
0.0
 11
505.237261
 21
119.380638
 31
0.0
  0
LINE
  5
2DA
330
1F
100
AcDbEntity
  8
GR1-1
  6
CONTINUOUS
 62
     7
100
AcDbLine
 10
503.824986
 20
119.454652
 30
0.0
 11
503.582678
 21
119.467351
 31
0.0
  0
LINE
  5
2DB
330
1F
100
AcDbEntity
  8
GR1-1
  6
CONTINUOUS
 62
     7
100
AcDbLine
 10
506.967551
 20
119.089683
 30
0.0
 11
505.027068
 21
119.191379
 31
0.0
  0
LINE
  5
2DC
330
1F
100
AcDbEntity
  8
GR1-1
  6
CONTINUOUS
 62
     7
100
AcDbLine
 10
503.614793
 20
119.265394
 30
0.0
 11
503.372485
 21
119.278092
 31
0.0
  0
LINE
  5
2DD
330
1F
100
AcDbEntity
  8
GR1-1
  6
CONTINUOUS
 62
     7
100
AcDbLine
 10
507.15681
 20
118.87949
 30
0.0
 11
504.816875
 21
119.002121
 31
0.0
  0
LINE
  5
2DE
330
1F
100
AcDbEntity
  8
GR1-1
  6
CONTINUOUS
 62
     7
100
AcDbLine
 10
503.4046
 20
119.076135
 30
0.0
 11
503.162292
 21
119.088834
 31
0.0
  0
LINE
  5
2DF
330
1F
100
AcDbEntity
  8
GR1-1
  6
CONTINUOUS
 62
     7
100
AcDbLine
 10
507.346069
 20
118.669297
 30
0.0
 11
504.723389
 21
118.806746
 31
0.0
  0
LINE
  5
2E0
330
1F
100
AcDbEntity
  8
GR1-1
  6
CONTINUOUS
 62
     7
100
AcDbLine
 10
503.194407
 20
118.886876
 30
0.0
 11
502.952099
 21
118.899575
 31
0.0
  0
LINE
  5
2E1
330
1F
100
AcDbEntity
  8
GR1-1
  6
CONTINUOUS
 62
     7
100
AcDbLine
 10
507.535327
 20
118.459104
 30
0.0
 11
507.135875
 21
118.480038
 31
0.0
  0
LINE
  5
2E2
330
1F
100
AcDbEntity
  8
GR1-1
  6
CONTINUOUS
 62
     7
100
AcDbLine
 10
503.298501
 20
118.681146
 30
0.0
 11
502.741905
 21
118.710316
 31
0.0
  0
LINE
  5
2E3
330
1F
100
AcDbEntity
  8
GR1-1
  6
CONTINUOUS
 62
     7
100
AcDbLine
 10
507.724586
 20
118.248911
 30
0.0
 11
507.125408
 21
118.280312
 31
0.0
  0
LINE
  5
2E4
330
1F
100
AcDbEntity
  8
GR1-1
  6
CONTINUOUS
 62
     7
100
AcDbLine
 10
503.48776
 20
118.470953
 30
0.0
 11
502.531712
 21
118.521058
 31
0.0
  0
LINE
  5
2E5
330
1F
100
AcDbEntity
  8
GR1-1
  6
CONTINUOUS
 62
     7
100
AcDbLine
 10
507.913845
 20
118.038718
 30
0.0
 11
507.114941
 21
118.080586
 31
0.0
  0
LINE
  5
2E6
330
1F
100
AcDbEntity
  8
GR1-1
  6
CONTINUOUS
 62
     7
100
AcDbLine
 10
503.677018
 20
118.26076
 30
0.0
 11
503.253336
 21
118.282964
 31
0.0
  0
LINE
  5
2E7
330
1F
100
AcDbEntity
  8
GR1-1
  6
CONTINUOUS
 62
     7
100
AcDbLine
 10
503.120423
 20
118.28993
 30
0.0
 11
502.321519
 21
118.331799
 31
0.0
  0
LINE
  5
2E8
330
1F
100
AcDbEntity
  8
GR1-1
  6
CONTINUOUS
 62
     7
100
AcDbLine
 10
508.103103
 20
117.828524
 30
0.0
 11
507.104474
 21
117.88086
 31
0.0
  0
LINE
  5
2E9
330
1F
100
AcDbEntity
  8
GR1-1
  6
CONTINUOUS
 62
     7
100
AcDbLine
 10
503.866277
 20
118.050567
 30
0.0
 11
503.442594
 21
118.072771
 31
0.0
  0
LINE
  5
2EA
330
1F
100
AcDbEntity
  8
GR1-1
  6
CONTINUOUS
 62
     7
100
AcDbLine
 10
503.109956
 20
118.090204
 30
0.0
 11
502.111326
 21
118.14254
 31
0.0
  0
LINE
  5
2EB
330
1F
100
AcDbEntity
  8
GR1-1
  6
CONTINUOUS
 62
     7
100
AcDbLine
 10
508.292362
 20
117.618331
 30
0.0
 11
507.094007
 21
117.681134
 31
0.0
  0
LINE
  5
2EC
330
1F
100
AcDbEntity
  8
GR1-1
  6
CONTINUOUS
 62
     7
100
AcDbLine
 10
504.055536
 20
117.840374
 30
0.0
 11
503.631853
 21
117.862578
 31
0.0
  0
LINE
  5
2ED
330
1F
100
AcDbEntity
  8
GR1-1
  6
CONTINUOUS
 62
     7
100
AcDbLine
 10
503.099488
 20
117.890478
 30
0.0
 11
501.901133
 21
117.953281
 31
0.0
  0
LINE
  5
2EE
330
1F
100
AcDbEntity
  8
GR1-1
  6
CONTINUOUS
 62
     7
100
AcDbLine
 10
508.481621
 20
117.408138
 30
0.0
 11
507.083539
 21
117.481409
 31
0.0
  0
LINE
  5
2EF
330
1F
100
AcDbEntity
  8
GR1-1
  6
CONTINUOUS
 62
     7
100
AcDbLine
 10
506.08491
 20
117.533745
 30
0.0
 11
504.953077
 21
117.593061
 31
0.0
  0
LINE
  5
2F0
330
1F
100
AcDbEntity
  8
GR1-1
  6
CONTINUOUS
 62
     7
100
AcDbLine
 10
504.244795
 20
117.630181
 30
0.0
 11
503.821112
 21
117.652385
 31
0.0
  0
LINE
  5
2F1
330
1F
100
AcDbEntity
  8
GR1-1
  6
CONTINUOUS
 62
     7
100
AcDbLine
 10
503.089021
 20
117.690752
 30
0.0
 11
501.69094
 21
117.764023
 31
0.0
  0
LINE
  5
2F2
330
1F
100
AcDbEntity
  8
GR1-1
  6
CONTINUOUS
 62
     7
100
AcDbLine
 10
508.67088
 20
117.197945
 30
0.0
 11
507.073072
 21
117.281683
 31
0.0
  0
LINE
  5
2F3
330
1F
100
AcDbEntity
  8
GR1-1
  6
CONTINUOUS
 62
     7
100
AcDbLine
 10
506.074443
 20
117.334019
 30
0.0
 11
505.140191
 21
117.382981
 31
0.0
  0
LINE
  5
2F4
330
1F
100
AcDbEntity
  8
GR1-1
  6
CONTINUOUS
 62
     7
100
AcDbLine
 10
504.434053
 20
117.419988
 30
0.0
 11
504.010371
 21
117.442192
 31
0.0
  0
LINE
  5
2F5
330
1F
100
AcDbEntity
  8
GR1-1
  6
CONTINUOUS
 62
     7
100
AcDbLine
 10
503.078554
 20
117.491026
 30
0.0
 11
501.480747
 21
117.574764
 31
0.0
  0
LINE
  5
2F6
330
1F
100
AcDbEntity
  8
GR1-1
  6
CONTINUOUS
 62
     7
100
AcDbLine
 10
508.860138
 20
116.987752
 30
0.0
 11
507.062605
 21
117.081957
 31
0.0
  0
LINE
  5
2F7
330
1F
100
AcDbEntity
  8
GR1-1
  6
CONTINUOUS
 62
     7
100
AcDbLine
 10
506.063976
 20
117.134293
 30
0.0
 11
505.32945
 21
117.172788
 31
0.0
  0
LINE
  5
2F8
330
1F
100
AcDbEntity
  8
GR1-1
  6
CONTINUOUS
 62
     7
100
AcDbLine
 10
504.623312
 20
117.209795
 30
0.0
 11
504.066716
 21
117.238965
 31
0.0
  0
LINE
  5
2F9
330
1F
100
AcDbEntity
  8
GR1-1
  6
CONTINUOUS
 62
     7
100
AcDbLine
 10
503.068087
 20
117.291301
 30
0.0
 11
501.270554
 21
117.385505
 31
0.0
  0
LINE
  5
2FA
330
1F
100
AcDbEntity
  8
GR1-1
  6
CONTINUOUS
 62
     7
100
AcDbLine
 10
509.049397
 20
116.777559
 30
0.0
 11
507.052138
 21
116.882231
 31
0.0
  0
LINE
  5
2FB
330
1F
100
AcDbEntity
  8
GR1-1
  6
CONTINUOUS
 62
     7
100
AcDbLine
 10
506.053508
 20
116.934567
 30
0.0
 11
505.297187
 21
116.974204
 31
0.0
  0
LINE
  5
2FC
330
1F
100
AcDbEntity
  8
GR1-1
  6
CONTINUOUS
 62
     7
100
AcDbLine
 10
504.812571
 20
116.999602
 30
0.0
 11
504.056249
 21
117.039239
 31
0.0
  0
LINE
  5
2FD
330
1F
100
AcDbEntity
  8
GR1-1
  6
CONTINUOUS
 62
     7
100
AcDbLine
 10
503.05762
 20
117.091575
 30
0.0
 11
501.060361
 21
117.196247
 31
0.0
  0
LINE
  5
2FE
330
1F
100
AcDbEntity
  8
GR1-1
  6
CONTINUOUS
 62
     7
100
AcDbLine
 10
509.238656
 20
116.567366
 30
0.0
 11
507.041671
 21
116.682505
 31
0.0
  0
LINE
  5
2FF
330
1F
100
AcDbEntity
  8
GR1-1
  6
CONTINUOUS
 62
     7
100
AcDbLine
 10
506.043041
 20
116.734841
 30
0.0
 11
505.086994
 21
116.784945
 31
0.0
  0
LINE
  5
300
330
1F
100
AcDbEntity
  8
GR1-1
  6
CONTINUOUS
 62
     7
100
AcDbLine
 10
505.001829
 20
116.789408
 30
0.0
 11
504.045782
 21
116.839513
 31
0.0
  0
LINE
  5
301
330
1F
100
AcDbEntity
  8
GR1-1
  6
CONTINUOUS
 62
     7
100
AcDbLine
 10
503.047153
 20
116.891849
 30
0.0
 11
500.850168
 21
117.006988
 31
0.0
  0
LINE
  5
302
330
1F
100
AcDbEntity
  8
GR1-1
  6
CONTINUOUS
 62
     7
100
AcDbLine
 10
509.113627
 20
116.373644
 30
0.0
 11
507.031203
 21
116.482779
 31
0.0
  0
LINE
  5
303
330
1F
100
AcDbEntity
  8
GR1-1
  6
CONTINUOUS
 62
     7
100
AcDbLine
 10
506.032574
 20
116.535115
 30
0.0
 11
504.035315
 21
116.639787
 31
0.0
  0
LINE
  5
304
330
1F
100
AcDbEntity
  8
GR1-1
  6
CONTINUOUS
 62
     7
100
AcDbLine
 10
503.036685
 20
116.692123
 30
0.0
 11
500.954262
 21
116.801258
 31
0.0
  0
LINE
  5
305
330
1F
100
AcDbEntity
  8
GR1-1
  6
CONTINUOUS
 62
     7
100
AcDbLine
 10
508.903434
 20
116.184385
 30
0.0
 11
507.020736
 21
116.283053
 31
0.0
  0
LINE
  5
306
330
1F
100
AcDbEntity
  8
GR1-1
  6
CONTINUOUS
 62
     7
100
AcDbLine
 10
506.022107
 20
116.335389
 30
0.0
 11
504.024848
 21
116.440061
 31
0.0
  0
LINE
  5
307
330
1F
100
AcDbEntity
  8
GR1-1
  6
CONTINUOUS
 62
     7
100
AcDbLine
 10
503.026218
 20
116.492397
 30
0.0
 11
501.14352
 21
116.591065
 31
0.0
  0
LINE
  5
308
330
1F
100
AcDbEntity
  8
GR1-1
  6
CONTINUOUS
 62
     7
100
AcDbLine
 10
508.693241
 20
115.995126
 30
0.0
 11
507.010269
 21
116.083327
 31
0.0
  0
LINE
  5
309
330
1F
100
AcDbEntity
  8
GR1-1
  6
CONTINUOUS
 62
     7
100
AcDbLine
 10
506.01164
 20
116.135663
 30
0.0
 11
504.014381
 21
116.240335
 31
0.0
  0
LINE
  5
30A
330
1F
100
AcDbEntity
  8
GR1-1
  6
CONTINUOUS
 62
     7
100
AcDbLine
 10
503.015751
 20
116.292671
 30
0.0
 11
501.332779
 21
116.380872
 31
0.0
  0
LINE
  5
30B
330
1F
100
AcDbEntity
  8
GR1-1
  6
CONTINUOUS
 62
     7
100
AcDbLine
 10
508.483048
 20
115.805868
 30
0.0
 11
506.999802
 21
115.883601
 31
0.0
  0
LINE
  5
30C
330
1F
100
AcDbEntity
  8
GR1-1
  6
CONTINUOUS
 62
     7
100
AcDbLine
 10
506.001172
 20
115.935937
 30
0.0
 11
504.003913
 21
116.040609
 31
0.0
  0
LINE
  5
30D
330
1F
100
AcDbEntity
  8
GR1-1
  6
CONTINUOUS
 62
     7
100
AcDbLine
 10
503.005284
 20
116.092945
 30
0.0
 11
501.522038
 21
116.170679
 31
0.0
  0
LINE
  5
30E
330
1F
100
AcDbEntity
  8
GR1-1
  6
CONTINUOUS
 62
     7
100
AcDbLine
 10
508.272855
 20
115.616609
 30
0.0
 11
506.989335
 21
115.683875
 31
0.0
  0
LINE
  5
30F
330
1F
100
AcDbEntity
  8
GR1-1
  6
CONTINUOUS
 62
     7
100
AcDbLine
 10
505.990705
 20
115.736211
 30
0.0
 11
503.993446
 21
115.840883
 31
0.0
  0
LINE
  5
310
330
1F
100
AcDbEntity
  8
GR1-1
  6
CONTINUOUS
 62
     7
100
AcDbLine
 10
502.994817
 20
115.893219
 30
0.0
 11
501.711297
 21
115.960486
 31
0.0
  0
LINE
  5
311
330
1F
100
AcDbEntity
  8
GR1-1
  6
CONTINUOUS
 62
     7
100
AcDbLine
 10
508.062662
 20
115.42735
 30
0.0
 11
506.978868
 21
115.484149
 31
0.0
  0
LINE
  5
312
330
1F
100
AcDbEntity
  8
GR1-1
  6
CONTINUOUS
 62
     7
100
AcDbLine
 10
502.984349
 20
115.693493
 30
0.0
 11
501.900555
 21
115.750293
 31
0.0
  0
LINE
  5
313
330
1F
100
AcDbEntity
  8
GR1-1
  6
CONTINUOUS
 62
     7
100
AcDbLine
 10
507.852468
 20
115.238092
 30
0.0
 11
506.9684
 21
115.284424
 31
0.0
  0
LINE
  5
314
330
1F
100
AcDbEntity
  8
GR1-1
  6
CONTINUOUS
 62
     7
100
AcDbLine
 10
502.973882
 20
115.493767
 30
0.0
 11
502.089814
 21
115.540099
 31
0.0
  0
LINE
  5
315
330
1F
100
AcDbEntity
  8
GR1-1
  6
CONTINUOUS
 62
     7
100
AcDbLine
 10
507.642275
 20
115.048833
 30
0.0
 11
506.957933
 21
115.084698
 31
0.0
  0
LINE
  5
316
330
1F
100
AcDbEntity
  8
GR1-1
  6
CONTINUOUS
 62
     7
100
AcDbLine
 10
502.963415
 20
115.294042
 30
0.0
 11
502.279073
 21
115.329906
 31
0.0
  0
LINE
  5
317
330
1F
100
AcDbEntity
  8
GR1-1
  6
CONTINUOUS
 62
     7
100
AcDbLine
 10
507.432082
 20
114.859574
 30
0.0
 11
506.947466
 21
114.884972
 31
0.0
  0
LINE
  5
318
330
1F
100
AcDbEntity
  8
GR1-1
  6
CONTINUOUS
 62
     7
100
AcDbLine
 10
502.952948
 20
115.094316
 30
0.0
 11
502.468332
 21
115.119713
 31
0.0
  0
LINE
  5
319
330
1F
100
AcDbEntity
  8
GR1-1
  6
CONTINUOUS
 62
     7
100
AcDbLine
 10
507.221889
 20
114.670315
 30
0.0
 11
506.936999
 21
114.685246
 31
0.0
  0
LINE
  5
31A
330
1F
100
AcDbEntity
  8
GR1-1
  6
CONTINUOUS
 62
     7
100
AcDbLine
 10
502.942481
 20
114.89459
 30
0.0
 11
502.65759
 21
114.90952
 31
0.0
  0
LINE
  5
31B
330
1F
100
AcDbEntity
  8
GR1-1
  6
CONTINUOUS
 62
     7
100
AcDbLine
 10
507.011696
 20
114.481057
 30
0.0
 11
502.846849
 21
114.699327
 31
0.0
  0
LINE
  5
31C
330
1F
100
AcDbEntity
  8
GR1-1
  6
CONTINUOUS
 62
     7
100
AcDbLine
 10
506.801503
 20
114.291798
 30
0.0
 11
503.036108
 21
114.489134
 31
0.0
  0
LINE
  5
31D
330
1F
100
AcDbEntity
  8
GR1-1
  6
CONTINUOUS
 62
     7
100
AcDbLine
 10
506.59131
 20
114.102539
 30
0.0
 11
503.225366
 21
114.278941
 31
0.0
  0
LINE
  5
31E
330
1F
100
AcDbEntity
  8
GR1-1
  6
CONTINUOUS
 62
     7
100
AcDbLine
 10
506.381117
 20
113.913281
 30
0.0
 11
503.414625
 21
114.068748
 31
0.0
  0
LINE
  5
31F
330
1F
100
AcDbEntity
  8
GR1-1
  6
CONTINUOUS
 62
     7
100
AcDbLine
 10
506.170924
 20
113.724022
 30
0.0
 11
503.603884
 21
113.858555
 31
0.0
  0
LINE
  5
320
330
1F
100
AcDbEntity
  8
GR1-1
  6
CONTINUOUS
 62
     7
100
AcDbLine
 10
505.960731
 20
113.534763
 30
0.0
 11
503.793143
 21
113.648362
 31
0.0
  0
LINE
  5
321
330
1F
100
AcDbEntity
  8
GR1-1
  6
CONTINUOUS
 62
     7
100
AcDbLine
 10
505.750537
 20
113.345504
 30
0.0
 11
503.982401
 21
113.438168
 31
0.0
  0
LINE
  5
322
330
1F
100
AcDbEntity
  8
GR1-1
  6
CONTINUOUS
 62
     7
100
AcDbLine
 10
505.540344
 20
113.156246
 30
0.0
 11
504.17166
 21
113.227975
 31
0.0
  0
LINE
  5
323
330
1F
100
AcDbEntity
  8
GR1-1
  6
CONTINUOUS
 62
     7
100
AcDbLine
 10
505.330151
 20
112.966987
 30
0.0
 11
504.360919
 21
113.017782
 31
0.0
  0
LINE
  5
324
330
1F
100
AcDbEntity
  8
GR1-1
  6
CONTINUOUS
 62
     7
100
AcDbLine
 10
505.119958
 20
112.777728
 30
0.0
 11
504.550177
 21
112.807589
 31
0.0
  0
LINE
  5
325
330
1F
100
AcDbEntity
  8
GR1-1
  6
CONTINUOUS
 62
     7
100
AcDbLine
 10
504.909765
 20
112.58847
 30
0.0
 11
504.739436
 21
112.597396
 31
0.0
  0
LINE
  5
326
330
1F
100
AcDbEntity
  8
GR1-1
  6
CONTINUOUS
 62
     6
100
AcDbLine
 10
482.738491
 20
461.101777
 30
0.0
 11
494.461311
 21
461.101777
 31
0.0
  0
LINE
  5
327
330
1F
100
AcDbEntity
  8
GR1-1
  6
CONTINUOUS
 62
     6
100
AcDbLine
 10
482.738491
 20
431.101777
 30
0.0
 11
494.461311
 21
431.101777
 31
0.0
  0
LINE
  5
328
330
1F
100
AcDbEntity
  8
0-1
  6
CONTINUOUS
 62
     3
100
AcDbLine
 10
485.123996
 20
463.210714
 30
0.0
 11
494.461591
 21
468.601777
 31
0.0
  0
ARC
  5
329
330
1F
100
AcDbEntity
  8
LAYERGROUP-1
  6
CONTINUOUS
 62
     3
100
AcDbCircle
 10
489.123996
 20
456.282511
 30
0.0
 40
8.0
100
AcDbArc
 50
120.0
 51
161.449043
  0
LINE
  5
32A
330
1F
100
AcDbEntity
  8
0-1
  6
CONTINUOUS
 62
     3
100
AcDbLine
 10
485.123996
 20
428.99284
 30
0.0
 11
494.461591
 21
423.601777
 31
0.0
  0
ARC
  5
32B
330
1F
100
AcDbEntity
  8
LAYERGROUP-1
  6
CONTINUOUS
 62
     3
100
AcDbCircle
 10
489.123996
 20
435.921043
 30
0.0
 40
8.0
100
AcDbArc
 50
198.550957
 51
240.0
  0
ARC
  5
32C
330
1F
100
AcDbEntity
  8
0-1
  6
CONTINUOUS
 62
     3
100
AcDbCircle
 10
519.461311
 20
446.101777
 30
0.0
 40
40.0
100
AcDbArc
 50
161.449043
 51
198.550957
  0
LINE
  5
32D
330
1F
100
AcDbEntity
  8
GR1-1
  6
CONTINUOUS
 62
     6
100
AcDbLine
 10
626.18413
 20
461.101777
 30
0.0
 11
614.461311
 21
461.101777
 31
0.0
  0
LINE
  5
32E
330
1F
100
AcDbEntity
  8
GR1-1
  6
CONTINUOUS
 62
     6
100
AcDbLine
 10
626.18413
 20
431.101777
 30
0.0
 11
614.461311
 21
431.101777
 31
0.0
  0
LINE
  5
32F
330
1F
100
AcDbEntity
  8
0-1
  6
CONTINUOUS
 62
     3
100
AcDbLine
 10
623.798625
 20
463.210714
 30
0.0
 11
614.461031
 21
468.601777
 31
0.0
  0
ARC
  5
330
330
1F
100
AcDbEntity
  8
LAYERGROUP-1
  6
CONTINUOUS
 62
     3
100
AcDbCircle
 10
619.798625
 20
456.282511
 30
0.0
 40
8.0
100
AcDbArc
 50
18.550957
 51
60.0
  0
LINE
  5
331
330
1F
100
AcDbEntity
  8
0-1
  6
CONTINUOUS
 62
     3
100
AcDbLine
 10
623.798625
 20
428.99284
 30
0.0
 11
614.461031
 21
423.601777
 31
0.0
  0
ARC
  5
332
330
1F
100
AcDbEntity
  8
LAYERGROUP-1
  6
CONTINUOUS
 62
     3
100
AcDbCircle
 10
619.798625
 20
435.921043
 30
0.0
 40
8.0
100
AcDbArc
 50
300.0
 51
341.449043
  0
ARC
  5
333
330
1F
100
AcDbEntity
  8
0-1
  6
CONTINUOUS
 62
     3
100
AcDbCircle
 10
589.461311
 20
446.101777
 30
0.0
 40
40.0
100
AcDbArc
 50
-18.550957
 51
18.550957
  0
ARC
  5
334
330
1F
100
AcDbEntity
  8
LAYERGROUP-1
  6
CONTINUOUS
 62
    66
100
AcDbCircle
 10
554.461311
 20
161.24178
 30
0.0
 40
31.5
100
AcDbArc
 50
358.78327
 51
360.0
  0
ARC
  5
335
330
1F
100
AcDbEntity
  8
LAYERGROUP-1
  6
CONTINUOUS
 62
    66
100
AcDbCircle
 10
554.461311
 20
161.24178
 30
0.0
 40
31.5
100
AcDbArc
 50
358.78327
 51
360.0
  0
ENDSEC
  0
SECTION
  2
OBJECTS
  0
DICTIONARY
  5
C
330
0
100
AcDbDictionary
  3
ACAD_GROUP
350
D
  3
ACAD_LAYOUT
350
1A
  3
ACAD_MLINESTYLE
350
17
  3
ACAD_PLOTSETTINGS
350
19
  3
ACDBHEADERROUNDTRIPXREC
350
336
  0
DICTIONARY
  5
D
102
{ACAD_REACTORS
330
C
102
}
330
C
100
AcDbDictionary
  0
DICTIONARY
  5
1A
102
{ACAD_REACTORS
330
C
102
}
330
C
100
AcDbDictionary
  0
DICTIONARY
  5
17
102
{ACAD_REACTORS
330
C
102
}
330
C
100
AcDbDictionary
  3
STANDARD
350
18
  0
DICTIONARY
  5
19
102
{ACAD_REACTORS
330
C
102
}
330
C
100
AcDbDictionary
  0
DICTIONARY
  5
336
102
{ACAD_REACTORS
330
C
102
}
330
C
100
AcDbDictionary
  3
CEPSNTYPE
350
33F
  3
DIMSTYLEDATA
350
355
  3
FINGERPRINTGUID
350
340
  3
HYPERLINKBASE
350
339
  3
INSUNITS
350
33E
  3
LAYOUTDICT
350
33B
  3
LWETCUNION
350
33D
  3
PLOTSETDICT
350
33C
  3
PSVPSCALE
350
342
  3
PUCSBASE
350
345
  3
PUCSORGBACK
350
34B
  3
PUCSORGBOTTOM
350
347
  3
PUCSORGFRONT
350
34A
  3
PUCSORGLEFT
350
348
  3
PUCSORGRIGHT
350
349
  3
PUCSORGTOP
350
346
  3
PUCSORTHOREF
350
343
  3
PUCSORTHOVIEW
350
344
  3
STYLESHEET
350
33A
  3
TSTACKALIGN
350
337
  3
TSTACKSIZE
350
338
  3
UCSBASE
350
34E
  3
UCSORGBACK
350
354
  3
UCSORGBOTTOM
350
350
  3
UCSORGFRONT
350
353
  3
UCSORGLEFT
350
351
  3
UCSORGRIGHT
350
352
  3
UCSORGTOP
350
34F
  3
UCSORTHOREF
350
34C
  3
UCSORTHOVIEW
350
34D
  3
VERSIONGUID
350
341
  0
MLINESTYLE
  5
18
102
{ACAD_REACTORS
330
17
102
}
330
17
100
AcDbMlineStyle
  2
Standard
 70
     0
  3

 62
   256
 51
90.0
 52
90.0
 71
     2
 49
0.5
 62
   256
  6
BYLAYER
 49
-0.5
 62
   256
  6
BYLAYER
  0
XRECORD
  5
33F
102
{ACAD_REACTORS
330
336
102
}
330
336
100
AcDbXrecord
 90
        0
  0
XRECORD
  5
355
102
{ACAD_REACTORS
330
336
102
}
330
336
100
AcDbXrecord
1000
DSTYLE
1002
{
1070
   179
 70
     2
1070
   171
 70
     3
1070
   143
 40
0.03937
1070
   274
 70
     3
1070
    41
 40
4.0
1070
   343
340
41
1070
   344
340
47
1070
   141
 40
2.5
1070
   176
 70
     7
1070
   177
 70
     7
1070
   178
 70
     7
1070
   271
 70
     2
1070
    46
 40
6.0
1070
    43
 40
10.0
1070
    44
 40
1.0
1070
    42
 40
1.0
1070
   147
 40
1.0
1070
   341
340
41
1070
   173
 70
     1
1070
    77
 70
     1
1070
   272
 70
     2
1070
    73
 70
     0
1070
   172
 70
     1
1070
    74
 70
     0
1070
   283
 70
     0
1070
   340
340
3F
1070
   140
 40
4.0
1070
   284
 70
     8
1070
    78
 70
     8
1002
}
  0
XRECORD
  5
340
102
{ACAD_REACTORS
330
336
102
}
330
336
100
AcDbXrecord
  1
{1407DBED-424C-4D96-95F2-00786D8F399A}
  0
XRECORD
  5
339
102
{ACAD_REACTORS
330
336
102
}
330
336
100
AcDbXrecord
  1

  0
XRECORD
  5
33E
102
{ACAD_REACTORS
330
336
102
}
330
336
100
AcDbXrecord
 90
        1
  0
XRECORD
  5
33B
102
{ACAD_REACTORS
330
336
102
}
330
336
100
AcDbXrecord
340
1A
  0
XRECORD
  5
33D
102
{ACAD_REACTORS
330
336
102
}
330
336
100
AcDbXrecord
 90
    10781
  0
XRECORD
  5
33C
102
{ACAD_REACTORS
330
336
102
}
330
336
100
AcDbXrecord
340
19
  0
XRECORD
  5
342
102
{ACAD_REACTORS
330
336
102
}
330
336
100
AcDbXrecord
 40
0.0
  0
XRECORD
  5
345
102
{ACAD_REACTORS
330
336
102
}
330
336
100
AcDbXrecord
340
0
  0
XRECORD
  5
34B
102
{ACAD_REACTORS
330
336
102
}
330
336
100
AcDbXrecord
 10
0.0
 20
0.0
 30
0.0
  0
XRECORD
  5
347
102
{ACAD_REACTORS
330
336
102
}
330
336
100
AcDbXrecord
 10
0.0
 20
0.0
 30
0.0
  0
XRECORD
  5
34A
102
{ACAD_REACTORS
330
336
102
}
330
336
100
AcDbXrecord
 10
0.0
 20
0.0
 30
0.0
  0
XRECORD
  5
348
102
{ACAD_REACTORS
330
336
102
}
330
336
100
AcDbXrecord
 10
0.0
 20
0.0
 30
0.0
  0
XRECORD
  5
349
102
{ACAD_REACTORS
330
336
102
}
330
336
100
AcDbXrecord
 10
0.0
 20
0.0
 30
0.0
  0
XRECORD
  5
346
102
{ACAD_REACTORS
330
336
102
}
330
336
100
AcDbXrecord
 10
0.0
 20
0.0
 30
0.0
  0
XRECORD
  5
343
102
{ACAD_REACTORS
330
336
102
}
330
336
100
AcDbXrecord
340
0
  0
XRECORD
  5
344
102
{ACAD_REACTORS
330
336
102
}
330
336
100
AcDbXrecord
 70
     0
  0
XRECORD
  5
33A
102
{ACAD_REACTORS
330
336
102
}
330
336
100
AcDbXrecord
  1

  0
XRECORD
  5
337
102
{ACAD_REACTORS
330
336
102
}
330
336
100
AcDbXrecord
 90
        1
  0
XRECORD
  5
338
102
{ACAD_REACTORS
330
336
102
}
330
336
100
AcDbXrecord
 90
       70
  0
XRECORD
  5
34E
102
{ACAD_REACTORS
330
336
102
}
330
336
100
AcDbXrecord
340
0
  0
XRECORD
  5
354
102
{ACAD_REACTORS
330
336
102
}
330
336
100
AcDbXrecord
 10
0.0
 20
0.0
 30
0.0
  0
XRECORD
  5
350
102
{ACAD_REACTORS
330
336
102
}
330
336
100
AcDbXrecord
 10
0.0
 20
0.0
 30
0.0
  0
XRECORD
  5
353
102
{ACAD_REACTORS
330
336
102
}
330
336
100
AcDbXrecord
 10
0.0
 20
0.0
 30
0.0
  0
XRECORD
  5
351
102
{ACAD_REACTORS
330
336
102
}
330
336
100
AcDbXrecord
 10
0.0
 20
0.0
 30
0.0
  0
XRECORD
  5
352
102
{ACAD_REACTORS
330
336
102
}
330
336
100
AcDbXrecord
 10
0.0
 20
0.0
 30
0.0
  0
XRECORD
  5
34F
102
{ACAD_REACTORS
330
336
102
}
330
336
100
AcDbXrecord
 10
0.0
 20
0.0
 30
0.0
  0
XRECORD
  5
34C
102
{ACAD_REACTORS
330
336
102
}
330
336
100
AcDbXrecord
340
0
  0
XRECORD
  5
34D
102
{ACAD_REACTORS
330
336
102
}
330
336
100
AcDbXrecord
 70
     0
  0
XRECORD
  5
341
102
{ACAD_REACTORS
330
336
102
}
330
336
100
AcDbXrecord
  1
{FAEB1C32-E019-11D5-929B-00C0DF256EC4}
  0
ENDSEC
  0
EOF
