  0
SECTION
  2
HEADER
  9
$ACADVER
  1
AC1014
  9
$ACADMAINTVER
 70
     9
  9
$DWGCODEPAGE
  3
ANSI_932
  9
$INSBASE
 10
0.0
 20
0.0
 30
0.0
  9
$EXTMIN
 10
0.0
 20
0.0
 30
0.0
  9
$EXTMAX
 10
420.0
 20
297.0
 30
0.0
  9
$LIMMIN
 10
0.0
 20
0.0
  9
$LIMMAX
 10
420.0
 20
297.0
  9
$ORTHOMODE
 70
     0
  9
$REGENMODE
 70
     1
  9
$FILLMODE
 70
     1
  9
$QTEXTMODE
 70
     0
  9
$MIRRTEXT
 70
     1
  9
$DRAGMODE
 70
     2
  9
$LTSCALE
 40
1.0
  9
$OSMODE
 70
    37
  9
$ATTMODE
 70
     1
  9
$TEXTSIZE
 40
0.2
  9
$TRACEWID
 40
0.05
  9
$TEXTSTYLE
  7
STYLE1
  9
$CLAYER
  8
0
  9
$CELTYPE
  6
BYLAYER
  9
$CECOLOR
 62
   256
  9
$CELTSCALE
 40
1.0
  9
$DELOBJ
 70
     1
  9
$DISPSILH
 70
     0
  9
$DIMSCALE
 40
1.0
  9
$DIMASZ
 40
4.0
  9
$DIMEXO
 40
1.0
  9
$DIMDLI
 40
10.0
  9
$DIMRND
 40
0.0
  9
$DIMDLE
 40
6.0
  9
$DIMEXE
 40
1.0
  9
$DIMTP
 40
0.0
  9
$DIMTM
 40
0.0
  9
$DIMTXT
 40
4.0
  9
$DIMCEN
 40
2.5
  9
$DIMTSZ
 40
0.0
  9
$DIMTOL
 70
     0
  9
$DIMLIM
 70
     0
  9
$DIMTIH
 70
     0
  9
$DIMTOH
 70
     0
  9
$DIMSE1
 70
     0
  9
$DIMSE2
 70
     0
  9
$DIMTAD
 70
     1
  9
$DIMZIN
 70
     8
  9
$DIMBLK
  1

  9
$DIMASO
 70
     1
  9
$DIMSHO
 70
     1
  9
$DIMPOST
  1

  9
$DIMAPOST
  1

  9
$DIMALT
 70
     0
  9
$DIMALTD
 70
     3
  9
$DIMALTF
 40
0.03937
  9
$DIMLFAC
 40
1.0
  9
$DIMTOFL
 70
     1
  9
$DIMTVP
 40
0.0
  9
$DIMTIX
 70
     0
  9
$DIMSOXD
 70
     0
  9
$DIMSAH
 70
     1
  9
$DIMBLK1
  1
FXTIP_ARROW_S
  9
$DIMBLK2
  1
FXTIP_ARROW_E
  9
$DIMSTYLE
  2
FXDIMINFO
  9
$DIMCLRD
 70
     7
  9
$DIMCLRE
 70
     7
  9
$DIMCLRT
 70
     7
  9
$DIMTFAC
 40
1.0
  9
$DIMGAP
 40
1.0
  9
$DIMJUST
 70
     0
  9
$DIMSD1
 70
     0
  9
$DIMSD2
 70
     0
  9
$DIMTOLJ
 70
     0
  9
$DIMTZIN
 70
     8
  9
$DIMALTZ
 70
     0
  9
$DIMALTTZ
 70
     0
  9
$DIMFIT
 70
     3
  9
$DIMUPT
 70
     0
  9
$DIMUNIT
 70
     2
  9
$DIMDEC
 70
     2
  9
$DIMTDEC
 70
     2
  9
$DIMALTU
 70
     2
  9
$DIMALTTD
 70
     3
  9
$DIMTXSTY
  7
STYLE1
  9
$DIMAUNIT
 70
     0
  9
$LUNITS
 70
     2
  9
$LUPREC
 70
     4
  9
$SKETCHINC
 40
0.1
  9
$FILLETRAD
 40
0.5
  9
$AUNITS
 70
     0
  9
$AUPREC
 70
     0
  9
$MENU
  1
.
  9
$ELEVATION
 40
0.0
  9
$PELEVATION
 40
0.0
  9
$THICKNESS
 40
0.0
  9
$LIMCHECK
 70
     0
  9
$CHAMFERA
 40
0.5
  9
$CHAMFERB
 40
0.5
  9
$CHAMFERC
 40
1.0
  9
$CHAMFERD
 40
0.0
  9
$SKPOLY
 70
     0
  9
$TDCREATE
 40
2455308.376815428
  9
$TDUPDATE
 40
2455308.37681544
  9
$TDINDWG
 40
0.0000000116
  9
$TDUSRTIMER
 40
0.0000000116
  9
$USRTIMER
 70
     1
  9
$ANGBASE
 50
0.0
  9
$ANGDIR
 70
     0
  9
$PDMODE
 70
     0
  9
$PDSIZE
 40
0.0
  9
$PLINEWID
 40
0.0
  9
$COORDS
 70
     1
  9
$SPLFRAME
 70
     0
  9
$SPLINETYPE
 70
     6
  9
$SPLINESEGS
 70
     8
  9
$ATTDIA
 70
     0
  9
$ATTREQ
 70
     1
  9
$HANDLING
 70
     1
  9
$HANDSEED
  5
2A3
  9
$SURFTAB1
 70
     6
  9
$SURFTAB2
 70
     6
  9
$SURFTYPE
 70
     6
  9
$SURFU
 70
     6
  9
$SURFV
 70
     6
  9
$UCSNAME
  2

  9
$UCSORG
 10
0.0
 20
0.0
 30
0.0
  9
$UCSXDIR
 10
1.0
 20
0.0
 30
0.0
  9
$UCSYDIR
 10
0.0
 20
1.0
 30
0.0
  9
$PUCSNAME
  2

  9
$PUCSORG
 10
0.0
 20
0.0
 30
0.0
  9
$PUCSXDIR
 10
1.0
 20
0.0
 30
0.0
  9
$PUCSYDIR
 10
0.0
 20
1.0
 30
0.0
  9
$USERI1
 70
     0
  9
$USERI2
 70
     0
  9
$USERI3
 70
     0
  9
$USERI4
 70
     0
  9
$USERI5
 70
     0
  9
$USERR1
 40
0.0
  9
$USERR2
 40
0.0
  9
$USERR3
 40
0.0
  9
$USERR4
 40
0.0
  9
$USERR5
 40
0.0
  9
$WORLDVIEW
 70
     1
  9
$SHADEDGE
 70
     3
  9
$SHADEDIF
 70
    70
  9
$TILEMODE
 70
     1
  9
$MAXACTVP
 70
    64
  9
$PINSBASE
 10
0.0
 20
0.0
 30
0.0
  9
$PLIMCHECK
 70
     0
  9
$PEXTMIN
 10
1.000000E+20
 20
1.000000E+20
 30
1.000000E+20
  9
$PEXTMAX
 10
-1.000000E+20
 20
-1.000000E+20
 30
-1.000000E+20
  9
$PLIMMIN
 10
0.0
 20
0.0
  9
$PLIMMAX
 10
12.0
 20
9.0
  9
$UNITMODE
 70
     0
  9
$VISRETAIN
 70
     1
  9
$PLINEGEN
 70
     0
  9
$PSLTSCALE
 70
     1
  9
$TREEDEPTH
 70
  3020
  9
$PICKSTYLE
 70
     1
  9
$CMLSTYLE
  2
STANDARD
  9
$CMLJUST
 70
     0
  9
$CMLSCALE
 40
1.0
  9
$PROXYGRAPHICS
 70
     1
  9
$MEASUREMENT
 70
     0
  0
ENDSEC
  0
SECTION
  2
CLASSES
  0
CLASS
  1
ACDBDICTIONARYWDFLT
  2
AcDbDictionaryWithDefault
  3
ObjectDBX Classes
 90
        0
280
     0
281
     0
  0
CLASS
  1
XRECORD
  2
AcDbXrecord
  3
AutoCAD 2000
 90
        0
280
     0
281
     0
  0
CLASS
  1
LWPOLYLINE
  2
AcDbPolyline
  3
AutoCAD 2000
 90
        0
280
     0
281
     1
  0
CLASS
  1
HATCH
  2
AcDbHatch
  3
AutoCAD 2000
 90
        0
280
     0
281
     1
  0
CLASS
  1
ACDBPLACEHOLDER
  2
AcDbPlaceHolder
  3
ObjectDBX Classes
 90
        0
280
     0
281
     0
  0
CLASS
  1
LAYOUT
  2
AcDbLayout
  3
ObjectDBX Classes
 90
        0
280
     0
281
     0
  0
ENDSEC
  0
SECTION
  2
TABLES
  0
TABLE
  2
VPORT
  5
8
330
0
100
AcDbSymbolTable
 70
     1
  0
VPORT
  5
29
330
8
100
AcDbSymbolTableRecord
100
AcDbViewportTableRecord
  2
*ACTIVE
 70
     0
 10
0.0
 20
0.0
 11
1.0
 21
1.0
 12
210.0
 22
148.5
 13
0.0
 23
0.0
 14
0.5
 24
0.5
 15
0.5
 25
0.5
 16
0.0
 26
0.0
 36
1.0
 17
0.0
 27
0.0
 37
0.0
 40
297.0
 41
1.414141
 42
50.0
 43
0.0
 44
0.0
 50
0.0
 51
0.0
 71
     0
 72
   100
 73
     1
 74
     3
 75
     0
 76
     0
 77
     0
 78
     0
  0
ENDTAB
  0
TABLE
  2
LTYPE
  5
5
330
0
100
AcDbSymbolTable
 70
     4
  0
LTYPE
  5
14
330
5
100
AcDbSymbolTableRecord
100
AcDbLinetypeTableRecord
  2
BYBLOCK
 70
     0
  3

 72
    65
 73
     0
 40
0.0
  0
LTYPE
  5
15
330
5
100
AcDbSymbolTableRecord
100
AcDbLinetypeTableRecord
  2
BYLAYER
 70
     0
  3

 72
    65
 73
     0
 40
0.0
  0
LTYPE
  5
16
330
5
100
AcDbSymbolTableRecord
100
AcDbLinetypeTableRecord
  2
CONTINUOUS
 70
     0
  3
--------------------
 72
    65
 73
     0
 40
0.0
  0
LTYPE
  5
2A
330
5
100
AcDbSymbolTableRecord
100
AcDbLinetypeTableRecord
  2
CENTER
 70
     0
  3
Center ____ _ ____ _ ____ _ ____ _ ____ _ ____
 72
    65
 73
     4
 40
13.0
 49
10.0
 74
     0
 49
-1.0
 74
     0
 49
1.0
 74
     0
 49
-1.0
 74
     0
  0
LTYPE
  5
2C
330
5
100
AcDbSymbolTableRecord
100
AcDbLinetypeTableRecord
  2
DASHED
 70
     0
  3
Dashed __ __ __ __ __ __ __ __ __ __ __ __ __ _
 72
    65
 73
     2
 40
4.0
 49
3.0
 74
     0
 49
-1.0
 74
     0
  0
ENDTAB
  0
TABLE
  2
LAYER
  5
2
330
0
100
AcDbSymbolTable
 70
    24
  0
LAYER
  5
10
330
2
100
AcDbSymbolTableRecord
100
AcDbLayerTableRecord
  2
0
 70
     0
 62
     7
  6
CONTINUOUS
  0
LAYER
  5
2D
330
2
100
AcDbSymbolTableRecord
100
AcDbLayerTableRecord
  2
LAYERGROUP-1
 70
     0
 62
     3
  6
CONTINUOUS
  0
LAYER
  5
3D
330
2
100
AcDbSymbolTableRecord
100
AcDbLayerTableRecord
  2
}}ﾊﾊGG血CCТ
 70
     0
 62
     3
  6
CONTINUOUS
  0
LAYER
  5
AA
330
2
100
AcDbSymbolTableRecord
100
AcDbLayerTableRecord
  2
FIG_1-1
 70
     0
 62
     7
  6
CONTINUOUS
  0
LAYER
  5
AC
330
2
100
AcDbSymbolTableRecord
100
AcDbLayerTableRecord
  2
FIG_2-1
 70
     0
 62
     7
  6
CONTINUOUS
  0
LAYER
  5
D6
330
2
100
AcDbSymbolTableRecord
100
AcDbLayerTableRecord
  2
FIG_6-1
 70
     0
 62
     7
  6
CONTINUOUS
  0
LAYER
  5
FE
330
2
100
AcDbSymbolTableRecord
100
AcDbLayerTableRecord
  2
GR1-1
 70
     0
 62
     7
  6
CONTINUOUS
  0
LAYER
  5
109
330
2
100
AcDbSymbolTableRecord
100
AcDbLayerTableRecord
  2
FIG_3-1
 70
     0
 62
     7
  6
CONTINUOUS
  0
LAYER
  5
1B2
330
2
100
AcDbSymbolTableRecord
100
AcDbLayerTableRecord
  2
0-1
 70
     0
 62
     7
  6
CONTINUOUS
  0
ENDTAB
  0
TABLE
  2
STYLE
  5
3
330
0
100
AcDbSymbolTable
 70
     4
  0
STYLE
  5
11
330
3
100
AcDbSymbolTableRecord
100
AcDbTextStyleTableRecord
  2
STANDARD
 70
     0
 40
0.0
 41
1.0
 50
0.0
 71
     0
 42
0.2
  3
txt
  4

  0
STYLE
  5
3F
330
3
100
AcDbSymbolTableRecord
100
AcDbTextStyleTableRecord
  2
STYLE1
 70
     0
 40
0.0
 41
1.0
 50
0.0
 71
     0
 42
0.2
  3
MONOTXT.SHX
  4
extfont.shx
  0
STYLE
  5
40
330
3
100
AcDbSymbolTableRecord
100
AcDbTextStyleTableRecord
  2
FX_VECTOR
 70
     0
 40
0.0
 41
1.0
 50
0.0
 71
     0
 42
0.2
  3
MONOTXT.SHX
  4
BIGFONT.SHX
  0
ENDTAB
  0
TABLE
  2
VIEW
  5
6
330
0
100
AcDbSymbolTable
 70
     0
  0
ENDTAB
  0
TABLE
  2
UCS
  5
7
330
0
100
AcDbSymbolTable
 70
     0
  0
ENDTAB
  0
TABLE
  2
APPID
  5
9
330
0
100
AcDbSymbolTable
 70
     1
  0
APPID
  5
12
330
9
100
AcDbSymbolTableRecord
100
AcDbRegAppTableRecord
  2
ACAD
 70
     0
  0
ENDTAB
  0
TABLE
  2
DIMSTYLE
  5
A
330
0
100
AcDbSymbolTable
 70
     2
  0
DIMSTYLE
105
27
330
A
100
AcDbSymbolTableRecord
100
AcDbDimStyleTableRecord
  2
STANDARD
 70
     0
  3

  4

  5

  6

  7

 40
1.0
 41
0.18
 42
0.0625
 43
0.38
 44
0.18
 45
0.0
 46
0.0
 47
0.0
 48
0.0
140
0.18
141
0.09
142
0.0
143
25.4
144
1.0
145
0.0
146
1.0
147
0.09
 71
     0
 72
     0
 73
     1
 74
     1
 75
     0
 76
     0
 77
     0
 78
     0
170
     0
171
     2
172
     0
173
     0
174
     0
175
     0
176
     0
177
     0
178
     0
270
     2
271
     4
272
     4
273
     2
274
     2
340
11
275
     0
280
     0
281
     0
282
     0
283
     1
284
     0
285
     0
286
     0
287
     3
288
     0
  0
DIMSTYLE
105
A7
102
{ACAD_REACTORS
330
278
102
}
330
A
100
AcDbSymbolTableRecord
100
AcDbDimStyleTableRecord
  2
FXDIMINFO
 70
     0
  3

  4

  5

  6
FXTIP_ARROW_S
  7
FXTIP_ARROW_E
 40
1.0
 41
4.0
 42
1.0
 43
10.0
 44
1.0
 45
0.0
 46
6.0
 47
0.0
 48
0.0
140
4.0
141
2.5
142
0.0
143
0.03937
144
1.0
145
0.0
146
1.0
147
1.0
 71
     0
 72
     0
 73
     0
 74
     0
 75
     0
 76
     0
 77
     1
 78
     8
170
     0
171
     3
172
     1
173
     1
174
     0
175
     0
176
     7
177
     7
178
     7
179
     2
270
     2
271
     2
272
     2
273
     2
274
     3
340
3F
275
     0
280
     0
281
     0
282
     0
283
     0
284
     8
285
     0
286
     0
287
     3
288
     0
  0
ENDTAB
  0
TABLE
  2
BLOCK_RECORD
  5
1
330
0
100
AcDbSymbolTable
 70
    24
  0
BLOCK_RECORD
  5
1F
330
1
100
AcDbSymbolTableRecord
100
AcDbBlockTableRecord
  2
*MODEL_SPACE
  0
BLOCK_RECORD
  5
1B
330
1
100
AcDbSymbolTableRecord
100
AcDbBlockTableRecord
  2
*PAPER_SPACE
  0
BLOCK_RECORD
  5
41
330
1
100
AcDbSymbolTableRecord
100
AcDbBlockTableRecord
  2
FXTIP_ARROW_S
  0
BLOCK_RECORD
  5
47
330
1
100
AcDbSymbolTableRecord
100
AcDbBlockTableRecord
  2
FXTIP_ARROW_E
  0
BLOCK_RECORD
  5
4D
330
1
100
AcDbSymbolTableRecord
100
AcDbBlockTableRecord
  2
FXTIP_BLACKDOT_S
  0
BLOCK_RECORD
  5
53
330
1
100
AcDbSymbolTableRecord
100
AcDbBlockTableRecord
  2
FXTIP_BLACKDOT_E
  0
BLOCK_RECORD
  5
59
330
1
100
AcDbSymbolTableRecord
100
AcDbBlockTableRecord
  2
FXTIP_TRIANGLE_S
  0
BLOCK_RECORD
  5
60
330
1
100
AcDbSymbolTableRecord
100
AcDbBlockTableRecord
  2
FXTIP_TRIANGLE_E
  0
BLOCK_RECORD
  5
67
330
1
100
AcDbSymbolTableRecord
100
AcDbBlockTableRecord
  2
FXTIP_ARCHITECT_S
  0
BLOCK_RECORD
  5
6D
330
1
100
AcDbSymbolTableRecord
100
AcDbBlockTableRecord
  2
FXTIP_ARCHITECT_E
  0
BLOCK_RECORD
  5
73
330
1
100
AcDbSymbolTableRecord
100
AcDbBlockTableRecord
  2
FXTIP_CIVIL_S
  0
BLOCK_RECORD
  5
79
330
1
100
AcDbSymbolTableRecord
100
AcDbBlockTableRecord
  2
FXTIP_CIVIL_E
  0
BLOCK_RECORD
  5
7F
330
1
100
AcDbSymbolTableRecord
100
AcDbBlockTableRecord
  2
FXTIP_WHITEDOT_S
  0
BLOCK_RECORD
  5
84
330
1
100
AcDbSymbolTableRecord
100
AcDbBlockTableRecord
  2
FXTIP_WHITEDOT_E
  0
BLOCK_RECORD
  5
89
330
1
100
AcDbSymbolTableRecord
100
AcDbBlockTableRecord
  2
FXTIP_UPARROW_S
  0
BLOCK_RECORD
  5
8E
330
1
100
AcDbSymbolTableRecord
100
AcDbBlockTableRecord
  2
FXTIP_UPARROW_E
  0
BLOCK_RECORD
  5
93
330
1
100
AcDbSymbolTableRecord
100
AcDbBlockTableRecord
  2
FXTIP_DOWNARROW_S
  0
BLOCK_RECORD
  5
98
330
1
100
AcDbSymbolTableRecord
100
AcDbBlockTableRecord
  2
FXTIP_DOWNARROW_E
  0
BLOCK_RECORD
  5
9D
330
1
100
AcDbSymbolTableRecord
100
AcDbBlockTableRecord
  2
FXTIP_BLACKTRIANGLE_S
  0
BLOCK_RECORD
  5
A2
330
1
100
AcDbSymbolTableRecord
100
AcDbBlockTableRecord
  2
FXTIP_BLACKTRIANGLE_E
  0
BLOCK_RECORD
  5
1A2
330
1
100
AcDbSymbolTableRecord
100
AcDbBlockTableRecord
  2
BLKF021
  0
BLOCK_RECORD
  5
1AE
330
1
100
AcDbSymbolTableRecord
100
AcDbBlockTableRecord
  2
BLKF022
  0
BLOCK_RECORD
  5
1B7
330
1
100
AcDbSymbolTableRecord
100
AcDbBlockTableRecord
  2
BLKF023
  0
BLOCK_RECORD
  5
1F5
330
1
100
AcDbSymbolTableRecord
100
AcDbBlockTableRecord
  2
BLKF024
  0
BLOCK_RECORD
  5
279
330
1
100
AcDbSymbolTableRecord
100
AcDbBlockTableRecord
  2
*D23
  0
ENDTAB
  0
ENDSEC
  0
SECTION
  2
BLOCKS
  0
BLOCK
  5
20
330
1F
100
AcDbEntity
  8
0
100
AcDbBlockBegin
  2
*MODEL_SPACE
 70
     0
 71
     0
 10
0.0
 20
0.0
 30
0.0
  3
*MODEL_SPACE
  1

  0
ENDBLK
  5
21
330
1F
100
AcDbEntity
  8
0
100
AcDbBlockEnd
  0
BLOCK
  5
1C
330
1B
100
AcDbEntity
 67
     1
  8
0
100
AcDbBlockBegin
  2
*PAPER_SPACE
 70
     0
 71
     0
 10
0.0
 20
0.0
 30
0.0
  3
*PAPER_SPACE
  1

  0
ENDBLK
  5
1D
330
1B
100
AcDbEntity
 67
     1
  8
0
100
AcDbBlockEnd
  0
BLOCK
  5
42
330
41
100
AcDbEntity
  8
0
100
AcDbBlockBegin
  2
FXTIP_ARROW_S
 70
     0
 71
     0
 10
0.0
 20
0.0
 30
0.0
  3
FXTIP_ARROW_S
  1

  0
LINE
  5
44
330
41
100
AcDbEntity
  8
0
  6
CONTINUOUS
 62
     0
100
AcDbLine
 10
0.0
 20
0.0
 30
0.0
 11
-1.0
 21
0.0
 31
0.0
  0
LINE
  5
45
330
41
100
AcDbEntity
  8
0
  6
CONTINUOUS
 62
     0
100
AcDbLine
 10
0.0
 20
0.0
 30
0.0
 11
-0.965926
 21
-0.258819
 31
0.0
  0
LINE
  5
46
330
41
100
AcDbEntity
  8
0
  6
CONTINUOUS
 62
     0
100
AcDbLine
 10
0.0
 20
0.0
 30
0.0
 11
-0.965926
 21
0.258819
 31
0.0
  0
ENDBLK
  5
43
330
41
100
AcDbEntity
  8
0
100
AcDbBlockEnd
  0
BLOCK
  5
48
330
47
100
AcDbEntity
  8
0
100
AcDbBlockBegin
  2
FXTIP_ARROW_E
 70
     0
 71
     0
 10
0.0
 20
0.0
 30
0.0
  3
FXTIP_ARROW_E
  1

  0
LINE
  5
4A
330
47
100
AcDbEntity
  8
0
  6
CONTINUOUS
 62
     0
100
AcDbLine
 10
0.0
 20
0.0
 30
0.0
 11
-1.0
 21
0.0
 31
0.0
  0
LINE
  5
4B
330
47
100
AcDbEntity
  8
0
  6
CONTINUOUS
 62
     0
100
AcDbLine
 10
0.0
 20
0.0
 30
0.0
 11
-0.965926
 21
0.258819
 31
0.0
  0
LINE
  5
4C
330
47
100
AcDbEntity
  8
0
  6
CONTINUOUS
 62
     0
100
AcDbLine
 10
0.0
 20
0.0
 30
0.0
 11
-0.965926
 21
-0.258819
 31
0.0
  0
ENDBLK
  5
49
330
47
100
AcDbEntity
  8
0
100
AcDbBlockEnd
  0
BLOCK
  5
4E
330
4D
100
AcDbEntity
  8
0
100
AcDbBlockBegin
  2
FXTIP_BLACKDOT_S
 70
     0
 71
     0
 10
0.0
 20
0.0
 30
0.0
  3
FXTIP_BLACKDOT_S
  1

  0
LINE
  5
50
330
4D
100
AcDbEntity
  8
0
  6
CONTINUOUS
 62
     0
100
AcDbLine
 10
0.0
 20
0.0
 30
0.0
 11
-1.0
 21
0.0
 31
0.0
  0
LWPOLYLINE
  5
51
330
4D
100
AcDbEntity
  8
0
  6
CONTINUOUS
 62
     0
100
AcDbPolyline
 90
        2
 70
     1
 10
-0.25
 20
0.0
 40
0.5
 41
0.5
 42
1.0
 10
0.25
 20
0.0
 40
0.5
 41
0.5
 42
1.0
  0
CIRCLE
  5
52
330
4D
100
AcDbEntity
  8
0
  6
CONTINUOUS
 62
     0
100
AcDbCircle
 10
0.0
 20
0.0
 30
0.0
 40
0.5
  0
ENDBLK
  5
4F
330
4D
100
AcDbEntity
  8
0
100
AcDbBlockEnd
  0
BLOCK
  5
54
330
53
100
AcDbEntity
  8
0
100
AcDbBlockBegin
  2
FXTIP_BLACKDOT_E
 70
     0
 71
     0
 10
0.0
 20
0.0
 30
0.0
  3
FXTIP_BLACKDOT_E
  1

  0
LINE
  5
56
330
53
100
AcDbEntity
  8
0
  6
CONTINUOUS
 62
     0
100
AcDbLine
 10
0.0
 20
0.0
 30
0.0
 11
-1.0
 21
0.0
 31
0.0
  0
LWPOLYLINE
  5
57
330
53
100
AcDbEntity
  8
0
  6
CONTINUOUS
 62
     0
100
AcDbPolyline
 90
        2
 70
     1
 10
-0.25
 20
0.0
 40
0.5
 41
0.5
 42
1.0
 10
0.25
 20
0.0
 40
0.5
 41
0.5
 42
1.0
  0
CIRCLE
  5
58
330
53
100
AcDbEntity
  8
0
  6
CONTINUOUS
 62
     0
100
AcDbCircle
 10
0.0
 20
0.0
 30
0.0
 40
0.5
  0
ENDBLK
  5
55
330
53
100
AcDbEntity
  8
0
100
AcDbBlockEnd
  0
BLOCK
  5
5A
330
59
100
AcDbEntity
  8
0
100
AcDbBlockBegin
  2
FXTIP_TRIANGLE_S
 70
     0
 71
     0
 10
0.0
 20
0.0
 30
0.0
  3
FXTIP_TRIANGLE_S
  1

  0
LINE
  5
5C
330
59
100
AcDbEntity
  8
0
  6
CONTINUOUS
 62
     0
100
AcDbLine
 10
0.0
 20
0.0
 30
0.0
 11
-1.0
 21
0.0
 31
0.0
  0
LINE
  5
5D
330
59
100
AcDbEntity
  8
0
  6
CONTINUOUS
 62
     0
100
AcDbLine
 10
0.0
 20
0.0
 30
0.0
 11
-0.965926
 21
-0.258819
 31
0.0
  0
LINE
  5
5E
330
59
100
AcDbEntity
  8
0
  6
CONTINUOUS
 62
     0
100
AcDbLine
 10
0.0
 20
0.0
 30
0.0
 11
-0.965926
 21
0.258819
 31
0.0
  0
LINE
  5
5F
330
59
100
AcDbEntity
  8
0
  6
CONTINUOUS
 62
     0
100
AcDbLine
 10
-0.965926
 20
-0.258819
 30
0.0
 11
-0.965926
 21
0.258819
 31
0.0
  0
ENDBLK
  5
5B
330
59
100
AcDbEntity
  8
0
100
AcDbBlockEnd
  0
BLOCK
  5
61
330
60
100
AcDbEntity
  8
0
100
AcDbBlockBegin
  2
FXTIP_TRIANGLE_E
 70
     0
 71
     0
 10
0.0
 20
0.0
 30
0.0
  3
FXTIP_TRIANGLE_E
  1

  0
LINE
  5
63
330
60
100
AcDbEntity
  8
0
  6
CONTINUOUS
 62
     0
100
AcDbLine
 10
0.0
 20
0.0
 30
0.0
 11
-1.0
 21
0.0
 31
0.0
  0
LINE
  5
64
330
60
100
AcDbEntity
  8
0
  6
CONTINUOUS
 62
     0
100
AcDbLine
 10
0.0
 20
0.0
 30
0.0
 11
-0.965926
 21
0.258819
 31
0.0
  0
LINE
  5
65
330
60
100
AcDbEntity
  8
0
  6
CONTINUOUS
 62
     0
100
AcDbLine
 10
0.0
 20
0.0
 30
0.0
 11
-0.965926
 21
-0.258819
 31
0.0
  0
LINE
  5
66
330
60
100
AcDbEntity
  8
0
  6
CONTINUOUS
 62
     0
100
AcDbLine
 10
-0.965926
 20
0.258819
 30
0.0
 11
-0.965926
 21
-0.258819
 31
0.0
  0
ENDBLK
  5
62
330
60
100
AcDbEntity
  8
0
100
AcDbBlockEnd
  0
BLOCK
  5
68
330
67
100
AcDbEntity
  8
0
100
AcDbBlockBegin
  2
FXTIP_ARCHITECT_S
 70
     0
 71
     0
 10
0.0
 20
0.0
 30
0.0
  3
FXTIP_ARCHITECT_S
  1

  0
LINE
  5
6A
330
67
100
AcDbEntity
  8
0
  6
CONTINUOUS
 62
     0
100
AcDbLine
 10
0.0
 20
0.0
 30
0.0
 11
-1.0
 21
0.0
 31
0.0
  0
LINE
  5
6B
330
67
100
AcDbEntity
  8
0
  6
CONTINUOUS
 62
     0
100
AcDbLine
 10
0.0
 20
0.0
 30
0.0
 11
-0.707107
 21
-0.707107
 31
0.0
  0
LINE
  5
6C
330
67
100
AcDbEntity
  8
0
  6
CONTINUOUS
 62
     0
100
AcDbLine
 10
0.0
 20
0.0
 30
0.0
 11
0.707107
 21
0.707107
 31
0.0
  0
ENDBLK
  5
69
330
67
100
AcDbEntity
  8
0
100
AcDbBlockEnd
  0
BLOCK
  5
6E
330
6D
100
AcDbEntity
  8
0
100
AcDbBlockBegin
  2
FXTIP_ARCHITECT_E
 70
     0
 71
     0
 10
0.0
 20
0.0
 30
0.0
  3
FXTIP_ARCHITECT_E
  1

  0
LINE
  5
70
330
6D
100
AcDbEntity
  8
0
  6
CONTINUOUS
 62
     0
100
AcDbLine
 10
0.0
 20
0.0
 30
0.0
 11
-1.0
 21
0.0
 31
0.0
  0
LINE
  5
71
330
6D
100
AcDbEntity
  8
0
  6
CONTINUOUS
 62
     0
100
AcDbLine
 10
0.0
 20
0.0
 30
0.0
 11
0.707107
 21
0.707107
 31
0.0
  0
LINE
  5
72
330
6D
100
AcDbEntity
  8
0
  6
CONTINUOUS
 62
     0
100
AcDbLine
 10
0.0
 20
0.0
 30
0.0
 11
-0.707107
 21
-0.707107
 31
0.0
  0
ENDBLK
  5
6F
330
6D
100
AcDbEntity
  8
0
100
AcDbBlockEnd
  0
BLOCK
  5
74
330
73
100
AcDbEntity
  8
0
100
AcDbBlockBegin
  2
FXTIP_CIVIL_S
 70
     0
 71
     0
 10
0.0
 20
0.0
 30
0.0
  3
FXTIP_CIVIL_S
  1

  0
LINE
  5
76
330
73
100
AcDbEntity
  8
0
  6
CONTINUOUS
 62
     0
100
AcDbLine
 10
0.0
 20
0.0
 30
0.0
 11
-1.0
 21
0.0
 31
0.0
  0
LINE
  5
77
330
73
100
AcDbEntity
  8
0
  6
CONTINUOUS
 62
     0
100
AcDbLine
 10
0.0
 20
-0.0625
 30
0.0
 11
-1.0
 21
-0.0625
 31
0.0
  0
LINE
  5
78
330
73
100
AcDbEntity
  8
0
  6
CONTINUOUS
 62
     0
100
AcDbLine
 10
0.0
 20
-0.125
 30
0.0
 11
-1.0
 21
-0.125
 31
0.0
  0
ENDBLK
  5
75
330
73
100
AcDbEntity
  8
0
100
AcDbBlockEnd
  0
BLOCK
  5
7A
330
79
100
AcDbEntity
  8
0
100
AcDbBlockBegin
  2
FXTIP_CIVIL_E
 70
     0
 71
     0
 10
0.0
 20
0.0
 30
0.0
  3
FXTIP_CIVIL_E
  1

  0
LINE
  5
7C
330
79
100
AcDbEntity
  8
0
  6
CONTINUOUS
 62
     0
100
AcDbLine
 10
0.0
 20
0.0
 30
0.0
 11
-1.0
 21
0.0
 31
0.0
  0
LINE
  5
7D
330
79
100
AcDbEntity
  8
0
  6
CONTINUOUS
 62
     0
100
AcDbLine
 10
0.0
 20
0.0625
 30
0.0
 11
-1.0
 21
0.0625
 31
0.0
  0
LINE
  5
7E
330
79
100
AcDbEntity
  8
0
  6
CONTINUOUS
 62
     0
100
AcDbLine
 10
0.0
 20
0.125
 30
0.0
 11
-1.0
 21
0.125
 31
0.0
  0
ENDBLK
  5
7B
330
79
100
AcDbEntity
  8
0
100
AcDbBlockEnd
  0
BLOCK
  5
80
330
7F
100
AcDbEntity
  8
0
100
AcDbBlockBegin
  2
FXTIP_WHITEDOT_S
 70
     0
 71
     0
 10
0.0
 20
0.0
 30
0.0
  3
FXTIP_WHITEDOT_S
  1

  0
LINE
  5
82
330
7F
100
AcDbEntity
  8
0
  6
CONTINUOUS
 62
     0
100
AcDbLine
 10
0.0
 20
0.0
 30
0.0
 11
-1.0
 21
0.0
 31
0.0
  0
CIRCLE
  5
83
330
7F
100
AcDbEntity
  8
0
  6
CONTINUOUS
 62
     0
100
AcDbCircle
 10
0.0
 20
0.0
 30
0.0
 40
0.5
  0
ENDBLK
  5
81
330
7F
100
AcDbEntity
  8
0
100
AcDbBlockEnd
  0
BLOCK
  5
85
330
84
100
AcDbEntity
  8
0
100
AcDbBlockBegin
  2
FXTIP_WHITEDOT_E
 70
     0
 71
     0
 10
0.0
 20
0.0
 30
0.0
  3
FXTIP_WHITEDOT_E
  1

  0
LINE
  5
87
330
84
100
AcDbEntity
  8
0
  6
CONTINUOUS
 62
     0
100
AcDbLine
 10
0.0
 20
0.0
 30
0.0
 11
-1.0
 21
0.0
 31
0.0
  0
CIRCLE
  5
88
330
84
100
AcDbEntity
  8
0
  6
CONTINUOUS
 62
     0
100
AcDbCircle
 10
0.0
 20
0.0
 30
0.0
 40
0.5
  0
ENDBLK
  5
86
330
84
100
AcDbEntity
  8
0
100
AcDbBlockEnd
  0
BLOCK
  5
8A
330
89
100
AcDbEntity
  8
0
100
AcDbBlockBegin
  2
FXTIP_UPARROW_S
 70
     0
 71
     0
 10
0.0
 20
0.0
 30
0.0
  3
FXTIP_UPARROW_S
  1

  0
LINE
  5
8C
330
89
100
AcDbEntity
  8
0
  6
CONTINUOUS
 62
     0
100
AcDbLine
 10
0.0
 20
0.0
 30
0.0
 11
-1.0
 21
0.0
 31
0.0
  0
LINE
  5
8D
330
89
100
AcDbEntity
  8
0
  6
CONTINUOUS
 62
     0
100
AcDbLine
 10
0.0
 20
0.0
 30
0.0
 11
-0.965926
 21
-0.258819
 31
0.0
  0
ENDBLK
  5
8B
330
89
100
AcDbEntity
  8
0
100
AcDbBlockEnd
  0
BLOCK
  5
8F
330
8E
100
AcDbEntity
  8
0
100
AcDbBlockBegin
  2
FXTIP_UPARROW_E
 70
     0
 71
     0
 10
0.0
 20
0.0
 30
0.0
  3
FXTIP_UPARROW_E
  1

  0
LINE
  5
91
330
8E
100
AcDbEntity
  8
0
  6
CONTINUOUS
 62
     0
100
AcDbLine
 10
0.0
 20
0.0
 30
0.0
 11
-1.0
 21
0.0
 31
0.0
  0
LINE
  5
92
330
8E
100
AcDbEntity
  8
0
  6
CONTINUOUS
 62
     0
100
AcDbLine
 10
0.0
 20
0.0
 30
0.0
 11
-0.965926
 21
0.258819
 31
0.0
  0
ENDBLK
  5
90
330
8E
100
AcDbEntity
  8
0
100
AcDbBlockEnd
  0
BLOCK
  5
94
330
93
100
AcDbEntity
  8
0
100
AcDbBlockBegin
  2
FXTIP_DOWNARROW_S
 70
     0
 71
     0
 10
0.0
 20
0.0
 30
0.0
  3
FXTIP_DOWNARROW_S
  1

  0
LINE
  5
96
330
93
100
AcDbEntity
  8
0
  6
CONTINUOUS
 62
     0
100
AcDbLine
 10
0.0
 20
0.0
 30
0.0
 11
-1.0
 21
0.0
 31
0.0
  0
LINE
  5
97
330
93
100
AcDbEntity
  8
0
  6
CONTINUOUS
 62
     0
100
AcDbLine
 10
0.0
 20
0.0
 30
0.0
 11
-0.965926
 21
0.258819
 31
0.0
  0
ENDBLK
  5
95
330
93
100
AcDbEntity
  8
0
100
AcDbBlockEnd
  0
BLOCK
  5
99
330
98
100
AcDbEntity
  8
0
100
AcDbBlockBegin
  2
FXTIP_DOWNARROW_E
 70
     0
 71
     0
 10
0.0
 20
0.0
 30
0.0
  3
FXTIP_DOWNARROW_E
  1

  0
LINE
  5
9B
330
98
100
AcDbEntity
  8
0
  6
CONTINUOUS
 62
     0
100
AcDbLine
 10
0.0
 20
0.0
 30
0.0
 11
-1.0
 21
0.0
 31
0.0
  0
LINE
  5
9C
330
98
100
AcDbEntity
  8
0
  6
CONTINUOUS
 62
     0
100
AcDbLine
 10
0.0
 20
0.0
 30
0.0
 11
-0.965926
 21
-0.258819
 31
0.0
  0
ENDBLK
  5
9A
330
98
100
AcDbEntity
  8
0
100
AcDbBlockEnd
  0
BLOCK
  5
9E
330
9D
100
AcDbEntity
  8
0
100
AcDbBlockBegin
  2
FXTIP_BLACKTRIANGLE_S
 70
     0
 71
     0
 10
0.0
 20
0.0
 30
0.0
  3
FXTIP_BLACKTRIANGLE_S
  1

  0
LINE
  5
A0
330
9D
100
AcDbEntity
  8
0
  6
CONTINUOUS
 62
     0
100
AcDbLine
 10
0.0
 20
0.0
 30
0.0
 11
-1.0
 21
0.0
 31
0.0
  0
SOLID
  5
A1
330
9D
100
AcDbEntity
  8
0
  6
CONTINUOUS
 62
     0
100
AcDbTrace
 10
0.0
 20
0.0
 30
0.0
 11
-0.965926
 21
-0.258819
 31
0.0
 12
-0.965926
 22
0.258819
 32
0.0
 13
-0.965926
 23
0.258819
 33
0.0
  0
ENDBLK
  5
9F
330
9D
100
AcDbEntity
  8
0
100
AcDbBlockEnd
  0
BLOCK
  5
A3
330
A2
100
AcDbEntity
  8
0
100
AcDbBlockBegin
  2
FXTIP_BLACKTRIANGLE_E
 70
     0
 71
     0
 10
0.0
 20
0.0
 30
0.0
  3
FXTIP_BLACKTRIANGLE_E
  1

  0
LINE
  5
A5
330
A2
100
AcDbEntity
  8
0
  6
CONTINUOUS
 62
     0
100
AcDbLine
 10
0.0
 20
0.0
 30
0.0
 11
-1.0
 21
0.0
 31
0.0
  0
SOLID
  5
A6
330
A2
100
AcDbEntity
  8
0
  6
CONTINUOUS
 62
     0
100
AcDbTrace
 10
0.0
 20
0.0
 30
0.0
 11
-0.965926
 21
0.258819
 31
0.0
 12
-0.965926
 22
-0.258819
 32
0.0
 13
-0.965926
 23
-0.258819
 33
0.0
  0
ENDBLK
  5
A4
330
A2
100
AcDbEntity
  8
0
100
AcDbBlockEnd
  0
BLOCK
  5
1A3
330
1A2
100
AcDbEntity
  8
0
100
AcDbBlockBegin
  2
BLKF021
 70
     0
 71
     0
 10
0.0
 20
0.0
 30
0.0
  3
BLKF021
  1

  0
LINE
  5
1A6
330
1A2
100
AcDbEntity
  8
}}ﾊﾊGG血CCТ
  6
CONTINUOUS
 62
     7
100
AcDbLine
 10
10.0
 20
10.0
 30
0.0
 11
410.0
 21
10.0
 31
0.0
  0
LINE
  5
1A7
330
1A2
100
AcDbEntity
  8
}}ﾊﾊGG血CCТ
  6
CONTINUOUS
 62
     7
100
AcDbLine
 10
10.0
 20
10.0
 30
0.0
 11
10.0
 21
287.0
 31
0.0
  0
LINE
  5
1A8
330
1A2
100
AcDbEntity
  8
}}ﾊﾊGG血CCТ
  6
CONTINUOUS
 62
     7
100
AcDbLine
 10
10.0
 20
287.0
 30
0.0
 11
410.0
 21
287.0
 31
0.0
  0
LINE
  5
1A9
330
1A2
100
AcDbEntity
  8
}}ﾊﾊGG血CCТ
  6
CONTINUOUS
 62
     7
100
AcDbLine
 10
410.0
 20
287.0
 30
0.0
 11
410.0
 21
10.0
 31
0.0
  0
LINE
  5
1AA
330
1A2
100
AcDbEntity
  8
}}ﾊﾊGG血CCТ
  6
CONTINUOUS
 62
     7
100
AcDbLine
 10
153.0
 20
10.0
 30
0.0
 11
153.0
 21
20.0
 31
0.0
  0
TEXT
  5
1AB
330
1A2
100
AcDbEntity
  8
}}ﾊﾊGG血CCТ
  6
CONTINUOUS
 62
     7
100
AcDbText
 10
137.738815
 20
11.596879
 30
0.0
 40
6.648749
  1
品名
 41
1.083413
  7
FX_VECTOR
 72
     5
 11
149.058355
 21
11.596879
 31
0.0
100
AcDbText
  0
LINE
  5
1AC
330
1A2
100
AcDbEntity
  8
}}ﾊﾊGG血CCТ
  6
CONTINUOUS
 62
     7
100
AcDbLine
 10
233.0
 20
20.0
 30
0.0
 11
233.0
 21
10.0
 31
0.0
  0
LINE
  5
1AD
330
1A2
100
AcDbEntity
  8
}}ﾊﾊGG血CCТ
  6
CONTINUOUS
 62
     7
100
AcDbLine
 10
133.0
 20
20.0
 30
0.0
 11
410.0
 21
20.0
 31
0.0
  0
INSERT
  5
1B1
330
1A2
100
AcDbEntity
  8
0
100
AcDbBlockReference
  2
BLKF022
 10
0.0
 20
0.0
 30
0.0
  0
INSERT
  5
1BA
330
1A2
100
AcDbEntity
  8
0
100
AcDbBlockReference
  2
BLKF023
 10
0.0
 20
0.0
 30
0.0
  0
HATCH
  5
1CA
330
1A2
100
AcDbEntity
  8
GR1-1
  6
CONTINUOUS
 62
     7
100
AcDbHatch
 10
0.0
 20
0.0
 30
0.0
210
0.0
220
0.0
230
1.0
  2

 70
     0
 71
     1
 91
        2
 92
        0
 93
        4
 72
     1
 10
338.8018997861325
 20
17.91346152
 11
344.8018997861325
 21
17.91346152
 72
     1
 10
344.8018997861325
 20
17.91346152
 11
344.8018997861325
 21
11.91346152
 72
     1
 10
344.8018997861325
 20
11.91346152
 11
338.8018997861325
 21
11.91346152
 72
     1
 10
338.8018997861325
 20
11.91346152
 11
338.8018997861325
 21
17.91346152
 97
        0
 92
        0
 93
       15
 72
     1
 10
341.8018997861325
 20
17.76923076000002
 11
338.9461305461325
 21
14.91346152
 72
     1
 10
338.9461305461325
 20
14.91346152
 11
341.8018997861325
 21
12.05769228000001
 72
     1
 10
341.8018997861325
 20
12.05769228000001
 11
343.3595920661325
 21
13.61538462
 72
     1
 10
343.3595920661325
 20
13.61538462
 11
343.3595920661325
 21
12.98076924
 72
     1
 10
343.3595920661325
 20
12.98076924
 11
344.2249766861325
 21
12.98076924
 72
     1
 10
344.2249766861325
 20
12.98076924
 11
344.2249766861325
 21
15.00000000000001
 72
     1
 10
344.2249766861325
 20
15.00000000000001
 11
341.8018997861325
 21
15.00000000000001
 72
     1
 10
341.8018997861325
 20
15.00000000000001
 11
341.8018997861325
 21
14.13461538000001
 72
     1
 10
341.8018997861325
 20
14.13461538000001
 11
342.2461305461325
 21
14.13461538000001
 72
     1
 10
342.2461305461325
 20
14.13461538000001
 11
341.8018997861325
 21
13.69038462
 72
     1
 10
341.8018997861325
 20
13.69038462
 11
340.5788228861325
 21
14.91346152
 72
     1
 10
340.5788228861325
 20
14.91346152
 11
341.8018997861325
 21
16.13653842000003
 72
     1
 10
341.8018997861325
 20
16.13653842000003
 11
342.5922844061325
 21
15.3461538
 72
     1
 10
342.5922844061325
 20
15.3461538
 11
344.2249766861325
 21
15.3461538
 72
     1
 10
344.2249766861325
 20
15.3461538
 11
341.8018997861325
 21
17.76923076000002
 97
        0
 75
     0
 76
     0
 52
45.0
 41
0.05
 77
     0
 78
     1
 53
45.0
 43
0.0
 44
0.0
 45
-0.0353553390593274
 46
0.0353553390593274
 79
     0
 98
        0
  0
TEXT
  5
1CB
330
1A2
100
AcDbEntity
  8
}}ﾊﾊGG血CCТ
  6
CONTINUOUS
 62
     7
100
AcDbText
 10
349.225769
 20
11.461285
 30
0.0
 40
7.170908
  1
GOLD CASTER
 41
0.63978
  7
FX_VECTOR
 72
     5
 11
395.977636
 21
11.461285
 31
0.0
100
AcDbText
  0
LINE
  5
1CC
330
1A2
100
AcDbEntity
  8
}}ﾊﾊGG血CCТ
  6
CONTINUOUS
 62
     7
100
AcDbLine
 10
253.0
 20
10.0
 30
0.0
 11
253.0
 21
20.0
 31
0.0
  0
TEXT
  5
1CD
330
1A2
100
AcDbEntity
  8
}}ﾊﾊGG血CCТ
  6
CONTINUOUS
 62
     7
100
AcDbText
 10
237.738815
 20
11.596879
 30
0.0
 40
6.648749
  1
図番
 41
1.083413
  7
FX_VECTOR
 72
     5
 11
249.058355
 21
11.596879
 31
0.0
100
AcDbText
  0
LINE
  5
1CE
330
1A2
100
AcDbEntity
  8
}}ﾊﾊGG血CCТ
  6
CONTINUOUS
 62
     7
100
AcDbLine
 10
333.0
 20
20.0
 30
0.0
 11
333.0
 21
10.0
 31
0.0
  0
LINE
  5
1CF
330
1A2
100
AcDbEntity
  8
}}ﾊﾊGG血CCТ
  6
CONTINUOUS
 62
     7
100
AcDbLine
 10
133.0
 20
20.0
 30
0.0
 11
133.0
 21
10.0
 31
0.0
  0
ENDBLK
  5
1A4
330
1A2
100
AcDbEntity
  8
0
100
AcDbBlockEnd
  0
BLOCK
  5
1AF
330
1AE
100
AcDbEntity
  8
0
100
AcDbBlockBegin
  2
BLKF022
 70
     0
 71
     0
 10
0.0
 20
0.0
 30
0.0
  3
BLKF022
  1

  0
LINE
  5
1B3
330
1AE
100
AcDbEntity
  8
0-1
  6
CONTINUOUS
 62
     7
100
AcDbLine
 10
344.8019
 20
17.913462
 30
0.0
 11
338.8019
 21
17.913462
 31
0.0
  0
LINE
  5
1B4
330
1AE
100
AcDbEntity
  8
0-1
  6
CONTINUOUS
 62
     7
100
AcDbLine
 10
338.8019
 20
17.913462
 30
0.0
 11
338.8019
 21
11.913462
 31
0.0
  0
LINE
  5
1B5
330
1AE
100
AcDbEntity
  8
0-1
  6
CONTINUOUS
 62
     7
100
AcDbLine
 10
338.8019
 20
11.913462
 30
0.0
 11
344.8019
 21
11.913462
 31
0.0
  0
LINE
  5
1B6
330
1AE
100
AcDbEntity
  8
0-1
  6
CONTINUOUS
 62
     7
100
AcDbLine
 10
344.8019
 20
11.913462
 30
0.0
 11
344.8019
 21
17.913462
 31
0.0
  0
ENDBLK
  5
1B0
330
1AE
100
AcDbEntity
  8
0
100
AcDbBlockEnd
  0
BLOCK
  5
1B8
330
1B7
100
AcDbEntity
  8
0
100
AcDbBlockBegin
  2
BLKF023
 70
     0
 71
     0
 10
0.0
 20
0.0
 30
0.0
  3
BLKF023
  1

  0
LINE
  5
1BB
330
1B7
100
AcDbEntity
  8
0-1
  6
CONTINUOUS
 62
     7
100
AcDbLine
 10
344.224977
 20
15.346154
 30
0.0
 11
341.8019
 21
17.769231
 31
0.0
  0
LINE
  5
1BC
330
1B7
100
AcDbEntity
  8
0-1
  6
CONTINUOUS
 62
     7
100
AcDbLine
 10
341.8019
 20
17.769231
 30
0.0
 11
338.946131
 21
14.913462
 31
0.0
  0
LINE
  5
1BD
330
1B7
100
AcDbEntity
  8
0-1
  6
CONTINUOUS
 62
     7
100
AcDbLine
 10
338.946131
 20
14.913462
 30
0.0
 11
341.8019
 21
12.057692
 31
0.0
  0
LINE
  5
1BE
330
1B7
100
AcDbEntity
  8
0-1
  6
CONTINUOUS
 62
     7
100
AcDbLine
 10
341.8019
 20
12.057692
 30
0.0
 11
343.359592
 21
13.615385
 31
0.0
  0
LINE
  5
1BF
330
1B7
100
AcDbEntity
  8
0-1
  6
CONTINUOUS
 62
     7
100
AcDbLine
 10
343.359592
 20
13.615385
 30
0.0
 11
343.359592
 21
12.980769
 31
0.0
  0
LINE
  5
1C0
330
1B7
100
AcDbEntity
  8
0-1
  6
CONTINUOUS
 62
     7
100
AcDbLine
 10
343.359592
 20
12.980769
 30
0.0
 11
344.224977
 21
12.980769
 31
0.0
  0
LINE
  5
1C1
330
1B7
100
AcDbEntity
  8
0-1
  6
CONTINUOUS
 62
     7
100
AcDbLine
 10
344.224977
 20
12.980769
 30
0.0
 11
344.224977
 21
15.0
 31
0.0
  0
LINE
  5
1C2
330
1B7
100
AcDbEntity
  8
0-1
  6
CONTINUOUS
 62
     7
100
AcDbLine
 10
344.224977
 20
15.0
 30
0.0
 11
341.8019
 21
15.0
 31
0.0
  0
LINE
  5
1C3
330
1B7
100
AcDbEntity
  8
0-1
  6
CONTINUOUS
 62
     7
100
AcDbLine
 10
341.8019
 20
15.0
 30
0.0
 11
341.8019
 21
14.134615
 31
0.0
  0
LINE
  5
1C4
330
1B7
100
AcDbEntity
  8
0-1
  6
CONTINUOUS
 62
     7
100
AcDbLine
 10
341.8019
 20
14.134615
 30
0.0
 11
342.246131
 21
14.134615
 31
0.0
  0
LINE
  5
1C5
330
1B7
100
AcDbEntity
  8
0-1
  6
CONTINUOUS
 62
     7
100
AcDbLine
 10
342.246131
 20
14.134615
 30
0.0
 11
341.8019
 21
13.690385
 31
0.0
  0
LINE
  5
1C6
330
1B7
100
AcDbEntity
  8
0-1
  6
CONTINUOUS
 62
     7
100
AcDbLine
 10
341.8019
 20
13.690385
 30
0.0
 11
340.578823
 21
14.913462
 31
0.0
  0
LINE
  5
1C7
330
1B7
100
AcDbEntity
  8
0-1
  6
CONTINUOUS
 62
     7
100
AcDbLine
 10
340.578823
 20
14.913462
 30
0.0
 11
341.8019
 21
16.136538
 31
0.0
  0
LINE
  5
1C8
330
1B7
100
AcDbEntity
  8
0-1
  6
CONTINUOUS
 62
     7
100
AcDbLine
 10
341.8019
 20
16.136538
 30
0.0
 11
342.592284
 21
15.346154
 31
0.0
  0
LINE
  5
1C9
330
1B7
100
AcDbEntity
  8
0-1
  6
CONTINUOUS
 62
     7
100
AcDbLine
 10
342.592284
 20
15.346154
 30
0.0
 11
344.224977
 21
15.346154
 31
0.0
  0
ENDBLK
  5
1B9
330
1B7
100
AcDbEntity
  8
0
100
AcDbBlockEnd
  0
BLOCK
  5
1F6
330
1F5
100
AcDbEntity
  8
0
100
AcDbBlockBegin
  2
BLKF024
 70
     0
 71
     0
 10
0.0
 20
0.0
 30
0.0
  3
BLKF024
  1

  0
LINE
  5
1F9
330
1F5
100
AcDbEntity
  8
GR1-1
  6
CONTINUOUS
 62
     7
100
AcDbLine
 10
266.211589
 20
57.299232
 30
0.0
 11
265.961613
 21
57.205988
 31
0.0
  0
LINE
  5
1FA
330
1F5
100
AcDbEntity
  8
GR1-1
  6
CONTINUOUS
 62
     7
100
AcDbLine
 10
266.383199
 20
57.220866
 30
0.0
 11
265.883247
 21
57.034379
 31
0.0
  0
LINE
  5
1FB
330
1F5
100
AcDbEntity
  8
GR1-1
  6
CONTINUOUS
 62
     7
100
AcDbLine
 10
266.554808
 20
57.142499
 30
0.0
 11
265.804881
 21
56.862769
 31
0.0
  0
LINE
  5
1FC
330
1F5
100
AcDbEntity
  8
GR1-1
  6
CONTINUOUS
 62
     7
100
AcDbLine
 10
266.726418
 20
57.064133
 30
0.0
 11
265.726515
 21
56.691159
 31
0.0
  0
LINE
  5
1FD
330
1F5
100
AcDbEntity
  8
GR1-1
  6
CONTINUOUS
 62
     7
100
AcDbLine
 10
266.898027
 20
56.985767
 30
0.0
 11
266.035724
 21
56.664119
 31
0.0
  0
LINE
  5
1FE
330
1F5
100
AcDbEntity
  8
GR1-1
  6
CONTINUOUS
 62
     7
100
AcDbLine
 10
265.799784
 20
56.576112
 30
0.0
 11
265.648148
 21
56.51955
 31
0.0
  0
LINE
  5
1FF
330
1F5
100
AcDbEntity
  8
GR1-1
  6
CONTINUOUS
 62
     7
100
AcDbLine
 10
267.069637
 20
56.907401
 30
0.0
 11
266.207334
 21
56.585753
 31
0.0
  0
LINE
  5
200
330
1F5
100
AcDbEntity
  8
GR1-1
  6
CONTINUOUS
 62
     7
100
AcDbLine
 10
265.721418
 20
56.404502
 30
0.0
 11
265.569782
 21
56.34794
 31
0.0
  0
LINE
  5
201
330
1F5
100
AcDbEntity
  8
GR1-1
  6
CONTINUOUS
 62
     7
100
AcDbLine
 10
267.241247
 20
56.829035
 30
0.0
 11
266.378943
 21
56.507387
 31
0.0
  0
LINE
  5
202
330
1F5
100
AcDbEntity
  8
GR1-1
  6
CONTINUOUS
 62
     7
100
AcDbLine
 10
265.643052
 20
56.232892
 30
0.0
 11
265.491416
 21
56.176331
 31
0.0
  0
LINE
  5
203
330
1F5
100
AcDbEntity
  8
GR1-1
  6
CONTINUOUS
 62
     7
100
AcDbLine
 10
267.412856
 20
56.750669
 30
0.0
 11
266.448484
 21
56.390948
 31
0.0
  0
LINE
  5
204
330
1F5
100
AcDbEntity
  8
GR1-1
  6
CONTINUOUS
 62
     7
100
AcDbLine
 10
265.564686
 20
56.061283
 30
0.0
 11
265.41305
 21
56.004721
 31
0.0
  0
LINE
  5
205
330
1F5
100
AcDbEntity
  8
GR1-1
  6
CONTINUOUS
 62
     7
100
AcDbLine
 10
267.584466
 20
56.672302
 30
0.0
 11
266.370117
 21
56.219338
 31
0.0
  0
LINE
  5
206
330
1F5
100
AcDbEntity
  8
GR1-1
  6
CONTINUOUS
 62
     7
100
AcDbLine
 10
265.486319
 20
55.889673
 30
0.0
 11
265.334684
 21
55.833111
 31
0.0
  0
LINE
  5
207
330
1F5
100
AcDbEntity
  8
GR1-1
  6
CONTINUOUS
 62
     7
100
AcDbLine
 10
267.756076
 20
56.593936
 30
0.0
 11
266.291751
 21
56.047729
 31
0.0
  0
LINE
  5
208
330
1F5
100
AcDbEntity
  8
GR1-1
  6
CONTINUOUS
 62
     7
100
AcDbLine
 10
265.407953
 20
55.718063
 30
0.0
 11
265.256318
 21
55.661502
 31
0.0
  0
LINE
  5
209
330
1F5
100
AcDbEntity
  8
GR1-1
  6
CONTINUOUS
 62
     7
100
AcDbLine
 10
267.927685
 20
56.51557
 30
0.0
 11
266.28642
 21
55.903362
 31
0.0
  0
LINE
  5
20A
330
1F5
100
AcDbEntity
  8
GR1-1
  6
CONTINUOUS
 62
     7
100
AcDbLine
 10
265.329587
 20
55.546454
 30
0.0
 11
265.177951
 21
55.489892
 31
0.0
  0
LINE
  5
20B
330
1F5
100
AcDbEntity
  8
GR1-1
  6
CONTINUOUS
 62
     7
100
AcDbLine
 10
268.099295
 20
56.437204
 30
0.0
 11
267.849319
 21
56.34396
 31
0.0
  0
LINE
  5
20C
330
1F5
100
AcDbEntity
  8
GR1-1
  6
CONTINUOUS
 62
     7
100
AcDbLine
 10
265.447901
 20
55.448208
 30
0.0
 11
265.099585
 21
55.318282
 31
0.0
  0
LINE
  5
20D
330
1F5
100
AcDbEntity
  8
GR1-1
  6
CONTINUOUS
 62
     7
100
AcDbLine
 10
268.270904
 20
56.358838
 30
0.0
 11
267.895941
 21
56.218973
 31
0.0
  0
LINE
  5
20E
330
1F5
100
AcDbEntity
  8
GR1-1
  6
CONTINUOUS
 62
     7
100
AcDbLine
 10
265.619511
 20
55.369842
 30
0.0
 11
265.021219
 21
55.146673
 31
0.0
  0
LINE
  5
20F
330
1F5
100
AcDbEntity
  8
GR1-1
  6
CONTINUOUS
 62
     7
100
AcDbLine
 10
268.442514
 20
56.280472
 30
0.0
 11
267.942562
 21
56.093985
 31
0.0
  0
LINE
  5
210
330
1F5
100
AcDbEntity
  8
GR1-1
  6
CONTINUOUS
 62
     7
100
AcDbLine
 10
265.79112
 20
55.291475
 30
0.0
 11
265.525981
 21
55.192576
 31
0.0
  0
LINE
  5
211
330
1F5
100
AcDbEntity
  8
GR1-1
  6
CONTINUOUS
 62
     7
100
AcDbLine
 10
265.442804
 20
55.16155
 30
0.0
 11
264.942853
 21
54.975063
 31
0.0
  0
LINE
  5
212
330
1F5
100
AcDbEntity
  8
GR1-1
  6
CONTINUOUS
 62
     7
100
AcDbLine
 10
268.614124
 20
56.202105
 30
0.0
 11
267.989184
 21
55.968997
 31
0.0
  0
LINE
  5
213
330
1F5
100
AcDbEntity
  8
GR1-1
  6
CONTINUOUS
 62
     7
100
AcDbLine
 10
265.96273
 20
55.213109
 30
0.0
 11
265.697591
 21
55.11421
 31
0.0
  0
LINE
  5
214
330
1F5
100
AcDbEntity
  8
GR1-1
  6
CONTINUOUS
 62
     7
100
AcDbLine
 10
265.489426
 20
55.036562
 30
0.0
 11
264.864487
 21
54.803454
 31
0.0
  0
LINE
  5
215
330
1F5
100
AcDbEntity
  8
GR1-1
  6
CONTINUOUS
 62
     7
100
AcDbLine
 10
268.785733
 20
56.123739
 30
0.0
 11
268.035806
 21
55.844009
 31
0.0
  0
LINE
  5
216
330
1F5
100
AcDbEntity
  8
GR1-1
  6
CONTINUOUS
 62
     7
100
AcDbLine
 10
266.13434
 20
55.134743
 30
0.0
 11
265.8692
 21
55.035843
 31
0.0
  0
LINE
  5
217
330
1F5
100
AcDbEntity
  8
GR1-1
  6
CONTINUOUS
 62
     7
100
AcDbLine
 10
265.536048
 20
54.911574
 30
0.0
 11
264.786121
 21
54.631844
 31
0.0
  0
LINE
  5
218
330
1F5
100
AcDbEntity
  8
GR1-1
  6
CONTINUOUS
 62
     7
100
AcDbLine
 10
268.957343
 20
56.045373
 30
0.0
 11
268.082428
 21
55.719021
 31
0.0
  0
LINE
  5
219
330
1F5
100
AcDbEntity
  8
GR1-1
  6
CONTINUOUS
 62
     7
100
AcDbLine
 10
267.457488
 20
55.485912
 30
0.0
 11
266.74919
 21
55.22171
 31
0.0
  0
LINE
  5
21A
330
1F5
100
AcDbEntity
  8
GR1-1
  6
CONTINUOUS
 62
     7
100
AcDbLine
 10
266.305949
 20
55.056377
 30
0.0
 11
266.04081
 21
54.957477
 31
0.0
  0
LINE
  5
21B
330
1F5
100
AcDbEntity
  8
GR1-1
  6
CONTINUOUS
 62
     7
100
AcDbLine
 10
265.58267
 20
54.786586
 30
0.0
 11
264.707754
 21
54.460234
 31
0.0
  0
LINE
  5
21C
330
1F5
100
AcDbEntity
  8
GR1-1
  6
CONTINUOUS
 62
     7
100
AcDbLine
 10
269.128952
 20
55.967007
 30
0.0
 11
268.129049
 21
55.594033
 31
0.0
  0
LINE
  5
21D
330
1F5
100
AcDbEntity
  8
GR1-1
  6
CONTINUOUS
 62
     7
100
AcDbLine
 10
267.50411
 20
55.360924
 30
0.0
 11
266.919458
 21
55.142843
 31
0.0
  0
LINE
  5
21E
330
1F5
100
AcDbEntity
  8
GR1-1
  6
CONTINUOUS
 62
     7
100
AcDbLine
 10
266.477559
 20
54.978011
 30
0.0
 11
266.212419
 21
54.879111
 31
0.0
  0
LINE
  5
21F
330
1F5
100
AcDbEntity
  8
GR1-1
  6
CONTINUOUS
 62
     7
100
AcDbLine
 10
265.629291
 20
54.661599
 30
0.0
 11
264.629388
 21
54.288625
 31
0.0
  0
LINE
  5
220
330
1F5
100
AcDbEntity
  8
GR1-1
  6
CONTINUOUS
 62
     7
100
AcDbLine
 10
269.300562
 20
55.888641
 30
0.0
 11
268.175671
 21
55.469045
 31
0.0
  0
LINE
  5
221
330
1F5
100
AcDbEntity
  8
GR1-1
  6
CONTINUOUS
 62
     7
100
AcDbLine
 10
267.550732
 20
55.235937
 30
0.0
 11
267.091067
 21
55.064477
 31
0.0
  0
LINE
  5
222
330
1F5
100
AcDbEntity
  8
GR1-1
  6
CONTINUOUS
 62
     7
100
AcDbLine
 10
266.649168
 20
54.899645
 30
0.0
 11
266.300853
 21
54.769719
 31
0.0
  0
LINE
  5
223
330
1F5
100
AcDbEntity
  8
GR1-1
  6
CONTINUOUS
 62
     7
100
AcDbLine
 10
265.675913
 20
54.536611
 30
0.0
 11
264.551022
 21
54.117015
 31
0.0
  0
LINE
  5
224
330
1F5
100
AcDbEntity
  8
GR1-1
  6
CONTINUOUS
 62
     7
100
AcDbLine
 10
269.472172
 20
55.810275
 30
0.0
 11
268.222293
 21
55.344057
 31
0.0
  0
LINE
  5
225
330
1F5
100
AcDbEntity
  8
GR1-1
  6
CONTINUOUS
 62
     7
100
AcDbLine
 10
267.597353
 20
55.110949
 30
0.0
 11
267.12405
 21
54.934402
 31
0.0
  0
LINE
  5
226
330
1F5
100
AcDbEntity
  8
GR1-1
  6
CONTINUOUS
 62
     7
100
AcDbLine
 10
266.820778
 20
54.821278
 30
0.0
 11
266.347474
 21
54.644731
 31
0.0
  0
LINE
  5
227
330
1F5
100
AcDbEntity
  8
GR1-1
  6
CONTINUOUS
 62
     7
100
AcDbLine
 10
265.722535
 20
54.411623
 30
0.0
 11
264.472656
 21
53.945406
 31
0.0
  0
LINE
  5
228
330
1F5
100
AcDbEntity
  8
GR1-1
  6
CONTINUOUS
 62
     7
100
AcDbLine
 10
269.643781
 20
55.731908
 30
0.0
 11
268.268914
 21
55.219069
 31
0.0
  0
LINE
  5
229
330
1F5
100
AcDbEntity
  8
GR1-1
  6
CONTINUOUS
 62
     7
100
AcDbLine
 10
267.643975
 20
54.985961
 30
0.0
 11
267.045683
 21
54.762792
 31
0.0
  0
LINE
  5
22A
330
1F5
100
AcDbEntity
  8
GR1-1
  6
CONTINUOUS
 62
     7
100
AcDbLine
 10
266.992388
 20
54.742912
 30
0.0
 11
266.394096
 21
54.519743
 31
0.0
  0
LINE
  5
22B
330
1F5
100
AcDbEntity
  8
GR1-1
  6
CONTINUOUS
 62
     7
100
AcDbLine
 10
265.769157
 20
54.286635
 30
0.0
 11
264.39429
 21
53.773796
 31
0.0
  0
LINE
  5
22C
330
1F5
100
AcDbEntity
  8
GR1-1
  6
CONTINUOUS
 62
     7
100
AcDbLine
 10
269.618711
 20
55.580179
 30
0.0
 11
268.315536
 21
55.094081
 31
0.0
  0
LINE
  5
22D
330
1F5
100
AcDbEntity
  8
GR1-1
  6
CONTINUOUS
 62
     7
100
AcDbLine
 10
267.690597
 20
54.860973
 30
0.0
 11
266.440718
 21
54.394756
 31
0.0
  0
LINE
  5
22E
330
1F5
100
AcDbEntity
  8
GR1-1
  6
CONTINUOUS
 62
     7
100
AcDbLine
 10
265.815778
 20
54.161647
 30
0.0
 11
264.512604
 21
53.67555
 31
0.0
  0
LINE
  5
22F
330
1F5
100
AcDbEntity
  8
GR1-1
  6
CONTINUOUS
 62
     7
100
AcDbLine
 10
269.540345
 20
55.408569
 30
0.0
 11
268.362158
 21
54.969094
 31
0.0
  0
LINE
  5
230
330
1F5
100
AcDbEntity
  8
GR1-1
  6
CONTINUOUS
 62
     7
100
AcDbLine
 10
267.737218
 20
54.735985
 30
0.0
 11
266.487339
 21
54.269768
 31
0.0
  0
LINE
  5
231
330
1F5
100
AcDbEntity
  8
GR1-1
  6
CONTINUOUS
 62
     7
100
AcDbLine
 10
265.8624
 20
54.036659
 30
0.0
 11
264.684213
 21
53.597184
 31
0.0
  0
LINE
  5
232
330
1F5
100
AcDbEntity
  8
GR1-1
  6
CONTINUOUS
 62
     7
100
AcDbLine
 10
269.461979
 20
55.236959
 30
0.0
 11
268.40878
 21
54.844106
 31
0.0
  0
LINE
  5
233
330
1F5
100
AcDbEntity
  8
GR1-1
  6
CONTINUOUS
 62
     7
100
AcDbLine
 10
267.78384
 20
54.610997
 30
0.0
 11
266.533961
 21
54.14478
 31
0.0
  0
LINE
  5
234
330
1F5
100
AcDbEntity
  8
GR1-1
  6
CONTINUOUS
 62
     7
100
AcDbLine
 10
265.909022
 20
53.911671
 30
0.0
 11
264.855823
 21
53.518818
 31
0.0
  0
LINE
  5
235
330
1F5
100
AcDbEntity
  8
GR1-1
  6
CONTINUOUS
 62
     7
100
AcDbLine
 10
269.383612
 20
55.06535
 30
0.0
 11
268.455401
 21
54.719118
 31
0.0
  0
LINE
  5
236
330
1F5
100
AcDbEntity
  8
GR1-1
  6
CONTINUOUS
 62
     7
100
AcDbLine
 10
267.830462
 20
54.486009
 30
0.0
 11
266.580583
 21
54.019792
 31
0.0
  0
LINE
  5
237
330
1F5
100
AcDbEntity
  8
GR1-1
  6
CONTINUOUS
 62
     7
100
AcDbLine
 10
265.955643
 20
53.786683
 30
0.0
 11
265.027432
 21
53.440451
 31
0.0
  0
LINE
  5
238
330
1F5
100
AcDbEntity
  8
GR1-1
  6
CONTINUOUS
 62
     7
100
AcDbLine
 10
269.305246
 20
54.89374
 30
0.0
 11
268.502023
 21
54.59413
 31
0.0
  0
LINE
  5
239
330
1F5
100
AcDbEntity
  8
GR1-1
  6
CONTINUOUS
 62
     7
100
AcDbLine
 10
267.877084
 20
54.361021
 30
0.0
 11
266.627205
 21
53.894804
 31
0.0
  0
LINE
  5
23A
330
1F5
100
AcDbEntity
  8
GR1-1
  6
CONTINUOUS
 62
     7
100
AcDbLine
 10
266.002265
 20
53.661695
 30
0.0
 11
265.199042
 21
53.362085
 31
0.0
  0
LINE
  5
23B
330
1F5
100
AcDbEntity
  8
GR1-1
  6
CONTINUOUS
 62
     7
100
AcDbLine
 10
269.22688
 20
54.72213
 30
0.0
 11
268.548645
 21
54.469142
 31
0.0
  0
LINE
  5
23C
330
1F5
100
AcDbEntity
  8
GR1-1
  6
CONTINUOUS
 62
     7
100
AcDbLine
 10
266.048887
 20
53.536707
 30
0.0
 11
265.370652
 21
53.283719
 31
0.0
  0
LINE
  5
23D
330
1F5
100
AcDbEntity
  8
GR1-1
  6
CONTINUOUS
 62
     7
100
AcDbLine
 10
269.148514
 20
54.550521
 30
0.0
 11
268.595267
 21
54.344154
 31
0.0
  0
LINE
  5
23E
330
1F5
100
AcDbEntity
  8
GR1-1
  6
CONTINUOUS
 62
     7
100
AcDbLine
 10
266.095509
 20
53.41172
 30
0.0
 11
265.542261
 21
53.205353
 31
0.0
  0
LINE
  5
23F
330
1F5
100
AcDbEntity
  8
GR1-1
  6
CONTINUOUS
 62
     7
100
AcDbLine
 10
269.070148
 20
54.378911
 30
0.0
 11
268.641888
 21
54.219166
 31
0.0
  0
LINE
  5
240
330
1F5
100
AcDbEntity
  8
GR1-1
  6
CONTINUOUS
 62
     7
100
AcDbLine
 10
266.14213
 20
53.286732
 30
0.0
 11
265.713871
 21
53.126987
 31
0.0
  0
LINE
  5
241
330
1F5
100
AcDbEntity
  8
GR1-1
  6
CONTINUOUS
 62
     7
100
AcDbLine
 10
268.991782
 20
54.207302
 30
0.0
 11
268.68851
 21
54.094178
 31
0.0
  0
LINE
  5
242
330
1F5
100
AcDbEntity
  8
GR1-1
  6
CONTINUOUS
 62
     7
100
AcDbLine
 10
266.188752
 20
53.161744
 30
0.0
 11
265.885481
 21
53.048621
 31
0.0
  0
LINE
  5
243
330
1F5
100
AcDbEntity
  8
GR1-1
  6
CONTINUOUS
 62
     7
100
AcDbLine
 10
268.913415
 20
54.035692
 30
0.0
 11
268.735132
 21
53.96919
 31
0.0
  0
LINE
  5
244
330
1F5
100
AcDbEntity
  8
GR1-1
  6
CONTINUOUS
 62
     7
100
AcDbLine
 10
266.235374
 20
53.036756
 30
0.0
 11
266.05709
 21
52.970254
 31
0.0
  0
LINE
  5
245
330
1F5
100
AcDbEntity
  8
GR1-1
  6
CONTINUOUS
 62
     7
100
AcDbLine
 10
268.835049
 20
53.864082
 30
0.0
 11
266.2287
 21
52.891888
 31
0.0
  0
LINE
  5
246
330
1F5
100
AcDbEntity
  8
GR1-1
  6
CONTINUOUS
 62
     7
100
AcDbLine
 10
268.756683
 20
53.692473
 30
0.0
 11
266.400309
 21
52.813522
 31
0.0
  0
LINE
  5
247
330
1F5
100
AcDbEntity
  8
GR1-1
  6
CONTINUOUS
 62
     7
100
AcDbLine
 10
268.678317
 20
53.520863
 30
0.0
 11
266.571919
 21
52.735156
 31
0.0
  0
LINE
  5
248
330
1F5
100
AcDbEntity
  8
GR1-1
  6
CONTINUOUS
 62
     7
100
AcDbLine
 10
268.599951
 20
53.349253
 30
0.0
 11
266.743529
 21
52.65679
 31
0.0
  0
LINE
  5
249
330
1F5
100
AcDbEntity
  8
GR1-1
  6
CONTINUOUS
 62
     7
100
AcDbLine
 10
268.521584
 20
53.177644
 30
0.0
 11
266.915138
 21
52.578423
 31
0.0
  0
LINE
  5
24A
330
1F5
100
AcDbEntity
  8
GR1-1
  6
CONTINUOUS
 62
     7
100
AcDbLine
 10
268.443218
 20
53.006034
 30
0.0
 11
267.086748
 21
52.500057
 31
0.0
  0
LINE
  5
24B
330
1F5
100
AcDbEntity
  8
GR1-1
  6
CONTINUOUS
 62
     7
100
AcDbLine
 10
268.364852
 20
52.834425
 30
0.0
 11
267.258358
 21
52.421691
 31
0.0
  0
LINE
  5
24C
330
1F5
100
AcDbEntity
  8
GR1-1
  6
CONTINUOUS
 62
     7
100
AcDbLine
 10
268.286486
 20
52.662815
 30
0.0
 11
267.429967
 21
52.343325
 31
0.0
  0
LINE
  5
24D
330
1F5
100
AcDbEntity
  8
GR1-1
  6
CONTINUOUS
 62
     7
100
AcDbLine
 10
268.20812
 20
52.491205
 30
0.0
 11
267.601577
 21
52.264959
 31
0.0
  0
LINE
  5
24E
330
1F5
100
AcDbEntity
  8
GR1-1
  6
CONTINUOUS
 62
     7
100
AcDbLine
 10
268.129754
 20
52.319596
 30
0.0
 11
267.773186
 21
52.186593
 31
0.0
  0
LINE
  5
24F
330
1F5
100
AcDbEntity
  8
GR1-1
  6
CONTINUOUS
 62
     7
100
AcDbLine
 10
268.051387
 20
52.147986
 30
0.0
 11
267.944796
 21
52.108226
 31
0.0
  0
ENDBLK
  5
1F7
330
1F5
100
AcDbEntity
  8
0
100
AcDbBlockEnd
  0
BLOCK
  5
27A
330
279
100
AcDbEntity
  8
0
100
AcDbBlockBegin
  2
*D23
 70
     1
 71
     0
 10
0.0
 20
0.0
 30
0.0
  3
*D23
  1

  0
TEXT
  5
27C
330
279
100
AcDbEntity
  8
LAYERGROUP-1
  6
CONTINUOUS
 62
     7
100
AcDbText
 10
126.691528
 20
37.335678
 30
0.0
 40
4.0
  1
32
 41
0.851351
  7
FX_VECTOR
 72
     5
 11
132.691528
 21
37.335678
 31
0.0
100
AcDbText
  0
LINE
  5
27D
330
279
100
AcDbEntity
  8
LAYERGROUP-1
  6
CONTINUOUS
 62
     7
100
AcDbLine
 10
113.691529
 20
36.335679
 30
0.0
 11
145.691529
 21
36.335679
 31
0.0
  0
INSERT
  5
27E
330
279
100
AcDbEntity
  8
LAYERGROUP-1
  6
CONTINUOUS
 62
     7
100
AcDbBlockReference
  2
FXTIP_ARROW_S
 10
113.691529
 20
36.335679
 30
0.0
 41
4.0
 42
4.0
 50
180.0
  0
INSERT
  5
27F
330
279
100
AcDbEntity
  8
LAYERGROUP-1
  6
CONTINUOUS
 62
     7
100
AcDbBlockReference
  2
FXTIP_ARROW_E
 10
145.691529
 20
36.335679
 30
0.0
 41
4.0
 42
4.0
 50
360.0
  0
LINE
  5
280
330
279
100
AcDbEntity
  8
LAYERGROUP-1
  6
CONTINUOUS
 62
     7
100
AcDbLine
 10
113.691529
 20
56.335679
 30
0.0
 11
113.691529
 21
35.335679
 31
0.0
  0
LINE
  5
281
330
279
100
AcDbEntity
  8
LAYERGROUP-1
  6
CONTINUOUS
 62
     7
100
AcDbLine
 10
145.691529
 20
56.335679
 30
0.0
 11
145.691529
 21
35.335679
 31
0.0
  0
ENDBLK
  5
27B
330
279
100
AcDbEntity
  8
0
100
AcDbBlockEnd
  0
ENDSEC
  0
SECTION
  2
ENTITIES
  0
TEXT
  5
A8
330
1F
100
AcDbEntity
  8
}}ﾊﾊGG血CCТ
  6
CONTINUOUS
 62
     7
100
AcDbText
 10
155.0
 20
12.0
 30
0.0
 40
6.0
  1
ＷＫＰ－　７５　ＲＢ
 41
0.79096
  7
FX_VECTOR
 72
     5
 11
195.0
 21
12.0
 31
0.0
100
AcDbText
  0
TEXT
  5
A9
330
1F
100
AcDbEntity
  8
}}ﾊﾊGG血CCТ
  6
CONTINUOUS
 62
     7
100
AcDbText
 10
255.0
 20
12.0
 30
0.0
 40
6.0
  1
W25E0ALA-C02
 41
0.7
  7
FX_VECTOR
 72
     5
 11
303.0
 21
12.0
 31
0.0
100
AcDbText
  0
LINE
  5
AB
330
1F
100
AcDbEntity
  8
FIG_1-1
  6
CENTER
 62
     6
100
AcDbLine
 10
280.321925
 20
265.945978
 30
0.0
 11
280.321925
 21
198.259943
 31
0.0
  0
LINE
  5
AD
330
1F
100
AcDbEntity
  8
FIG_2-1
  6
CONTINUOUS
 62
     3
100
AcDbLine
 10
297.919063
 20
257.110527
 30
0.0
 11
300.592408
 21
266.222494
 31
0.0
  0
LINE
  5
AE
330
1F
100
AcDbEntity
  8
FIG_2-1
  6
CONTINUOUS
 62
     3
100
AcDbLine
 10
271.36078
 20
210.044228
 30
0.0
 11
289.28307
 21
210.044228
 31
0.0
  0
LINE
  5
AF
330
1F
100
AcDbEntity
  8
FIG_2-1
  6
CONTINUOUS
 62
     3
100
AcDbLine
 10
262.724788
 20
203.577928
 30
0.0
 11
260.051442
 21
194.465961
 31
0.0
  0
LINE
  5
B0
330
1F
100
AcDbEntity
  8
FIG_2-1
  6
CONTINUOUS
 62
     3
100
AcDbLine
 10
248.536785
 20
185.844228
 30
0.0
 11
239.321925
 21
185.844228
 31
0.0
  0
ARC
  5
B1
330
1F
100
AcDbEntity
  8
FIG_2-1
  6
CONTINUOUS
 62
     3
100
AcDbCircle
 10
248.536785
 20
197.844228
 30
0.0
 40
12.0
100
AcDbArc
 50
270.0
 51
343.648923
  0
ARC
  5
B2
330
1F
100
AcDbEntity
  8
FIG_2-1
  6
CONTINUOUS
 62
     3
100
AcDbCircle
 10
271.36078
 20
201.044228
 30
0.0
 40
9.0
100
AcDbArc
 50
90.0
 51
163.648922
  0
CIRCLE
  5
B3
330
1F
100
AcDbEntity
  8
FIG_2-1
  6
CONTINUOUS
 62
     3
100
AcDbCircle
 10
248.821925
 20
261.844228
 30
0.0
 40
4.75
  0
CIRCLE
  5
B4
330
1F
100
AcDbEntity
  8
FIG_2-1
  6
CONTINUOUS
 62
     3
100
AcDbCircle
 10
311.821925
 20
261.844228
 30
0.0
 40
4.75
  0
ARC
  5
B5
330
1F
100
AcDbEntity
  8
FIG_2-1
  6
CONTINUOUS
 62
     3
100
AcDbCircle
 10
312.107065
 20
197.844228
 30
0.0
 40
12.0
100
AcDbArc
 50
196.351077
 51
270.0
  0
LINE
  5
B6
330
1F
100
AcDbEntity
  8
FIG_2-1
  6
CONTINUOUS
 62
     3
100
AcDbLine
 10
321.321925
 20
274.844228
 30
0.0
 11
321.321925
 21
185.844228
 31
0.0
  0
ARC
  5
B7
330
1F
100
AcDbEntity
  8
FIG_2-1
  6
CONTINUOUS
 62
     3
100
AcDbCircle
 10
289.28307
 20
201.044228
 30
0.0
 40
9.0
100
AcDbArc
 50
16.351078
 51
90.0
  0
LINE
  5
B8
330
1F
100
AcDbEntity
  8
FIG_2-1
  6
CONTINUOUS
 62
     3
100
AcDbLine
 10
312.107065
 20
185.844228
 30
0.0
 11
321.321925
 21
185.844228
 31
0.0
  0
LINE
  5
B9
330
1F
100
AcDbEntity
  8
FIG_2-1
  6
CONTINUOUS
 62
     3
100
AcDbLine
 10
297.919063
 20
203.577928
 30
0.0
 11
300.592408
 21
194.465961
 31
0.0
  0
LINE
  5
BA
330
1F
100
AcDbEntity
  8
FIG_1-1
  6
CENTER
 62
     6
100
AcDbLine
 10
232.870393
 20
230.344228
 30
0.0
 11
328.596855
 21
230.344228
 31
0.0
  0
CIRCLE
  5
BB
330
1F
100
AcDbEntity
  8
FIG_2-1
  6
CONTINUOUS
 62
     3
100
AcDbCircle
 10
311.821925
 20
198.844228
 30
0.0
 40
4.75
  0
CIRCLE
  5
BC
330
1F
100
AcDbEntity
  8
FIG_2-1
  6
CONTINUOUS
 62
     3
100
AcDbCircle
 10
248.821925
 20
198.844228
 30
0.0
 40
4.75
  0
LINE
  5
BD
330
1F
100
AcDbEntity
  8
FIG_2-1
  6
CONTINUOUS
 62
     3
100
AcDbLine
 10
239.321925
 20
274.844228
 30
0.0
 11
239.321925
 21
185.844228
 31
0.0
  0
LINE
  5
BE
330
1F
100
AcDbEntity
  8
FIG_2-1
  6
CONTINUOUS
 62
     3
100
AcDbLine
 10
262.724788
 20
257.110527
 30
0.0
 11
260.051442
 21
266.222494
 31
0.0
  0
LINE
  5
BF
330
1F
100
AcDbEntity
  8
FIG_2-1
  6
CONTINUOUS
 62
     3
100
AcDbLine
 10
271.36078
 20
250.644228
 30
0.0
 11
289.28307
 21
250.644228
 31
0.0
  0
LINE
  5
C0
330
1F
100
AcDbEntity
  8
FIG_2-1
  6
CONTINUOUS
 62
     3
100
AcDbLine
 10
312.107065
 20
274.844228
 30
0.0
 11
321.321925
 21
274.844228
 31
0.0
  0
ARC
  5
C1
330
1F
100
AcDbEntity
  8
FIG_2-1
  6
CONTINUOUS
 62
     3
100
AcDbCircle
 10
312.107065
 20
262.844228
 30
0.0
 40
12.0
100
AcDbArc
 50
90.0
 51
163.648923
  0
ARC
  5
C2
330
1F
100
AcDbEntity
  8
FIG_2-1
  6
CONTINUOUS
 62
     3
100
AcDbCircle
 10
271.36078
 20
259.644228
 30
0.0
 40
9.0
100
AcDbArc
 50
196.351078
 51
270.0
  0
LINE
  5
C3
330
1F
100
AcDbEntity
  8
FIG_2-1
  6
CONTINUOUS
 62
     3
100
AcDbLine
 10
248.536785
 20
274.844228
 30
0.0
 11
239.321925
 21
274.844228
 31
0.0
  0
ARC
  5
C4
330
1F
100
AcDbEntity
  8
FIG_2-1
  6
CONTINUOUS
 62
     3
100
AcDbCircle
 10
248.536785
 20
262.844228
 30
0.0
 40
12.0
100
AcDbArc
 50
16.351077
 51
90.0
  0
ARC
  5
C5
330
1F
100
AcDbEntity
  8
FIG_2-1
  6
CONTINUOUS
 62
     3
100
AcDbCircle
 10
289.28307
 20
259.644228
 30
0.0
 40
9.0
100
AcDbArc
 50
270.0
 51
343.648922
  0
LINE
  5
C6
330
1F
100
AcDbEntity
  8
FIG_2-1
  6
DASHED
 62
     6
100
AcDbLine
 10
296.155313
 20
221.344228
 30
0.0
 11
264.488537
 21
221.344228
 31
0.0
  0
ARC
  5
C7
330
1F
100
AcDbEntity
  8
FIG_2-1
  6
DASHED
 62
     6
100
AcDbCircle
 10
296.155313
 20
217.344228
 30
0.0
 40
4.0
100
AcDbArc
 50
35.0
 51
90.0
  0
LINE
  5
C8
330
1F
100
AcDbEntity
  8
FIG_2-1
  6
DASHED
 62
     6
100
AcDbLine
 10
311.321925
 20
215.344228
 30
0.0
 11
311.321925
 21
245.344228
 31
0.0
  0
LINE
  5
C9
330
1F
100
AcDbEntity
  8
FIG_2-1
  6
DASHED
 62
     6
100
AcDbLine
 10
299.431921
 20
219.638533
 30
0.0
 11
304.045317
 21
213.049922
 31
0.0
  0
ARC
  5
CA
330
1F
100
AcDbEntity
  8
FIG_2-1
  6
DASHED
 62
     6
100
AcDbCircle
 10
307.321925
 20
215.344228
 30
0.0
 40
4.0
100
AcDbArc
 50
215.000002
 51
360.0
  0
ARC
  5
CB
330
1F
100
AcDbEntity
  8
FIG_2-1
  6
DASHED
 62
     6
100
AcDbCircle
 10
307.321925
 20
245.344228
 30
0.0
 40
4.0
100
AcDbArc
 50
0.0
 51
144.999998
  0
LINE
  5
CC
330
1F
100
AcDbEntity
  8
FIG_2-1
  6
DASHED
 62
     6
100
AcDbLine
 10
299.431921
 20
241.049922
 30
0.0
 11
304.045317
 21
247.638533
 31
0.0
  0
ARC
  5
CD
330
1F
100
AcDbEntity
  8
FIG_2-1
  6
DASHED
 62
     6
100
AcDbCircle
 10
296.155313
 20
243.344228
 30
0.0
 40
4.0
100
AcDbArc
 50
270.0
 51
325.0
  0
LINE
  5
CE
330
1F
100
AcDbEntity
  8
FIG_2-1
  6
DASHED
 62
     6
100
AcDbLine
 10
296.155313
 20
239.344228
 30
0.0
 11
264.488537
 21
239.344228
 31
0.0
  0
ARC
  5
CF
330
1F
100
AcDbEntity
  8
FIG_2-1
  6
DASHED
 62
     6
100
AcDbCircle
 10
264.488537
 20
243.344228
 30
0.0
 40
4.0
100
AcDbArc
 50
215.0
 51
270.0
  0
LINE
  5
D0
330
1F
100
AcDbEntity
  8
FIG_2-1
  6
DASHED
 62
     6
100
AcDbLine
 10
249.321925
 20
245.344228
 30
0.0
 11
249.321925
 21
215.344228
 31
0.0
  0
LINE
  5
D1
330
1F
100
AcDbEntity
  8
FIG_2-1
  6
DASHED
 62
     6
100
AcDbLine
 10
261.211929
 20
241.049922
 30
0.0
 11
256.598533
 21
247.638533
 31
0.0
  0
ARC
  5
D2
330
1F
100
AcDbEntity
  8
FIG_2-1
  6
DASHED
 62
     6
100
AcDbCircle
 10
253.321925
 20
245.344228
 30
0.0
 40
4.0
100
AcDbArc
 50
35.000002
 51
180.0
  0
ARC
  5
D3
330
1F
100
AcDbEntity
  8
FIG_2-1
  6
DASHED
 62
     6
100
AcDbCircle
 10
253.321925
 20
215.344228
 30
0.0
 40
4.0
100
AcDbArc
 50
180.0
 51
324.999998
  0
LINE
  5
D4
330
1F
100
AcDbEntity
  8
FIG_2-1
  6
DASHED
 62
     6
100
AcDbLine
 10
261.211929
 20
219.638533
 30
0.0
 11
256.598533
 21
213.049922
 31
0.0
  0
ARC
  5
D5
330
1F
100
AcDbEntity
  8
FIG_2-1
  6
DASHED
 62
     6
100
AcDbCircle
 10
264.488537
 20
217.344228
 30
0.0
 40
4.0
100
AcDbArc
 50
90.0
 51
145.0
  0
LINE
  5
D7
330
1F
100
AcDbEntity
  8
FIG_6-1
  6
CONTINUOUS
 62
     6
100
AcDbLine
 10
309.321925
 20
215.344228
 30
0.0
 11
309.321925
 21
245.344228
 31
0.0
  0
ARC
  5
D8
330
1F
100
AcDbEntity
  8
FIG_6-1
  6
CONTINUOUS
 62
     6
100
AcDbCircle
 10
307.321925
 20
215.344228
 30
0.0
 40
2.0
100
AcDbArc
 50
215.000002
 51
360.0
  0
LINE
  5
D9
330
1F
100
AcDbEntity
  8
FIG_6-1
  6
CONTINUOUS
 62
     6
100
AcDbLine
 10
301.070226
 20
220.785686
 30
0.0
 11
305.683621
 21
214.197075
 31
0.0
  0
ARC
  5
DA
330
1F
100
AcDbEntity
  8
FIG_6-1
  6
CONTINUOUS
 62
     6
100
AcDbCircle
 10
296.155313
 20
217.344228
 30
0.0
 40
6.0
100
AcDbArc
 50
35.0
 51
90.0
  0
LINE
  5
DB
330
1F
100
AcDbEntity
  8
FIG_6-1
  6
CONTINUOUS
 62
     6
100
AcDbLine
 10
296.155313
 20
223.344228
 30
0.0
 11
264.488537
 21
223.344228
 31
0.0
  0
LINE
  5
DC
330
1F
100
AcDbEntity
  8
FIG_6-1
  6
CONTINUOUS
 62
     6
100
AcDbLine
 10
296.155313
 20
237.344228
 30
0.0
 11
264.488537
 21
237.344228
 31
0.0
  0
ARC
  5
DD
330
1F
100
AcDbEntity
  8
FIG_6-1
  6
CONTINUOUS
 62
     6
100
AcDbCircle
 10
296.155313
 20
243.344228
 30
0.0
 40
6.0
100
AcDbArc
 50
270.0
 51
325.0
  0
LINE
  5
DE
330
1F
100
AcDbEntity
  8
FIG_6-1
  6
CONTINUOUS
 62
     6
100
AcDbLine
 10
301.070226
 20
239.902769
 30
0.0
 11
305.683621
 21
246.49138
 31
0.0
  0
ARC
  5
DF
330
1F
100
AcDbEntity
  8
FIG_6-1
  6
CONTINUOUS
 62
     6
100
AcDbCircle
 10
307.321925
 20
245.344228
 30
0.0
 40
2.0
100
AcDbArc
 50
0.0
 51
144.999998
  0
LINE
  5
E0
330
1F
100
AcDbEntity
  8
FIG_6-1
  6
CONTINUOUS
 62
     6
100
AcDbLine
 10
251.321925
 20
245.344228
 30
0.0
 11
251.321925
 21
215.344228
 31
0.0
  0
ARC
  5
E1
330
1F
100
AcDbEntity
  8
FIG_6-1
  6
CONTINUOUS
 62
     6
100
AcDbCircle
 10
253.321925
 20
245.344228
 30
0.0
 40
2.0
100
AcDbArc
 50
35.000002
 51
180.0
  0
LINE
  5
E2
330
1F
100
AcDbEntity
  8
FIG_6-1
  6
CONTINUOUS
 62
     6
100
AcDbLine
 10
259.573625
 20
239.902769
 30
0.0
 11
254.960229
 21
246.49138
 31
0.0
  0
ARC
  5
E3
330
1F
100
AcDbEntity
  8
FIG_6-1
  6
CONTINUOUS
 62
     6
100
AcDbCircle
 10
264.488537
 20
243.344228
 30
0.0
 40
6.0
100
AcDbArc
 50
215.0
 51
270.0
  0
ARC
  5
E4
330
1F
100
AcDbEntity
  8
FIG_6-1
  6
CONTINUOUS
 62
     6
100
AcDbCircle
 10
264.488537
 20
217.344228
 30
0.0
 40
6.0
100
AcDbArc
 50
90.0
 51
145.0
  0
LINE
  5
E5
330
1F
100
AcDbEntity
  8
FIG_6-1
  6
CONTINUOUS
 62
     6
100
AcDbLine
 10
259.573625
 20
220.785686
 30
0.0
 11
254.960229
 21
214.197075
 31
0.0
  0
ARC
  5
E6
330
1F
100
AcDbEntity
  8
FIG_6-1
  6
CONTINUOUS
 62
     6
100
AcDbCircle
 10
253.321925
 20
215.344228
 30
0.0
 40
2.0
100
AcDbArc
 50
180.0
 51
324.999998
  0
LINE
  5
E7
330
1F
100
AcDbEntity
  8
FIG_1-1
  6
CENTER
 62
     6
100
AcDbLine
 10
280.321925
 20
41.421168
 30
0.0
 11
280.321925
 21
151.82735
 31
0.0
  0
LINE
  5
E8
330
1F
100
AcDbEntity
  8
FIG_2-1
  6
CONTINUOUS
 62
     6
100
AcDbLine
 10
271.705715
 20
74.101157
 30
0.0
 11
271.705715
 21
146.335679
 31
0.0
  0
LINE
  5
E9
330
1F
100
AcDbEntity
  8
FIG_2-1
  6
CONTINUOUS
 62
     6
100
AcDbLine
 10
295.235796
 20
91.592809
 30
0.0
 11
295.235796
 21
146.335679
 31
0.0
  0
LINE
  5
EA
330
1F
100
AcDbEntity
  8
FIG_2-1
  6
CONTINUOUS
 62
     6
100
AcDbLine
 10
288.938135
 20
74.101157
 30
0.0
 11
288.938135
 21
146.335679
 31
0.0
  0
ARC
  5
EB
330
1F
100
AcDbEntity
  8
FIG_2-1
  6
CONTINUOUS
 62
     3
100
AcDbCircle
 10
126.305631
 20
34.502017
 30
0.0
 40
148.724547
100
AcDbArc
 50
17.761019
 51
30.783907
  0
ARC
  5
EC
330
1F
100
AcDbEntity
  8
FIG_2-1
  6
CONTINUOUS
 62
     3
100
AcDbCircle
 10
434.338219
 20
34.502017
 30
0.0
 40
148.724547
100
AcDbArc
 50
149.216104
 51
162.238981
  0
LINE
  5
ED
330
1F
100
AcDbEntity
  8
FIG_2-1
  6
CONTINUOUS
 62
     6
100
AcDbLine
 10
265.408054
 20
91.592809
 30
0.0
 11
265.408054
 21
146.335679
 31
0.0
  0
ARC
  5
EE
330
1F
100
AcDbEntity
  8
FIG_2-1
  6
CONTINUOUS
 62
     3
100
AcDbCircle
 10
280.321925
 20
83.835679
 30
0.0
 40
13.0
100
AcDbArc
 50
197.761019
 51
342.238981
  0
LINE
  5
EF
330
1F
100
AcDbEntity
  8
FIG_2-1
  6
CONTINUOUS
 62
     3
100
AcDbLine
 10
239.321925
 20
146.335679
 30
0.0
 11
321.321925
 21
146.335679
 31
0.0
  0
LINE
  5
F0
330
1F
100
AcDbEntity
  8
LAYERGROUP-1
  6
CENTER
 62
     6
100
AcDbLine
 10
241.821925
 20
198.844228
 30
0.0
 11
255.821925
 21
198.844228
 31
0.0
  0
LINE
  5
F1
330
1F
100
AcDbEntity
  8
LAYERGROUP-1
  6
CENTER
 62
     6
100
AcDbLine
 10
248.821925
 20
205.844228
 30
0.0
 11
248.821925
 21
191.844228
 31
0.0
  0
LINE
  5
F2
330
1F
100
AcDbEntity
  8
LAYERGROUP-1
  6
CONTINUOUS
 62
     3
100
AcDbLine
 10
321.321925
 20
144.035679
 30
0.0
 11
321.321925
 21
146.335679
 31
0.0
  0
ARC
  5
F3
330
1F
100
AcDbEntity
  8
LAYERGROUP-1
  6
CONTINUOUS
 62
     3
100
AcDbCircle
 10
321.443725
 20
143.035679
 30
0.0
 40
1.0
100
AcDbArc
 50
96.996021
 51
163.877083
  0
LINE
  5
F4
330
1F
100
AcDbEntity
  8
LAYERGROUP-1
  6
CONTINUOUS
 62
     3
100
AcDbLine
 10
239.321925
 20
144.035679
 30
0.0
 11
239.321925
 21
146.335679
 31
0.0
  0
ARC
  5
F5
330
1F
100
AcDbEntity
  8
LAYERGROUP-1
  6
CONTINUOUS
 62
     3
100
AcDbCircle
 10
381.575014
 20
184.191776
 30
0.0
 40
147.2040261530387
100
AcDbArc
 50
194.90206
 51
209.986658
  0
ARC
  5
F6
330
1F
100
AcDbEntity
  8
LAYERGROUP-1
  6
CONTINUOUS
 62
     3
100
AcDbCircle
 10
239.200125
 20
143.035679
 30
0.0
 40
1.0
100
AcDbArc
 50
16.122917
 51
83.003979
  0
LINE
  5
F7
330
1F
100
AcDbEntity
  8
LAYERGROUP-1
  6
CENTER
 62
     6
100
AcDbLine
 10
238.960978
 20
83.835679
 30
0.0
 11
320.266082
 21
83.835679
 31
0.0
  0
LINE
  5
F8
330
1F
100
AcDbEntity
  8
LAYERGROUP-1
  6
CENTER
 62
     6
100
AcDbLine
 10
318.821925
 20
198.844228
 30
0.0
 11
304.821925
 21
198.844228
 31
0.0
  0
LINE
  5
F9
330
1F
100
AcDbEntity
  8
LAYERGROUP-1
  6
CENTER
 62
     6
100
AcDbLine
 10
311.821925
 20
205.844228
 30
0.0
 11
311.821925
 21
191.844228
 31
0.0
  0
LINE
  5
FA
330
1F
100
AcDbEntity
  8
LAYERGROUP-1
  6
CENTER
 62
     6
100
AcDbLine
 10
241.821925
 20
261.844228
 30
0.0
 11
255.821925
 21
261.844228
 31
0.0
  0
LINE
  5
FB
330
1F
100
AcDbEntity
  8
LAYERGROUP-1
  6
CENTER
 62
     6
100
AcDbLine
 10
248.821925
 20
254.844228
 30
0.0
 11
248.821925
 21
268.844228
 31
0.0
  0
LINE
  5
FC
330
1F
100
AcDbEntity
  8
LAYERGROUP-1
  6
CENTER
 62
     6
100
AcDbLine
 10
318.821925
 20
261.844228
 30
0.0
 11
304.821925
 21
261.844228
 31
0.0
  0
LINE
  5
FD
330
1F
100
AcDbEntity
  8
LAYERGROUP-1
  6
CENTER
 62
     6
100
AcDbLine
 10
311.821925
 20
254.844228
 30
0.0
 11
311.821925
 21
268.844228
 31
0.0
  0
TEXT
  5
FF
330
1F
100
AcDbEntity
  8
GR1-1
  6
CONTINUOUS
 62
     7
100
AcDbText
 10
276.176483
 20
124.241043
 30
0.0
 40
8.288342
  1
KP-75
 50
270.0
 41
0.602128
  7
FX_VECTOR
 72
     5
 11
276.176483
 21
99.28783
 31
0.0
100
AcDbText
  0
ARC
  5
100
330
1F
100
AcDbEntity
  8
LAYERGROUP-1
  6
CONTINUOUS
 62
     3
100
AcDbCircle
 10
345.363311
 20
74.624248
 30
0.0
 40
52.92163885554664
100
AcDbArc
 50
141.381942
 51
172.485892
  0
ARC
  5
101
330
1F
100
AcDbEntity
  8
LAYERGROUP-1
  6
CONTINUOUS
 62
     3
100
AcDbCircle
 10
280.955538
 20
83.119827
 30
0.0
 40
12.04401417311098
100
AcDbArc
 50
311.51265
 51
352.485892
  0
ARC
  5
102
330
1F
100
AcDbEntity
  8
LAYERGROUP-1
  6
CONTINUOUS
 62
     3
100
AcDbCircle
 10
182.139765
 20
182.923249
 30
0.0
 40
143.9108199479491
100
AcDbArc
 50
329.839707
 51
345.271574
  0
ARC
  5
103
330
1F
100
AcDbEntity
  8
LAYERGROUP-1
  6
CONTINUOUS
 62
     3
100
AcDbCircle
 10
260.272332
 20
142.595403
 30
0.0
 40
55.98452539261999
100
AcDbArc
 50
321.381942
 51
332.699641
  0
ARC
  5
104
330
1F
100
AcDbEntity
  8
LAYERGROUP-1
  6
CONTINUOUS
 62
     3
100
AcDbCircle
 10
215.280539
 20
74.624248
 30
0.0
 40
52.92163885554664
100
AcDbArc
 50
7.514108
 51
38.618058
  0
ARC
  5
105
330
1F
100
AcDbEntity
  8
LAYERGROUP-1
  6
CONTINUOUS
 62
     3
100
AcDbCircle
 10
279.688312
 20
83.119827
 30
0.0
 40
12.04401417311098
100
AcDbArc
 50
187.514108
 51
228.48735
  0
ARC
  5
106
330
1F
100
AcDbEntity
  8
LAYERGROUP-1
  6
CONTINUOUS
 62
     3
100
AcDbCircle
 10
300.371518
 20
142.595403
 30
0.0
 40
55.98452539261999
100
AcDbArc
 50
207.300359
 51
218.618058
  0
LINE
  5
107
330
1F
100
AcDbEntity
  8
FIG_1-1
  6
CENTER
 62
     6
100
AcDbLine
 10
129.691529
 20
41.707517
 30
0.0
 11
129.691529
 21
154.205335
 31
0.0
  0
LINE
  5
108
330
1F
100
AcDbEntity
  8
FIG_2-1
  6
CONTINUOUS
 62
     3
100
AcDbLine
 10
87.491529
 20
146.335679
 30
0.0
 11
171.891529
 21
146.335679
 31
0.0
  0
LINE
  5
10A
330
1F
100
AcDbEntity
  8
FIG_3-1
  6
CONTINUOUS
 62
     3
100
AcDbLine
 10
122.32471
 20
142.035679
 30
0.0
 11
137.058349
 21
142.035679
 31
0.0
  0
ARC
  5
10B
330
1F
100
AcDbEntity
  8
LAYERGROUP-1
  6
CONTINUOUS
 62
     3
100
AcDbCircle
 10
140.691529
 20
143.035679
 30
0.0
 40
1.0
100
AcDbArc
 50
90.0
 51
147.663974
  0
ARC
  5
10C
330
1F
100
AcDbEntity
  8
LAYERGROUP-1
  6
CONTINUOUS
 62
     3
100
AcDbCircle
 10
137.058349
 20
145.335679
 30
0.0
 40
3.3
100
AcDbArc
 50
270.0
 51
327.663974
  0
LINE
  5
10D
330
1F
100
AcDbEntity
  8
FIG_1-1
  6
CONTINUOUS
 62
     3
100
AcDbLine
 10
147.691529
 20
70.835679
 30
0.0
 11
147.691529
 21
144.035679
 31
0.0
  0
LINE
  5
10E
330
1F
100
AcDbEntity
  8
LAYERGROUP-1
  6
CONTINUOUS
 62
     3
100
AcDbLine
 10
147.691529
 20
70.835679
 30
0.0
 11
149.991529
 21
70.835679
 31
0.0
  0
ARC
  5
10F
330
1F
100
AcDbEntity
  8
LAYERGROUP-1
  6
CONTINUOUS
 62
     3
100
AcDbCircle
 10
74.016319
 20
144.035679
 30
0.0
 40
100.1752107473787
100
AcDbArc
 50
328.677603
 51
360.0
  0
LINE
  5
110
330
1F
100
AcDbEntity
  8
FIG_2-1
  6
CONTINUOUS
 62
     3
100
AcDbLine
 10
87.491529
 20
144.035679
 30
0.0
 11
171.891529
 21
144.035679
 31
0.0
  0
ARC
  5
111
330
1F
100
AcDbEntity
  8
LAYERGROUP-1
  6
CONTINUOUS
 62
     3
100
AcDbCircle
 10
118.691529
 20
143.035679
 30
0.0
 40
1.0
100
AcDbArc
 50
32.336026
 51
90.0
  0
ARC
  5
112
330
1F
100
AcDbEntity
  8
LAYERGROUP-1
  6
CONTINUOUS
 62
     3
100
AcDbCircle
 10
122.32471
 20
145.335679
 30
0.0
 40
3.3
100
AcDbArc
 50
212.336026
 51
270.0
  0
ARC
  5
113
330
1F
100
AcDbEntity
  8
LAYERGROUP-1
  6
CONTINUOUS
 62
     3
100
AcDbCircle
 10
166.346696
 20
74.101156
 30
0.0
 40
16.35516701922614
100
AcDbArc
 50
136.034892
 51
180.0
  0
ARC
  5
114
330
1F
100
AcDbEntity
  8
LAYERGROUP-1
  6
CONTINUOUS
 62
     3
100
AcDbCircle
 10
127.727087
 20
111.350256
 30
0.0
 40
37.30086396765083
100
AcDbArc
 50
316.034892
 51
328.677603
  0
ARC
  5
115
330
1F
100
AcDbEntity
  8
LAYERGROUP-1
  6
CONTINUOUS
 62
     3
100
AcDbCircle
 10
141.446573
 20
103.00133
 30
0.0
 40
21.2406998338746
100
AcDbArc
 50
305.152141
 51
328.677603
  0
ARC
  5
116
330
1F
100
AcDbEntity
  8
LAYERGROUP-1
  6
CONTINUOUS
 62
     3
100
AcDbCircle
 10
161.797272
 20
74.101156
 30
0.0
 40
14.10574215515253
100
AcDbArc
 50
125.152141
 51
180.0
  0
ARC
  5
117
330
1F
100
AcDbEntity
  8
LAYERGROUP-1
  6
CONTINUOUS
 62
     3
100
AcDbCircle
 10
41.767749
 20
144.035679
 30
0.0
 40
130.123780444687
100
AcDbArc
 50
341.036215
 51
360.0
  0
ARC
  5
118
330
1F
100
AcDbEntity
  8
LAYERGROUP-1
  6
CONTINUOUS
 62
     3
100
AcDbCircle
 10
171.891529
 20
144.035679
 30
0.0
 40
2.3
100
AcDbArc
 50
0.0
 51
90.0
  0
LINE
  5
119
330
1F
100
AcDbEntity
  8
FIG_1-1
  6
CONTINUOUS
 62
     3
100
AcDbLine
 10
111.691529
 20
70.835679
 30
0.0
 11
111.691529
 21
144.035679
 31
0.0
  0
LINE
  5
11A
330
1F
100
AcDbEntity
  8
LAYERGROUP-1
  6
CONTINUOUS
 62
     3
100
AcDbLine
 10
111.691529
 20
70.835679
 30
0.0
 11
109.391529
 21
70.835679
 31
0.0
  0
ARC
  5
11B
330
1F
100
AcDbEntity
  8
LAYERGROUP-1
  6
CONTINUOUS
 62
     3
100
AcDbCircle
 10
185.36674
 20
144.035679
 30
0.0
 40
100.1752107473787
100
AcDbArc
 50
180.0
 51
211.322397
  0
ARC
  5
11C
330
1F
100
AcDbEntity
  8
LAYERGROUP-1
  6
CONTINUOUS
 62
     3
100
AcDbCircle
 10
93.036362
 20
74.101156
 30
0.0
 40
16.35516701922614
100
AcDbArc
 50
0.0
 51
43.965108
  0
ARC
  5
11D
330
1F
100
AcDbEntity
  8
LAYERGROUP-1
  6
CONTINUOUS
 62
     3
100
AcDbCircle
 10
131.655972
 20
111.350256
 30
0.0
 40
37.30086396765083
100
AcDbArc
 50
211.322397
 51
223.965108
  0
ARC
  5
11E
330
1F
100
AcDbEntity
  8
LAYERGROUP-1
  6
CONTINUOUS
 62
     3
100
AcDbCircle
 10
117.936485
 20
103.00133
 30
0.0
 40
21.2406998338746
100
AcDbArc
 50
211.322397
 51
234.847859
  0
ARC
  5
11F
330
1F
100
AcDbEntity
  8
LAYERGROUP-1
  6
CONTINUOUS
 62
     3
100
AcDbCircle
 10
97.585787
 20
74.101156
 30
0.0
 40
14.10574215515253
100
AcDbArc
 50
0.0
 51
54.847859
  0
ARC
  5
120
330
1F
100
AcDbEntity
  8
LAYERGROUP-1
  6
CONTINUOUS
 62
     3
100
AcDbCircle
 10
217.61531
 20
144.035679
 30
0.0
 40
130.123780444687
100
AcDbArc
 50
180.0
 51
198.963785
  0
ARC
  5
121
330
1F
100
AcDbEntity
  8
LAYERGROUP-1
  6
CONTINUOUS
 62
     3
100
AcDbCircle
 10
87.491529
 20
144.035679
 30
0.0
 40
2.3
100
AcDbArc
 50
90.0
 51
180.0
  0
LINE
  5
122
330
1F
100
AcDbEntity
  8
LAYERGROUP-1
  6
CONTINUOUS
 62
     3
100
AcDbLine
 10
109.391529
 20
74.101156
 30
0.0
 11
109.391529
 21
70.835679
 31
0.0
  0
LINE
  5
123
330
1F
100
AcDbEntity
  8
LAYERGROUP-1
  6
CONTINUOUS
 62
     3
100
AcDbLine
 10
149.991529
 20
74.101156
 30
0.0
 11
149.991529
 21
70.835679
 31
0.0
  0
LINE
  5
124
330
1F
100
AcDbEntity
  8
GR1-1
  6
CONTINUOUS
 62
     3
100
AcDbLine
 10
100.491529
 20
87.159179
 30
0.0
 11
101.491529
 21
87.835679
 31
0.0
  0
LINE
  5
125
330
1F
100
AcDbEntity
  8
GR1-1
  6
CONTINUOUS
 62
     3
100
AcDbLine
 10
101.491529
 20
87.835679
 30
0.0
 11
102.391529
 21
87.835679
 31
0.0
  0
ARC
  5
126
330
1F
100
AcDbEntity
  8
GR1-1
  6
CONTINUOUS
 62
     3
100
AcDbCircle
 10
112.468038
 20
83.835679
 30
0.0
 40
10.0765089946158
100
AcDbArc
 50
159.200429
 51
201.865453
  0
LINE
  5
127
330
1F
100
AcDbEntity
  8
GR1-1
  6
CONTINUOUS
 62
     3
100
AcDbLine
 10
103.116424
 20
80.082902
 30
0.0
 11
106.666635
 21
80.082902
 31
0.0
  0
ARC
  5
128
330
1F
100
AcDbEntity
  8
GR1-1
  6
CONTINUOUS
 62
     3
100
AcDbCircle
 10
97.31502
 20
83.835679
 30
0.0
 40
10.0765089946158
100
AcDbArc
 50
338.134547
 51
350.561062
  0
LINE
  5
129
330
1F
100
AcDbEntity
  8
GR1-1
  6
CONTINUOUS
 62
     3
100
AcDbLine
 10
107.391529
 20
81.93829
 30
0.0
 11
107.391529
 21
76.535679
 31
0.0
  0
ARC
  5
12A
330
1F
100
AcDbEntity
  8
GR1-1
  6
CONTINUOUS
 62
     3
100
AcDbCircle
 10
107.691529
 20
76.535679
 30
0.0
 40
0.3
100
AcDbArc
 50
180.0
 51
270.0
  0
LINE
  5
12B
330
1F
100
AcDbEntity
  8
GR1-1
  6
CONTINUOUS
 62
     3
100
AcDbLine
 10
107.691529
 20
76.235679
 30
0.0
 11
109.091529
 21
76.235679
 31
0.0
  0
ARC
  5
12C
330
1F
100
AcDbEntity
  8
GR1-1
  6
CONTINUOUS
 62
     3
100
AcDbCircle
 10
109.091529
 20
76.535679
 30
0.0
 40
0.3
100
AcDbArc
 50
270.0
 51
300.980055
  0
LINE
  5
12D
330
1F
100
AcDbEntity
  8
GR1-1
  6
CONTINUOUS
 62
     3
100
AcDbLine
 10
107.391529
 20
77.585679
 30
0.0
 11
107.128349
 21
77.023387
 31
0.0
  0
ARC
  5
12E
330
1F
100
AcDbEntity
  8
GR1-1
  6
CONTINUOUS
 62
     3
100
AcDbCircle
 10
104.600567
 20
78.206513
 30
0.0
 40
2.790962555239332
100
AcDbArc
 50
-42.245502
 51
42.245502
  0
ARC
  5
12F
330
1F
100
AcDbEntity
  8
GR1-1
  6
CONTINUOUS
 62
     3
100
AcDbCircle
 10
105.182492
 20
78.206513
 30
0.0
 40
2.790962555239332
100
AcDbArc
 50
137.754498
 51
222.245502
  0
LINE
  5
130
330
1F
100
AcDbEntity
  8
GR1-1
  6
CONTINUOUS
 62
     3
100
AcDbLine
 10
103.116424
 20
76.330125
 30
0.0
 11
106.666635
 21
76.330125
 31
0.0
  0
LINE
  5
131
330
1F
100
AcDbEntity
  8
GR1-1
  6
CONTINUOUS
 62
     3
100
AcDbLine
 10
102.65471
 20
77.023387
 30
0.0
 11
102.391529
 21
77.585679
 31
0.0
  0
LINE
  5
132
330
1F
100
AcDbEntity
  8
GR1-1
  6
CONTINUOUS
 62
     3
100
AcDbLine
 10
102.391529
 20
77.585679
 30
0.0
 11
102.391529
 21
88.221338
 31
0.0
  0
LINE
  5
133
330
1F
100
AcDbEntity
  8
GR1-1
  6
CONTINUOUS
 62
     3
100
AcDbLine
 10
100.491529
 20
87.159179
 30
0.0
 11
100.491529
 21
80.512179
 31
0.0
  0
LINE
  5
134
330
1F
100
AcDbEntity
  8
GR1-1
  6
CONTINUOUS
 62
     3
100
AcDbLine
 10
100.491529
 20
80.512179
 30
0.0
 11
101.491529
 21
79.835679
 31
0.0
  0
LINE
  5
135
330
1F
100
AcDbEntity
  8
GR1-1
  6
CONTINUOUS
 62
     3
100
AcDbLine
 10
101.491529
 20
79.835679
 30
0.0
 11
102.391529
 21
79.835679
 31
0.0
  0
LINE
  5
136
330
1F
100
AcDbEntity
  8
GR1-1
  6
CONTINUOUS
 62
     3
100
AcDbLine
 10
111.691529
 20
78.835679
 30
0.0
 11
111.941529
 21
78.835679
 31
0.0
  0
LINE
  5
137
330
1F
100
AcDbEntity
  8
GR1-1
  6
CONTINUOUS
 62
     3
100
AcDbLine
 10
111.941529
 20
88.835679
 30
0.0
 11
111.691529
 21
88.835679
 31
0.0
  0
LINE
  5
138
330
1F
100
AcDbEntity
  8
GR1-1
  6
CONTINUOUS
 62
     3
100
AcDbLine
 10
153.991529
 20
84.817561
 30
0.0
 11
153.991529
 21
78.335679
 31
0.0
  0
LINE
  5
139
330
1F
100
AcDbEntity
  8
GR1-1
  6
CONTINUOUS
 62
     3
100
AcDbLine
 10
153.991529
 20
78.335679
 30
0.0
 11
152.991529
 21
76.335679
 31
0.0
  0
LINE
  5
13A
330
1F
100
AcDbEntity
  8
GR1-1
  6
CONTINUOUS
 62
     3
100
AcDbLine
 10
152.991529
 20
76.335679
 30
0.0
 11
150.144894
 21
76.335679
 31
0.0
  0
LINE
  5
13B
330
1F
100
AcDbEntity
  8
GR1-1
  6
CONTINUOUS
 62
     6
100
AcDbLine
 10
102.391529
 20
87.159179
 30
0.0
 11
100.491529
 21
87.159179
 31
0.0
  0
LINE
  5
13C
330
1F
100
AcDbEntity
  8
GR1-1
  6
CONTINUOUS
 62
     6
100
AcDbLine
 10
101.491529
 20
87.835679
 30
0.0
 11
101.491529
 21
79.835679
 31
0.0
  0
LINE
  5
13D
330
1F
100
AcDbEntity
  8
GR1-1
  6
CONTINUOUS
 62
     6
100
AcDbLine
 10
102.391529
 20
80.512179
 30
0.0
 11
100.491529
 21
80.512179
 31
0.0
  0
LINE
  5
13E
330
1F
100
AcDbEntity
  8
GR1-1
  6
CONTINUOUS
 62
     6
100
AcDbLine
 10
152.991529
 20
76.335679
 30
0.0
 11
152.991529
 21
83.542078
 31
0.0
  0
LINE
  5
13F
330
1F
100
AcDbEntity
  8
GR1-1
  6
CONTINUOUS
 62
     3
100
AcDbLine
 10
147.691529
 20
78.835679
 30
0.0
 11
147.441529
 21
78.835679
 31
0.0
  0
LINE
  5
140
330
1F
100
AcDbEntity
  8
GR1-1
  6
CONTINUOUS
 62
     3
100
AcDbLine
 10
147.441529
 20
88.835679
 30
0.0
 11
147.691529
 21
88.835679
 31
0.0
  0
LINE
  5
141
330
1F
100
AcDbEntity
  8
LAYERGROUP-1
  6
CENTER
 62
     6
100
AcDbLine
 10
97.601373
 20
83.835679
 30
0.0
 11
156.06366
 21
83.835679
 31
0.0
  0
LINE
  5
142
330
1F
100
AcDbEntity
  8
LAYERGROUP-1
  6
CONTINUOUS
 62
     3
100
AcDbLine
 10
272.189568
 20
210.044228
 30
0.0
 11
288.454282
 21
210.044228
 31
0.0
  0
LINE
  5
143
330
1F
100
AcDbEntity
  8
LAYERGROUP-1
  6
CONTINUOUS
 62
     3
100
AcDbLine
 10
272.189568
 20
250.644228
 30
0.0
 11
288.454282
 21
250.644228
 31
0.0
  0
LINE
  5
144
330
1F
100
AcDbEntity
  8
GR1-1
  6
CONTINUOUS
 62
     3
100
AcDbLine
 10
287.821925
 20
207.044228
 30
0.0
 11
285.821925
 21
206.044228
 31
0.0
  0
LINE
  5
145
330
1F
100
AcDbEntity
  8
GR1-1
  6
CONTINUOUS
 62
     3
100
AcDbLine
 10
285.821925
 20
206.044228
 30
0.0
 11
274.821925
 21
206.044228
 31
0.0
  0
LINE
  5
146
330
1F
100
AcDbEntity
  8
GR1-1
  6
CONTINUOUS
 62
     3
100
AcDbLine
 10
274.821925
 20
206.044228
 30
0.0
 11
272.821925
 21
207.044228
 31
0.0
  0
LINE
  5
147
330
1F
100
AcDbEntity
  8
GR1-1
  6
CONTINUOUS
 62
     3
100
AcDbLine
 10
272.821925
 20
207.044228
 30
0.0
 11
272.821925
 21
210.044228
 31
0.0
  0
LINE
  5
148
330
1F
100
AcDbEntity
  8
GR1-1
  6
CONTINUOUS
 62
     3
100
AcDbLine
 10
287.821925
 20
207.044228
 30
0.0
 11
287.821925
 21
210.044228
 31
0.0
  0
LINE
  5
149
330
1F
100
AcDbEntity
  8
GR1-1
  6
CONTINUOUS
 62
     6
100
AcDbLine
 10
272.821925
 20
207.044228
 30
0.0
 11
287.821925
 21
207.044228
 31
0.0
  0
LINE
  5
14A
330
1F
100
AcDbEntity
  8
GR1-1
  6
CONTINUOUS
 62
     3
100
AcDbLine
 10
283.645425
 20
259.544228
 30
0.0
 11
284.321925
 21
258.544228
 31
0.0
  0
LINE
  5
14B
330
1F
100
AcDbEntity
  8
GR1-1
  6
CONTINUOUS
 62
     3
100
AcDbLine
 10
284.321925
 20
258.544228
 30
0.0
 11
284.321925
 21
257.644228
 31
0.0
  0
LINE
  5
14C
330
1F
100
AcDbEntity
  8
GR1-1
  6
CONTINUOUS
 62
     3
100
AcDbLine
 10
283.645425
 20
259.544228
 30
0.0
 11
276.998425
 21
259.544228
 31
0.0
  0
LINE
  5
14D
330
1F
100
AcDbEntity
  8
GR1-1
  6
CONTINUOUS
 62
     3
100
AcDbLine
 10
276.998425
 20
259.544228
 30
0.0
 11
276.321925
 21
258.544228
 31
0.0
  0
LINE
  5
14E
330
1F
100
AcDbEntity
  8
GR1-1
  6
CONTINUOUS
 62
     3
100
AcDbLine
 10
276.321925
 20
258.544228
 30
0.0
 11
276.321925
 21
257.644228
 31
0.0
  0
LINE
  5
14F
330
1F
100
AcDbEntity
  8
GR1-1
  6
CONTINUOUS
 62
     6
100
AcDbLine
 10
283.645425
 20
257.644228
 30
0.0
 11
283.645425
 21
259.544228
 31
0.0
  0
LINE
  5
150
330
1F
100
AcDbEntity
  8
GR1-1
  6
CONTINUOUS
 62
     6
100
AcDbLine
 10
284.321925
 20
258.544228
 30
0.0
 11
276.321925
 21
258.544228
 31
0.0
  0
LINE
  5
151
330
1F
100
AcDbEntity
  8
GR1-1
  6
CONTINUOUS
 62
     6
100
AcDbLine
 10
276.998425
 20
257.644228
 30
0.0
 11
276.998425
 21
259.544228
 31
0.0
  0
LINE
  5
152
330
1F
100
AcDbEntity
  8
GR1-1
  6
CONTINUOUS
 62
     3
100
AcDbLine
 10
286.571925
 20
257.644228
 30
0.0
 11
274.071925
 21
257.644228
 31
0.0
  0
LINE
  5
153
330
1F
100
AcDbEntity
  8
GR1-1
  6
CONTINUOUS
 62
     3
100
AcDbLine
 10
274.071925
 20
257.644228
 30
0.0
 11
273.821925
 21
256.919334
 31
0.0
  0
LINE
  5
154
330
1F
100
AcDbEntity
  8
GR1-1
  6
CONTINUOUS
 62
     3
100
AcDbLine
 10
273.821925
 20
256.919334
 30
0.0
 11
273.821925
 21
253.369122
 31
0.0
  0
LINE
  5
155
330
1F
100
AcDbEntity
  8
GR1-1
  6
CONTINUOUS
 62
     3
100
AcDbLine
 10
273.821925
 20
253.369122
 30
0.0
 11
274.071925
 21
252.644228
 31
0.0
  0
LINE
  5
156
330
1F
100
AcDbEntity
  8
GR1-1
  6
CONTINUOUS
 62
     3
100
AcDbLine
 10
287.621925
 20
252.644228
 30
0.0
 11
273.021925
 21
252.644228
 31
0.0
  0
LINE
  5
157
330
1F
100
AcDbEntity
  8
GR1-1
  6
CONTINUOUS
 62
     3
100
AcDbLine
 10
286.571925
 20
252.644228
 30
0.0
 11
286.821925
 21
253.369122
 31
0.0
  0
LINE
  5
158
330
1F
100
AcDbEntity
  8
GR1-1
  6
CONTINUOUS
 62
     3
100
AcDbLine
 10
286.821925
 20
253.369122
 30
0.0
 11
286.821925
 21
256.919334
 31
0.0
  0
ARC
  5
159
330
1F
100
AcDbEntity
  8
GR1-1
  6
CONTINUOUS
 62
     3
100
AcDbCircle
 10
283.571925
 20
249.996234
 30
0.0
 40
7.647993514824081
100
AcDbArc
 50
64.852624
 51
115.147376
  0
ARC
  5
15A
330
1F
100
AcDbEntity
  8
GR1-1
  6
CONTINUOUS
 62
     3
100
AcDbCircle
 10
277.071925
 20
249.996234
 30
0.0
 40
7.647993514823825
100
AcDbArc
 50
64.852624
 51
115.147376
  0
ARC
  5
15B
330
1F
100
AcDbEntity
  8
GR1-1
  6
CONTINUOUS
 62
     3
100
AcDbCircle
 10
277.071925
 20
260.292221
 30
0.0
 40
7.647993514823837
100
AcDbArc
 50
244.852624
 51
295.147376
  0
LINE
  5
15C
330
1F
100
AcDbEntity
  8
GR1-1
  6
CONTINUOUS
 62
     3
100
AcDbLine
 10
280.321925
 20
253.369122
 30
0.0
 11
280.321925
 21
256.919334
 31
0.0
  0
ARC
  5
15D
330
1F
100
AcDbEntity
  8
GR1-1
  6
CONTINUOUS
 62
     3
100
AcDbCircle
 10
283.571925
 20
260.292221
 30
0.0
 40
7.647993514823837
100
AcDbArc
 50
244.852624
 51
295.147376
  0
LINE
  5
15E
330
1F
100
AcDbEntity
  8
GR1-1
  6
CONTINUOUS
 62
     3
100
AcDbLine
 10
286.821925
 20
256.919334
 30
0.0
 11
286.571925
 21
257.644228
 31
0.0
  0
LINE
  5
15F
330
1F
100
AcDbEntity
  8
GR1-1
  6
CONTINUOUS
 62
     3
100
AcDbLine
 10
287.621925
 20
250.644228
 30
0.0
 11
273.021925
 21
250.644228
 31
0.0
  0
ARC
  5
160
330
1F
100
AcDbEntity
  8
GR1-1
  6
CONTINUOUS
 62
     3
100
AcDbCircle
 10
287.621925
 20
250.944228
 30
0.0
 40
0.3
100
AcDbArc
 50
270.0
 51
360.0
  0
LINE
  5
161
330
1F
100
AcDbEntity
  8
GR1-1
  6
CONTINUOUS
 62
     3
100
AcDbLine
 10
287.921925
 20
250.944228
 30
0.0
 11
287.921925
 21
252.344228
 31
0.0
  0
ARC
  5
162
330
1F
100
AcDbEntity
  8
GR1-1
  6
CONTINUOUS
 62
     3
100
AcDbCircle
 10
287.621925
 20
252.344228
 30
0.0
 40
0.3
100
AcDbArc
 50
0.0
 51
90.0
  0
ARC
  5
163
330
1F
100
AcDbEntity
  8
GR1-1
  6
CONTINUOUS
 62
     3
100
AcDbCircle
 10
273.021925
 20
250.944228
 30
0.0
 40
0.3
100
AcDbArc
 50
180.0
 51
270.0
  0
LINE
  5
164
330
1F
100
AcDbEntity
  8
GR1-1
  6
CONTINUOUS
 62
     3
100
AcDbLine
 10
272.721925
 20
250.944228
 30
0.0
 11
272.721925
 21
252.344228
 31
0.0
  0
ARC
  5
165
330
1F
100
AcDbEntity
  8
GR1-1
  6
CONTINUOUS
 62
     3
100
AcDbCircle
 10
273.021925
 20
252.344228
 30
0.0
 40
0.3
100
AcDbArc
 50
90.0
 51
180.0
  0
CIRCLE
  5
166
330
1F
100
AcDbEntity
  8
GR1-1
  6
CONTINUOUS
 62
     3
100
AcDbCircle
 10
280.321925
 20
83.835679
 30
0.0
 40
7.5
  0
CIRCLE
  5
167
330
1F
100
AcDbEntity
  8
GR1-1
  6
CONTINUOUS
 62
     6
100
AcDbCircle
 10
280.321925
 20
83.835679
 30
0.0
 40
5.5
  0
LINE
  5
168
330
1F
100
AcDbEntity
  8
LAYERGROUP-1
  6
CENTER
 62
     6
100
AcDbLine
 10
311.821925
 20
151.82735
 30
0.0
 11
311.821925
 21
139.469319
 31
0.0
  0
LINE
  5
169
330
1F
100
AcDbEntity
  8
LAYERGROUP-1
  6
CENTER
 62
     6
100
AcDbLine
 10
248.821925
 20
151.82735
 30
0.0
 11
248.821925
 21
139.469319
 31
0.0
  0
LINE
  5
16A
330
1F
100
AcDbEntity
  8
LAYERGROUP-1
  6
CENTER
 62
     6
100
AcDbLine
 10
161.191529
 20
151.82735
 30
0.0
 11
161.191529
 21
139.469319
 31
0.0
  0
LINE
  5
16B
330
1F
100
AcDbEntity
  8
LAYERGROUP-1
  6
CENTER
 62
     6
100
AcDbLine
 10
98.191529
 20
151.82735
 30
0.0
 11
98.191529
 21
139.469319
 31
0.0
  0
TEXT
  5
16C
330
1F
100
AcDbEntity
  8
LAYERGROUP-1
  6
CONTINUOUS
 62
     7
100
AcDbText
 10
277.32193
 20
177.599533
 30
0.0
 40
4.0
  1
63
 41
0.851351
  7
FX_VECTOR
 72
     5
 11
283.32193
 21
177.599533
 31
0.0
100
AcDbText
  0
LINE
  5
16D
330
1F
100
AcDbEntity
  8
LAYERGROUP-1
  6
CONTINUOUS
 62
     7
100
AcDbLine
 10
248.821925
 20
176.599527
 30
0.0
 11
311.821925
 21
176.599527
 31
0.0
  0
INSERT
  5
16E
330
1F
100
AcDbEntity
  8
LAYERGROUP-1
  6
CONTINUOUS
 62
     7
100
AcDbBlockReference
  2
FXTIP_ARROW_S
 10
248.821925
 20
176.599527
 30
0.0
 41
4.0
 42
4.0
 50
180.0
  0
INSERT
  5
16F
330
1F
100
AcDbEntity
  8
LAYERGROUP-1
  6
CONTINUOUS
 62
     7
100
AcDbBlockReference
  2
FXTIP_ARROW_E
 10
311.821925
 20
176.599527
 30
0.0
 41
4.0
 42
4.0
 50
360.0
  0
LINE
  5
170
330
1F
100
AcDbEntity
  8
LAYERGROUP-1
  6
CONTINUOUS
 62
     7
100
AcDbLine
 10
248.821925
 20
190.844228
 30
0.0
 11
248.821925
 21
175.599527
 31
0.0
  0
LINE
  5
171
330
1F
100
AcDbEntity
  8
LAYERGROUP-1
  6
CONTINUOUS
 62
     7
100
AcDbLine
 10
311.821925
 20
190.844228
 30
0.0
 11
311.821925
 21
175.599527
 31
0.0
  0
TEXT
  5
172
330
1F
100
AcDbEntity
  8
LAYERGROUP-1
  6
CONTINUOUS
 62
     7
100
AcDbText
 10
277.32193
 20
166.888885
 30
0.0
 40
4.0
  1
82
 41
0.851351
  7
FX_VECTOR
 72
     5
 11
283.32193
 21
166.888885
 31
0.0
100
AcDbText
  0
LINE
  5
173
330
1F
100
AcDbEntity
  8
LAYERGROUP-1
  6
CONTINUOUS
 62
     7
100
AcDbLine
 10
239.321925
 20
165.888874
 30
0.0
 11
321.321925
 21
165.888874
 31
0.0
  0
INSERT
  5
174
330
1F
100
AcDbEntity
  8
LAYERGROUP-1
  6
CONTINUOUS
 62
     7
100
AcDbBlockReference
  2
FXTIP_ARROW_S
 10
239.321925
 20
165.888874
 30
0.0
 41
4.0
 42
4.0
 50
180.0
  0
INSERT
  5
175
330
1F
100
AcDbEntity
  8
LAYERGROUP-1
  6
CONTINUOUS
 62
     7
100
AcDbBlockReference
  2
FXTIP_ARROW_E
 10
321.321925
 20
165.888874
 30
0.0
 41
4.0
 42
4.0
 50
360.0
  0
LINE
  5
176
330
1F
100
AcDbEntity
  8
LAYERGROUP-1
  6
CONTINUOUS
 62
     7
100
AcDbLine
 10
239.321925
 20
184.844228
 30
0.0
 11
239.321925
 21
164.888874
 31
0.0
  0
LINE
  5
177
330
1F
100
AcDbEntity
  8
LAYERGROUP-1
  6
CONTINUOUS
 62
     7
100
AcDbLine
 10
321.321925
 20
184.844228
 30
0.0
 11
321.321925
 21
164.888874
 31
0.0
  0
TEXT
  5
178
330
1F
100
AcDbEntity
  8
LAYERGROUP-1
  6
CONTINUOUS
 62
     7
100
AcDbText
 10
174.691513
 20
79.335678
 30
0.0
 40
4.0
  1
%%c75
 50
90.0
 41
0.84375
  7
FX_VECTOR
 72
     5
 11
174.691513
 21
88.335678
 31
0.0
100
AcDbText
  0
LINE
  5
179
330
1F
100
AcDbEntity
  8
LAYERGROUP-1
  6
CONTINUOUS
 62
     7
100
AcDbLine
 10
175.691529
 20
46.335679
 30
0.0
 11
175.691529
 21
121.335679
 31
0.0
  0
INSERT
  5
17A
330
1F
100
AcDbEntity
  8
LAYERGROUP-1
  6
CONTINUOUS
 62
     7
100
AcDbBlockReference
  2
FXTIP_ARROW_S
 10
175.691529
 20
46.335679
 30
0.0
 41
4.0
 42
4.0
 50
270.0
  0
INSERT
  5
17B
330
1F
100
AcDbEntity
  8
LAYERGROUP-1
  6
CONTINUOUS
 62
     7
100
AcDbBlockReference
  2
FXTIP_ARROW_E
 10
175.691529
 20
121.335679
 30
0.0
 41
4.0
 42
4.0
 50
90.0
  0
LINE
  5
17C
330
1F
100
AcDbEntity
  8
LAYERGROUP-1
  6
CONTINUOUS
 62
     7
100
AcDbLine
 10
130.691529
 20
46.335679
 30
0.0
 11
176.691529
 21
46.335679
 31
0.0
  0
LINE
  5
17D
330
1F
100
AcDbEntity
  8
LAYERGROUP-1
  6
CONTINUOUS
 62
     7
100
AcDbLine
 10
130.691529
 20
121.335679
 30
0.0
 11
176.691529
 21
121.335679
 31
0.0
  0
TEXT
  5
17E
330
1F
100
AcDbEntity
  8
LAYERGROUP-1
  6
CONTINUOUS
 62
     7
100
AcDbText
 10
220.582202
 20
269.597803
 30
0.0
 40
4.0
  1
4-%%c9.5
 50
346.603882
 41
0.84375
  7
FX_VECTOR
 72
     5
 11
238.09245
 21
265.427527
 31
0.0
100
AcDbText
  0
LINE
  5
17F
330
1F
100
AcDbEntity
  8
LAYERGROUP-1
  6
CONTINUOUS
 62
     7
100
AcDbLine
 10
244.201165
 20
262.944717
 30
0.0
 11
253.442685
 21
260.743739
 31
0.0
  0
LINE
  5
180
330
1F
100
AcDbEntity
  8
LAYERGROUP-1
  6
CONTINUOUS
 62
     7
100
AcDbLine
 10
244.201165
 20
262.944717
 30
0.0
 11
214.010159
 21
270.135066
 31
0.0
  0
INSERT
  5
181
330
1F
100
AcDbEntity
  8
LAYERGROUP-1
  6
CONTINUOUS
 62
     7
100
AcDbBlockReference
  2
FXTIP_ARROW_S
 10
244.201165
 20
262.944717
 30
0.0
 41
4.0
 42
4.0
 50
346.603885
  0
LINE
  5
182
330
1F
100
AcDbEntity
  8
LAYERGROUP-1
  6
CONTINUOUS
 62
     7
100
AcDbLine
 10
253.442685
 20
260.743739
 30
0.0
 11
259.279435
 21
259.353647
 31
0.0
  0
INSERT
  5
183
330
1F
100
AcDbEntity
  8
LAYERGROUP-1
  6
CONTINUOUS
 62
     7
100
AcDbBlockReference
  2
FXTIP_ARROW_S
 10
253.442685
 20
260.743739
 30
0.0
 41
4.0
 42
4.0
 50
166.603885
  0
TEXT
  5
184
330
1F
100
AcDbEntity
  8
LAYERGROUP-1
  6
CONTINUOUS
 62
     7
100
AcDbText
 10
339.18338
 20
227.344238
 30
0.0
 40
4.0
  1
63
 50
90.0
 41
0.851351
  7
FX_VECTOR
 72
     5
 11
339.18338
 21
233.344238
 31
0.0
100
AcDbText
  0
LINE
  5
185
330
1F
100
AcDbEntity
  8
LAYERGROUP-1
  6
CONTINUOUS
 62
     7
100
AcDbLine
 10
340.183396
 20
198.844228
 30
0.0
 11
340.183396
 21
261.844228
 31
0.0
  0
INSERT
  5
186
330
1F
100
AcDbEntity
  8
LAYERGROUP-1
  6
CONTINUOUS
 62
     7
100
AcDbBlockReference
  2
FXTIP_ARROW_S
 10
340.183396
 20
198.844228
 30
0.0
 41
4.0
 42
4.0
 50
270.0
  0
INSERT
  5
187
330
1F
100
AcDbEntity
  8
LAYERGROUP-1
  6
CONTINUOUS
 62
     7
100
AcDbBlockReference
  2
FXTIP_ARROW_E
 10
340.183396
 20
261.844228
 30
0.0
 41
4.0
 42
4.0
 50
90.0
  0
LINE
  5
188
330
1F
100
AcDbEntity
  8
LAYERGROUP-1
  6
CONTINUOUS
 62
     7
100
AcDbLine
 10
319.821925
 20
198.844228
 30
0.0
 11
341.183396
 21
198.844228
 31
0.0
  0
LINE
  5
189
330
1F
100
AcDbEntity
  8
LAYERGROUP-1
  6
CONTINUOUS
 62
     7
100
AcDbLine
 10
319.821925
 20
261.844228
 30
0.0
 11
341.183396
 21
261.844228
 31
0.0
  0
TEXT
  5
18A
330
1F
100
AcDbEntity
  8
LAYERGROUP-1
  6
CONTINUOUS
 62
     7
100
AcDbText
 10
349.22464
 20
227.344238
 30
0.0
 40
4.0
  1
89
 50
90.0
 41
0.875
  7
FX_VECTOR
 72
     5
 11
349.22464
 21
233.344238
 31
0.0
100
AcDbText
  0
LINE
  5
18B
330
1F
100
AcDbEntity
  8
LAYERGROUP-1
  6
CONTINUOUS
 62
     7
100
AcDbLine
 10
350.224634
 20
185.844228
 30
0.0
 11
350.224634
 21
274.844228
 31
0.0
  0
INSERT
  5
18C
330
1F
100
AcDbEntity
  8
LAYERGROUP-1
  6
CONTINUOUS
 62
     7
100
AcDbBlockReference
  2
FXTIP_ARROW_S
 10
350.224634
 20
185.844228
 30
0.0
 41
4.0
 42
4.0
 50
270.0
  0
INSERT
  5
18D
330
1F
100
AcDbEntity
  8
LAYERGROUP-1
  6
CONTINUOUS
 62
     7
100
AcDbBlockReference
  2
FXTIP_ARROW_E
 10
350.224634
 20
274.844228
 30
0.0
 41
4.0
 42
4.0
 50
90.0
  0
LINE
  5
18E
330
1F
100
AcDbEntity
  8
LAYERGROUP-1
  6
CONTINUOUS
 62
     7
100
AcDbLine
 10
322.321925
 20
185.844228
 30
0.0
 11
351.224634
 21
185.844228
 31
0.0
  0
LINE
  5
18F
330
1F
100
AcDbEntity
  8
LAYERGROUP-1
  6
CONTINUOUS
 62
     7
100
AcDbLine
 10
322.321925
 20
274.844228
 30
0.0
 11
351.224634
 21
274.844228
 31
0.0
  0
TEXT
  5
190
330
1F
100
AcDbEntity
  8
LAYERGROUP-1
  6
CONTINUOUS
 62
     7
100
AcDbText
 10
345.905426
 20
91.835678
 30
0.0
 40
4.0
  1
100
 50
90.0
 41
0.828947
  7
FX_VECTOR
 72
     5
 11
345.905426
 21
100.835678
 31
0.0
100
AcDbText
  0
LINE
  5
191
330
1F
100
AcDbEntity
  8
LAYERGROUP-1
  6
CONTINUOUS
 62
     7
100
AcDbLine
 10
346.905424
 20
46.335679
 30
0.0
 11
346.905424
 21
146.335679
 31
0.0
  0
INSERT
  5
192
330
1F
100
AcDbEntity
  8
LAYERGROUP-1
  6
CONTINUOUS
 62
     7
100
AcDbBlockReference
  2
FXTIP_ARROW_S
 10
346.905424
 20
46.335679
 30
0.0
 41
4.0
 42
4.0
 50
270.0
  0
INSERT
  5
193
330
1F
100
AcDbEntity
  8
LAYERGROUP-1
  6
CONTINUOUS
 62
     7
100
AcDbBlockReference
  2
FXTIP_ARROW_E
 10
346.905424
 20
146.335679
 30
0.0
 41
4.0
 42
4.0
 50
90.0
  0
LINE
  5
194
330
1F
100
AcDbEntity
  8
LAYERGROUP-1
  6
CONTINUOUS
 62
     7
100
AcDbLine
 10
281.321925
 20
46.335679
 30
0.0
 11
347.905424
 21
46.335679
 31
0.0
  0
LINE
  5
195
330
1F
100
AcDbEntity
  8
LAYERGROUP-1
  6
CONTINUOUS
 62
     7
100
AcDbLine
 10
322.321925
 20
146.335679
 30
0.0
 11
347.905424
 21
146.335679
 31
0.0
  0
TEXT
  5
196
330
1F
100
AcDbEntity
  8
LAYERGROUP-1
  6
CONTINUOUS
 62
     7
100
AcDbText
 10
335.905426
 20
109.085678
 30
0.0
 40
4.0
  1
62.5
 50
90.0
 41
0.940299
  7
FX_VECTOR
 72
     5
 11
335.905426
 21
121.085678
 31
0.0
100
AcDbText
  0
LINE
  5
197
330
1F
100
AcDbEntity
  8
LAYERGROUP-1
  6
CONTINUOUS
 62
     7
100
AcDbLine
 10
336.905424
 20
83.835679
 30
0.0
 11
336.905424
 21
146.335679
 31
0.0
  0
INSERT
  5
198
330
1F
100
AcDbEntity
  8
LAYERGROUP-1
  6
CONTINUOUS
 62
     7
100
AcDbBlockReference
  2
FXTIP_ARROW_S
 10
336.905424
 20
83.835679
 30
0.0
 41
4.0
 42
4.0
 50
270.0
  0
INSERT
  5
199
330
1F
100
AcDbEntity
  8
LAYERGROUP-1
  6
CONTINUOUS
 62
     7
100
AcDbBlockReference
  2
FXTIP_ARROW_E
 10
336.905424
 20
146.335679
 30
0.0
 41
4.0
 42
4.0
 50
90.0
  0
LINE
  5
19A
330
1F
100
AcDbEntity
  8
LAYERGROUP-1
  6
CONTINUOUS
 62
     7
100
AcDbLine
 10
321.266082
 20
83.835679
 30
0.0
 11
337.905424
 21
83.835679
 31
0.0
  0
TEXT
  5
19B
330
1F
100
AcDbEntity
  8
LAYERGROUP-1
  6
CONTINUOUS
 62
     7
100
AcDbText
 10
123.691528
 20
26.115185
 30
0.0
 40
4.0
  1
35.5
 41
0.940299
  7
FX_VECTOR
 72
     5
 11
135.691528
 21
26.115185
 31
0.0
100
AcDbText
  0
LINE
  5
19C
330
1F
100
AcDbEntity
  8
LAYERGROUP-1
  6
CONTINUOUS
 62
     7
100
AcDbLine
 10
111.941529
 20
25.115184
 30
0.0
 11
147.441529
 21
25.115184
 31
0.0
  0
INSERT
  5
19D
330
1F
100
AcDbEntity
  8
LAYERGROUP-1
  6
CONTINUOUS
 62
     7
100
AcDbBlockReference
  2
FXTIP_ARROW_S
 10
111.941529
 20
25.115184
 30
0.0
 41
4.0
 42
4.0
 50
180.0
  0
INSERT
  5
19E
330
1F
100
AcDbEntity
  8
LAYERGROUP-1
  6
CONTINUOUS
 62
     7
100
AcDbBlockReference
  2
FXTIP_ARROW_E
 10
147.441529
 20
25.115184
 30
0.0
 41
4.0
 42
4.0
 50
360.0
  0
LINE
  5
19F
330
1F
100
AcDbEntity
  8
LAYERGROUP-1
  6
CONTINUOUS
 62
     7
100
AcDbLine
 10
111.941529
 20
74.902345
 30
0.0
 11
111.941529
 21
24.115184
 31
0.0
  0
LINE
  5
1A0
330
1F
100
AcDbEntity
  8
LAYERGROUP-1
  6
CONTINUOUS
 62
     7
100
AcDbLine
 10
147.441529
 20
74.902345
 30
0.0
 11
147.441529
 21
24.115184
 31
0.0
  0
ARC
  5
1A1
330
1F
100
AcDbEntity
  8
GR1-1
  6
CONTINUOUS
 62
     3
100
AcDbCircle
 10
280.321925
 20
83.835679
 30
0.0
 40
37.49999999999997
100
AcDbArc
 50
-225.580498
 51
45.580498
  0
INSERT
  5
1A5
330
1F
100
AcDbEntity
  8
0
100
AcDbBlockReference
  2
BLKF021
 10
0.0
 20
0.0
 30
0.0
  0
LINE
  5
1D0
330
1F
100
AcDbEntity
  8
GR1-1
  6
CONTINUOUS
 62
     3
100
AcDbLine
 10
112.341529
 20
92.169012
 30
0.0
 11
113.691529
 21
92.169012
 31
0.0
  0
LINE
  5
1D1
330
1F
100
AcDbEntity
  8
GR1-1
  6
CONTINUOUS
 62
     3
100
AcDbLine
 10
112.341529
 20
75.502345
 30
0.0
 11
113.691529
 21
75.502345
 31
0.0
  0
LINE
  5
1D2
330
1F
100
AcDbEntity
  8
GR1-1
  6
CONTINUOUS
 62
     3
100
AcDbLine
 10
145.691529
 20
110.335679
 30
0.0
 11
145.691529
 21
107.758653
 31
0.0
  0
LINE
  5
1D3
330
1F
100
AcDbEntity
  8
GR1-1
  6
CONTINUOUS
 62
     3
100
AcDbLine
 10
145.691529
 20
110.335679
 30
0.0
 11
141.09182
 21
118.302609
 31
0.0
  0
LINE
  5
1D4
330
1F
100
AcDbEntity
  8
GR1-1
  6
CONTINUOUS
 62
     3
100
AcDbLine
 10
113.691529
 20
110.335679
 30
0.0
 11
113.691529
 21
107.758653
 31
0.0
  0
LINE
  5
1D5
330
1F
100
AcDbEntity
  8
GR1-1
  6
CONTINUOUS
 62
     3
100
AcDbLine
 10
113.691529
 20
110.335679
 30
0.0
 11
118.291239
 21
118.302609
 31
0.0
  0
ARC
  5
1D6
330
1F
100
AcDbEntity
  8
GR1-1
  6
CONTINUOUS
 62
     3
100
AcDbCircle
 10
129.691529
 20
86.335679
 30
0.0
 40
35.0
100
AcDbArc
 50
75.16679
 51
104.83321
  0
ARC
  5
1D7
330
1F
100
AcDbEntity
  8
GR1-1
  6
CONTINUOUS
 62
     3
100
AcDbCircle
 10
137.627719
 20
116.302609
 30
0.0
 40
4.0
100
AcDbArc
 50
30.0
 51
75.16679
  0
ARC
  5
1D8
330
1F
100
AcDbEntity
  8
GR1-1
  6
CONTINUOUS
 62
     3
100
AcDbCircle
 10
121.75534
 20
116.302609
 30
0.0
 40
4.0
100
AcDbArc
 50
104.83321
 51
150.0
  0
LINE
  5
1D9
330
1F
100
AcDbEntity
  8
GR1-1
  6
CONTINUOUS
 62
     3
100
AcDbLine
 10
145.691529
 20
57.335679
 30
0.0
 11
145.691529
 21
83.835679
 31
0.0
  0
LINE
  5
1DA
330
1F
100
AcDbEntity
  8
GR1-1
  6
CONTINUOUS
 62
     3
100
AcDbLine
 10
145.691529
 20
57.335679
 30
0.0
 11
141.09182
 21
49.368748
 31
0.0
  0
LINE
  5
1DB
330
1F
100
AcDbEntity
  8
GR1-1
  6
CONTINUOUS
 62
     3
100
AcDbLine
 10
113.691529
 20
57.335679
 30
0.0
 11
113.691529
 21
59.912704
 31
0.0
  0
LINE
  5
1DC
330
1F
100
AcDbEntity
  8
GR1-1
  6
CONTINUOUS
 62
     3
100
AcDbLine
 10
113.691529
 20
57.335679
 30
0.0
 11
118.291239
 21
49.368748
 31
0.0
  0
ARC
  5
1DD
330
1F
100
AcDbEntity
  8
GR1-1
  6
CONTINUOUS
 62
     3
100
AcDbCircle
 10
129.691529
 20
81.335679
 30
0.0
 40
35.0
100
AcDbArc
 50
255.16679
 51
284.83321
  0
ARC
  5
1DE
330
1F
100
AcDbEntity
  8
GR1-1
  6
CONTINUOUS
 62
     3
100
AcDbCircle
 10
137.627719
 20
51.368748
 30
0.0
 40
4.0
100
AcDbArc
 50
284.83321
 51
330.0
  0
ARC
  5
1DF
330
1F
100
AcDbEntity
  8
GR1-1
  6
CONTINUOUS
 62
     3
100
AcDbCircle
 10
121.75534
 20
51.368748
 30
0.0
 40
4.0
100
AcDbArc
 50
210.0
 51
255.16679
  0
LINE
  5
1E0
330
1F
100
AcDbEntity
  8
GR1-1
  6
CONTINUOUS
 62
     3
100
AcDbLine
 10
113.691529
 20
59.912704
 30
0.0
 11
113.691529
 21
107.758653
 31
0.0
  0
LINE
  5
1E1
330
1F
100
AcDbEntity
  8
GR1-1
  6
CONTINUOUS
 62
     6
100
AcDbLine
 10
119.093781
 20
118.860161
 30
0.0
 11
119.093781
 21
83.835679
 31
0.0
  0
LINE
  5
1E2
330
1F
100
AcDbEntity
  8
GR1-1
  6
CONTINUOUS
 62
     6
100
AcDbLine
 10
140.289278
 20
118.860161
 30
0.0
 11
140.289278
 21
83.835679
 31
0.0
  0
LINE
  5
1E3
330
1F
100
AcDbEntity
  8
GR1-1
  6
CONTINUOUS
 62
     3
100
AcDbLine
 10
145.691529
 20
83.835679
 30
0.0
 11
145.691529
 21
107.758653
 31
0.0
  0
LINE
  5
1E4
330
1F
100
AcDbEntity
  8
GR1-1
  6
CONTINUOUS
 62
     3
100
AcDbLine
 10
111.941529
 20
91.769012
 30
0.0
 11
111.941529
 21
75.902345
 31
0.0
  0
ARC
  5
1E5
330
1F
100
AcDbEntity
  8
GR1-1
  6
CONTINUOUS
 62
     3
100
AcDbCircle
 10
112.341529
 20
91.769012
 30
0.0
 40
0.4
100
AcDbArc
 50
90.0
 51
180.0
  0
ARC
  5
1E6
330
1F
100
AcDbEntity
  8
GR1-1
  6
CONTINUOUS
 62
     3
100
AcDbCircle
 10
112.341529
 20
75.902345
 30
0.0
 40
0.4
100
AcDbArc
 50
180.0
 51
270.0
  0
LINE
  5
1E7
330
1F
100
AcDbEntity
  8
GR1-1
  6
CONTINUOUS
 62
     3
100
AcDbLine
 10
147.041529
 20
92.169012
 30
0.0
 11
145.691529
 21
92.169012
 31
0.0
  0
LINE
  5
1E8
330
1F
100
AcDbEntity
  8
GR1-1
  6
CONTINUOUS
 62
     3
100
AcDbLine
 10
147.041529
 20
75.502345
 30
0.0
 11
145.691529
 21
75.502345
 31
0.0
  0
LINE
  5
1E9
330
1F
100
AcDbEntity
  8
GR1-1
  6
CONTINUOUS
 62
     3
100
AcDbLine
 10
147.441529
 20
91.769012
 30
0.0
 11
147.441529
 21
75.902345
 31
0.0
  0
ARC
  5
1EA
330
1F
100
AcDbEntity
  8
GR1-1
  6
CONTINUOUS
 62
     3
100
AcDbCircle
 10
147.041529
 20
91.769012
 30
0.0
 40
0.4
100
AcDbArc
 50
0.0
 51
90.0
  0
ARC
  5
1EB
330
1F
100
AcDbEntity
  8
GR1-1
  6
CONTINUOUS
 62
     3
100
AcDbCircle
 10
147.041529
 20
75.902345
 30
0.0
 40
0.4
100
AcDbArc
 50
270.0
 51
360.0
  0
LINE
  5
1EC
330
1F
100
AcDbEntity
  8
GR1-1
  6
CONTINUOUS
 62
     6
100
AcDbLine
 10
119.093781
 20
48.811196
 30
0.0
 11
119.093781
 21
83.835679
 31
0.0
  0
LINE
  5
1ED
330
1F
100
AcDbEntity
  8
GR1-1
  6
CONTINUOUS
 62
     6
100
AcDbLine
 10
140.289278
 20
48.811196
 30
0.0
 11
140.289278
 21
83.835679
 31
0.0
  0
ARC
  5
1EE
330
1F
100
AcDbEntity
  8
GR1-1
  6
CONTINUOUS
 62
     3
100
AcDbCircle
 10
280.321925
 20
83.835679
 30
0.0
 40
26.5
100
AcDbArc
 50
-218.681126
 51
38.681126
  0
ARC
  5
1EF
330
1F
100
AcDbEntity
  8
GR1-1
  6
CONTINUOUS
 62
     3
100
AcDbCircle
 10
280.321925
 20
83.835679
 30
0.0
 40
15.0
100
AcDbArc
 50
-190.811926
 51
10.811926
  0
TEXT
  5
1F0
330
1F
100
AcDbEntity
  8
GR1-1
  6
CONTINUOUS
 62
     7
100
AcDbText
 10
263.614014
 20
75.76355
 30
0.0
 40
3.537652
  1
-
 50
112.206017
 41
0.701873
  7
FX_VECTOR
 72
     5
 11
262.630914
 21
78.171839
 31
0.0
100
AcDbText
  0
TEXT
  5
1F1
330
1F
100
AcDbEntity
  8
GR1-1
  6
CONTINUOUS
 62
     7
100
AcDbText
 10
262.510895
 20
78.631851
 30
0.0
 40
3.537652
  1
7
 50
102.706024
 41
0.908306
  7
FX_VECTOR
 72
     5
 11
261.93876
 21
81.16937
 31
0.0
100
AcDbText
  0
TEXT
  5
1F2
330
1F
100
AcDbEntity
  8
GR1-1
  6
CONTINUOUS
 62
     7
100
AcDbText
 10
261.896271
 20
81.642899
 30
0.0
 40
3.537652
  1
5
 50
93.206024
 41
0.908306
  7
FX_VECTOR
 72
     5
 11
261.750794
 21
84.240047
 31
0.0
100
AcDbText
  0
TEXT
  5
1F3
330
1F
100
AcDbEntity
  8
GR1-1
  6
CONTINUOUS
 62
     7
100
AcDbText
 10
265.113129
 20
73.38578
 30
0.0
 40
3.537652
  1
W
 50
121.706017
 41
0.701873
  7
FX_VECTOR
 72
     5
 11
263.746029
 21
75.598783
 31
0.0
100
AcDbText
  0
ARC
  5
1F4
330
1F
100
AcDbEntity
  8
GR1-1
  6
CONTINUOUS
 62
     6
100
AcDbCircle
 10
280.321925
 20
83.835679
 30
0.0
 40
24.3
100
AcDbArc
 50
-216.180877
 51
36.180877
  0
INSERT
  5
1F8
330
1F
100
AcDbEntity
  8
0
100
AcDbBlockReference
  2
BLKF024
 10
0.0
 20
0.0
 30
0.0
  0
TEXT
  5
250
330
1F
100
AcDbEntity
  8
GR1-1
  6
CONTINUOUS
 62
     7
100
AcDbText
 10
262.758759
 20
59.776085
 30
0.0
 40
4.877275
  1
G
 50
139.456009
 41
1.201412
  7
FX_VECTOR
 72
     5
 11
258.942102
 21
63.040889
 31
0.0
100
AcDbText
  0
TEXT
  5
251
330
1F
100
AcDbEntity
  8
GR1-1
  6
CONTINUOUS
 62
     7
100
AcDbText
 10
259.581238
 20
62.45459
 30
0.0
 40
4.877275
  1
O
 50
131.456009
 41
1.13818
  7
FX_VECTOR
 72
     5
 11
256.256097
 21
66.218797
 31
0.0
100
AcDbText
  0
TEXT
  5
252
330
1F
100
AcDbEntity
  8
GR1-1
  6
CONTINUOUS
 62
     7
100
AcDbText
 10
256.807404
 20
65.549217
 30
0.0
 40
4.877275
  1
L
 50
123.456017
 41
1.351589
  7
FX_VECTOR
 72
     5
 11
254.038499
 21
69.739561
 31
0.0
100
AcDbText
  0
TEXT
  5
253
330
1F
100
AcDbEntity
  8
GR1-1
  6
CONTINUOUS
 62
     7
100
AcDbText
 10
254.491257
 20
68.999756
 30
0.0
 40
4.877275
  1
D
 50
115.456017
 41
1.201412
  7
FX_VECTOR
 72
     5
 11
252.332482
 21
73.534677
 31
0.0
100
AcDbText
  0
TEXT
  5
254
330
1F
100
AcDbEntity
  8
GR1-1
  6
CONTINUOUS
 62
     7
100
AcDbText
 10
251.402557
 20
76.694374
 30
0.0
 40
4.877275
  1
C
 50
99.456024
 41
1.201412
  7
FX_VECTOR
 72
     5
 11
250.577403
 21
81.648658
 31
0.0
100
AcDbText
  0
TEXT
  5
255
330
1F
100
AcDbEntity
  8
GR1-1
  6
CONTINUOUS
 62
     7
100
AcDbText
 10
250.690109
 20
80.788689
 30
0.0
 40
4.877275
  1
A
 50
91.456024
 41
1.272084
  7
FX_VECTOR
 72
     5
 11
250.562488
 21
85.809598
 31
0.0
100
AcDbText
  0
TEXT
  5
256
330
1F
100
AcDbEntity
  8
GR1-1
  6
CONTINUOUS
 62
     7
100
AcDbText
 10
250.554413
 20
84.942284
 30
0.0
 40
4.877275
  1
S
 50
83.456024
 41
1.272084
  7
FX_VECTOR
 72
     5
 11
251.126809
 21
89.932091
 31
0.0
100
AcDbText
  0
TEXT
  5
257
330
1F
100
AcDbEntity
  8
GR1-1
  6
CONTINUOUS
 62
     7
100
AcDbText
 10
250.998138
 20
89.074341
 30
0.0
 40
4.877275
  1
T
 50
75.456024
 41
1.441695
  7
FX_VECTOR
 72
     5
 11
252.259411
 21
93.935925
 31
0.0
100
AcDbText
  0
TEXT
  5
258
330
1F
100
AcDbEntity
  8
GR1-1
  6
CONTINUOUS
 62
     7
100
AcDbText
 10
252.012589
 20
93.104431
 30
0.0
 40
4.877275
  1
E
 50
67.456024
 41
1.272084
  7
FX_VECTOR
 72
     5
 11
253.938189
 21
97.743168
 31
0.0
100
AcDbText
  0
TEXT
  5
259
330
1F
100
AcDbEntity
  8
GR1-1
  6
CONTINUOUS
 62
     7
100
AcDbText
 10
253.578064
 20
96.954147
 30
0.0
 40
4.877275
  1
R
 50
59.456024
 41
1.201412
  7
FX_VECTOR
 72
     5
 11
256.130512
 21
101.279748
 31
0.0
100
AcDbText
  0
LINE
  5
25A
330
1F
100
AcDbEntity
  8
GR1-1
  6
CONTINUOUS
 62
     7
100
AcDbLine
 10
268.017972
 20
52.074811
 30
0.0
 11
264.377582
 21
53.737208
 31
0.0
  0
LINE
  5
25B
330
1F
100
AcDbEntity
  8
GR1-1
  6
CONTINUOUS
 62
     7
100
AcDbLine
 10
264.377582
 20
53.737208
 30
0.0
 11
266.039979
 21
57.377598
 31
0.0
  0
LINE
  5
25C
330
1F
100
AcDbEntity
  8
GR1-1
  6
CONTINUOUS
 62
     7
100
AcDbLine
 10
266.039979
 20
57.377598
 30
0.0
 11
269.680369
 21
55.7152
 31
0.0
  0
LINE
  5
25D
330
1F
100
AcDbEntity
  8
GR1-1
  6
CONTINUOUS
 62
     7
100
AcDbLine
 10
269.680369
 20
55.7152
 30
0.0
 11
268.017972
 21
52.074811
 31
0.0
  0
LINE
  5
25E
330
1F
100
AcDbEntity
  8
GR1-1
  6
CONTINUOUS
 62
     7
100
AcDbLine
 10
266.245314
 20
53.010108
 30
0.0
 11
265.411779
 21
55.244727
 31
0.0
  0
LINE
  5
25F
330
1F
100
AcDbEntity
  8
GR1-1
  6
CONTINUOUS
 62
     7
100
AcDbLine
 10
265.411779
 20
55.244727
 30
0.0
 11
266.269827
 21
54.852896
 31
0.0
  0
LINE
  5
260
330
1F
100
AcDbEntity
  8
GR1-1
  6
CONTINUOUS
 62
     7
100
AcDbLine
 10
266.269827
 20
54.852896
 30
0.0
 11
266.637145
 21
53.868156
 31
0.0
  0
LINE
  5
261
330
1F
100
AcDbEntity
  8
GR1-1
  6
CONTINUOUS
 62
     7
100
AcDbLine
 10
266.637145
 20
53.868156
 30
0.0
 11
267.887024
 21
54.334373
 31
0.0
  0
LINE
  5
262
330
1F
100
AcDbEntity
  8
GR1-1
  6
CONTINUOUS
 62
     7
100
AcDbLine
 10
267.887024
 20
54.334373
 30
0.0
 11
267.420806
 21
55.584252
 31
0.0
  0
LINE
  5
263
330
1F
100
AcDbEntity
  8
GR1-1
  6
CONTINUOUS
 62
     7
100
AcDbLine
 10
267.420806
 20
55.584252
 30
0.0
 11
266.7637
 21
55.339145
 31
0.0
  0
ARC
  5
264
330
1F
100
AcDbEntity
  8
GR1-1
  6
CONTINUOUS
 62
     7
100
AcDbCircle
 10
266.787011
 20
55.276651
 30
0.0
 40
0.0667
100
AcDbArc
 50
110.456014
 51
245.456014
  0
LINE
  5
265
330
1F
100
AcDbEntity
  8
GR1-1
  6
CONTINUOUS
 62
     7
100
AcDbLine
 10
266.759304
 20
55.215978
 30
0.0
 11
267.167509
 21
55.02957
 31
0.0
  0
LINE
  5
266
330
1F
100
AcDbEntity
  8
GR1-1
  6
CONTINUOUS
 62
     7
100
AcDbLine
 10
267.167509
 20
55.02957
 30
0.0
 11
267.028975
 21
54.726204
 31
0.0
  0
LINE
  5
267
330
1F
100
AcDbEntity
  8
GR1-1
  6
CONTINUOUS
 62
     7
100
AcDbLine
 10
267.028975
 20
54.726204
 30
0.0
 11
265.312879
 21
55.509866
 31
0.0
  0
LINE
  5
268
330
1F
100
AcDbEntity
  8
GR1-1
  6
CONTINUOUS
 62
     7
100
AcDbLine
 10
265.312879
 20
55.509866
 30
0.0
 11
265.87375
 21
56.738085
 31
0.0
  0
LINE
  5
269
330
1F
100
AcDbEntity
  8
GR1-1
  6
CONTINUOUS
 62
     7
100
AcDbLine
 10
265.87375
 20
56.738085
 30
0.0
 11
266.480482
 21
56.461019
 31
0.0
  0
LINE
  5
26A
330
1F
100
AcDbEntity
  8
GR1-1
  6
CONTINUOUS
 62
     7
100
AcDbLine
 10
266.480482
 20
56.461019
 30
0.0
 11
266.263567
 21
55.986009
 31
0.0
  0
ARC
  5
26B
330
1F
100
AcDbEntity
  8
GR1-1
  6
CONTINUOUS
 62
     7
100
AcDbCircle
 10
266.32424
 20
55.958303
 30
0.0
 40
0.0667
100
AcDbArc
 50
155.456014
 51
290.456014
  0
LINE
  5
26C
330
1F
100
AcDbEntity
  8
GR1-1
  6
CONTINUOUS
 62
     7
100
AcDbLine
 10
266.347551
 20
55.895809
 30
0.0
 11
267.812637
 21
56.442301
 31
0.0
  0
LINE
  5
26D
330
1F
100
AcDbEntity
  8
GR1-1
  6
CONTINUOUS
 62
     7
100
AcDbLine
 10
267.812637
 20
56.442301
 30
0.0
 11
268.745072
 21
53.942543
 31
0.0
  0
LINE
  5
26E
330
1F
100
AcDbEntity
  8
GR1-1
  6
CONTINUOUS
 62
     7
100
AcDbLine
 10
268.745072
 20
53.942543
 30
0.0
 11
266.245314
 21
53.010108
 31
0.0
  0
TEXT
  5
26F
330
1F
100
AcDbEntity
  8
GR1-1
  6
CONTINUOUS
 62
     7
100
AcDbText
 10
302.891937
 20
103.267288
 30
0.0
 40
4.863612
  1
7
 50
305.456024
 41
1.359714
  7
FX_VECTOR
 72
     5
 11
305.997371
 21
98.906554
 31
0.0
100
AcDbText
  0
TEXT
  5
270
330
1F
100
AcDbEntity
  8
GR1-1
  6
CONTINUOUS
 62
     7
100
AcDbText
 10
305.653809
 20
99.49733
 30
0.0
 40
4.863612
  1
5
 50
296.456024
 41
1.359714
  7
FX_VECTOR
 72
     5
 11
308.038841
 21
94.704487
 31
0.0
100
AcDbText
  0
TEXT
  5
271
330
1F
100
AcDbEntity
  8
GR1-1
  6
CONTINUOUS
 62
     7
100
AcDbText
 10
307.791962
 20
95.341721
 30
0.0
 40
4.863612
  1
X
 50
287.456024
 41
1.359714
  7
FX_VECTOR
 72
     5
 11
309.397864
 21
90.234784
 31
0.0
100
AcDbText
  0
TEXT
  5
272
330
1F
100
AcDbEntity
  8
GR1-1
  6
CONTINUOUS
 62
     7
100
AcDbText
 10
309.253723
 20
90.902809
 30
0.0
 40
4.863612
  1
3
 50
278.456024
 41
1.359714
  7
FX_VECTOR
 72
     5
 11
310.040953
 21
85.607529
 31
0.0
100
AcDbText
  0
TEXT
  5
273
330
1F
100
AcDbEntity
  8
GR1-1
  6
CONTINUOUS
 62
     7
100
AcDbText
 10
310.003052
 20
86.289879
 30
0.0
 40
4.863612
  1
2
 50
269.456024
 41
1.359714
  7
FX_VECTOR
 72
     5
 11
309.952226
 21
80.936643
 31
0.0
100
AcDbText
  0
ARC
  5
274
330
1F
100
AcDbEntity
  8
GR1-1
  6
CONTINUOUS
 62
     6
100
AcDbCircle
 10
280.321925
 20
83.835679
 30
0.0
 40
18.2
100
AcDbArc
 50
-204.350094
 51
24.350094
  0
ARC
  5
275
330
1F
100
AcDbEntity
  8
GR1-1
  6
CONTINUOUS
 62
     6
100
AcDbCircle
 10
280.321925
 20
83.835679
 30
0.0
 40
20.34
100
AcDbArc
 50
150.318648
 51
180.515347
  0
ARC
  5
276
330
1F
100
AcDbEntity
  8
GR1-1
  6
CONTINUOUS
 62
     6
100
AcDbCircle
 10
280.321925
 20
83.835679
 30
0.0
 40
23.3
100
AcDbArc
 50
-214.82632
 51
34.82632
  0
ARC
  5
277
330
1F
100
AcDbEntity
  8
GR1-1
  6
CONTINUOUS
 62
     6
100
AcDbCircle
 10
280.321925
 20
83.835679
 30
0.0
 40
20.34
100
AcDbArc
 50
-145.491158
 51
29.681352
  0
DIMENSION
  5
278
330
1F
100
AcDbEntity
  8
LAYERGROUP-1
100
AcDbDimension
  2
*D23
 10
145.691529
 20
36.335679
 30
0.0
 11
129.691528
 21
37.335678
 31
0.0
 70
    33
  3
FXDIMINFO
100
AcDbAlignedDimension
 13
113.691529
 23
57.335679
 33
0.0
 14
145.691529
 24
57.335679
 34
0.0
1001
ACAD
1000
DSTYLE
1002
{
1070
     7
1000
FXTIP_ARROW_E
1070
     6
1000
FXTIP_ARROW_S
1070
   173
1070
     1
1002
}
  0
LINE
  5
282
330
1F
100
AcDbEntity
  8
GR1-1
  6
CONTINUOUS
 62
    66
100
AcDbLine
 10
130.522755
 20
113.535679
 30
0.0
 11
130.241529
 21
113.535679
 31
0.0
  0
ENDSEC
  0
SECTION
  2
OBJECTS
  0
DICTIONARY
  5
C
330
0
100
AcDbDictionary
  3
ACAD_GROUP
350
D
  3
ACAD_LAYOUT
350
1A
  3
ACAD_MLINESTYLE
350
17
  3
ACAD_PLOTSETTINGS
350
19
  3
ACDBHEADERROUNDTRIPXREC
350
283
  0
DICTIONARY
  5
D
102
{ACAD_REACTORS
330
C
102
}
330
C
100
AcDbDictionary
  0
DICTIONARY
  5
1A
102
{ACAD_REACTORS
330
C
102
}
330
C
100
AcDbDictionary
  0
DICTIONARY
  5
17
102
{ACAD_REACTORS
330
C
102
}
330
C
100
AcDbDictionary
  3
STANDARD
350
18
  0
DICTIONARY
  5
19
102
{ACAD_REACTORS
330
C
102
}
330
C
100
AcDbDictionary
  0
DICTIONARY
  5
283
102
{ACAD_REACTORS
330
C
102
}
330
C
100
AcDbDictionary
  3
CEPSNTYPE
350
28C
  3
DIMSTYLEDATA
350
2A2
  3
FINGERPRINTGUID
350
28D
  3
HYPERLINKBASE
350
286
  3
INSUNITS
350
28B
  3
LAYOUTDICT
350
288
  3
LWETCUNION
350
28A
  3
PLOTSETDICT
350
289
  3
PSVPSCALE
350
28F
  3
PUCSBASE
350
292
  3
PUCSORGBACK
350
298
  3
PUCSORGBOTTOM
350
294
  3
PUCSORGFRONT
350
297
  3
PUCSORGLEFT
350
295
  3
PUCSORGRIGHT
350
296
  3
PUCSORGTOP
350
293
  3
PUCSORTHOREF
350
290
  3
PUCSORTHOVIEW
350
291
  3
STYLESHEET
350
287
  3
TSTACKALIGN
350
284
  3
TSTACKSIZE
350
285
  3
UCSBASE
350
29B
  3
UCSORGBACK
350
2A1
  3
UCSORGBOTTOM
350
29D
  3
UCSORGFRONT
350
2A0
  3
UCSORGLEFT
350
29E
  3
UCSORGRIGHT
350
29F
  3
UCSORGTOP
350
29C
  3
UCSORTHOREF
350
299
  3
UCSORTHOVIEW
350
29A
  3
VERSIONGUID
350
28E
  0
MLINESTYLE
  5
18
102
{ACAD_REACTORS
330
17
102
}
330
17
100
AcDbMlineStyle
  2
Standard
 70
     0
  3

 62
   256
 51
90.0
 52
90.0
 71
     2
 49
0.5
 62
   256
  6
BYLAYER
 49
-0.5
 62
   256
  6
BYLAYER
  0
XRECORD
  5
28C
102
{ACAD_REACTORS
330
283
102
}
330
283
100
AcDbXrecord
 90
        0
  0
XRECORD
  5
2A2
102
{ACAD_REACTORS
330
283
102
}
330
283
100
AcDbXrecord
1000
DSTYLE
1002
{
1070
   179
 70
     2
1070
   171
 70
     3
1070
   143
 40
0.03937
1070
   274
 70
     3
1070
    41
 40
4.0
1070
   343
340
41
1070
   344
340
47
1070
   141
 40
2.5
1070
   176
 70
     7
1070
   177
 70
     7
1070
   178
 70
     7
1070
   271
 70
     2
1070
    46
 40
6.0
1070
    43
 40
10.0
1070
    44
 40
1.0
1070
    42
 40
1.0
1070
   147
 40
1.0
1070
   341
340
41
1070
   173
 70
     1
1070
    77
 70
     1
1070
   272
 70
     2
1070
    73
 70
     0
1070
   172
 70
     1
1070
    74
 70
     0
1070
   283
 70
     0
1070
   340
340
3F
1070
   140
 40
4.0
1070
   284
 70
     8
1070
    78
 70
     8
1002
}
  0
XRECORD
  5
28D
102
{ACAD_REACTORS
330
283
102
}
330
283
100
AcDbXrecord
  1
{1D2988BB-7560-477D-84BC-5FDB55E15886}
  0
XRECORD
  5
286
102
{ACAD_REACTORS
330
283
102
}
330
283
100
AcDbXrecord
  1

  0
XRECORD
  5
28B
102
{ACAD_REACTORS
330
283
102
}
330
283
100
AcDbXrecord
 90
        1
  0
XRECORD
  5
288
102
{ACAD_REACTORS
330
283
102
}
330
283
100
AcDbXrecord
340
1A
  0
XRECORD
  5
28A
102
{ACAD_REACTORS
330
283
102
}
330
283
100
AcDbXrecord
 90
    10781
  0
XRECORD
  5
289
102
{ACAD_REACTORS
330
283
102
}
330
283
100
AcDbXrecord
340
19
  0
XRECORD
  5
28F
102
{ACAD_REACTORS
330
283
102
}
330
283
100
AcDbXrecord
 40
0.0
  0
XRECORD
  5
292
102
{ACAD_REACTORS
330
283
102
}
330
283
100
AcDbXrecord
340
0
  0
XRECORD
  5
298
102
{ACAD_REACTORS
330
283
102
}
330
283
100
AcDbXrecord
 10
0.0
 20
0.0
 30
0.0
  0
XRECORD
  5
294
102
{ACAD_REACTORS
330
283
102
}
330
283
100
AcDbXrecord
 10
0.0
 20
0.0
 30
0.0
  0
XRECORD
  5
297
102
{ACAD_REACTORS
330
283
102
}
330
283
100
AcDbXrecord
 10
0.0
 20
0.0
 30
0.0
  0
XRECORD
  5
295
102
{ACAD_REACTORS
330
283
102
}
330
283
100
AcDbXrecord
 10
0.0
 20
0.0
 30
0.0
  0
XRECORD
  5
296
102
{ACAD_REACTORS
330
283
102
}
330
283
100
AcDbXrecord
 10
0.0
 20
0.0
 30
0.0
  0
XRECORD
  5
293
102
{ACAD_REACTORS
330
283
102
}
330
283
100
AcDbXrecord
 10
0.0
 20
0.0
 30
0.0
  0
XRECORD
  5
290
102
{ACAD_REACTORS
330
283
102
}
330
283
100
AcDbXrecord
340
0
  0
XRECORD
  5
291
102
{ACAD_REACTORS
330
283
102
}
330
283
100
AcDbXrecord
 70
     0
  0
XRECORD
  5
287
102
{ACAD_REACTORS
330
283
102
}
330
283
100
AcDbXrecord
  1

  0
XRECORD
  5
284
102
{ACAD_REACTORS
330
283
102
}
330
283
100
AcDbXrecord
 90
        1
  0
XRECORD
  5
285
102
{ACAD_REACTORS
330
283
102
}
330
283
100
AcDbXrecord
 90
       70
  0
XRECORD
  5
29B
102
{ACAD_REACTORS
330
283
102
}
330
283
100
AcDbXrecord
340
0
  0
XRECORD
  5
2A1
102
{ACAD_REACTORS
330
283
102
}
330
283
100
AcDbXrecord
 10
0.0
 20
0.0
 30
0.0
  0
XRECORD
  5
29D
102
{ACAD_REACTORS
330
283
102
}
330
283
100
AcDbXrecord
 10
0.0
 20
0.0
 30
0.0
  0
XRECORD
  5
2A0
102
{ACAD_REACTORS
330
283
102
}
330
283
100
AcDbXrecord
 10
0.0
 20
0.0
 30
0.0
  0
XRECORD
  5
29E
102
{ACAD_REACTORS
330
283
102
}
330
283
100
AcDbXrecord
 10
0.0
 20
0.0
 30
0.0
  0
XRECORD
  5
29F
102
{ACAD_REACTORS
330
283
102
}
330
283
100
AcDbXrecord
 10
0.0
 20
0.0
 30
0.0
  0
XRECORD
  5
29C
102
{ACAD_REACTORS
330
283
102
}
330
283
100
AcDbXrecord
 10
0.0
 20
0.0
 30
0.0
  0
XRECORD
  5
299
102
{ACAD_REACTORS
330
283
102
}
330
283
100
AcDbXrecord
340
0
  0
XRECORD
  5
29A
102
{ACAD_REACTORS
330
283
102
}
330
283
100
AcDbXrecord
 70
     0
  0
XRECORD
  5
28E
102
{ACAD_REACTORS
330
283
102
}
330
283
100
AcDbXrecord
  1
{FAEB1C32-E019-11D5-929B-00C0DF256EC4}
  0
ENDSEC
  0
EOF
