  0
SECTION
  2
HEADER
  9
$ACADVER
  1
AC1006
  9
$INSBASE
 10
0.000000
 20
0.000000
 30
0.0
  9
$EXTMIN
 10
0.000000
 20
0.000000
  9
$EXTMAX
 10
3640.000000
 20
2570.000000
  9
$LIMMIN
 10
0.000000
 20
0.000000
  9
$LIMMAX
 10
3640.000000
 20
2570.000000
  9
$VIEWCTR
 10
1820.000000
 20
1285.000000
  9
$VIEWSIZE
 40
2570.000000
  9
$SNAPMODE
 70
     0
  9
$SNAPUNIT
 10
1.0
 20
1.0
  9
$SNAPBASE
 10
0.0
 20
0.0
  9
$SNAPANG
 50
0.0
  9
$SNAPSTYLE
 70
     0
  9
$SNAPISOPAIR
 70
     0
  9
$GRIDMODE
 70
     0
  9
$GRIDUNIT
 10
0.0
 20
0.0
  9
$ORTHOMODE
 70
     0
  9
$REGENMODE
 70
     1
  9
$FILLMODE
 70
     1
  9
$QTEXTMODE
 70
     0
  9
$DRAGMODE
 70
     2
  9
$LTSCALE
 40
15.000000
  9
$OSMODE
 70
     0
  9
$ATTMODE
 70
     1
  9
$TEXTSIZE
 40
0.2
  9
$TRACEWID
 40
0.05
  9
$TEXTSTYLE
  7
STANDARD
  9
$CLAYER
  8
CSLAYER1
  9
$CELTYPE
  6
BYLAYER
  9
$CECOLOR
 62
   256
  9
$DIMSCALE
 40
1.0
  9
$DIMASZ
 40
0.18
  9
$DIMEXO
 40
0.0625
  9
$DIMDLI
 40
0.38
  9
$DIMRND
 40
0.0
  9
$DIMDLE
 40
0.0
  9
$DIMEXE
 40
0.18
  9
$DIMTP
 40
0.0
  9
$DIMTM
 40
0.0
  9
$DIMTXT
 40
0.18
  9
$DIMCEN
 40
0.09
  9
$DIMTSZ
 40
0.0
  9
$DIMTOL
 70
     0
  9
$DIMLIM
 70
     0
  9
$DIMTIH
 70
     1
  9
$DIMTOH
 70
     1
  9
$DIMSE1
 70
     0
  9
$DIMSE2
 70
     0
  9
$DIMTAD
 70
     0
  9
$DIMZIN
 70
     0
  9
$DIMBLK
  1

  9
$LUNITS
 70
     2
  9
$LUPREC
 70
     4
  9
$AXISMODE
 70
     0
  9
$AXISUNIT
 10
0.0
 20
0.0
  9
$SKETCHINC
 40
0.1
  9
$FILLETRAD
 40
0.0
  9
$AUNITS
 70
     0
  9
$AUPREC
 70
     0
  9
$MENU
  1
ACAD
  9
$ELEVATION
 40
0.0
  9
$THICKNESS
 40
0.0
  9
$VIEWDIR
 10
0.0
 20
0.0
 30
1.0
  9
$LIMCHECK
 70
     0
  9
$BLIPMODE
 70
     1
  9
$CHAMFERA
 40
0.0
  9
$CHAMFERB
 40
0.0
  9
$FASTZOOM
 70
     1
  9
$SKPOLY
 70
     0
  9
$TDCREATE
 40
2456676.000000
  9
$TDUPDATE
 40
2456676.000000
  9
$TDINDWG
 40
0.0
  9
$TDUSRTIMER
 40
0.0
  9
$USRTIMER
 70
     1
  9
$ANGBASE
 50
0.0
  9
$ANGDIR
 70
     0
  9
$PDMODE
 70
     0
  9
$PDSIZE
 40
0.0
  9
$PLINEWID
 40
0.0
  9
$COORDS
 70
     0
  9
$USERI1
 70
     0
  9
$USERI2
 70
     0
  9
$USERI3
 70
     0
  9
$USERI4
 70
     0
  9
$USERI5
 70
     0
  9
$USERR1
 40
0.0
  9
$USERR2
 40
0.0
  9
$USERR3
 40
0.0
  9
$USERR4
 40
0.0
  9
$USERR5
 40
0.0
  0
ENDSEC
  0
SECTION
  2
TABLES
  0
TABLE
  2
LTYPE
 70
     9
  0
LTYPE
  2
CONTINUOUS
 70
    64
  3
Solid line
 72
    65
 73
     0
 40
0.0
  0
LTYPE
  2
DASHED
 70
    64
  3
__ __ __ __ __ __ __ __ __ __ __ __ __ __ __
 72
    65
 73
     2
 40
0.75
 49
0.5
 49
-0.25
  0
LTYPE
  2
HIDDEN
 70
    64
  3
_ _ _ _ _ _ _ _ _ _ _ _ _ _ _ _ _ _ _ _ _ _ _
 72
    65
 73
     2
 40
0.375
 49
0.25
 49
-0.125
  0
LTYPE
  2
DOT
 70
    64
  3
...............................................
 72
    65
 73
     2
 40
0.25
 49
0.0
 49
-0.25
  0
LTYPE
  2
DASHDOT
 70
    64
  3
__ . __ . __ . __ . __ . __ . __ . __ . __ . __
 72
    65
 73
     4
 40
1.0
 49
0.5
 49
-0.25
 49
0.0
 49
-0.25
  0
LTYPE
  2
DIVIDE
 70
    64
  3
__ . . __ . . __ . . __ . . __ . . __ . . __
 72
    65
 73
     6
 40
1.25
 49
0.5
 49
-0.25
 49
0.0
 49
-0.25
 49
0.0
 49
-0.25
  0
LTYPE
  2
CENTER
 70
    64
  3
____ _ ____ _ ____ _ ____ _ ____ _ ____ _ ____ 
 72
    65
 73
     4
 40
2.0
 49
1.25
 49
-0.25
 49
0.25
 49
-0.25
  0
LTYPE
  2
PHANTOM
 70
    64
  3
______  __  __  ______  __  __  ______  __  __ 
 72
    65
 73
     6
 40
2.5
 49
1.25
 49
-0.25
 49
0.25
 49
-0.25
 49
0.25
 49
-0.25
  0
LTYPE
  2
BORDER
 70
    64
  3
__ __ . __ __ . __ __ . __ __ . __ __ . __ __ .
 72
    65
 73
     6
 40
1.75
 49
0.5
 49
-0.25
 49
0.5
 49
-0.25
 49
0.0
 49
-0.25
  0
ENDTAB
  0
TABLE
  2
LAYER
 70
    16
  0
LAYER
  2
CSLAYER1
 70
    64
 62
     7
  6
CONTINUOUS
  0
LAYER
  2
CSLAYER2
 70
    64
 62
     7
  6
CONTINUOUS
  0
LAYER
  2
CSLAYER3
 70
    64
 62
     7
  6
CONTINUOUS
  0
LAYER
  2
CSLAYER4
 70
    64
 62
     7
  6
CONTINUOUS
  0
LAYER
  2
CSLAYER5
 70
    64
 62
     7
  6
CONTINUOUS
  0
LAYER
  2
CSLAYER6
 70
    64
 62
     7
  6
CONTINUOUS
  0
LAYER
  2
CSLAYER7
 70
    64
 62
     7
  6
CONTINUOUS
  0
LAYER
  2
CSLAYER8
 70
    64
 62
     7
  6
CONTINUOUS
  0
LAYER
  2
CSLAYER9
 70
    64
 62
     7
  6
CONTINUOUS
  0
LAYER
  2
CSLAYER10
 70
    64
 62
     7
  6
CONTINUOUS
  0
LAYER
  2
CSLAYER11
 70
    64
 62
     7
  6
CONTINUOUS
  0
LAYER
  2
CSLAYER12
 70
    64
 62
     7
  6
CONTINUOUS
  0
LAYER
  2
CSLAYER13
 70
    64
 62
     7
  6
CONTINUOUS
  0
LAYER
  2
CSLAYER14
 70
    64
 62
     7
  6
CONTINUOUS
  0
LAYER
  2
CSLAYER15
 70
    64
 62
     7
  6
CONTINUOUS
  0
LAYER
  2
CSLAYER16
 70
    64
 62
     7
  6
CONTINUOUS
  0
ENDTAB
  0
TABLE
  2
STYLE
 70
     1
  0
STYLE
  2
EASYDRAW_FONT
 70
     0
 40
1.0
 41
1.0
 50
0.0
 71
     0
 42
1.0
  3
monotxt
  4
bigfont
  0
ENDTAB
  0
TABLE
  2
VIEW
 70
     0
  0
ENDTAB
  0
ENDSEC
  0
SECTION
  2
BLOCKS
  0
BLOCK
  8
CSLAYER1
  2
EASYDRAWDIM0000
 70
   64
 10
0.0
 20
0.0
 30
0.0
  0
TEXT
  8
CSLAYER1
 62
     3
 10
278.705078
 20
2228.414063
 40
48.000000
 41
0.787500
  1
昇降切替バルブ
 50
0.000000
 51
0.000000
  7
EASYDRAW_FONT
 72
     5
 11
530.705078
 21
2228.414063
  0
LINE
  8
CSLAYER1
  6
CONTINUOUS
 62
     7
 10
630.601241
 20
2077.692332
 11
530.705441
 21
2218.413689
  0
LINE
  8
CSLAYER1
  6
CONTINUOUS
 62
     7
 10
630.601241
 20
2077.692332
 11
607.495752
 21
2096.827023
  0
LINE
  8
CSLAYER1
  6
CONTINUOUS
 62
     7
 10
630.601241
 20
2077.692332
 11
620.158645
 21
2105.816205
  0
LINE
  8
CSLAYER1
  6
CONTINUOUS
 62
     7
 10
530.705441
 20
2218.413689
 11
270.705441
 21
2218.413689
  0
ENDBLK
  8
0
  0
BLOCK
  8
CSLAYER1
  2
EASYDRAWDIM0001
 70
   64
 10
0.0
 20
0.0
 30
0.0
  0
TEXT
  8
CSLAYER1
 62
     3
 10
302.452393
 20
2139.166504
 40
48.000000
 41
0.794118
  1
ポンプペタル
 50
0.000000
 51
0.000000
  7
EASYDRAW_FONT
 72
     5
 11
518.452393
 21
2139.166504
  0
LINE
  8
CSLAYER1
  6
CONTINUOUS
 62
     7
 10
584.058086
 20
2049.351930
 11
520.404368
 21
2129.165991
  0
LINE
  8
CSLAYER1
  6
CONTINUOUS
 62
     7
 10
584.058086
 20
2049.351930
 11
559.919589
 21
2067.165772
  0
LINE
  8
CSLAYER1
  6
CONTINUOUS
 62
     7
 10
584.058086
 20
2049.351930
 11
572.060456
 21
2076.848418
  0
LINE
  8
CSLAYER1
  6
CONTINUOUS
 62
     7
 10
520.404368
 20
2129.165991
 11
290.404368
 21
2129.165991
  0
ENDBLK
  8
0
  0
BLOCK
  8
CSLAYER1
  2
EASYDRAWDIM0002
 70
   64
 10
0.0
 20
0.0
 30
0.0
  0
TEXT
  8
CSLAYER1
 62
     3
 10
657.172852
 20
2234.287598
 40
48.000000
 41
0.787500
  1
高圧ホース２m
 50
0.000000
 51
0.000000
  7
EASYDRAW_FONT
 72
     5
 11
909.172852
 21
2234.287598
  0
LINE
  8
CSLAYER1
  6
CONTINUOUS
 62
     7
 10
984.489038
 20
2094.442022
 11
917.224006
 21
2224.287313
  0
LINE
  8
CSLAYER1
  6
CONTINUOUS
 62
     7
 10
984.489038
 20
2094.442022
 11
964.265397
 21
2116.600640
  0
LINE
  8
CSLAYER1
  6
CONTINUOUS
 62
     7
 10
984.489038
 20
2094.442022
 11
978.054160
 21
2123.743769
  0
LINE
  8
CSLAYER1
  6
CONTINUOUS
 62
     7
 10
917.224006
 20
2224.287313
 11
647.224006
 21
2224.287313
  0
ENDBLK
  8
0
  0
BLOCK
  8
CSLAYER1
  2
*D0000
 70
    65
 10
0.0
 20
0.0
 30
0.0
  0
TEXT
  8
CSLAYER1
 62
     3
 10
1877.769165
 20
1623.812256
 40
40.000000
 41
0.843750
  1
900
 50
0.000000
 51
0.000000
  7
EASYDRAW_FONT
 72
     5
 11
1967.769165
 21
1623.812256
  0
LINE
  8
CSLAYER1
  6
CONTINUOUS
 62
     5
 10
1472.768972
 20
1523.812322
 11
1472.768972
 21
1623.812322
  0
LINE
  8
CSLAYER1
  6
CONTINUOUS
 62
     5
 10
2372.768972
 20
1523.812322
 11
2372.768972
 21
1623.812322
  0
LINE
  8
CSLAYER1
  6
CONTINUOUS
 62
     5
 10
1472.768972
 20
1613.812322
 11
2372.768972
 21
1613.812322
  0
LINE
  8
CSLAYER1
  6
CONTINUOUS
 62
     5
 10
1472.768972
 20
1613.812322
 11
1501.746747
 21
1621.576893
  0
LINE
  8
CSLAYER1
  6
CONTINUOUS
 62
     5
 10
1472.768972
 20
1613.812322
 11
1501.746747
 21
1606.047750
  0
LINE
  8
CSLAYER1
  6
CONTINUOUS
 62
     5
 10
2372.768972
 20
1613.812322
 11
2343.791198
 21
1621.576893
  0
LINE
  8
CSLAYER1
  6
CONTINUOUS
 62
     5
 10
2372.768972
 20
1613.812322
 11
2343.791198
 21
1606.047750
  0
ENDBLK
  8
0
  0
BLOCK
  8
CSLAYER1
  2
*D0001
 70
    65
 10
0.0
 20
0.0
 30
0.0
  0
TEXT
  8
CSLAYER1
 62
     3
 10
1355.153931
 20
2009.235596
 40
40.000000
 41
0.843750
  1
250
 50
90.000000
 51
0.000000
  7
EASYDRAW_FONT
 72
     5
 11
1355.153931
 21
2099.235596
  0
LINE
  8
CSLAYER1
  6
CONTINUOUS
 62
     5
 10
1452.397145
 20
1954.788402
 11
1353.405886
 21
1954.788402
  0
LINE
  8
CSLAYER1
  6
CONTINUOUS
 62
     5
 10
1452.397145
 20
2204.788402
 11
1353.405886
 21
2204.788402
  0
LINE
  8
CSLAYER1
  6
CONTINUOUS
 62
     5
 10
1363.405886
 20
1954.788402
 11
1363.405886
 21
2204.788402
  0
LINE
  8
CSLAYER1
  6
CONTINUOUS
 62
     5
 10
1363.405886
 20
1954.788402
 11
1355.641315
 21
1983.766177
  0
LINE
  8
CSLAYER1
  6
CONTINUOUS
 62
     5
 10
1363.405886
 20
1954.788402
 11
1371.170457
 21
1983.766177
  0
LINE
  8
CSLAYER1
  6
CONTINUOUS
 62
     5
 10
1363.405886
 20
2204.788402
 11
1355.641315
 21
2175.810627
  0
LINE
  8
CSLAYER1
  6
CONTINUOUS
 62
     5
 10
1363.405886
 20
2204.788402
 11
1371.170457
 21
2175.810627
  0
ENDBLK
  8
0
  0
BLOCK
  8
CSLAYER1
  2
EASYDRAWDIM0003
 70
   64
 10
0.0
 20
0.0
 30
0.0
  0
TEXT
  8
CSLAYER1
 62
     3
 10
1566.897583
 20
1819.788086
 40
40.000000
 41
0.771429
  1
2-%%c13(アンカー穴)
 50
0.000000
 51
0.000000
  7
EASYDRAW_FONT
 72
     5
 11
1926.897583
 21
1819.788086
  0
LINE
  8
CSLAYER1
  6
CONTINUOUS
 62
     5
 10
1562.556090
 20
1809.788402
 11
1936.897343
 21
1809.788402
  0
ENDBLK
  8
0
  0
BLOCK
  8
CSLAYER1
  2
EASYDRAWDIM0004
 70
   64
 10
0.0
 20
0.0
 30
0.0
  0
TEXT
  8
CSLAYER1
 62
     3
 10
1170.672241
 20
945.846741
 40
40.000000
 41
0.803571
  1
高圧ホース
 50
0.000000
 51
0.000000
  7
EASYDRAW_FONT
 72
     5
 11
1320.672241
 21
945.846741
  0
LINE
  8
CSLAYER1
  6
CONTINUOUS
 62
     5
 10
1387.217752
 20
817.015165
 11
1320.672083
 21
935.846716
  0
LINE
  8
CSLAYER1
  6
CONTINUOUS
 62
     5
 10
1387.217752
 20
817.015165
 11
1366.284479
 21
838.504652
  0
LINE
  8
CSLAYER1
  6
CONTINUOUS
 62
     5
 10
1387.217752
 20
817.015165
 11
1379.833749
 21
846.092243
  0
LINE
  8
CSLAYER1
  6
CONTINUOUS
 62
     5
 10
1320.672083
 20
935.846716
 11
1160.672083
 21
935.846716
  0
ENDBLK
  8
0
  0
BLOCK
  8
CSLAYER1
  2
*D0002
 70
    65
 10
0.0
 20
0.0
 30
0.0
  0
TEXT
  8
CSLAYER1
 62
     3
 10
1087.337158
 20
815.333313
 40
40.000000
 41
1.125000
  1
6
 50
90.000000
 51
0.000000
  7
EASYDRAW_FONT
 72
     5
 11
1087.337158
 21
845.333313
  0
LINE
  8
CSLAYER1
  6
CONTINUOUS
 62
     5
 10
1040.838476
 20
797.518911
 11
1107.337147
 21
797.518911
  0
LINE
  8
CSLAYER1
  6
CONTINUOUS
 62
     5
 10
1040.838476
 20
803.518911
 11
1107.337147
 21
803.518911
  0
LINE
  8
CSLAYER1
  6
CONTINUOUS
 62
     5
 10
1097.337147
 20
797.518911
 11
1097.337147
 21
747.518911
  0
LINE
  8
CSLAYER1
  6
CONTINUOUS
 62
     5
 10
1097.337147
 20
797.518911
 11
1089.572575
 21
768.541137
  0
LINE
  8
CSLAYER1
  6
CONTINUOUS
 62
     5
 10
1097.337147
 20
797.518911
 11
1105.101718
 21
768.541137
  0
LINE
  8
CSLAYER1
  6
CONTINUOUS
 62
     5
 10
1097.337147
 20
803.518911
 11
1097.337147
 21
857.147773
  0
LINE
  8
CSLAYER1
  6
CONTINUOUS
 62
     5
 10
1097.337147
 20
803.518911
 11
1089.572575
 21
832.496686
  0
LINE
  8
CSLAYER1
  6
CONTINUOUS
 62
     5
 10
1097.337147
 20
803.518911
 11
1105.101718
 21
832.496686
  0
LINE
  8
CSLAYER1
  6
CONTINUOUS
 62
     5
 10
1097.337147
 20
797.518911
 11
1097.337147
 21
803.518911
  0
ENDBLK
  8
0
  0
BLOCK
  8
CSLAYER1
  2
*D0003
 70
    65
 10
0.0
 20
0.0
 30
0.0
  0
TEXT
  8
CSLAYER1
 62
     3
 10
1855.160034
 20
597.518982
 40
40.000000
 41
0.843750
  1
903
 50
0.000000
 51
0.000000
  7
EASYDRAW_FONT
 72
     5
 11
1945.160034
 21
597.518982
  0
LINE
  8
CSLAYER1
  6
CONTINUOUS
 62
     5
 10
1448.659947
 20
787.518911
 11
1448.659947
 21
577.518911
  0
LINE
  8
CSLAYER1
  6
CONTINUOUS
 62
     5
 10
2351.659947
 20
787.518911
 11
2351.659947
 21
577.518911
  0
LINE
  8
CSLAYER1
  6
CONTINUOUS
 62
     5
 10
1448.659947
 20
587.518911
 11
2351.659947
 21
587.518911
  0
LINE
  8
CSLAYER1
  6
CONTINUOUS
 62
     5
 10
1448.659947
 20
587.518911
 11
1477.637721
 21
595.283483
  0
LINE
  8
CSLAYER1
  6
CONTINUOUS
 62
     5
 10
1448.659947
 20
587.518911
 11
1477.637721
 21
579.754340
  0
LINE
  8
CSLAYER1
  6
CONTINUOUS
 62
     5
 10
2351.659947
 20
587.518911
 11
2322.682172
 21
595.283483
  0
LINE
  8
CSLAYER1
  6
CONTINUOUS
 62
     5
 10
2351.659947
 20
587.518911
 11
2322.682172
 21
579.754340
  0
ENDBLK
  8
0
  0
BLOCK
  8
CSLAYER1
  2
*D0004
 70
    65
 10
0.0
 20
0.0
 30
0.0
  0
TEXT
  8
CSLAYER1
 62
     3
 10
2482.769043
 20
2034.788330
 40
40.000000
 41
0.843750
  1
200
 50
90.000000
 51
0.000000
  7
EASYDRAW_FONT
 72
     5
 11
2482.769043
 21
2124.788330
  0
LINE
  8
CSLAYER1
  6
CONTINUOUS
 62
     5
 10
2361.359947
 20
1979.788402
 11
2502.768972
 21
1979.788402
  0
LINE
  8
CSLAYER1
  6
CONTINUOUS
 62
     5
 10
2361.359947
 20
2179.788402
 11
2502.768972
 21
2179.788402
  0
LINE
  8
CSLAYER1
  6
CONTINUOUS
 62
     5
 10
2492.768972
 20
1979.788402
 11
2492.768972
 21
2179.788402
  0
LINE
  8
CSLAYER1
  6
CONTINUOUS
 62
     5
 10
2492.768972
 20
1979.788402
 11
2485.004401
 21
2008.766177
  0
LINE
  8
CSLAYER1
  6
CONTINUOUS
 62
     5
 10
2492.768972
 20
1979.788402
 11
2500.533544
 21
2008.766177
  0
LINE
  8
CSLAYER1
  6
CONTINUOUS
 62
     5
 10
2492.768972
 20
2179.788402
 11
2485.004401
 21
2150.810627
  0
LINE
  8
CSLAYER1
  6
CONTINUOUS
 62
     5
 10
2492.768972
 20
2179.788402
 11
2500.533544
 21
2150.810627
  0
ENDBLK
  8
0
  0
BLOCK
  8
CSLAYER1
  2
EASYDRAWDIM0005
 70
   64
 10
0.0
 20
0.0
 30
0.0
  0
TEXT
  8
CSLAYER1
 62
     3
 10
1404.392700
 20
1977.688087
 40
33.155758
 41
0.767879
  1
穴ヒﾟッチ
 50
90.000000
 51
0.000000
  7
EASYDRAW_FONT
 72
     5
 11
1404.392700
 21
2096.499657
  0
ENDBLK
  8
0
  0
BLOCK
  8
CSLAYER1
  2
*D0005
 70
    65
 10
0.0
 20
0.0
 30
0.0
  0
TEXT
  8
CSLAYER1
 62
     3
 10
1289.651245
 20
1291.416626
 40
40.000000
 41
0.803571
  1
MAX21
 50
0.000000
 51
0.000000
  7
EASYDRAW_FONT
 72
     5
 11
1439.651245
 21
1291.416626
  0
LINE
  8
CSLAYER1
  6
CONTINUOUS
 62
     5
 10
1451.359947
 20
872.518911
 11
1451.359947
 21
1279.193783
  0
LINE
  8
CSLAYER1
  6
CONTINUOUS
 62
     5
 10
1472.768972
 20
1503.812322
 11
1472.768972
 21
1259.193783
  0
LINE
  8
CSLAYER1
  6
CONTINUOUS
 62
     5
 10
1451.359947
 20
1269.193783
 11
1392.396658
 21
1269.193783
  0
LINE
  8
CSLAYER1
  6
CONTINUOUS
 62
     5
 10
1451.359947
 20
1269.193783
 11
1422.382172
 21
1276.958355
  0
LINE
  8
CSLAYER1
  6
CONTINUOUS
 62
     5
 10
1451.359947
 20
1269.193783
 11
1422.382172
 21
1261.429212
  0
LINE
  8
CSLAYER1
  6
CONTINUOUS
 62
     5
 10
1472.768972
 20
1269.193783
 11
1522.768972
 21
1269.193783
  0
LINE
  8
CSLAYER1
  6
CONTINUOUS
 62
     5
 10
1472.768972
 20
1269.193783
 11
1501.746747
 21
1276.958355
  0
LINE
  8
CSLAYER1
  6
CONTINUOUS
 62
     5
 10
1472.768972
 20
1269.193783
 11
1501.746747
 21
1261.429212
  0
LINE
  8
CSLAYER1
  6
CONTINUOUS
 62
     5
 10
1451.359947
 20
1269.193783
 11
1472.768972
 21
1269.193783
  0
ENDBLK
  8
0
  0
BLOCK
  8
CSLAYER1
  2
EASYDRAWDIM0006
 70
   64
 10
0.0
 20
0.0
 30
0.0
  0
TEXT
  8
CSLAYER1
 62
     3
 10
1205.022827
 20
1152.661499
 40
40.000000
 41
0.787500
  1
油圧シリンダー
 50
0.000000
 51
0.000000
  7
EASYDRAW_FONT
 72
     5
 11
1415.022827
 21
1152.661499
  0
LINE
  8
CSLAYER1
  6
CONTINUOUS
 62
     5
 10
1561.929505
 20
995.448240
 11
1415.987452
 21
1142.661345
  0
LINE
  8
CSLAYER1
  6
CONTINUOUS
 62
     5
 10
1561.929505
 20
995.448240
 11
1536.014023
 21
1010.560744
  0
LINE
  8
CSLAYER1
  6
CONTINUOUS
 62
     5
 10
1561.929505
 20
995.448240
 11
1547.042291
 21
1021.493794
  0
LINE
  8
CSLAYER1
  6
CONTINUOUS
 62
     5
 10
1415.987452
 20
1142.661345
 11
1195.022709
 21
1142.661345
  0
ENDBLK
  8
0
  0
BLOCK
  8
CSLAYER1
  2
*D0006
 70
    65
 10
0.0
 20
0.0
 30
0.0
  0
TEXT
  8
CSLAYER1
 62
     3
 10
2662.769043
 20
799.918884
 40
40.000000
 41
0.900000
  1
65
 50
90.000000
 51
0.000000
  7
EASYDRAW_FONT
 72
     5
 11
2662.769043
 21
859.918884
  0
LINE
  8
CSLAYER1
  6
CONTINUOUS
 62
     5
 10
2696.491008
 20
797.518911
 11
2662.768972
 21
797.518911
  0
LINE
  8
CSLAYER1
  6
CONTINUOUS
 62
     5
 10
2747.032161
 20
862.318911
 11
2662.768972
 21
862.318911
  0
LINE
  8
CSLAYER1
  6
CONTINUOUS
 62
     5
 10
2672.768972
 20
797.518911
 11
2672.768972
 21
862.318911
  0
LINE
  8
CSLAYER1
  6
CONTINUOUS
 62
     5
 10
2672.768972
 20
747.518911
 11
2672.768972
 21
797.518911
  0
LINE
  8
CSLAYER1
  6
CONTINUOUS
 62
     5
 10
2672.768972
 20
797.518911
 11
2665.004401
 21
768.541137
  0
LINE
  8
CSLAYER1
  6
CONTINUOUS
 62
     5
 10
2672.768972
 20
797.518911
 11
2680.533544
 21
768.541137
  0
LINE
  8
CSLAYER1
  6
CONTINUOUS
 62
     5
 10
2672.768972
 20
862.318911
 11
2672.768972
 21
912.318911
  0
LINE
  8
CSLAYER1
  6
CONTINUOUS
 62
     5
 10
2672.768972
 20
862.318911
 11
2665.004401
 21
891.296686
  0
LINE
  8
CSLAYER1
  6
CONTINUOUS
 62
     5
 10
2672.768972
 20
862.318911
 11
2680.533544
 21
891.296686
  0
ENDBLK
  8
0
  0
BLOCK
  8
CSLAYER1
  2
*D0007
 70
    65
 10
0.0
 20
0.0
 30
0.0
  0
TEXT
  8
CSLAYER1
 62
     3
 10
835.838623
 20
597.518921
 40
40.000000
 41
0.843750
  1
300
 50
0.000000
 51
0.000000
  7
EASYDRAW_FONT
 72
     5
 11
925.838623
 21
597.518921
  0
LINE
  8
CSLAYER1
  6
CONTINUOUS
 62
     5
 10
730.838476
 20
787.518911
 11
730.838476
 21
577.518911
  0
LINE
  8
CSLAYER1
  6
CONTINUOUS
 62
     5
 10
1030.838476
 20
793.518911
 11
1030.838476
 21
577.518911
  0
LINE
  8
CSLAYER1
  6
CONTINUOUS
 62
     5
 10
730.838476
 20
587.518911
 11
1030.838476
 21
587.518911
  0
LINE
  8
CSLAYER1
  6
CONTINUOUS
 62
     5
 10
730.838476
 20
587.518911
 11
759.816250
 21
595.283483
  0
LINE
  8
CSLAYER1
  6
CONTINUOUS
 62
     5
 10
730.838476
 20
587.518911
 11
759.816250
 21
579.754340
  0
LINE
  8
CSLAYER1
  6
CONTINUOUS
 62
     5
 10
1030.838476
 20
587.518911
 11
1001.860701
 21
595.283483
  0
LINE
  8
CSLAYER1
  6
CONTINUOUS
 62
     5
 10
1030.838476
 20
587.518911
 11
1001.860701
 21
579.754340
  0
ENDBLK
  8
0
  0
BLOCK
  8
CSLAYER1
  2
*D0008
 70
    65
 10
0.0
 20
0.0
 30
0.0
  0
TEXT
  8
CSLAYER1
 62
     3
 10
1459.280151
 20
611.314209
 40
40.000000
 41
0.900000
  1
25
 50
0.000000
 51
0.000000
  7
EASYDRAW_FONT
 72
     5
 11
1519.280151
 21
611.314209
  0
LINE
  8
CSLAYER1
  6
CONTINUOUS
 62
     5
 10
1448.659947
 20
752.639417
 11
1448.659947
 21
667.518911
  0
LINE
  8
CSLAYER1
  6
CONTINUOUS
 62
     5
 10
1473.659947
 20
790.588280
 11
1473.659947
 21
667.518911
  0
LINE
  8
CSLAYER1
  6
CONTINUOUS
 62
     5
 10
1448.659947
 20
677.518911
 11
1473.659947
 21
677.518911
  0
LINE
  8
CSLAYER1
  6
CONTINUOUS
 62
     5
 10
1398.659947
 20
677.518911
 11
1448.659947
 21
677.518911
  0
LINE
  8
CSLAYER1
  6
CONTINUOUS
 62
     5
 10
1448.659947
 20
677.518911
 11
1419.682172
 21
685.283483
  0
LINE
  8
CSLAYER1
  6
CONTINUOUS
 62
     5
 10
1448.659947
 20
677.518911
 11
1419.682172
 21
669.754340
  0
LINE
  8
CSLAYER1
  6
CONTINUOUS
 62
     5
 10
1473.659947
 20
677.518911
 11
1523.659947
 21
677.518911
  0
LINE
  8
CSLAYER1
  6
CONTINUOUS
 62
     5
 10
1473.659947
 20
677.518911
 11
1502.637721
 21
685.283483
  0
LINE
  8
CSLAYER1
  6
CONTINUOUS
 62
     5
 10
1473.659947
 20
677.518911
 11
1502.637721
 21
669.754340
  0
ENDBLK
  8
0
  0
BLOCK
  8
CSLAYER1
  2
*D0009
 70
    65
 10
0.0
 20
0.0
 30
0.0
  0
TEXT
  8
CSLAYER1
 62
     3
 10
835.838623
 20
1623.812256
 40
40.000000
 41
0.843750
  1
200
 50
0.000000
 51
0.000000
  7
EASYDRAW_FONT
 72
     5
 11
925.838623
 21
1623.812256
  0
LINE
  8
CSLAYER1
  6
CONTINUOUS
 62
     5
 10
780.838476
 20
1523.812322
 11
780.838476
 21
1623.812322
  0
LINE
  8
CSLAYER1
  6
CONTINUOUS
 62
     5
 10
980.838476
 20
1523.812322
 11
980.838476
 21
1623.812322
  0
LINE
  8
CSLAYER1
  6
CONTINUOUS
 62
     5
 10
780.838476
 20
1613.812322
 11
980.838476
 21
1613.812322
  0
LINE
  8
CSLAYER1
  6
CONTINUOUS
 62
     5
 10
780.838476
 20
1613.812322
 11
809.816250
 21
1621.576893
  0
LINE
  8
CSLAYER1
  6
CONTINUOUS
 62
     5
 10
780.838476
 20
1613.812322
 11
809.816250
 21
1606.047750
  0
LINE
  8
CSLAYER1
  6
CONTINUOUS
 62
     5
 10
980.838476
 20
1613.812322
 11
951.860701
 21
1621.576893
  0
LINE
  8
CSLAYER1
  6
CONTINUOUS
 62
     5
 10
980.838476
 20
1613.812322
 11
951.860701
 21
1606.047750
  0
ENDBLK
  8
0
  0
BLOCK
  8
CSLAYER1
  2
EASYDRAWDIM0007
 70
   64
 10
0.0
 20
0.0
 30
0.0
  0
TEXT
  8
CSLAYER1
 62
     3
 10
1112.925171
 20
688.329712
 40
40.000000
 41
0.803571
  1
2-φ13
 50
0.000000
 51
0.000000
  7
EASYDRAW_FONT
 72
     5
 11
1262.925171
 21
688.329712
  0
ENDBLK
  8
0
  0
BLOCK
  8
CSLAYER1
  2
*D0010
 70
    65
 10
0.0
 20
0.0
 30
0.0
  0
LINE
  8
CSLAYER1
  6
CONTINUOUS
 62
     5
 10
1448.659947
 20
1929.788402
 11
1448.659947
 21
1709.788402
  0
LINE
  8
CSLAYER1
  6
CONTINUOUS
 62
     5
 10
1498.659947
 20
1929.788402
 11
1498.659947
 21
1709.788402
  0
LINE
  8
CSLAYER1
  6
CONTINUOUS
 62
     5
 10
1448.659947
 20
1719.788402
 11
1498.659947
 21
1719.788402
  0
LINE
  8
CSLAYER1
  6
CONTINUOUS
 62
     5
 10
1358.659947
 20
1719.788402
 11
1448.659947
 21
1719.788402
  0
LINE
  8
CSLAYER1
  6
CONTINUOUS
 62
     5
 10
1448.659947
 20
1719.788402
 11
1419.682172
 21
1727.552973
  0
LINE
  8
CSLAYER1
  6
CONTINUOUS
 62
     5
 10
1448.659947
 20
1719.788402
 11
1419.682172
 21
1712.023831
  0
LINE
  8
CSLAYER1
  6
CONTINUOUS
 62
     5
 10
1498.659947
 20
1719.788402
 11
1548.659947
 21
1719.788402
  0
LINE
  8
CSLAYER1
  6
CONTINUOUS
 62
     5
 10
1498.659947
 20
1719.788402
 11
1527.637721
 21
1727.552973
  0
LINE
  8
CSLAYER1
  6
CONTINUOUS
 62
     5
 10
1498.659947
 20
1719.788402
 11
1527.637721
 21
1712.023831
  0
TEXT
  8
CSLAYER1
 62
     3
 10
1358.659912
 20
1729.788452
 40
40.000000
 41
0.900000
  1
50
 50
0.000000
 51
0.000000
  7
EASYDRAW_FONT
 72
     5
 11
1418.659912
 21
1729.788452
  0
ENDBLK
  8
0
  0
BLOCK
  8
CSLAYER1
  2
*D0011
 70
    65
 10
0.0
 20
0.0
 30
0.0
  0
LINE
  8
CSLAYER1
  6
CONTINUOUS
 62
     5
 10
1448.659947
 20
1929.788402
 11
1448.659947
 21
1799.788402
  0
LINE
  8
CSLAYER1
  6
CONTINUOUS
 62
     5
 10
1473.659947
 20
1933.525600
 11
1473.659947
 21
1799.788402
  0
LINE
  8
CSLAYER1
  6
CONTINUOUS
 62
     5
 10
1448.659947
 20
1809.788402
 11
1473.659947
 21
1809.788402
  0
LINE
  8
CSLAYER1
  6
CONTINUOUS
 62
     5
 10
1358.659947
 20
1809.788402
 11
1448.659947
 21
1809.788402
  0
LINE
  8
CSLAYER1
  6
CONTINUOUS
 62
     5
 10
1448.659947
 20
1809.788402
 11
1419.682172
 21
1817.552973
  0
LINE
  8
CSLAYER1
  6
CONTINUOUS
 62
     5
 10
1448.659947
 20
1809.788402
 11
1419.682172
 21
1802.023831
  0
LINE
  8
CSLAYER1
  6
CONTINUOUS
 62
     5
 10
1473.659947
 20
1809.788402
 11
1523.659947
 21
1809.788402
  0
LINE
  8
CSLAYER1
  6
CONTINUOUS
 62
     5
 10
1473.659947
 20
1809.788402
 11
1502.637721
 21
1817.552973
  0
LINE
  8
CSLAYER1
  6
CONTINUOUS
 62
     5
 10
1473.659947
 20
1809.788402
 11
1502.637721
 21
1802.023831
  0
TEXT
  8
CSLAYER1
 62
     3
 10
1358.659912
 20
1819.788452
 40
40.000000
 41
0.900000
  1
25
 50
0.000000
 51
0.000000
  7
EASYDRAW_FONT
 72
     5
 11
1418.659912
 21
1819.788452
  0
ENDBLK
  8
0
  0
BLOCK
  8
CSLAYER1
  2
*D0012
 70
    65
 10
0.0
 20
0.0
 30
0.0
  0
LINE
  8
CSLAYER1
  6
CONTINUOUS
 62
     5
 10
755.838476
 20
778.589550
 11
755.838476
 21
667.518911
  0
LINE
  8
CSLAYER1
  6
CONTINUOUS
 62
     5
 10
1005.838476
 20
778.589550
 11
1005.838476
 21
667.518911
  0
LINE
  8
CSLAYER1
  6
CONTINUOUS
 62
     5
 10
755.838476
 20
677.518911
 11
1005.838476
 21
677.518911
  0
LINE
  8
CSLAYER1
  6
CONTINUOUS
 62
     5
 10
755.838476
 20
677.518911
 11
784.816250
 21
685.283483
  0
LINE
  8
CSLAYER1
  6
CONTINUOUS
 62
     5
 10
755.838476
 20
677.518911
 11
784.816250
 21
669.754340
  0
LINE
  8
CSLAYER1
  6
CONTINUOUS
 62
     5
 10
1005.838476
 20
677.518911
 11
976.860701
 21
685.283483
  0
LINE
  8
CSLAYER1
  6
CONTINUOUS
 62
     5
 10
1005.838476
 20
677.518911
 11
976.860701
 21
669.754340
  0
TEXT
  8
CSLAYER1
 62
     3
 10
835.838501
 20
687.518921
 40
40.000000
 41
0.843750
  1
250
 50
0.000000
 51
0.000000
  7
EASYDRAW_FONT
 72
     5
 11
925.838501
 21
687.518921
  0
ENDBLK
  8
0
  0
BLOCK
  8
CSLAYER1
  2
*D0013
 70
    65
 10
0.0
 20
0.0
 30
0.0
  0
LINE
  8
CSLAYER1
  6
CONTINUOUS
 62
     5
 10
2502.768972
 20
797.518911
 11
2592.768972
 21
797.518911
  0
LINE
  8
CSLAYER1
  6
CONTINUOUS
 62
     5
 10
2382.768972
 20
1513.812322
 11
2592.768972
 21
1513.812322
  0
LINE
  8
CSLAYER1
  6
CONTINUOUS
 62
     5
 10
2582.768972
 20
797.518911
 11
2582.768972
 21
1513.812322
  0
LINE
  8
CSLAYER1
  6
CONTINUOUS
 62
     5
 10
2582.768972
 20
797.518911
 11
2575.004401
 21
826.496686
  0
LINE
  8
CSLAYER1
  6
CONTINUOUS
 62
     5
 10
2582.768972
 20
797.518911
 11
2590.533544
 21
826.496686
  0
LINE
  8
CSLAYER1
  6
CONTINUOUS
 62
     5
 10
2582.768972
 20
1513.812322
 11
2575.004401
 21
1484.834547
  0
LINE
  8
CSLAYER1
  6
CONTINUOUS
 62
     5
 10
2582.768972
 20
1513.812322
 11
2590.533544
 21
1484.834547
  0
TEXT
  8
CSLAYER1
 62
     3
 10
2572.769043
 20
1110.665649
 40
40.000000
 41
0.843750
  1
700
 50
90.000000
 51
0.000000
  7
EASYDRAW_FONT
 72
     5
 11
2572.769043
 21
1200.665649
  0
ENDBLK
  8
0
  0
BLOCK
  8
CSLAYER1
  2
*D0014
 70
    65
 10
0.0
 20
0.0
 30
0.0
  0
LINE
  8
CSLAYER1
  6
CONTINUOUS
 62
     5
 10
2361.359947
 20
862.518911
 11
2502.768972
 21
862.518911
  0
LINE
  8
CSLAYER1
  6
CONTINUOUS
 62
     5
 10
2492.768972
 20
862.518911
 11
2492.768972
 21
1513.812322
  0
LINE
  8
CSLAYER1
  6
CONTINUOUS
 62
     5
 10
2492.768972
 20
862.518911
 11
2485.004401
 21
891.496686
  0
LINE
  8
CSLAYER1
  6
CONTINUOUS
 62
     5
 10
2492.768972
 20
862.518911
 11
2500.533544
 21
891.496686
  0
LINE
  8
CSLAYER1
  6
CONTINUOUS
 62
     5
 10
2492.768972
 20
1513.812322
 11
2485.004401
 21
1484.834547
  0
LINE
  8
CSLAYER1
  6
CONTINUOUS
 62
     5
 10
2492.768972
 20
1513.812322
 11
2500.533544
 21
1484.834547
  0
TEXT
  8
CSLAYER1
 62
     3
 10
2482.768799
 20
1143.165649
 40
40.000000
 41
0.843750
  1
635
 50
90.000000
 51
0.000000
  7
EASYDRAW_FONT
 72
     5
 11
2482.768799
 21
1233.165649
  0
ENDBLK
  8
0
  0
BLOCK
  8
CSLAYER1
  2
*D0015
 70
    65
 10
0.0
 20
0.0
 30
0.0
  0
LINE
  8
CSLAYER1
  6
CONTINUOUS
 62
     5
 10
2492.768972
 20
797.518911
 11
2492.768972
 21
862.518911
  0
LINE
  8
CSLAYER1
  6
CONTINUOUS
 62
     5
 10
2492.768972
 20
797.518911
 11
2485.004401
 21
826.496686
  0
LINE
  8
CSLAYER1
  6
CONTINUOUS
 62
     5
 10
2492.768972
 20
797.518911
 11
2500.533544
 21
826.496686
  0
LINE
  8
CSLAYER1
  6
CONTINUOUS
 62
     5
 10
2492.768972
 20
862.518911
 11
2485.004401
 21
833.541137
  0
LINE
  8
CSLAYER1
  6
CONTINUOUS
 62
     5
 10
2492.768972
 20
862.518911
 11
2500.533544
 21
833.541137
  0
TEXT
  8
CSLAYER1
 62
     3
 10
2482.768799
 20
800.018921
 40
40.000000
 41
0.900000
  1
65
 50
90.000000
 51
0.000000
  7
EASYDRAW_FONT
 72
     5
 11
2482.768799
 21
860.018921
  0
ENDBLK
  8
0
  0
BLOCK
  8
CSLAYER1
  2
BLKF0000
 70
   64
 10
0.0
 20
0.0
 30
0.0
  0
ARC
  8
CSLAYER1
  6
CONTINUOUS
 62
     5
 10
2873.872569
 20
129.496889
 40
3.549225
 50
6.429109
 51
73.182034
  0
ARC
  8
CSLAYER1
  6
CONTINUOUS
 62
     5
 10
2870.411598
 20
128.338496
 40
6.907754
 50
310.517970
 51
330.092764
  0
ARC
  8
CSLAYER1
  6
CONTINUOUS
 62
     5
 10
2870.350948
 20
128.704014
 40
7.148321
 50
-32.205059
 51
9.585194
  0
ARC
  8
CSLAYER1
  6
CONTINUOUS
 62
     5
 10
2873.643677
 20
125.943016
 40
4.767514
 50
180.000000
 51
218.514150
  0
ARC
  8
CSLAYER1
  6
CONTINUOUS
 62
     5
 10
2872.356956
 20
125.265875
 40
3.348282
 50
222.781148
 51
319.406906
  0
ARC
  8
CSLAYER1
  6
CONTINUOUS
 62
     5
 10
2875.422597
 20
126.355768
 40
6.559434
 50
94.574282
 51
183.607718
  0
LINE
  8
CSLAYER1
  6
CONTINUOUS
 62
     5
 10
2888.866504
 20
121.238936
 11
2888.009468
 21
118.200353
  0
LINE
  8
CSLAYER1
  6
CONTINUOUS
 62
     5
 10
2890.658489
 20
141.106593
 11
2888.554854
 21
143.833526
  0
LINE
  8
CSLAYER1
  6
CONTINUOUS
 62
     5
 10
2888.554854
 20
143.833526
 11
2881.801500
 21
147.591438
  0
LINE
  8
CSLAYER1
  6
CONTINUOUS
 62
     5
 10
2881.801500
 20
147.591438
 11
2874.899473
 21
148.394309
  0
LINE
  8
CSLAYER1
  6
CONTINUOUS
 62
     5
 10
2856.610247
 20
135.015635
 11
2858.756942
 21
139.979866
  0
LINE
  8
CSLAYER1
  6
CONTINUOUS
 62
     5
 10
2858.719944
 20
139.894309
 11
2860.903636
 21
142.529066
  0
LINE
  8
CSLAYER1
  6
CONTINUOUS
 62
     5
 10
2860.903636
 20
142.529066
 11
2864.208058
 21
144.894309
  0
LINE
  8
CSLAYER1
  6
CONTINUOUS
 62
     5
 10
2874.899473
 20
148.394309
 11
2873.381297
 21
147.627465
  0
LINE
  8
CSLAYER1
  6
CONTINUOUS
 62
     5
 10
2873.381297
 20
147.627465
 11
2869.892919
 21
147.627465
  0
LINE
  8
CSLAYER1
  6
CONTINUOUS
 62
     5
 10
2869.892919
 20
147.627465
 11
2866.337456
 21
145.682023
  0
LINE
  8
CSLAYER1
  6
CONTINUOUS
 62
     5
 10
2866.337456
 20
145.682023
 11
2864.208058
 21
144.894309
  0
LINE
  8
CSLAYER1
  6
CONTINUOUS
 62
     5
 10
2856.610247
 20
135.015635
 11
2855.092700
 21
127.467033
  0
LINE
  8
CSLAYER1
  6
CONTINUOUS
 62
     5
 10
2855.092700
 20
127.467033
 11
2854.899473
 21
124.894309
  0
LINE
  8
CSLAYER1
  6
CONTINUOUS
 62
     5
 10
2857.608855
 20
117.054527
 11
2854.899473
 21
123.150638
  0
LINE
  8
CSLAYER1
  6
CONTINUOUS
 62
     5
 10
2854.899473
 20
123.150638
 11
2854.899473
 21
124.894309
  0
LINE
  8
CSLAYER1
  6
CONTINUOUS
 62
     5
 10
2888.009468
 20
118.200353
 11
2886.323680
 21
115.197346
  0
LINE
  8
CSLAYER1
  6
CONTINUOUS
 62
     5
 10
2886.323680
 20
115.197346
 11
2884.899473
 21
113.878635
  0
ARC
  8
CSLAYER1
  6
CONTINUOUS
 62
     5
 10
2872.707528
 20
125.431070
 40
17.266626
 50
208.054813
 51
260.640470
  0
ARC
  8
CSLAYER1
  6
CONTINUOUS
 62
     5
 10
2867.514133
 20
138.173539
 40
29.874611
 50
274.579659
 51
305.587364
  0
ARC
  8
CSLAYER1
  6
CONTINUOUS
 62
     5
 10
2878.486482
 20
132.189817
 40
15.088627
 50
313.467013
 51
331.085078
  0
LINE
  8
CSLAYER1
  6
CONTINUOUS
 62
     5
 10
2893.277814
 20
128.407730
 11
2893.575108
 21
132.189817
  0
LINE
  8
CSLAYER1
  6
CONTINUOUS
 62
     5
 10
2893.575108
 20
132.189817
 11
2892.283111
 21
138.298800
  0
LINE
  8
CSLAYER1
  6
CONTINUOUS
 62
     5
 10
2893.277814
 20
128.407730
 11
2891.694140
 21
124.894309
  0
ARC
  8
CSLAYER1
  6
CONTINUOUS
 62
     5
 10
2878.486482
 20
132.189817
 40
15.088627
 50
23.883193
 51
36.225170
  0
LINE
  8
CSLAYER1
  6
CONTINUOUS
 62
     5
 10
2838.899473
 20
159.894309
 11
2839.899473
 21
160.986953
  0
LINE
  8
CSLAYER1
  6
CONTINUOUS
 62
     5
 10
2838.899473
 20
159.894309
 11
2840.476431
 21
158.449276
  0
LINE
  8
CSLAYER1
  6
CONTINUOUS
 62
     5
 10
2842.015643
 20
156.339984
 11
2842.041912
 21
154.171865
  0
LINE
  8
CSLAYER1
  6
CONTINUOUS
 62
     5
 10
2842.041912
 20
154.171865
 11
2842.249310
 21
153.411406
  0
LINE
  8
CSLAYER1
  6
CONTINUOUS
 62
     5
 10
2842.249310
 20
153.411406
 11
2842.836937
 21
152.685513
  0
LINE
  8
CSLAYER1
  6
CONTINUOUS
 62
     5
 10
2842.836937
 20
152.685513
 11
2843.424565
 21
152.754646
  0
LINE
  8
CSLAYER1
  6
CONTINUOUS
 62
     5
 10
2843.424565
 20
152.754646
 11
2844.046759
 21
152.927478
  0
LINE
  8
CSLAYER1
  6
CONTINUOUS
 62
     5
 10
2844.046759
 20
152.927478
 11
2844.461555
 21
152.754646
  0
LINE
  8
CSLAYER1
  6
CONTINUOUS
 62
     5
 10
2844.461555
 20
152.754646
 11
2845.360279
 21
152.305284
  0
LINE
  8
CSLAYER1
  6
CONTINUOUS
 62
     5
 10
2845.360279
 20
152.305284
 11
2846.136331
 21
151.894309
  0
LINE
  8
CSLAYER1
  6
CONTINUOUS
 62
     5
 10
2846.136331
 20
151.894309
 11
2846.639234
 21
151.925054
  0
LINE
  8
CSLAYER1
  6
CONTINUOUS
 62
     5
 10
2846.639234
 20
151.925054
 11
2849.447106
 21
153.371533
  0
LINE
  8
CSLAYER1
  6
CONTINUOUS
 62
     5
 10
2839.899473
 20
160.986953
 11
2840.232324
 21
162.460661
  0
LINE
  8
CSLAYER1
  6
CONTINUOUS
 62
     5
 10
2840.232324
 20
162.460661
 11
2841.685730
 21
162.611013
  0
LINE
  8
CSLAYER1
  6
CONTINUOUS
 62
     5
 10
2843.179488
 20
165.379472
 11
2844.933661
 21
165.536562
  0
LINE
  8
CSLAYER1
  6
CONTINUOUS
 62
     5
 10
2844.933661
 20
165.536562
 11
2848.468189
 21
166.374376
  0
LINE
  8
CSLAYER1
  6
CONTINUOUS
 62
     5
 10
2848.468189
 20
166.374376
 11
2849.899473
 21
166.706015
  0
LINE
  8
CSLAYER1
  6
CONTINUOUS
 62
     5
 10
2843.179488
 20
165.379472
 11
2841.246597
 21
165.538339
  0
LINE
  8
CSLAYER1
  6
CONTINUOUS
 62
     5
 10
2840.510474
 20
164.669652
 11
2840.603999
 21
164.298491
  0
LINE
  8
CSLAYER1
  6
CONTINUOUS
 62
     5
 10
2840.603999
 20
164.298491
 11
2841.095593
 21
163.760810
  0
LINE
  8
CSLAYER1
  6
CONTINUOUS
 62
     5
 10
2841.095593
 20
163.760810
 11
2841.771535
 21
163.253854
  0
LINE
  8
CSLAYER1
  6
CONTINUOUS
 62
     5
 10
2841.771535
 20
163.253854
 11
2841.894860
 21
163.089421
  0
LINE
  8
CSLAYER1
  6
CONTINUOUS
 62
     5
 10
2840.476431
 20
158.449276
 11
2842.015643
 21
156.339984
  0
ARC
  8
CSLAYER1
  6
CONTINUOUS
 62
     5
 10
2884.886173
 20
-11.764344
 40
180.727463
 50
80.438896
 51
96.353582
  0
ARC
  8
CSLAYER1
  6
CONTINUOUS
 62
     5
 10
2859.987260
 20
133.483557
 40
34.720242
 50
81.866516
 51
106.890578
  0
LINE
  8
CSLAYER1
  6
CONTINUOUS
 62
     5
 10
2919.093734
 20
165.660979
 11
2921.340817
 21
164.639578
  0
LINE
  8
CSLAYER1
  6
CONTINUOUS
 62
     5
 10
2924.915721
 20
163.056406
 11
2921.340817
 21
164.639578
  0
LINE
  8
CSLAYER1
  6
CONTINUOUS
 62
     5
 10
2919.093734
 20
165.660979
 11
2914.899473
 21
166.453551
  0
LINE
  8
CSLAYER1
  6
CONTINUOUS
 62
     5
 10
2924.899473
 20
163.063602
 11
2926.771048
 21
161.495125
  0
LINE
  8
CSLAYER1
  6
CONTINUOUS
 62
     5
 10
2908.142729
 20
164.100453
 11
2909.042004
 21
165.553127
  0
LINE
  8
CSLAYER1
  6
CONTINUOUS
 62
     5
 10
2909.042004
 20
165.553127
 11
2913.717602
 21
164.433618
  0
LINE
  8
CSLAYER1
  6
CONTINUOUS
 62
     5
 10
2913.717602
 20
164.433618
 11
2930.459988
 21
159.894309
  0
LINE
  8
CSLAYER1
  6
CONTINUOUS
 62
     5
 10
2933.399473
 20
159.894309
 11
2926.771048
 21
161.495125
  0
LINE
  8
CSLAYER1
  6
CONTINUOUS
 62
     5
 10
2930.459988
 20
159.894309
 11
2933.399473
 21
159.894309
  0
LINE
  8
CSLAYER1
  6
CONTINUOUS
 62
     5
 10
2874.899473
 20
164.359250
 11
2894.899473
 21
164.894309
  0
LINE
  8
CSLAYER1
  6
CONTINUOUS
 62
     5
 10
2894.899473
 20
164.894309
 11
2908.142729
 21
164.100453
  0
LINE
  8
CSLAYER1
  6
CONTINUOUS
 62
     5
 10
2909.745710
 20
162.039973
 11
2894.899473
 21
163.394309
  0
LINE
  8
CSLAYER1
  6
CONTINUOUS
 62
     5
 10
2894.899473
 20
163.394309
 11
2879.850263
 21
163.802961
  0
LINE
  8
CSLAYER1
  6
CONTINUOUS
 62
     5
 10
2879.899473
 20
163.801625
 11
2874.899473
 21
163.896919
  0
LINE
  8
CSLAYER1
  6
CONTINUOUS
 62
     5
 10
2874.899473
 20
164.359250
 11
2874.899473
 21
163.896919
  0
LINE
  8
CSLAYER1
  6
CONTINUOUS
 62
     5
 10
2932.399473
 20
156.394309
 11
2923.556914
 21
158.704971
  0
LINE
  8
CSLAYER1
  6
CONTINUOUS
 62
     5
 10
2909.745710
 20
162.039973
 11
2919.899473
 21
160.067589
  0
LINE
  8
CSLAYER1
  6
CONTINUOUS
 62
     5
 10
2919.899473
 20
160.067589
 11
2923.556914
 21
158.704971
  0
LINE
  8
CSLAYER1
  6
CONTINUOUS
 62
     5
 10
2932.399473
 20
156.394309
 11
2932.106855
 21
155.555204
  0
LINE
  8
CSLAYER1
  6
CONTINUOUS
 62
     5
 10
2941.899473
 20
150.894309
 11
2941.593445
 21
152.123290
  0
LINE
  8
CSLAYER1
  6
CONTINUOUS
 62
     5
 10
2932.106855
 20
155.555204
 11
2941.593445
 21
152.123290
  0
LINE
  8
CSLAYER1
  6
CONTINUOUS
 62
     5
 10
2878.399473
 20
156.394309
 11
2880.822511
 21
156.394309
  0
LINE
  8
CSLAYER1
  6
CONTINUOUS
 62
     5
 10
2900.899473
 20
156.826805
 11
2900.899473
 21
156.394309
  0
LINE
  8
CSLAYER1
  6
CONTINUOUS
 62
     5
 10
2899.899473
 20
157.361246
 11
2898.188193
 21
157.998424
  0
LINE
  8
CSLAYER1
  6
CONTINUOUS
 62
     5
 10
2898.188193
 20
157.998424
 11
2897.078137
 21
158.048881
  0
LINE
  8
CSLAYER1
  6
CONTINUOUS
 62
     5
 10
2897.078137
 20
158.048881
 11
2896.598795
 21
157.796596
  0
LINE
  8
CSLAYER1
  6
CONTINUOUS
 62
     5
 10
2896.598795
 20
157.796596
 11
2896.497881
 21
157.392939
  0
LINE
  8
CSLAYER1
  6
CONTINUOUS
 62
     5
 10
2896.497881
 20
157.392939
 11
2896.951995
 21
157.090196
  0
LINE
  8
CSLAYER1
  6
CONTINUOUS
 62
     5
 10
2896.951995
 20
157.090196
 11
2898.591850
 21
156.938825
  0
LINE
  8
CSLAYER1
  6
CONTINUOUS
 62
     5
 10
2898.591850
 20
156.938825
 11
2900.899473
 21
156.826805
  0
LINE
  8
CSLAYER1
  6
CONTINUOUS
 62
     5
 10
2941.899473
 20
150.894309
 11
2938.923930
 21
152.080891
  0
LINE
  8
CSLAYER1
  6
CONTINUOUS
 62
     5
 10
2938.923930
 20
152.080891
 11
2928.868240
 21
153.923766
  0
LINE
  8
CSLAYER1
  6
CONTINUOUS
 62
     5
 10
2928.868240
 20
153.923766
 11
2923.842460
 21
155.083561
  0
LINE
  8
CSLAYER1
  6
CONTINUOUS
 62
     5
 10
2901.433694
 20
157.394309
 11
2913.199360
 21
157.394309
  0
LINE
  8
CSLAYER1
  6
CONTINUOUS
 62
     5
 10
2899.899473
 20
157.361246
 11
2900.424133
 21
157.052778
  0
LINE
  8
CSLAYER1
  6
CONTINUOUS
 62
     5
 10
2900.424133
 20
157.052778
 11
2900.720944
 21
156.963735
  0
LINE
  8
CSLAYER1
  6
CONTINUOUS
 62
     5
 10
2900.720944
 20
156.963735
 11
2900.899473
 21
156.988905
  0
LINE
  8
CSLAYER1
  6
CONTINUOUS
 62
     5
 10
2900.899473
 20
156.988905
 11
2901.433694
 21
157.394309
  0
LINE
  8
CSLAYER1
  6
CONTINUOUS
 62
     5
 10
2913.199360
 20
157.394309
 11
2917.649629
 21
156.365483
  0
LINE
  8
CSLAYER1
  6
CONTINUOUS
 62
     5
 10
2917.649629
 20
156.365483
 11
2921.802820
 21
155.200335
  0
LINE
  8
CSLAYER1
  6
CONTINUOUS
 62
     5
 10
2921.802820
 20
155.200335
 11
2923.842460
 21
155.083561
  0
LINE
  8
CSLAYER1
  6
CONTINUOUS
 62
     5
 10
2877.399473
 20
155.394309
 11
2877.399473
 21
154.894309
  0
LINE
  8
CSLAYER1
  6
CONTINUOUS
 62
     5
 10
2874.899473
 20
154.894309
 11
2877.399473
 21
154.894309
  0
ARC
  8
CSLAYER1
  6
CONTINUOUS
 62
     5
 10
2878.399473
 20
155.394309
 40
1.000000
 50
90.000000
 51
180.000000
  0
LINE
  8
CSLAYER1
  6
CONTINUOUS
 62
     5
 10
2880.822511
 20
156.394309
 11
2881.520068
 21
155.822313
  0
LINE
  8
CSLAYER1
  6
CONTINUOUS
 62
     5
 10
2882.122436
 20
155.798352
 11
2882.980032
 21
156.394309
  0
LINE
  8
CSLAYER1
  6
CONTINUOUS
 62
     5
 10
2884.558429
 20
156.394309
 11
2886.225554
 21
155.736233
  0
LINE
  8
CSLAYER1
  6
CONTINUOUS
 62
     5
 10
2886.649263
 20
155.762745
 11
2887.802750
 21
156.394309
  0
LINE
  8
CSLAYER1
  6
CONTINUOUS
 62
     5
 10
2882.980032
 20
156.394309
 11
2884.558429
 21
156.394309
  0
LINE
  8
CSLAYER1
  6
CONTINUOUS
 62
     5
 10
2887.802750
 20
156.394309
 11
2900.899473
 21
156.394309
  0
LINE
  8
CSLAYER1
  6
CONTINUOUS
 62
     5
 10
2853.448456
 20
153.285483
 11
2874.899473
 21
154.894309
  0
LINE
  8
CSLAYER1
  6
CONTINUOUS
 62
     5
 10
2849.447106
 20
153.371533
 11
2853.448456
 21
153.285483
  0
ARC
  8
CSLAYER1
  6
CONTINUOUS
 62
     5
 10
2881.837107
 20
156.208946
 40
0.500000
 50
230.648247
 51
304.796026
  0
ARC
  8
CSLAYER1
  6
CONTINUOUS
 62
     5
 10
2886.409137
 20
156.201311
 40
0.500000
 50
248.459024
 51
298.701829
  0
ARC
  8
CSLAYER1
  6
CONTINUOUS
 62
     5
 10
2841.654860
 20
162.909421
 40
0.300000
 50
-84.093859
 51
36.869898
  0
ARC
  8
CSLAYER1
  6
CONTINUOUS
 62
     5
 10
2841.189256
 20
164.840692
 40
0.700000
 50
85.301319
 51
194.142980
  0
LINE
  8
CSLAYER1
  6
CONTINUOUS
 62
     3
 10
2873.381297
 20
147.627465
 11
2881.491793
 21
147.627465
  0
LINE
  8
CSLAYER1
  6
CONTINUOUS
 62
     3
 10
2866.968781
 20
146.027465
 11
2884.612121
 21
146.027465
  0
LINE
  8
CSLAYER1
  6
CONTINUOUS
 62
     3
 10
2863.555842
 20
144.427465
 11
2887.487486
 21
144.427465
  0
LINE
  8
CSLAYER1
  6
CONTINUOUS
 62
     3
 10
2861.320522
 20
142.827465
 11
2889.330959
 21
142.827465
  0
LINE
  8
CSLAYER1
  6
CONTINUOUS
 62
     3
 10
2859.824866
 20
141.227465
 11
2890.565245
 21
141.227465
  0
LINE
  8
CSLAYER1
  6
CONTINUOUS
 62
     3
 10
2858.604552
 20
139.627465
 11
2891.614621
 21
139.627465
  0
LINE
  8
CSLAYER1
  6
CONTINUOUS
 62
     3
 10
2857.912660
 20
138.027465
 11
2892.340496
 21
138.027465
  0
LINE
  8
CSLAYER1
  6
CONTINUOUS
 62
     3
 10
2857.220768
 20
136.427465
 11
2892.678882
 21
136.427465
  0
LINE
  8
CSLAYER1
  6
CONTINUOUS
 62
     3
 10
2856.572418
 20
134.827465
 11
2893.017269
 21
134.827465
  0
LINE
  8
CSLAYER1
  6
CONTINUOUS
 62
     3
 10
2856.250759
 20
133.227465
 11
2893.355655
 21
133.227465
  0
LINE
  8
CSLAYER1
  6
CONTINUOUS
 62
     3
 10
2855.929100
 20
131.627465
 11
2871.519343
 21
131.627465
  0
LINE
  8
CSLAYER1
  6
CONTINUOUS
 62
     3
 10
2855.607441
 20
130.027465
 11
2869.987083
 21
130.027465
  0
LINE
  8
CSLAYER1
  6
CONTINUOUS
 62
     3
 10
2855.285783
 20
128.427465
 11
2869.198913
 21
128.427465
  0
LINE
  8
CSLAYER1
  6
CONTINUOUS
 62
     3
 10
2855.044665
 20
126.827465
 11
2868.880145
 21
126.827465
  0
LINE
  8
CSLAYER1
  6
CONTINUOUS
 62
     3
 10
2854.924495
 20
125.227465
 11
2868.930166
 21
125.227465
  0
LINE
  8
CSLAYER1
  6
CONTINUOUS
 62
     3
 10
2854.899473
 20
123.627465
 11
2869.476253
 21
123.627465
  0
LINE
  8
CSLAYER1
  6
CONTINUOUS
 62
     3
 10
2855.398661
 20
122.027465
 11
2871.506256
 21
122.027465
  0
LINE
  8
CSLAYER1
  6
CONTINUOUS
 62
     3
 10
2856.109772
 20
120.427465
 11
2888.637627
 21
120.427465
  0
LINE
  8
CSLAYER1
  6
CONTINUOUS
 62
     3
 10
2856.820883
 20
118.827465
 11
2888.186345
 21
118.827465
  0
LINE
  8
CSLAYER1
  6
CONTINUOUS
 62
     3
 10
2857.531994
 20
117.227465
 11
2887.463321
 21
117.227465
  0
LINE
  8
CSLAYER1
  6
CONTINUOUS
 62
     3
 10
2858.493953
 20
115.627465
 11
2886.565135
 21
115.627465
  0
LINE
  8
CSLAYER1
  6
CONTINUOUS
 62
     3
 10
2859.742414
 20
114.027465
 11
2885.060208
 21
114.027465
  0
LINE
  8
CSLAYER1
  6
CONTINUOUS
 62
     3
 10
2861.347834
 20
112.427465
 11
2882.667748
 21
112.427465
  0
LINE
  8
CSLAYER1
  6
CONTINUOUS
 62
     3
 10
2863.494976
 20
110.827465
 11
2879.542624
 21
110.827465
  0
LINE
  8
CSLAYER1
  6
CONTINUOUS
 62
     3
 10
2866.742667
 20
109.227465
 11
2874.904476
 21
109.227465
  0
LINE
  8
CSLAYER1
  6
CONTINUOUS
 62
     3
 10
2876.711167
 20
131.627465
 11
2893.530904
 21
131.627465
  0
LINE
  8
CSLAYER1
  6
CONTINUOUS
 62
     3
 10
2877.381911
 20
130.027465
 11
2893.405135
 21
130.027465
  0
LINE
  8
CSLAYER1
  6
CONTINUOUS
 62
     3
 10
2877.493918
 20
128.427465
 11
2893.279365
 21
128.427465
  0
LINE
  8
CSLAYER1
  6
CONTINUOUS
 62
     3
 10
2877.248561
 20
126.827465
 11
2892.565509
 21
126.827465
  0
LINE
  8
CSLAYER1
  6
CONTINUOUS
 62
     3
 10
2876.596915
 20
125.227465
 11
2891.844309
 21
125.227465
  0
LINE
  8
CSLAYER1
  6
CONTINUOUS
 62
     3
 10
2875.463652
 20
123.627465
 11
2890.910361
 21
123.627465
  0
LINE
  8
CSLAYER1
  6
CONTINUOUS
 62
     3
 10
2873.207656
 20
122.027465
 11
2889.639654
 21
122.027465
  0
TEXT
  8
CSLAYER1
 62
     5
 10
2894.071318
 20
129.638637
 40
4.713448
 41
1.951056
  1
M
 50
0.000000
 51
0.000000
  7
EASYDRAW_FONT
 72
     5
 11
2900.202120
 21
129.638637
  0
TEXT
  8
CSLAYER1
 62
     5
 10
2903.722705
 20
129.580366
 40
4.626621
 41
0.778201
  1
T
 50
0.000000
 51
0.000000
  7
EASYDRAW_FONT
 72
     5
 11
2906.122998
 21
129.580366
  0
TEXT
  8
CSLAYER1
 62
     5
 10
2906.488268
 20
129.615165
 40
4.696183
 41
1.055553
  1
E
 50
0.000000
 51
0.000000
  7
EASYDRAW_FONT
 72
     5
 11
2909.792982
 21
129.615165
  0
TEXT
  8
CSLAYER1
 62
     5
 10
2909.604449
 20
131.231010
 40
0.348283
 41
9.375319
  1
-
 50
0.000000
 51
0.000000
  7
EASYDRAW_FONT
 72
     5
 11
2911.781294
 21
131.231010
  0
TEXT
  8
CSLAYER1
 62
     5
 10
2911.418658
 20
129.583819
 40
4.861659
 41
1.298502
  1
H
 50
0.000000
 51
0.000000
  7
EASYDRAW_FONT
 72
     5
 11
2915.627240
 21
129.583819
  0
TEXT
  8
CSLAYER1
 62
     5
 10
2915.494673
 20
129.614197
 40
4.843139
 41
1.269236
  1
A
 50
0.000000
 51
0.000000
  7
EASYDRAW_FONT
 72
     5
 11
2919.592729
 21
129.614197
  0
TEXT
  8
CSLAYER1
 62
     5
 10
2919.200829
 20
129.572671
 40
4.825362
 41
1.490144
  1
N
 50
0.000000
 51
0.000000
  7
EASYDRAW_FONT
 72
     5
 11
2923.994483
 21
129.572671
  0
TEXT
  8
CSLAYER1
 62
     5
 10
2899.992287
 20
129.550097
 40
4.982325
 41
1.177443
  1
A
 50
0.000000
 51
0.000000
  7
EASYDRAW_FONT
 72
     5
 11
2903.903221
 21
129.550097
  0
TEXT
  8
CSLAYER1
 62
     5
 10
2894.438332
 20
122.554858
 40
4.982325
 41
1.177443
  1
A
 50
0.000000
 51
0.000000
  7
EASYDRAW_FONT
 72
     5
 11
2898.349266
 21
122.554858
  0
TEXT
  8
CSLAYER1
 62
     5
 10
2907.222755
 20
122.583179
 40
4.982325
 41
1.177443
  1
A
 50
0.000000
 51
0.000000
  7
EASYDRAW_FONT
 72
     5
 11
2911.133690
 21
122.583179
  0
TEXT
  8
CSLAYER1
 62
     5
 10
2910.983300
 20
122.640176
 40
4.825362
 41
1.490144
  1
N
 50
0.000000
 51
0.000000
  7
EASYDRAW_FONT
 72
     5
 11
2915.776954
 21
122.640176
  0
TEXT
  8
CSLAYER1
 62
     5
 10
2919.885636
 20
122.648570
 40
4.841775
 41
1.184218
  1
E
 50
0.000000
 51
0.000000
  7
EASYDRAW_FONT
 72
     5
 11
2923.708114
 21
122.648570
  0
TEXT
  8
CSLAYER1
 62
     5
 10
2898.718885
 20
122.553534
 40
4.947865
 41
1.093992
  1
D
 50
0.000000
 51
0.000000
  7
EASYDRAW_FONT
 72
     5
 11
2902.327502
 21
122.553534
  0
TEXT
  8
CSLAYER1
 62
     5
 10
2903.121243
 20
122.548149
 40
4.924210
 41
1.228195
  1
V
 50
0.000000
 51
0.000000
  7
EASYDRAW_FONT
 72
     5
 11
2907.153171
 21
122.548149
  0
TEXT
  8
CSLAYER1
 62
     5
 10
2915.346445
 20
122.568880
 40
5.032894
 41
1.481023
  1
C
 50
0.000000
 51
0.000000
  7
EASYDRAW_FONT
 72
     5
 11
2920.315665
 21
122.568880
  0
LINE
  8
CSLAYER1
  6
CONTINUOUS
 62
     5
 10
2905.976810
 20
133.629281
 11
2904.964748
 21
133.629281
  0
LINE
  8
CSLAYER1
  6
CONTINUOUS
 62
     3
 10
2855.075048
 20
167.854552
 11
2904.872874
 21
167.854552
  0
LINE
  8
CSLAYER1
  6
CONTINUOUS
 62
     3
 10
2847.962684
 20
166.254552
 11
2915.952565
 21
166.254552
  0
LINE
  8
CSLAYER1
  6
CONTINUOUS
 62
     3
 10
2840.514279
 20
164.654552
 11
2885.937589
 21
164.654552
  0
LINE
  8
CSLAYER1
  6
CONTINUOUS
 62
     3
 10
2898.899139
 20
164.654552
 11
2908.485743
 21
164.654552
  0
LINE
  8
CSLAYER1
  6
CONTINUOUS
 62
     3
 10
2912.794876
 20
164.654552
 11
2921.307873
 21
164.654552
  0
LINE
  8
CSLAYER1
  6
CONTINUOUS
 62
     3
 10
2841.917418
 20
163.054552
 11
2898.623888
 21
163.054552
  0
LINE
  8
CSLAYER1
  6
CONTINUOUS
 62
     3
 10
2918.804026
 20
163.054552
 11
2924.910271
 21
163.054552
  0
LINE
  8
CSLAYER1
  6
CONTINUOUS
 62
     3
 10
2840.005085
 20
161.454552
 11
2912.759435
 21
161.454552
  0
LINE
  8
CSLAYER1
  6
CONTINUOUS
 62
     3
 10
2924.705325
 20
161.454552
 11
2926.939046
 21
161.454552
  0
LINE
  8
CSLAYER1
  6
CONTINUOUS
 62
     3
 10
2838.942859
 20
159.854552
 11
2920.471292
 21
159.854552
  0
LINE
  8
CSLAYER1
  6
CONTINUOUS
 62
     3
 10
2840.618526
 20
158.254552
 11
2925.280600
 21
158.254552
  0
LINE
  8
CSLAYER1
  6
CONTINUOUS
 62
     3
 10
2841.786094
 20
156.654552
 11
2900.899473
 21
156.654552
  0
LINE
  8
CSLAYER1
  6
CONTINUOUS
 62
     3
 10
2916.399238
 20
156.654552
 11
2931.403561
 21
156.654552
  0
LINE
  8
CSLAYER1
  6
CONTINUOUS
 62
     3
 10
2842.031217
 20
155.054552
 11
2877.399473
 21
155.054552
  0
LINE
  8
CSLAYER1
  6
CONTINUOUS
 62
     3
 10
2923.968166
 20
155.054552
 11
2933.490769
 21
155.054552
  0
LINE
  8
CSLAYER1
  6
CONTINUOUS
 62
     3
 10
2842.237542
 20
153.454552
 11
2855.702716
 21
153.454552
  0
LINE
  8
CSLAYER1
  6
CONTINUOUS
 62
     3
 10
2931.428515
 20
153.454552
 11
2937.913534
 21
153.454552
  0
LINE
  8
CSLAYER1
  6
CONTINUOUS
 62
     3
 10
2939.491510
 20
151.854552
 11
2941.660364
 21
151.854552
  0
ENDBLK
  8
0
  0
BLOCK
  8
CSLAYER1
  2
BLKF0001
 70
   64
 10
0.0
 20
0.0
 30
0.0
  0
LINE
  8
CSLAYER1
  6
CONTINUOUS
 62
     5
 10
3508.588178
 20
1720.615785
 11
2628.588178
 21
1720.615785
  0
TEXT
  8
CSLAYER1
 62
     3
 10
3105.971436
 20
1726.265991
 40
40.000000
 41
0.832500
  1
１０Ｒ４／１３
 50
0.000000
 51
0.000000
  7
EASYDRAW_FONT
 72
     5
 11
3327.971436
 21
1726.265991
  0
ENDBLK
  8
0
  0
BLOCK
  8
CSLAYER1
  2
BLKF0002
 70
   64
 10
0.0
 20
0.0
 30
0.0
  0
LINE
  8
CSLAYER1
  6
CONTINUOUS
 62
     7
 10
825.295514
 20
2050.259054
 11
838.802540
 21
2057.358157
  0
LINE
  8
CSLAYER1
  6
CONTINUOUS
 62
     7
 10
838.802540
 20
2057.358157
 11
853.336887
 21
2063.755024
  0
LINE
  8
CSLAYER1
  6
CONTINUOUS
 62
     7
 10
853.336887
 20
2063.755024
 11
868.787938
 21
2069.400969
  0
LINE
  8
CSLAYER1
  6
CONTINUOUS
 62
     7
 10
868.787938
 20
2069.400969
 11
885.038103
 21
2074.253025
  0
LINE
  8
CSLAYER1
  6
CONTINUOUS
 62
     7
 10
885.038103
 20
2074.253025
 11
901.963708
 21
2078.274263
  0
LINE
  8
CSLAYER1
  6
CONTINUOUS
 62
     7
 10
901.963708
 20
2078.274263
 11
919.435939
 21
2081.434080
  0
LINE
  8
CSLAYER1
  6
CONTINUOUS
 62
     7
 10
919.435939
 20
2081.434080
 11
937.321821
 21
2083.708428
  0
LINE
  8
CSLAYER1
  6
CONTINUOUS
 62
     7
 10
937.321821
 20
2083.708428
 11
955.485232
 21
2085.079998
  0
LINE
  8
CSLAYER1
  6
CONTINUOUS
 62
     7
 10
955.485232
 20
2085.079998
 11
973.787938
 21
2085.538350
  0
LINE
  8
CSLAYER1
  6
CONTINUOUS
 62
     7
 10
973.787938
 20
2085.538350
 11
992.090644
 21
2085.079998
  0
LINE
  8
CSLAYER1
  6
CONTINUOUS
 62
     7
 10
992.090644
 20
2085.079998
 11
1010.254056
 21
2083.708428
  0
LINE
  8
CSLAYER1
  6
CONTINUOUS
 62
     7
 10
1010.254056
 20
2083.708428
 11
1028.139938
 21
2081.434080
  0
LINE
  8
CSLAYER1
  6
CONTINUOUS
 62
     7
 10
1028.139938
 20
2081.434080
 11
1045.612168
 21
2078.274263
  0
LINE
  8
CSLAYER1
  6
CONTINUOUS
 62
     7
 10
1045.612168
 20
2078.274263
 11
1061.308998
 21
2074.544961
  0
LINE
  8
CSLAYER1
  6
CONTINUOUS
 62
     7
 10
816.385969
 20
2055.369359
 11
830.703416
 21
2062.894409
  0
LINE
  8
CSLAYER1
  6
CONTINUOUS
 62
     7
 10
830.703416
 20
2062.894409
 11
846.109824
 21
2069.675087
  0
LINE
  8
CSLAYER1
  6
CONTINUOUS
 62
     7
 10
846.109824
 20
2069.675087
 11
862.487938
 21
2075.659790
  0
LINE
  8
CSLAYER1
  6
CONTINUOUS
 62
     7
 10
862.487938
 20
2075.659790
 11
879.713113
 21
2080.802968
  0
LINE
  8
CSLAYER1
  6
CONTINUOUS
 62
     7
 10
879.713113
 20
2080.802968
 11
897.654254
 21
2085.065481
  0
LINE
  8
CSLAYER1
  6
CONTINUOUS
 62
     7
 10
897.654254
 20
2085.065481
 11
916.174819
 21
2088.414887
  0
LINE
  8
CSLAYER1
  6
CONTINUOUS
 62
     7
 10
916.174819
 20
2088.414887
 11
935.133854
 21
2090.825696
  0
LINE
  8
CSLAYER1
  6
CONTINUOUS
 62
     7
 10
935.133854
 20
2090.825696
 11
954.387070
 21
2092.279560
  0
LINE
  8
CSLAYER1
  6
CONTINUOUS
 62
     7
 10
954.387070
 20
2092.279560
 11
973.787938
 21
2092.765413
  0
LINE
  8
CSLAYER1
  6
CONTINUOUS
 62
     7
 10
973.787938
 20
2092.765413
 11
993.188807
 21
2092.279560
  0
LINE
  8
CSLAYER1
  6
CONTINUOUS
 62
     7
 10
993.188807
 20
2092.279560
 11
1012.442023
 21
2090.825696
  0
LINE
  8
CSLAYER1
  6
CONTINUOUS
 62
     7
 10
1012.442023
 20
2090.825696
 11
1031.401058
 21
2088.414887
  0
LINE
  8
CSLAYER1
  6
CONTINUOUS
 62
     7
 10
1031.401058
 20
2088.414887
 11
1049.921622
 21
2085.065481
  0
LINE
  8
CSLAYER1
  6
CONTINUOUS
 62
     7
 10
1049.921622
 20
2085.065481
 11
1061.308998
 21
2082.360032
  0
LINE
  8
CSLAYER1
  6
CONTINUOUS
 62
     7
 10
799.832219
 20
2034.334460
 11
825.430086
 21
2050.329783
  0
LINE
  8
CSLAYER1
  6
CONTINUOUS
 62
     7
 10
799.832219
 20
2045.011266
 11
816.528615
 21
2055.444332
  0
ENDBLK
  8
0
  0
BLOCK
  8
CSLAYER1
  2
BLKF0003
 70
   64
 10
0.0
 20
0.0
 30
0.0
  0
LINE
  8
CSLAYER1
  6
CONTINUOUS
 62
     7
 10
668.261607
 20
2049.300168
 11
668.489286
 21
2049.451056
  0
LINE
  8
CSLAYER1
  6
CONTINUOUS
 62
     7
 10
668.489286
 20
2049.451056
 11
668.698399
 21
2049.629952
  0
LINE
  8
CSLAYER1
  6
CONTINUOUS
 62
     7
 10
668.698399
 20
2049.629952
 11
668.887355
 21
2049.835494
  0
LINE
  8
CSLAYER1
  6
CONTINUOUS
 62
     7
 10
668.887355
 20
2049.835494
 11
669.054716
 21
2050.066117
  0
LINE
  8
CSLAYER1
  6
CONTINUOUS
 62
     7
 10
669.054716
 20
2050.066117
 11
669.199207
 21
2050.320067
  0
LINE
  8
CSLAYER1
  6
CONTINUOUS
 62
     7
 10
669.199207
 20
2050.320067
 11
669.319730
 21
2050.595411
  0
LINE
  8
CSLAYER1
  6
CONTINUOUS
 62
     7
 10
669.319730
 20
2050.595411
 11
669.415366
 21
2050.890053
  0
LINE
  8
CSLAYER1
  6
CONTINUOUS
 62
     7
 10
669.415366
 20
2050.890053
 11
669.485388
 21
2051.201751
  0
LINE
  8
CSLAYER1
  6
CONTINUOUS
 62
     7
 10
669.485388
 20
2051.201751
 11
669.529263
 21
2051.528133
  0
LINE
  8
CSLAYER1
  6
CONTINUOUS
 62
     7
 10
669.529263
 20
2051.528133
 11
669.546658
 21
2051.866715
  0
LINE
  8
CSLAYER1
  6
CONTINUOUS
 62
     7
 10
669.546658
 20
2051.866715
 11
669.537439
 21
2052.214919
  0
LINE
  8
CSLAYER1
  6
CONTINUOUS
 62
     7
 10
669.537439
 20
2052.214919
 11
669.501678
 21
2052.570097
  0
LINE
  8
CSLAYER1
  6
CONTINUOUS
 62
     7
 10
669.501678
 20
2052.570097
 11
669.439645
 21
2052.929544
  0
LINE
  8
CSLAYER1
  6
CONTINUOUS
 62
     7
 10
669.439645
 20
2052.929544
 11
669.351814
 21
2053.290526
  0
LINE
  8
CSLAYER1
  6
CONTINUOUS
 62
     7
 10
669.351814
 20
2053.290526
 11
669.238852
 21
2053.650294
  0
LINE
  8
CSLAYER1
  6
CONTINUOUS
 62
     7
 10
669.238852
 20
2053.650294
 11
669.101620
 21
2054.006111
  0
LINE
  8
CSLAYER1
  6
CONTINUOUS
 62
     7
 10
669.101620
 20
2054.006111
 11
668.941162
 21
2054.355269
  0
LINE
  8
CSLAYER1
  6
CONTINUOUS
 62
     7
 10
668.941162
 20
2054.355269
 11
668.758698
 21
2054.695111
  0
LINE
  8
CSLAYER1
  6
CONTINUOUS
 62
     7
 10
668.758698
 20
2054.695111
 11
668.555619
 21
2055.023049
  0
LINE
  8
CSLAYER1
  6
CONTINUOUS
 62
     7
 10
668.555619
 20
2055.023049
 11
668.333468
 21
2055.336589
  0
LINE
  8
CSLAYER1
  6
CONTINUOUS
 62
     7
 10
668.333468
 20
2055.336589
 11
668.093938
 21
2055.633344
  0
LINE
  8
CSLAYER1
  6
CONTINUOUS
 62
     7
 10
668.093938
 20
2055.633344
 11
667.838850
 21
2055.911056
  0
LINE
  8
CSLAYER1
  6
CONTINUOUS
 62
     7
 10
667.838850
 20
2055.911056
 11
667.570146
 21
2056.167611
  0
LINE
  8
CSLAYER1
  6
CONTINUOUS
 62
     7
 10
667.570146
 20
2056.167611
 11
667.289872
 21
2056.401056
  0
LINE
  8
CSLAYER1
  6
CONTINUOUS
 62
     7
 10
667.289872
 20
2056.401056
 11
667.000160
 21
2056.609616
  0
LINE
  8
CSLAYER1
  6
CONTINUOUS
 62
     7
 10
667.000160
 20
2056.609616
 11
666.703216
 21
2056.791702
  0
LINE
  8
CSLAYER1
  6
CONTINUOUS
 62
     7
 10
666.703216
 20
2056.791702
 11
666.401298
 21
2056.945928
  0
LINE
  8
CSLAYER1
  6
CONTINUOUS
 62
     7
 10
666.401298
 20
2056.945928
 11
666.096705
 21
2057.071122
  0
LINE
  8
CSLAYER1
  6
CONTINUOUS
 62
     7
 10
666.096705
 20
2057.071122
 11
665.791756
 21
2057.166330
  0
LINE
  8
CSLAYER1
  6
CONTINUOUS
 62
     7
 10
665.791756
 20
2057.166330
 11
665.488770
 21
2057.230828
  0
LINE
  8
CSLAYER1
  6
CONTINUOUS
 62
     7
 10
665.488770
 20
2057.230828
 11
665.190054
 21
2057.264124
  0
LINE
  8
CSLAYER1
  6
CONTINUOUS
 62
     7
 10
665.190054
 20
2057.264124
 11
664.897881
 21
2057.265966
  0
LINE
  8
CSLAYER1
  6
CONTINUOUS
 62
     7
 10
664.897881
 20
2057.265966
 11
664.614475
 21
2057.236339
  0
LINE
  8
CSLAYER1
  6
CONTINUOUS
 62
     7
 10
664.614475
 20
2057.236339
 11
664.341993
 21
2057.175469
  0
LINE
  8
CSLAYER1
  6
CONTINUOUS
 62
     7
 10
664.341993
 20
2057.175469
 11
664.082508
 21
2057.083820
  0
LINE
  8
CSLAYER1
  6
CONTINUOUS
 62
     7
 10
664.082508
 20
2057.083820
 11
663.837995
 21
2056.962087
  0
ENDBLK
  8
0
  0
BLOCK
  8
CSLAYER1
  2
BLKF0004
 70
   64
 10
0.0
 20
0.0
 30
0.0
  0
LINE
  8
CSLAYER1
  6
CONTINUOUS
 62
     7
 10
660.891103
 20
2055.260699
 11
660.663424
 21
2055.109811
  0
LINE
  8
CSLAYER1
  6
CONTINUOUS
 62
     7
 10
660.663424
 20
2055.109811
 11
660.454311
 21
2054.930915
  0
LINE
  8
CSLAYER1
  6
CONTINUOUS
 62
     7
 10
660.454311
 20
2054.930915
 11
660.265355
 21
2054.725373
  0
LINE
  8
CSLAYER1
  6
CONTINUOUS
 62
     7
 10
660.265355
 20
2054.725373
 11
660.097994
 21
2054.494750
  0
LINE
  8
CSLAYER1
  6
CONTINUOUS
 62
     7
 10
660.097994
 20
2054.494750
 11
659.953503
 21
2054.240800
  0
LINE
  8
CSLAYER1
  6
CONTINUOUS
 62
     7
 10
659.953503
 20
2054.240800
 11
659.832980
 21
2053.965456
  0
LINE
  8
CSLAYER1
  6
CONTINUOUS
 62
     7
 10
659.832980
 20
2053.965456
 11
659.737344
 21
2053.670814
  0
LINE
  8
CSLAYER1
  6
CONTINUOUS
 62
     7
 10
659.737344
 20
2053.670814
 11
659.667322
 21
2053.359116
  0
LINE
  8
CSLAYER1
  6
CONTINUOUS
 62
     7
 10
659.667322
 20
2053.359116
 11
659.623446
 21
2053.032734
  0
LINE
  8
CSLAYER1
  6
CONTINUOUS
 62
     7
 10
659.623446
 20
2053.032734
 11
659.606052
 21
2052.694152
  0
LINE
  8
CSLAYER1
  6
CONTINUOUS
 62
     7
 10
659.606052
 20
2052.694152
 11
659.615271
 21
2052.345948
  0
LINE
  8
CSLAYER1
  6
CONTINUOUS
 62
     7
 10
659.615271
 20
2052.345948
 11
659.651032
 21
2051.990770
  0
LINE
  8
CSLAYER1
  6
CONTINUOUS
 62
     7
 10
659.651032
 20
2051.990770
 11
659.713065
 21
2051.631323
  0
LINE
  8
CSLAYER1
  6
CONTINUOUS
 62
     7
 10
659.713065
 20
2051.631323
 11
659.800896
 21
2051.270341
  0
LINE
  8
CSLAYER1
  6
CONTINUOUS
 62
     7
 10
659.800896
 20
2051.270341
 11
659.913858
 21
2050.910573
  0
LINE
  8
CSLAYER1
  6
CONTINUOUS
 62
     7
 10
659.913858
 20
2050.910573
 11
660.051090
 21
2050.554756
  0
LINE
  8
CSLAYER1
  6
CONTINUOUS
 62
     7
 10
660.051090
 20
2050.554756
 11
660.211548
 21
2050.205598
  0
LINE
  8
CSLAYER1
  6
CONTINUOUS
 62
     7
 10
660.211548
 20
2050.205598
 11
660.394011
 21
2049.865756
  0
LINE
  8
CSLAYER1
  6
CONTINUOUS
 62
     7
 10
660.394011
 20
2049.865756
 11
660.597091
 21
2049.537818
  0
LINE
  8
CSLAYER1
  6
CONTINUOUS
 62
     7
 10
660.597091
 20
2049.537818
 11
660.819242
 21
2049.224278
  0
LINE
  8
CSLAYER1
  6
CONTINUOUS
 62
     7
 10
660.819242
 20
2049.224278
 11
661.058772
 21
2048.927522
  0
LINE
  8
CSLAYER1
  6
CONTINUOUS
 62
     7
 10
661.058772
 20
2048.927522
 11
661.313860
 21
2048.649811
  0
LINE
  8
CSLAYER1
  6
CONTINUOUS
 62
     7
 10
661.313860
 20
2048.649811
 11
661.582563
 21
2048.393256
  0
LINE
  8
CSLAYER1
  6
CONTINUOUS
 62
     7
 10
661.582563
 20
2048.393256
 11
661.862838
 21
2048.159810
  0
LINE
  8
CSLAYER1
  6
CONTINUOUS
 62
     7
 10
661.862838
 20
2048.159810
 11
662.152550
 21
2047.951251
  0
LINE
  8
CSLAYER1
  6
CONTINUOUS
 62
     7
 10
662.152550
 20
2047.951251
 11
662.449494
 21
2047.769165
  0
LINE
  8
CSLAYER1
  6
CONTINUOUS
 62
     7
 10
662.449494
 20
2047.769165
 11
662.751412
 21
2047.614939
  0
LINE
  8
CSLAYER1
  6
CONTINUOUS
 62
     7
 10
662.751412
 20
2047.614939
 11
663.056005
 21
2047.489745
  0
LINE
  8
CSLAYER1
  6
CONTINUOUS
 62
     7
 10
663.056005
 20
2047.489745
 11
663.360954
 21
2047.394537
  0
LINE
  8
CSLAYER1
  6
CONTINUOUS
 62
     7
 10
663.360954
 20
2047.394537
 11
663.663940
 21
2047.330039
  0
LINE
  8
CSLAYER1
  6
CONTINUOUS
 62
     7
 10
663.663940
 20
2047.330039
 11
663.962656
 21
2047.296743
  0
LINE
  8
CSLAYER1
  6
CONTINUOUS
 62
     7
 10
663.962656
 20
2047.296743
 11
664.254829
 21
2047.294901
  0
LINE
  8
CSLAYER1
  6
CONTINUOUS
 62
     7
 10
664.254829
 20
2047.294901
 11
664.538235
 21
2047.324528
  0
LINE
  8
CSLAYER1
  6
CONTINUOUS
 62
     7
 10
664.538235
 20
2047.324528
 11
664.810717
 21
2047.385398
  0
LINE
  8
CSLAYER1
  6
CONTINUOUS
 62
     7
 10
664.810717
 20
2047.385398
 11
665.070202
 21
2047.477047
  0
LINE
  8
CSLAYER1
  6
CONTINUOUS
 62
     7
 10
665.070202
 20
2047.477047
 11
665.314715
 21
2047.598779
  0
LINE
  8
CSLAYER1
  6
CONTINUOUS
 62
     7
 10
665.314715
 20
2047.598779
 11
665.542394
 21
2047.749667
  0
LINE
  8
CSLAYER1
  6
CONTINUOUS
 62
     7
 10
665.542394
 20
2047.749667
 11
665.751507
 21
2047.928563
  0
LINE
  8
CSLAYER1
  6
CONTINUOUS
 62
     7
 10
665.751507
 20
2047.928563
 11
665.940463
 21
2048.134105
  0
LINE
  8
CSLAYER1
  6
CONTINUOUS
 62
     7
 10
665.940463
 20
2048.134105
 11
666.107824
 21
2048.364728
  0
LINE
  8
CSLAYER1
  6
CONTINUOUS
 62
     7
 10
666.107824
 20
2048.364728
 11
666.252315
 21
2048.618678
  0
LINE
  8
CSLAYER1
  6
CONTINUOUS
 62
     7
 10
666.252315
 20
2048.618678
 11
666.372838
 21
2048.894022
  0
LINE
  8
CSLAYER1
  6
CONTINUOUS
 62
     7
 10
666.372838
 20
2048.894022
 11
666.468474
 21
2049.188664
  0
LINE
  8
CSLAYER1
  6
CONTINUOUS
 62
     7
 10
666.468474
 20
2049.188664
 11
666.538496
 21
2049.500362
  0
LINE
  8
CSLAYER1
  6
CONTINUOUS
 62
     7
 10
666.538496
 20
2049.500362
 11
666.582371
 21
2049.826744
  0
LINE
  8
CSLAYER1
  6
CONTINUOUS
 62
     7
 10
666.582371
 20
2049.826744
 11
666.599766
 21
2050.165326
  0
LINE
  8
CSLAYER1
  6
CONTINUOUS
 62
     7
 10
666.599766
 20
2050.165326
 11
666.590547
 21
2050.513530
  0
LINE
  8
CSLAYER1
  6
CONTINUOUS
 62
     7
 10
666.590547
 20
2050.513530
 11
666.554786
 21
2050.868708
  0
LINE
  8
CSLAYER1
  6
CONTINUOUS
 62
     7
 10
666.554786
 20
2050.868708
 11
666.492753
 21
2051.228155
  0
LINE
  8
CSLAYER1
  6
CONTINUOUS
 62
     7
 10
666.492753
 20
2051.228155
 11
666.404922
 21
2051.589137
  0
LINE
  8
CSLAYER1
  6
CONTINUOUS
 62
     7
 10
666.404922
 20
2051.589137
 11
666.291960
 21
2051.948905
  0
LINE
  8
CSLAYER1
  6
CONTINUOUS
 62
     7
 10
666.291960
 20
2051.948905
 11
666.154728
 21
2052.304722
  0
LINE
  8
CSLAYER1
  6
CONTINUOUS
 62
     7
 10
666.154728
 20
2052.304722
 11
665.994270
 21
2052.653880
  0
LINE
  8
CSLAYER1
  6
CONTINUOUS
 62
     7
 10
665.994270
 20
2052.653880
 11
665.811806
 21
2052.993722
  0
LINE
  8
CSLAYER1
  6
CONTINUOUS
 62
     7
 10
665.811806
 20
2052.993722
 11
665.608727
 21
2053.321660
  0
LINE
  8
CSLAYER1
  6
CONTINUOUS
 62
     7
 10
665.608727
 20
2053.321660
 11
665.386576
 21
2053.635200
  0
LINE
  8
CSLAYER1
  6
CONTINUOUS
 62
     7
 10
665.386576
 20
2053.635200
 11
665.147046
 21
2053.931956
  0
LINE
  8
CSLAYER1
  6
CONTINUOUS
 62
     7
 10
665.147046
 20
2053.931956
 11
664.891958
 21
2054.209667
  0
LINE
  8
CSLAYER1
  6
CONTINUOUS
 62
     7
 10
664.891958
 20
2054.209667
 11
664.623254
 21
2054.466222
  0
LINE
  8
CSLAYER1
  6
CONTINUOUS
 62
     7
 10
664.623254
 20
2054.466222
 11
664.342980
 21
2054.699668
  0
LINE
  8
CSLAYER1
  6
CONTINUOUS
 62
     7
 10
664.342980
 20
2054.699668
 11
664.053268
 21
2054.908227
  0
LINE
  8
CSLAYER1
  6
CONTINUOUS
 62
     7
 10
664.053268
 20
2054.908227
 11
663.756324
 21
2055.090313
  0
LINE
  8
CSLAYER1
  6
CONTINUOUS
 62
     7
 10
663.756324
 20
2055.090313
 11
663.454406
 21
2055.244539
  0
LINE
  8
CSLAYER1
  6
CONTINUOUS
 62
     7
 10
663.454406
 20
2055.244539
 11
663.149813
 21
2055.369733
  0
LINE
  8
CSLAYER1
  6
CONTINUOUS
 62
     7
 10
663.149813
 20
2055.369733
 11
662.844864
 21
2055.464941
  0
LINE
  8
CSLAYER1
  6
CONTINUOUS
 62
     7
 10
662.844864
 20
2055.464941
 11
662.541878
 21
2055.529439
  0
LINE
  8
CSLAYER1
  6
CONTINUOUS
 62
     7
 10
662.541878
 20
2055.529439
 11
662.243162
 21
2055.562735
  0
LINE
  8
CSLAYER1
  6
CONTINUOUS
 62
     7
 10
662.243162
 20
2055.562735
 11
661.950989
 21
2055.564577
  0
LINE
  8
CSLAYER1
  6
CONTINUOUS
 62
     7
 10
661.950989
 20
2055.564577
 11
661.667583
 21
2055.534950
  0
LINE
  8
CSLAYER1
  6
CONTINUOUS
 62
     7
 10
661.667583
 20
2055.534950
 11
661.395101
 21
2055.474080
  0
LINE
  8
CSLAYER1
  6
CONTINUOUS
 62
     7
 10
661.395101
 20
2055.474080
 11
661.135616
 21
2055.382431
  0
LINE
  8
CSLAYER1
  6
CONTINUOUS
 62
     7
 10
661.135616
 20
2055.382431
 11
660.891103
 21
2055.260699
  0
ENDBLK
  8
0
  0
BLOCK
  8
CSLAYER1
  2
BLKF0005
 70
   64
 10
0.0
 20
0.0
 30
0.0
  0
LINE
  8
CSLAYER1
  6
CONTINUOUS
 62
     7
 10
669.517189
 20
2047.780860
 11
669.802922
 21
2048.025304
  0
LINE
  8
CSLAYER1
  6
CONTINUOUS
 62
     7
 10
669.802922
 20
2048.025304
 11
670.061113
 21
2048.306157
  0
LINE
  8
CSLAYER1
  6
CONTINUOUS
 62
     7
 10
670.061113
 20
2048.306157
 11
670.289795
 21
2048.621282
  0
LINE
  8
CSLAYER1
  6
CONTINUOUS
 62
     7
 10
670.289795
 20
2048.621282
 11
670.487229
 21
2048.968280
  0
LINE
  8
CSLAYER1
  6
CONTINUOUS
 62
     7
 10
670.487229
 20
2048.968280
 11
670.651911
 21
2049.344512
  0
LINE
  8
CSLAYER1
  6
CONTINUOUS
 62
     7
 10
670.651911
 20
2049.344512
 11
670.782589
 21
2049.747112
  0
LINE
  8
CSLAYER1
  6
CONTINUOUS
 62
     7
 10
670.782589
 20
2049.747112
 11
670.878268
 21
2050.173018
  0
LINE
  8
CSLAYER1
  6
CONTINUOUS
 62
     7
 10
670.878268
 20
2050.173018
 11
670.938219
 21
2050.618988
  0
LINE
  8
CSLAYER1
  6
CONTINUOUS
 62
     7
 10
670.938219
 20
2050.618988
 11
670.961987
 21
2051.081628
  0
LINE
  8
CSLAYER1
  6
CONTINUOUS
 62
     7
 10
670.961987
 20
2051.081628
 11
670.949391
 21
2051.557416
  0
LINE
  8
CSLAYER1
  6
CONTINUOUS
 62
     7
 10
670.949391
 20
2051.557416
 11
670.900526
 21
2052.042732
  0
LINE
  8
CSLAYER1
  6
CONTINUOUS
 62
     7
 10
670.900526
 20
2052.042732
 11
670.815765
 21
2052.533883
  0
LINE
  8
CSLAYER1
  6
CONTINUOUS
 62
     7
 10
670.815765
 20
2052.533883
 11
670.695752
 21
2053.027130
  0
LINE
  8
CSLAYER1
  6
CONTINUOUS
 62
     7
 10
670.695752
 20
2053.027130
 11
670.541400
 21
2053.518719
  0
LINE
  8
CSLAYER1
  6
CONTINUOUS
 62
     7
 10
670.541400
 20
2053.518719
 11
670.353886
 21
2054.004909
  0
LINE
  8
CSLAYER1
  6
CONTINUOUS
 62
     7
 10
670.353886
 20
2054.004909
 11
670.134634
 21
2054.482001
  0
LINE
  8
CSLAYER1
  6
CONTINUOUS
 62
     7
 10
670.134634
 20
2054.482001
 11
669.885315
 21
2054.946362
  0
LINE
  8
CSLAYER1
  6
CONTINUOUS
 62
     7
 10
669.885315
 20
2054.946362
 11
669.607826
 21
2055.394459
  0
LINE
  8
CSLAYER1
  6
CONTINUOUS
 62
     7
 10
669.607826
 20
2055.394459
 11
669.304279
 21
2055.822882
  0
LINE
  8
CSLAYER1
  6
CONTINUOUS
 62
     7
 10
669.304279
 20
2055.822882
 11
668.976983
 21
2056.228369
  0
LINE
  8
CSLAYER1
  6
CONTINUOUS
 62
     7
 10
668.976983
 20
2056.228369
 11
668.628430
 21
2056.607836
  0
LINE
  8
CSLAYER1
  6
CONTINUOUS
 62
     7
 10
668.628430
 20
2056.607836
 11
668.261272
 21
2056.958394
  0
LINE
  8
CSLAYER1
  6
CONTINUOUS
 62
     7
 10
668.261272
 20
2056.958394
 11
667.878304
 21
2057.277375
  0
LINE
  8
CSLAYER1
  6
CONTINUOUS
 62
     7
 10
667.878304
 20
2057.277375
 11
667.482440
 21
2057.562351
  0
LINE
  8
CSLAYER1
  6
CONTINUOUS
 62
     7
 10
667.482440
 20
2057.562351
 11
667.076693
 21
2057.811154
  0
LINE
  8
CSLAYER1
  6
CONTINUOUS
 62
     7
 10
667.076693
 20
2057.811154
 11
666.664152
 21
2058.021890
  0
LINE
  8
CSLAYER1
  6
CONTINUOUS
 62
     7
 10
666.664152
 20
2058.021890
 11
666.247955
 21
2058.192956
  0
LINE
  8
CSLAYER1
  6
CONTINUOUS
 62
     7
 10
666.247955
 20
2058.192956
 11
665.831270
 21
2058.323048
  0
LINE
  8
CSLAYER1
  6
CONTINUOUS
 62
     7
 10
665.831270
 20
2058.323048
 11
665.417269
 21
2058.411178
  0
LINE
  8
CSLAYER1
  6
CONTINUOUS
 62
     7
 10
665.417269
 20
2058.411178
 11
665.009102
 21
2058.456675
  0
LINE
  8
CSLAYER1
  6
CONTINUOUS
 62
     7
 10
665.009102
 20
2058.456675
 11
664.609875
 21
2058.459191
  0
LINE
  8
CSLAYER1
  6
CONTINUOUS
 62
     7
 10
664.609875
 20
2058.459191
 11
664.222628
 21
2058.418709
  0
LINE
  8
CSLAYER1
  6
CONTINUOUS
 62
     7
 10
664.222628
 20
2058.418709
 11
663.850307
 21
2058.335536
  0
LINE
  8
CSLAYER1
  6
CONTINUOUS
 62
     7
 10
663.850307
 20
2058.335536
 11
663.495745
 21
2058.210306
  0
LINE
  8
CSLAYER1
  6
CONTINUOUS
 62
     7
 10
663.495745
 20
2058.210306
 11
663.161642
 21
2058.043970
  0
LINE
  8
CSLAYER1
  6
CONTINUOUS
 62
     7
 10
663.161642
 20
2058.043970
 11
662.850540
 21
2057.837796
  0
LINE
  8
CSLAYER1
  6
CONTINUOUS
 62
     7
 10
662.850540
 20
2057.837796
 11
662.564806
 21
2057.593352
  0
LINE
  8
CSLAYER1
  6
CONTINUOUS
 62
     7
 10
662.564806
 20
2057.593352
 11
662.306616
 21
2057.312499
  0
LINE
  8
CSLAYER1
  6
CONTINUOUS
 62
     7
 10
662.306616
 20
2057.312499
 11
662.077934
 21
2056.997374
  0
LINE
  8
CSLAYER1
  6
CONTINUOUS
 62
     7
 10
662.077934
 20
2056.997374
 11
661.880500
 21
2056.650376
  0
LINE
  8
CSLAYER1
  6
CONTINUOUS
 62
     7
 10
661.880500
 20
2056.650376
 11
661.715818
 21
2056.274144
  0
LINE
  8
CSLAYER1
  6
CONTINUOUS
 62
     7
 10
661.715818
 20
2056.274144
 11
661.585140
 21
2055.871544
  0
LINE
  8
CSLAYER1
  6
CONTINUOUS
 62
     7
 10
661.585140
 20
2055.871544
 11
661.530896
 21
2055.630083
  0
LINE
  8
CSLAYER1
  6
CONTINUOUS
 62
     7
 10
665.482264
 20
2047.709818
 11
665.703577
 21
2047.596766
  0
LINE
  8
CSLAYER1
  6
CONTINUOUS
 62
     7
 10
665.703577
 20
2047.596766
 11
666.119774
 21
2047.425700
  0
LINE
  8
CSLAYER1
  6
CONTINUOUS
 62
     7
 10
666.119774
 20
2047.425700
 11
666.536459
 21
2047.295608
  0
LINE
  8
CSLAYER1
  6
CONTINUOUS
 62
     7
 10
666.536459
 20
2047.295608
 11
666.950460
 21
2047.207478
  0
LINE
  8
CSLAYER1
  6
CONTINUOUS
 62
     7
 10
666.950460
 20
2047.207478
 11
667.358627
 21
2047.161981
  0
LINE
  8
CSLAYER1
  6
CONTINUOUS
 62
     7
 10
667.358627
 20
2047.161981
 11
667.757853
 21
2047.159464
  0
LINE
  8
CSLAYER1
  6
CONTINUOUS
 62
     7
 10
667.757853
 20
2047.159464
 11
668.145101
 21
2047.199947
  0
LINE
  8
CSLAYER1
  6
CONTINUOUS
 62
     7
 10
668.145101
 20
2047.199947
 11
668.517422
 21
2047.283119
  0
LINE
  8
CSLAYER1
  6
CONTINUOUS
 62
     7
 10
668.517422
 20
2047.283119
 11
668.848309
 21
2047.399989
  0
ENDBLK
  8
0
  0
BLOCK
  8
CSLAYER1
  2
BLKF0006
 70
   64
 10
0.0
 20
0.0
 30
0.0
  0
LINE
  8
CSLAYER1
  6
CONTINUOUS
 62
     7
 10
670.949025
 20
2048.577557
 11
671.342523
 21
2048.914192
  0
LINE
  8
CSLAYER1
  6
CONTINUOUS
 62
     7
 10
671.342523
 20
2048.914192
 11
671.600714
 21
2049.195046
  0
LINE
  8
CSLAYER1
  6
CONTINUOUS
 62
     7
 10
671.600714
 20
2049.195046
 11
671.829396
 21
2049.510171
  0
LINE
  8
CSLAYER1
  6
CONTINUOUS
 62
     7
 10
671.829396
 20
2049.510171
 11
672.026829
 21
2049.857169
  0
LINE
  8
CSLAYER1
  6
CONTINUOUS
 62
     7
 10
672.026829
 20
2049.857169
 11
672.191512
 21
2050.233400
  0
LINE
  8
CSLAYER1
  6
CONTINUOUS
 62
     7
 10
672.191512
 20
2050.233400
 11
672.322190
 21
2050.636001
  0
LINE
  8
CSLAYER1
  6
CONTINUOUS
 62
     7
 10
672.322190
 20
2050.636001
 11
672.417869
 21
2051.061907
  0
LINE
  8
CSLAYER1
  6
CONTINUOUS
 62
     7
 10
672.417869
 20
2051.061907
 11
672.477820
 21
2051.507877
  0
LINE
  8
CSLAYER1
  6
CONTINUOUS
 62
     7
 10
672.477820
 20
2051.507877
 11
672.501588
 21
2051.970516
  0
LINE
  8
CSLAYER1
  6
CONTINUOUS
 62
     7
 10
672.501588
 20
2051.970516
 11
672.488992
 21
2052.446305
  0
LINE
  8
CSLAYER1
  6
CONTINUOUS
 62
     7
 10
672.488992
 20
2052.446305
 11
672.440127
 21
2052.931621
  0
LINE
  8
CSLAYER1
  6
CONTINUOUS
 62
     7
 10
672.440127
 20
2052.931621
 11
672.355365
 21
2053.422772
  0
LINE
  8
CSLAYER1
  6
CONTINUOUS
 62
     7
 10
672.355365
 20
2053.422772
 11
672.235352
 21
2053.916019
  0
LINE
  8
CSLAYER1
  6
CONTINUOUS
 62
     7
 10
672.235352
 20
2053.916019
 11
672.081001
 21
2054.407608
  0
LINE
  8
CSLAYER1
  6
CONTINUOUS
 62
     7
 10
672.081001
 20
2054.407608
 11
671.893486
 21
2054.893798
  0
LINE
  8
CSLAYER1
  6
CONTINUOUS
 62
     7
 10
671.893486
 20
2054.893798
 11
671.674235
 21
2055.370889
  0
LINE
  8
CSLAYER1
  6
CONTINUOUS
 62
     7
 10
671.674235
 20
2055.370889
 11
671.424916
 21
2055.835251
  0
LINE
  8
CSLAYER1
  6
CONTINUOUS
 62
     7
 10
671.424916
 20
2055.835251
 11
671.147427
 21
2056.283348
  0
LINE
  8
CSLAYER1
  6
CONTINUOUS
 62
     7
 10
671.147427
 20
2056.283348
 11
670.843879
 21
2056.711770
  0
LINE
  8
CSLAYER1
  6
CONTINUOUS
 62
     7
 10
670.843879
 20
2056.711770
 11
670.516584
 21
2057.117258
  0
LINE
  8
CSLAYER1
  6
CONTINUOUS
 62
     7
 10
670.516584
 20
2057.117258
 11
670.168031
 21
2057.496725
  0
LINE
  8
CSLAYER1
  6
CONTINUOUS
 62
     7
 10
670.168031
 20
2057.496725
 11
669.800873
 21
2057.847283
  0
LINE
  8
CSLAYER1
  6
CONTINUOUS
 62
     7
 10
669.800873
 20
2057.847283
 11
669.417905
 21
2058.166264
  0
LINE
  8
CSLAYER1
  6
CONTINUOUS
 62
     7
 10
669.417905
 20
2058.166264
 11
669.022041
 21
2058.451240
  0
LINE
  8
CSLAYER1
  6
CONTINUOUS
 62
     7
 10
669.022041
 20
2058.451240
 11
668.616294
 21
2058.700043
  0
LINE
  8
CSLAYER1
  6
CONTINUOUS
 62
     7
 10
668.616294
 20
2058.700043
 11
668.203752
 21
2058.910779
  0
LINE
  8
CSLAYER1
  6
CONTINUOUS
 62
     7
 10
668.203752
 20
2058.910779
 11
667.787555
 21
2059.081844
  0
LINE
  8
CSLAYER1
  6
CONTINUOUS
 62
     7
 10
667.787555
 20
2059.081844
 11
667.370871
 21
2059.211937
  0
LINE
  8
CSLAYER1
  6
CONTINUOUS
 62
     7
 10
667.370871
 20
2059.211937
 11
666.956869
 21
2059.300067
  0
LINE
  8
CSLAYER1
  6
CONTINUOUS
 62
     7
 10
666.956869
 20
2059.300067
 11
666.548702
 21
2059.345564
  0
LINE
  8
CSLAYER1
  6
CONTINUOUS
 62
     7
 10
666.548702
 20
2059.345564
 11
666.149476
 21
2059.348080
  0
LINE
  8
CSLAYER1
  6
CONTINUOUS
 62
     7
 10
666.149476
 20
2059.348080
 11
665.762229
 21
2059.307598
  0
LINE
  8
CSLAYER1
  6
CONTINUOUS
 62
     7
 10
665.762229
 20
2059.307598
 11
665.389907
 21
2059.224425
  0
LINE
  8
CSLAYER1
  6
CONTINUOUS
 62
     7
 10
665.389907
 20
2059.224425
 11
665.035346
 21
2059.099195
  0
ENDBLK
  8
0
  0
BLOCK
  8
CSLAYER1
  2
BLKF0007
 70
   64
 10
0.0
 20
0.0
 30
0.0
  0
LINE
  8
CSLAYER1
  6
CONTINUOUS
 62
     7
 10
684.879626
 20
2061.124847
 11
684.863136
 21
2061.391904
  0
LINE
  8
CSLAYER1
  6
CONTINUOUS
 62
     7
 10
684.863136
 20
2061.391904
 11
684.813793
 21
2061.656928
  0
LINE
  8
CSLAYER1
  6
CONTINUOUS
 62
     7
 10
684.813793
 20
2061.656928
 11
684.731971
 21
2061.917902
  0
LINE
  8
CSLAYER1
  6
CONTINUOUS
 62
     7
 10
684.731971
 20
2061.917902
 11
684.618294
 21
2062.172841
  0
LINE
  8
CSLAYER1
  6
CONTINUOUS
 62
     7
 10
684.618294
 20
2062.172841
 11
684.473626
 21
2062.419804
  0
LINE
  8
CSLAYER1
  6
CONTINUOUS
 62
     7
 10
684.473626
 20
2062.419804
 11
684.299069
 21
2062.656912
  0
LINE
  8
CSLAYER1
  6
CONTINUOUS
 62
     7
 10
684.299069
 20
2062.656912
 11
684.095952
 21
2062.882359
  0
LINE
  8
CSLAYER1
  6
CONTINUOUS
 62
     7
 10
684.095952
 20
2062.882359
 11
683.865819
 21
2063.094431
  0
LINE
  8
CSLAYER1
  6
CONTINUOUS
 62
     7
 10
683.865819
 20
2063.094431
 11
683.610422
 21
2063.291514
  0
LINE
  8
CSLAYER1
  6
CONTINUOUS
 62
     7
 10
683.610422
 20
2063.291514
 11
683.331706
 21
2063.472106
  0
LINE
  8
CSLAYER1
  6
CONTINUOUS
 62
     7
 10
683.331706
 20
2063.472106
 11
683.031791
 21
2063.634835
  0
LINE
  8
CSLAYER1
  6
CONTINUOUS
 62
     7
 10
683.031791
 20
2063.634835
 11
682.712959
 21
2063.778461
  0
LINE
  8
CSLAYER1
  6
CONTINUOUS
 62
     7
 10
682.712959
 20
2063.778461
 11
682.377639
 21
2063.901891
  0
LINE
  8
CSLAYER1
  6
CONTINUOUS
 62
     7
 10
682.377639
 20
2063.901891
 11
682.028380
 21
2064.004187
  0
LINE
  8
CSLAYER1
  6
CONTINUOUS
 62
     7
 10
682.028380
 20
2064.004187
 11
681.667842
 21
2064.084569
  0
LINE
  8
CSLAYER1
  6
CONTINUOUS
 62
     7
 10
681.667842
 20
2064.084569
 11
681.298768
 21
2064.142425
  0
LINE
  8
CSLAYER1
  6
CONTINUOUS
 62
     7
 10
681.298768
 20
2064.142425
 11
680.923968
 21
2064.177316
  0
LINE
  8
CSLAYER1
  6
CONTINUOUS
 62
     7
 10
680.923968
 20
2064.177316
 11
680.546293
 21
2064.188976
  0
LINE
  8
CSLAYER1
  6
CONTINUOUS
 62
     7
 10
680.546293
 20
2064.188976
 11
680.168618
 21
2064.177316
  0
LINE
  8
CSLAYER1
  6
CONTINUOUS
 62
     7
 10
680.168618
 20
2064.177316
 11
679.793817
 21
2064.142425
  0
LINE
  8
CSLAYER1
  6
CONTINUOUS
 62
     7
 10
679.793817
 20
2064.142425
 11
679.424744
 21
2064.084569
  0
LINE
  8
CSLAYER1
  6
CONTINUOUS
 62
     7
 10
679.424744
 20
2064.084569
 11
679.064205
 21
2064.004187
  0
LINE
  8
CSLAYER1
  6
CONTINUOUS
 62
     7
 10
679.064205
 20
2064.004187
 11
678.714947
 21
2063.901891
  0
LINE
  8
CSLAYER1
  6
CONTINUOUS
 62
     7
 10
678.714947
 20
2063.901891
 11
678.379626
 21
2063.778461
  0
LINE
  8
CSLAYER1
  6
CONTINUOUS
 62
     7
 10
678.379626
 20
2063.778461
 11
678.060795
 21
2063.634835
  0
LINE
  8
CSLAYER1
  6
CONTINUOUS
 62
     7
 10
678.060795
 20
2063.634835
 11
677.760880
 21
2063.472106
  0
LINE
  8
CSLAYER1
  6
CONTINUOUS
 62
     7
 10
677.760880
 20
2063.472106
 11
677.482163
 21
2063.291514
  0
LINE
  8
CSLAYER1
  6
CONTINUOUS
 62
     7
 10
677.482163
 20
2063.291514
 11
677.226767
 21
2063.094431
  0
LINE
  8
CSLAYER1
  6
CONTINUOUS
 62
     7
 10
677.226767
 20
2063.094431
 11
676.996634
 21
2062.882359
  0
LINE
  8
CSLAYER1
  6
CONTINUOUS
 62
     7
 10
676.996634
 20
2062.882359
 11
676.793516
 21
2062.656912
  0
LINE
  8
CSLAYER1
  6
CONTINUOUS
 62
     7
 10
676.793516
 20
2062.656912
 11
676.618959
 21
2062.419804
  0
LINE
  8
CSLAYER1
  6
CONTINUOUS
 62
     7
 10
676.618959
 20
2062.419804
 11
676.474291
 21
2062.172841
  0
LINE
  8
CSLAYER1
  6
CONTINUOUS
 62
     7
 10
676.474291
 20
2062.172841
 11
676.360614
 21
2061.917902
  0
LINE
  8
CSLAYER1
  6
CONTINUOUS
 62
     7
 10
676.360614
 20
2061.917902
 11
676.278792
 21
2061.656928
  0
LINE
  8
CSLAYER1
  6
CONTINUOUS
 62
     7
 10
676.278792
 20
2061.656928
 11
676.229449
 21
2061.391904
  0
LINE
  8
CSLAYER1
  6
CONTINUOUS
 62
     7
 10
676.229449
 20
2061.391904
 11
676.212959
 21
2061.124847
  0
LINE
  8
CSLAYER1
  6
CONTINUOUS
 62
     7
 10
676.212959
 20
2061.124847
 11
676.229449
 21
2060.857791
  0
LINE
  8
CSLAYER1
  6
CONTINUOUS
 62
     7
 10
676.229449
 20
2060.857791
 11
676.278792
 21
2060.592767
  0
LINE
  8
CSLAYER1
  6
CONTINUOUS
 62
     7
 10
676.278792
 20
2060.592767
 11
676.360614
 21
2060.331792
  0
LINE
  8
CSLAYER1
  6
CONTINUOUS
 62
     7
 10
676.360614
 20
2060.331792
 11
676.474291
 21
2060.076853
  0
LINE
  8
CSLAYER1
  6
CONTINUOUS
 62
     7
 10
676.474291
 20
2060.076853
 11
676.618959
 21
2059.829890
  0
LINE
  8
CSLAYER1
  6
CONTINUOUS
 62
     7
 10
676.618959
 20
2059.829890
 11
676.793516
 21
2059.592782
  0
LINE
  8
CSLAYER1
  6
CONTINUOUS
 62
     7
 10
676.793516
 20
2059.592782
 11
676.996634
 21
2059.367335
  0
LINE
  8
CSLAYER1
  6
CONTINUOUS
 62
     7
 10
676.996634
 20
2059.367335
 11
677.226767
 21
2059.155263
  0
LINE
  8
CSLAYER1
  6
CONTINUOUS
 62
     7
 10
677.226767
 20
2059.155263
 11
677.482163
 21
2058.958180
  0
LINE
  8
CSLAYER1
  6
CONTINUOUS
 62
     7
 10
677.482163
 20
2058.958180
 11
677.760880
 21
2058.777588
  0
LINE
  8
CSLAYER1
  6
CONTINUOUS
 62
     7
 10
677.760880
 20
2058.777588
 11
678.060795
 21
2058.614859
  0
LINE
  8
CSLAYER1
  6
CONTINUOUS
 62
     7
 10
678.060795
 20
2058.614859
 11
678.379626
 21
2058.471233
  0
LINE
  8
CSLAYER1
  6
CONTINUOUS
 62
     7
 10
678.379626
 20
2058.471233
 11
678.714947
 21
2058.347803
  0
LINE
  8
CSLAYER1
  6
CONTINUOUS
 62
     7
 10
678.714947
 20
2058.347803
 11
679.064205
 21
2058.245507
  0
LINE
  8
CSLAYER1
  6
CONTINUOUS
 62
     7
 10
679.064205
 20
2058.245507
 11
679.424744
 21
2058.165125
  0
LINE
  8
CSLAYER1
  6
CONTINUOUS
 62
     7
 10
679.424744
 20
2058.165125
 11
679.793817
 21
2058.107269
  0
LINE
  8
CSLAYER1
  6
CONTINUOUS
 62
     7
 10
679.793817
 20
2058.107269
 11
680.168618
 21
2058.072378
  0
LINE
  8
CSLAYER1
  6
CONTINUOUS
 62
     7
 10
680.168618
 20
2058.072378
 11
680.546293
 21
2058.060718
  0
LINE
  8
CSLAYER1
  6
CONTINUOUS
 62
     7
 10
680.546293
 20
2058.060718
 11
680.923968
 21
2058.072378
  0
LINE
  8
CSLAYER1
  6
CONTINUOUS
 62
     7
 10
680.923968
 20
2058.072378
 11
681.298768
 21
2058.107269
  0
LINE
  8
CSLAYER1
  6
CONTINUOUS
 62
     7
 10
681.298768
 20
2058.107269
 11
681.667842
 21
2058.165125
  0
LINE
  8
CSLAYER1
  6
CONTINUOUS
 62
     7
 10
681.667842
 20
2058.165125
 11
682.028380
 21
2058.245507
  0
LINE
  8
CSLAYER1
  6
CONTINUOUS
 62
     7
 10
682.028380
 20
2058.245507
 11
682.377639
 21
2058.347803
  0
LINE
  8
CSLAYER1
  6
CONTINUOUS
 62
     7
 10
682.377639
 20
2058.347803
 11
682.712959
 21
2058.471233
  0
LINE
  8
CSLAYER1
  6
CONTINUOUS
 62
     7
 10
682.712959
 20
2058.471233
 11
683.031791
 21
2058.614859
  0
LINE
  8
CSLAYER1
  6
CONTINUOUS
 62
     7
 10
683.031791
 20
2058.614859
 11
683.331706
 21
2058.777588
  0
LINE
  8
CSLAYER1
  6
CONTINUOUS
 62
     7
 10
683.331706
 20
2058.777588
 11
683.610422
 21
2058.958180
  0
LINE
  8
CSLAYER1
  6
CONTINUOUS
 62
     7
 10
683.610422
 20
2058.958180
 11
683.865819
 21
2059.155263
  0
LINE
  8
CSLAYER1
  6
CONTINUOUS
 62
     7
 10
683.865819
 20
2059.155263
 11
684.095952
 21
2059.367335
  0
LINE
  8
CSLAYER1
  6
CONTINUOUS
 62
     7
 10
684.095952
 20
2059.367335
 11
684.299069
 21
2059.592782
  0
LINE
  8
CSLAYER1
  6
CONTINUOUS
 62
     7
 10
684.299069
 20
2059.592782
 11
684.473626
 21
2059.829890
  0
LINE
  8
CSLAYER1
  6
CONTINUOUS
 62
     7
 10
684.473626
 20
2059.829890
 11
684.618294
 21
2060.076853
  0
LINE
  8
CSLAYER1
  6
CONTINUOUS
 62
     7
 10
684.618294
 20
2060.076853
 11
684.731971
 21
2060.331792
  0
LINE
  8
CSLAYER1
  6
CONTINUOUS
 62
     7
 10
684.731971
 20
2060.331792
 11
684.813793
 21
2060.592767
  0
LINE
  8
CSLAYER1
  6
CONTINUOUS
 62
     7
 10
684.813793
 20
2060.592767
 11
684.863136
 21
2060.857791
  0
LINE
  8
CSLAYER1
  6
CONTINUOUS
 62
     7
 10
684.863136
 20
2060.857791
 11
684.879626
 21
2061.124847
  0
ENDBLK
  8
0
  0
BLOCK
  8
CSLAYER1
  2
BLKF0008
 70
   64
 10
0.0
 20
0.0
 30
0.0
  0
LINE
  8
CSLAYER1
  6
CONTINUOUS
 62
     7
 10
619.089482
 20
2058.613420
 11
620.196317
 21
2059.305047
  0
LINE
  8
CSLAYER1
  6
CONTINUOUS
 62
     7
 10
620.601285
 20
2069.395349
 11
647.168726
 21
2085.996529
  0
LINE
  8
CSLAYER1
  6
CONTINUOUS
 62
     7
 10
618.636058
 20
2066.298371
 11
618.636058
 21
2061.480329
  0
LINE
  8
CSLAYER1
  6
CONTINUOUS
 62
     7
 10
618.636058
 20
2066.298371
 11
618.668023
 21
2066.718291
  0
LINE
  8
CSLAYER1
  6
CONTINUOUS
 62
     7
 10
618.668023
 20
2066.718291
 11
618.763673
 21
2067.135015
  0
LINE
  8
CSLAYER1
  6
CONTINUOUS
 62
     7
 10
618.763673
 20
2067.135015
 11
618.922281
 21
2067.545372
  0
LINE
  8
CSLAYER1
  6
CONTINUOUS
 62
     7
 10
618.922281
 20
2067.545372
 11
619.142640
 21
2067.946239
  0
LINE
  8
CSLAYER1
  6
CONTINUOUS
 62
     7
 10
619.142640
 20
2067.946239
 11
619.423073
 21
2068.334564
  0
LINE
  8
CSLAYER1
  6
CONTINUOUS
 62
     7
 10
619.423073
 20
2068.334564
 11
619.761445
 21
2068.707392
  0
LINE
  8
CSLAYER1
  6
CONTINUOUS
 62
     7
 10
619.761445
 20
2068.707392
 11
620.155181
 21
2069.061886
  0
LINE
  8
CSLAYER1
  6
CONTINUOUS
 62
     7
 10
620.155181
 20
2069.061886
 11
620.601285
 21
2069.395349
  0
LINE
  8
CSLAYER1
  6
CONTINUOUS
 62
     7
 10
632.975755
 20
2062.891501
 11
632.435474
 21
2062.607537
  0
LINE
  8
CSLAYER1
  6
CONTINUOUS
 62
     7
 10
632.435474
 20
2062.607537
 11
631.854100
 21
2062.351662
  0
LINE
  8
CSLAYER1
  6
CONTINUOUS
 62
     7
 10
631.854100
 20
2062.351662
 11
631.236058
 21
2062.125824
  0
LINE
  8
CSLAYER1
  6
CONTINUOUS
 62
     7
 10
631.236058
 20
2062.125824
 11
630.586051
 21
2061.931742
  0
LINE
  8
CSLAYER1
  6
CONTINUOUS
 62
     7
 10
630.586051
 20
2061.931742
 11
629.909027
 21
2061.770893
  0
LINE
  8
CSLAYER1
  6
CONTINUOUS
 62
     7
 10
629.909027
 20
2061.770893
 11
629.210138
 21
2061.644500
  0
LINE
  8
CSLAYER1
  6
CONTINUOUS
 62
     7
 10
629.210138
 20
2061.644500
 11
628.494703
 21
2061.553526
  0
LINE
  8
CSLAYER1
  6
CONTINUOUS
 62
     7
 10
628.494703
 20
2061.553526
 11
627.768166
 21
2061.498663
  0
LINE
  8
CSLAYER1
  6
CONTINUOUS
 62
     7
 10
627.768166
 20
2061.498663
 11
627.036058
 21
2061.480329
  0
LINE
  8
CSLAYER1
  6
CONTINUOUS
 62
     7
 10
627.036058
 20
2061.480329
 11
626.303950
 21
2061.498663
  0
LINE
  8
CSLAYER1
  6
CONTINUOUS
 62
     7
 10
626.303950
 20
2061.498663
 11
625.577413
 21
2061.553526
  0
LINE
  8
CSLAYER1
  6
CONTINUOUS
 62
     7
 10
625.577413
 20
2061.553526
 11
624.861978
 21
2061.644500
  0
LINE
  8
CSLAYER1
  6
CONTINUOUS
 62
     7
 10
624.861978
 20
2061.644500
 11
624.163089
 21
2061.770893
  0
LINE
  8
CSLAYER1
  6
CONTINUOUS
 62
     7
 10
624.163089
 20
2061.770893
 11
623.486065
 21
2061.931742
  0
LINE
  8
CSLAYER1
  6
CONTINUOUS
 62
     7
 10
623.486065
 20
2061.931742
 11
622.836058
 21
2062.125824
  0
LINE
  8
CSLAYER1
  6
CONTINUOUS
 62
     7
 10
622.836058
 20
2062.125824
 11
622.218016
 21
2062.351662
  0
LINE
  8
CSLAYER1
  6
CONTINUOUS
 62
     7
 10
622.218016
 20
2062.351662
 11
621.636642
 21
2062.607537
  0
LINE
  8
CSLAYER1
  6
CONTINUOUS
 62
     7
 10
621.636642
 20
2062.607537
 11
621.096361
 21
2062.891501
  0
LINE
  8
CSLAYER1
  6
CONTINUOUS
 62
     7
 10
621.096361
 20
2062.891501
 11
620.601285
 21
2063.201393
  0
LINE
  8
CSLAYER1
  6
CONTINUOUS
 62
     7
 10
620.601285
 20
2063.201393
 11
620.155181
 21
2063.534856
  0
LINE
  8
CSLAYER1
  6
CONTINUOUS
 62
     7
 10
620.155181
 20
2063.534856
 11
619.761445
 21
2063.889350
  0
LINE
  8
CSLAYER1
  6
CONTINUOUS
 62
     7
 10
619.761445
 20
2063.889350
 11
619.423073
 21
2064.262179
  0
LINE
  8
CSLAYER1
  6
CONTINUOUS
 62
     7
 10
619.423073
 20
2064.262179
 11
619.142640
 21
2064.650504
  0
LINE
  8
CSLAYER1
  6
CONTINUOUS
 62
     7
 10
619.142640
 20
2064.650504
 11
618.922281
 21
2065.051370
  0
LINE
  8
CSLAYER1
  6
CONTINUOUS
 62
     7
 10
618.922281
 20
2065.051370
 11
618.763673
 21
2065.461727
  0
LINE
  8
CSLAYER1
  6
CONTINUOUS
 62
     7
 10
618.763673
 20
2065.461727
 11
618.668023
 21
2065.878451
  0
LINE
  8
CSLAYER1
  6
CONTINUOUS
 62
     7
 10
618.668023
 20
2065.878451
 11
618.636058
 21
2066.298371
  0
LINE
  8
CSLAYER1
  6
CONTINUOUS
 62
     7
 10
633.470831
 20
2058.383351
 11
632.975755
 21
2058.073459
  0
LINE
  8
CSLAYER1
  6
CONTINUOUS
 62
     7
 10
632.975755
 20
2058.073459
 11
632.435474
 21
2057.789495
  0
LINE
  8
CSLAYER1
  6
CONTINUOUS
 62
     7
 10
632.435474
 20
2057.789495
 11
631.854100
 21
2057.533620
  0
LINE
  8
CSLAYER1
  6
CONTINUOUS
 62
     7
 10
631.854100
 20
2057.533620
 11
631.236058
 21
2057.307782
  0
LINE
  8
CSLAYER1
  6
CONTINUOUS
 62
     7
 10
631.236058
 20
2057.307782
 11
630.586051
 21
2057.113700
  0
LINE
  8
CSLAYER1
  6
CONTINUOUS
 62
     7
 10
630.586051
 20
2057.113700
 11
629.909027
 21
2056.952850
  0
LINE
  8
CSLAYER1
  6
CONTINUOUS
 62
     7
 10
629.909027
 20
2056.952850
 11
629.210138
 21
2056.826458
  0
LINE
  8
CSLAYER1
  6
CONTINUOUS
 62
     7
 10
629.210138
 20
2056.826458
 11
628.494703
 21
2056.735484
  0
LINE
  8
CSLAYER1
  6
CONTINUOUS
 62
     7
 10
628.494703
 20
2056.735484
 11
627.768166
 21
2056.680621
  0
LINE
  8
CSLAYER1
  6
CONTINUOUS
 62
     7
 10
627.768166
 20
2056.680621
 11
627.036058
 21
2056.662287
  0
LINE
  8
CSLAYER1
  6
CONTINUOUS
 62
     7
 10
627.036058
 20
2056.662287
 11
626.303950
 21
2056.680621
  0
LINE
  8
CSLAYER1
  6
CONTINUOUS
 62
     7
 10
626.303950
 20
2056.680621
 11
625.577413
 21
2056.735484
  0
LINE
  8
CSLAYER1
  6
CONTINUOUS
 62
     7
 10
625.577413
 20
2056.735484
 11
624.861978
 21
2056.826458
  0
LINE
  8
CSLAYER1
  6
CONTINUOUS
 62
     7
 10
624.861978
 20
2056.826458
 11
624.163089
 21
2056.952850
  0
LINE
  8
CSLAYER1
  6
CONTINUOUS
 62
     7
 10
624.163089
 20
2056.952850
 11
623.486065
 21
2057.113700
  0
LINE
  8
CSLAYER1
  6
CONTINUOUS
 62
     7
 10
623.486065
 20
2057.113700
 11
622.836058
 21
2057.307782
  0
LINE
  8
CSLAYER1
  6
CONTINUOUS
 62
     7
 10
622.836058
 20
2057.307782
 11
622.218016
 21
2057.533620
  0
LINE
  8
CSLAYER1
  6
CONTINUOUS
 62
     7
 10
622.218016
 20
2057.533620
 11
621.636642
 21
2057.789495
  0
LINE
  8
CSLAYER1
  6
CONTINUOUS
 62
     7
 10
621.636642
 20
2057.789495
 11
621.096361
 21
2058.073459
  0
LINE
  8
CSLAYER1
  6
CONTINUOUS
 62
     7
 10
621.096361
 20
2058.073459
 11
620.601285
 21
2058.383351
  0
LINE
  8
CSLAYER1
  6
CONTINUOUS
 62
     7
 10
620.601285
 20
2058.383351
 11
620.155181
 21
2058.716814
  0
LINE
  8
CSLAYER1
  6
CONTINUOUS
 62
     7
 10
620.155181
 20
2058.716814
 11
619.761445
 21
2059.071308
  0
LINE
  8
CSLAYER1
  6
CONTINUOUS
 62
     7
 10
619.761445
 20
2059.071308
 11
619.423073
 21
2059.444136
  0
LINE
  8
CSLAYER1
  6
CONTINUOUS
 62
     7
 10
619.423073
 20
2059.444136
 11
619.142640
 21
2059.832462
  0
LINE
  8
CSLAYER1
  6
CONTINUOUS
 62
     7
 10
619.142640
 20
2059.832462
 11
618.922281
 21
2060.233328
  0
LINE
  8
CSLAYER1
  6
CONTINUOUS
 62
     7
 10
618.922281
 20
2060.233328
 11
618.763673
 21
2060.643685
  0
LINE
  8
CSLAYER1
  6
CONTINUOUS
 62
     7
 10
618.763673
 20
2060.643685
 11
618.668023
 21
2061.060409
  0
LINE
  8
CSLAYER1
  6
CONTINUOUS
 62
     7
 10
618.668023
 20
2061.060409
 11
618.636058
 21
2061.480329
  0
LINE
  8
CSLAYER1
  6
CONTINUOUS
 62
     7
 10
620.468095
 20
2065.950891
 11
650.567894
 21
2084.759333
  0
LINE
  8
CSLAYER1
  6
CONTINUOUS
 62
     7
 10
623.020479
 20
2064.184565
 11
653.967062
 21
2083.522137
  0
LINE
  8
CSLAYER1
  6
CONTINUOUS
 62
     7
 10
632.975755
 20
2058.073459
 11
661.672478
 21
2076.005161
  0
LINE
  8
CSLAYER1
  6
CONTINUOUS
 62
     7
 10
632.975755
 20
2062.891501
 11
661.565677
 21
2080.756467
  0
LINE
  8
CSLAYER1
  6
CONTINUOUS
 62
     7
 10
634.363164
 20
2064.549798
 11
660.765398
 21
2081.047745
  0
LINE
  8
CSLAYER1
  6
CONTINUOUS
 62
     7
 10
627.216340
 20
2063.445198
 11
657.366230
 21
2082.284941
  0
LINE
  8
CSLAYER1
  6
CONTINUOUS
 62
     7
 10
653.705581
 20
2089.443409
 11
653.729874
 21
2089.762548
  0
LINE
  8
CSLAYER1
  6
CONTINUOUS
 62
     7
 10
653.729874
 20
2089.762548
 11
653.802568
 21
2090.079259
  0
LINE
  8
CSLAYER1
  6
CONTINUOUS
 62
     7
 10
653.802568
 20
2090.079259
 11
653.923110
 21
2090.391130
  0
LINE
  8
CSLAYER1
  6
CONTINUOUS
 62
     7
 10
653.923110
 20
2090.391130
 11
654.090583
 21
2090.695789
  0
LINE
  8
CSLAYER1
  6
CONTINUOUS
 62
     7
 10
654.090583
 20
2090.695789
 11
654.303712
 21
2090.990916
  0
LINE
  8
CSLAYER1
  6
CONTINUOUS
 62
     7
 10
654.303712
 20
2090.990916
 11
654.560874
 21
2091.274265
  0
LINE
  8
CSLAYER1
  6
CONTINUOUS
 62
     7
 10
654.560874
 20
2091.274265
 11
654.860114
 21
2091.543681
  0
LINE
  8
CSLAYER1
  6
CONTINUOUS
 62
     7
 10
654.860114
 20
2091.543681
 11
655.199153
 21
2091.797112
  0
LINE
  8
CSLAYER1
  6
CONTINUOUS
 62
     7
 10
655.199153
 20
2091.797112
 11
655.575411
 21
2092.032631
  0
LINE
  8
CSLAYER1
  6
CONTINUOUS
 62
     7
 10
655.575411
 20
2092.032631
 11
655.986025
 21
2092.248443
  0
LINE
  8
CSLAYER1
  6
CONTINUOUS
 62
     7
 10
655.986025
 20
2092.248443
 11
656.427869
 21
2092.442908
  0
LINE
  8
CSLAYER1
  6
CONTINUOUS
 62
     7
 10
656.427869
 20
2092.442908
 11
656.897581
 21
2092.614545
  0
LINE
  8
CSLAYER1
  6
CONTINUOUS
 62
     7
 10
656.897581
 20
2092.614545
 11
657.391586
 21
2092.762047
  0
LINE
  8
CSLAYER1
  6
CONTINUOUS
 62
     7
 10
657.391586
 20
2092.762047
 11
657.906124
 21
2092.884293
  0
LINE
  8
CSLAYER1
  6
CONTINUOUS
 62
     7
 10
657.906124
 20
2092.884293
 11
658.437280
 21
2092.980351
  0
LINE
  8
CSLAYER1
  6
CONTINUOUS
 62
     7
 10
658.437280
 20
2092.980351
 11
658.981011
 21
2093.049492
  0
LINE
  8
CSLAYER1
  6
CONTINUOUS
 62
     7
 10
658.981011
 20
2093.049492
 11
659.533178
 21
2093.091187
  0
LINE
  8
CSLAYER1
  6
CONTINUOUS
 62
     7
 10
659.533178
 20
2093.091187
 11
660.089581
 21
2093.105121
  0
LINE
  8
CSLAYER1
  6
CONTINUOUS
 62
     7
 10
660.089581
 20
2093.105121
 11
660.645983
 21
2093.091187
  0
LINE
  8
CSLAYER1
  6
CONTINUOUS
 62
     7
 10
660.645983
 20
2093.091187
 11
661.198151
 21
2093.049492
  0
LINE
  8
CSLAYER1
  6
CONTINUOUS
 62
     7
 10
661.198151
 20
2093.049492
 11
661.741881
 21
2092.980351
  0
LINE
  8
CSLAYER1
  6
CONTINUOUS
 62
     7
 10
661.741881
 20
2092.980351
 11
662.273037
 21
2092.884293
  0
LINE
  8
CSLAYER1
  6
CONTINUOUS
 62
     7
 10
662.273037
 20
2092.884293
 11
662.787576
 21
2092.762047
  0
LINE
  8
CSLAYER1
  6
CONTINUOUS
 62
     7
 10
662.787576
 20
2092.762047
 11
663.281581
 21
2092.614545
  0
LINE
  8
CSLAYER1
  6
CONTINUOUS
 62
     7
 10
663.281581
 20
2092.614545
 11
663.751293
 21
2092.442908
  0
LINE
  8
CSLAYER1
  6
CONTINUOUS
 62
     7
 10
663.751293
 20
2092.442908
 11
664.193137
 21
2092.248443
  0
LINE
  8
CSLAYER1
  6
CONTINUOUS
 62
     7
 10
664.193137
 20
2092.248443
 11
664.603750
 21
2092.032631
  0
LINE
  8
CSLAYER1
  6
CONTINUOUS
 62
     7
 10
664.603750
 20
2092.032631
 11
664.980008
 21
2091.797112
  0
LINE
  8
CSLAYER1
  6
CONTINUOUS
 62
     7
 10
664.980008
 20
2091.797112
 11
665.319047
 21
2091.543681
  0
LINE
  8
CSLAYER1
  6
CONTINUOUS
 62
     7
 10
665.319047
 20
2091.543681
 11
665.618287
 21
2091.274265
  0
LINE
  8
CSLAYER1
  6
CONTINUOUS
 62
     7
 10
665.618287
 20
2091.274265
 11
665.875450
 21
2090.990916
  0
LINE
  8
CSLAYER1
  6
CONTINUOUS
 62
     7
 10
665.875450
 20
2090.990916
 11
666.088578
 21
2090.695789
  0
LINE
  8
CSLAYER1
  6
CONTINUOUS
 62
     7
 10
666.088578
 20
2090.695789
 11
666.256051
 21
2090.391130
  0
LINE
  8
CSLAYER1
  6
CONTINUOUS
 62
     7
 10
666.256051
 20
2090.391130
 11
666.376593
 21
2090.079259
  0
LINE
  8
CSLAYER1
  6
CONTINUOUS
 62
     7
 10
666.376593
 20
2090.079259
 11
666.449288
 21
2089.762548
  0
LINE
  8
CSLAYER1
  6
CONTINUOUS
 62
     7
 10
666.449288
 20
2089.762548
 11
666.473581
 21
2089.443409
  0
LINE
  8
CSLAYER1
  6
CONTINUOUS
 62
     7
 10
666.473581
 20
2089.443409
 11
666.449288
 21
2089.124270
  0
LINE
  8
CSLAYER1
  6
CONTINUOUS
 62
     7
 10
666.449288
 20
2089.124270
 11
666.376593
 21
2088.807560
  0
LINE
  8
CSLAYER1
  6
CONTINUOUS
 62
     7
 10
666.376593
 20
2088.807560
 11
666.256051
 21
2088.495688
  0
LINE
  8
CSLAYER1
  6
CONTINUOUS
 62
     7
 10
666.256051
 20
2088.495688
 11
666.088578
 21
2088.191030
  0
LINE
  8
CSLAYER1
  6
CONTINUOUS
 62
     7
 10
666.088578
 20
2088.191030
 11
665.875450
 21
2087.895903
  0
LINE
  8
CSLAYER1
  6
CONTINUOUS
 62
     7
 10
665.875450
 20
2087.895903
 11
665.618287
 21
2087.612553
  0
LINE
  8
CSLAYER1
  6
CONTINUOUS
 62
     7
 10
665.618287
 20
2087.612553
 11
665.319047
 21
2087.343138
  0
LINE
  8
CSLAYER1
  6
CONTINUOUS
 62
     7
 10
665.319047
 20
2087.343138
 11
664.980008
 21
2087.089706
  0
LINE
  8
CSLAYER1
  6
CONTINUOUS
 62
     7
 10
664.980008
 20
2087.089706
 11
664.603750
 21
2086.854188
  0
LINE
  8
CSLAYER1
  6
CONTINUOUS
 62
     7
 10
664.603750
 20
2086.854188
 11
664.193137
 21
2086.638375
  0
LINE
  8
CSLAYER1
  6
CONTINUOUS
 62
     7
 10
664.193137
 20
2086.638375
 11
663.751293
 21
2086.443910
  0
LINE
  8
CSLAYER1
  6
CONTINUOUS
 62
     7
 10
663.751293
 20
2086.443910
 11
663.281581
 21
2086.272274
  0
LINE
  8
CSLAYER1
  6
CONTINUOUS
 62
     7
 10
663.281581
 20
2086.272274
 11
662.787576
 21
2086.124771
  0
LINE
  8
CSLAYER1
  6
CONTINUOUS
 62
     7
 10
662.787576
 20
2086.124771
 11
662.273037
 21
2086.002526
  0
LINE
  8
CSLAYER1
  6
CONTINUOUS
 62
     7
 10
662.273037
 20
2086.002526
 11
661.741881
 21
2085.906467
  0
LINE
  8
CSLAYER1
  6
CONTINUOUS
 62
     7
 10
661.741881
 20
2085.906467
 11
661.198151
 21
2085.837327
  0
LINE
  8
CSLAYER1
  6
CONTINUOUS
 62
     7
 10
661.198151
 20
2085.837327
 11
660.645983
 21
2085.795631
  0
LINE
  8
CSLAYER1
  6
CONTINUOUS
 62
     7
 10
660.645983
 20
2085.795631
 11
660.089581
 21
2085.781697
  0
LINE
  8
CSLAYER1
  6
CONTINUOUS
 62
     7
 10
660.089581
 20
2085.781697
 11
659.533178
 21
2085.795631
  0
LINE
  8
CSLAYER1
  6
CONTINUOUS
 62
     7
 10
659.533178
 20
2085.795631
 11
658.981011
 21
2085.837327
  0
LINE
  8
CSLAYER1
  6
CONTINUOUS
 62
     7
 10
658.981011
 20
2085.837327
 11
658.437280
 21
2085.906467
  0
LINE
  8
CSLAYER1
  6
CONTINUOUS
 62
     7
 10
658.437280
 20
2085.906467
 11
657.906124
 21
2086.002526
  0
LINE
  8
CSLAYER1
  6
CONTINUOUS
 62
     7
 10
657.906124
 20
2086.002526
 11
657.391586
 21
2086.124771
  0
LINE
  8
CSLAYER1
  6
CONTINUOUS
 62
     7
 10
657.391586
 20
2086.124771
 11
656.897581
 21
2086.272274
  0
LINE
  8
CSLAYER1
  6
CONTINUOUS
 62
     7
 10
656.897581
 20
2086.272274
 11
656.427869
 21
2086.443910
  0
LINE
  8
CSLAYER1
  6
CONTINUOUS
 62
     7
 10
656.427869
 20
2086.443910
 11
655.986025
 21
2086.638375
  0
LINE
  8
CSLAYER1
  6
CONTINUOUS
 62
     7
 10
655.986025
 20
2086.638375
 11
655.575411
 21
2086.854188
  0
LINE
  8
CSLAYER1
  6
CONTINUOUS
 62
     7
 10
655.575411
 20
2086.854188
 11
655.199153
 21
2087.089706
  0
LINE
  8
CSLAYER1
  6
CONTINUOUS
 62
     7
 10
655.199153
 20
2087.089706
 11
654.860114
 21
2087.343138
  0
LINE
  8
CSLAYER1
  6
CONTINUOUS
 62
     7
 10
654.860114
 20
2087.343138
 11
654.560874
 21
2087.612553
  0
LINE
  8
CSLAYER1
  6
CONTINUOUS
 62
     7
 10
654.560874
 20
2087.612553
 11
654.303712
 21
2087.895903
  0
LINE
  8
CSLAYER1
  6
CONTINUOUS
 62
     7
 10
654.303712
 20
2087.895903
 11
654.090583
 21
2088.191030
  0
LINE
  8
CSLAYER1
  6
CONTINUOUS
 62
     7
 10
654.090583
 20
2088.191030
 11
653.923110
 21
2088.495688
  0
LINE
  8
CSLAYER1
  6
CONTINUOUS
 62
     7
 10
653.923110
 20
2088.495688
 11
653.802568
 21
2088.807560
  0
LINE
  8
CSLAYER1
  6
CONTINUOUS
 62
     7
 10
653.802568
 20
2088.807560
 11
653.729874
 21
2089.124270
  0
LINE
  8
CSLAYER1
  6
CONTINUOUS
 62
     7
 10
653.729874
 20
2089.124270
 11
653.705581
 21
2089.443409
  0
LINE
  8
CSLAYER1
  6
CONTINUOUS
 62
     7
 10
656.729581
 20
2089.443409
 11
656.742366
 21
2089.611377
  0
LINE
  8
CSLAYER1
  6
CONTINUOUS
 62
     7
 10
656.742366
 20
2089.611377
 11
656.780627
 21
2089.778067
  0
LINE
  8
CSLAYER1
  6
CONTINUOUS
 62
     7
 10
656.780627
 20
2089.778067
 11
656.844070
 21
2089.942210
  0
LINE
  8
CSLAYER1
  6
CONTINUOUS
 62
     7
 10
656.844070
 20
2089.942210
 11
656.932213
 21
2090.102556
  0
LINE
  8
CSLAYER1
  6
CONTINUOUS
 62
     7
 10
656.932213
 20
2090.102556
 11
657.044387
 21
2090.257886
  0
LINE
  8
CSLAYER1
  6
CONTINUOUS
 62
     7
 10
657.044387
 20
2090.257886
 11
657.179735
 21
2090.407018
  0
LINE
  8
CSLAYER1
  6
CONTINUOUS
 62
     7
 10
657.179735
 20
2090.407018
 11
657.337230
 21
2090.548815
  0
LINE
  8
CSLAYER1
  6
CONTINUOUS
 62
     7
 10
657.337230
 20
2090.548815
 11
657.515671
 21
2090.682200
  0
LINE
  8
CSLAYER1
  6
CONTINUOUS
 62
     7
 10
657.515671
 20
2090.682200
 11
657.713702
 21
2090.806157
  0
LINE
  8
CSLAYER1
  6
CONTINUOUS
 62
     7
 10
657.713702
 20
2090.806157
 11
657.929814
 21
2090.919743
  0
LINE
  8
CSLAYER1
  6
CONTINUOUS
 62
     7
 10
657.929814
 20
2090.919743
 11
658.162364
 21
2091.022093
  0
LINE
  8
CSLAYER1
  6
CONTINUOUS
 62
     7
 10
658.162364
 20
2091.022093
 11
658.409581
 21
2091.112428
  0
LINE
  8
CSLAYER1
  6
CONTINUOUS
 62
     7
 10
658.409581
 20
2091.112428
 11
658.669583
 21
2091.190061
  0
LINE
  8
CSLAYER1
  6
CONTINUOUS
 62
     7
 10
658.669583
 20
2091.190061
 11
658.940393
 21
2091.254401
  0
LINE
  8
CSLAYER1
  6
CONTINUOUS
 62
     7
 10
658.940393
 20
2091.254401
 11
659.219949
 21
2091.304958
  0
LINE
  8
CSLAYER1
  6
CONTINUOUS
 62
     7
 10
659.219949
 20
2091.304958
 11
659.506123
 21
2091.341347
  0
LINE
  8
CSLAYER1
  6
CONTINUOUS
 62
     7
 10
659.506123
 20
2091.341347
 11
659.796737
 21
2091.363292
  0
LINE
  8
CSLAYER1
  6
CONTINUOUS
 62
     7
 10
659.796737
 20
2091.363292
 11
660.089581
 21
2091.370626
  0
LINE
  8
CSLAYER1
  6
CONTINUOUS
 62
     7
 10
660.089581
 20
2091.370626
 11
660.382424
 21
2091.363292
  0
LINE
  8
CSLAYER1
  6
CONTINUOUS
 62
     7
 10
660.382424
 20
2091.363292
 11
660.673039
 21
2091.341347
  0
LINE
  8
CSLAYER1
  6
CONTINUOUS
 62
     7
 10
660.673039
 20
2091.341347
 11
660.959213
 21
2091.304958
  0
LINE
  8
CSLAYER1
  6
CONTINUOUS
 62
     7
 10
660.959213
 20
2091.304958
 11
661.238768
 21
2091.254401
  0
LINE
  8
CSLAYER1
  6
CONTINUOUS
 62
     7
 10
661.238768
 20
2091.254401
 11
661.509578
 21
2091.190061
  0
LINE
  8
CSLAYER1
  6
CONTINUOUS
 62
     7
 10
661.509578
 20
2091.190061
 11
661.769581
 21
2091.112428
  0
LINE
  8
CSLAYER1
  6
CONTINUOUS
 62
     7
 10
661.769581
 20
2091.112428
 11
662.016798
 21
2091.022093
  0
LINE
  8
CSLAYER1
  6
CONTINUOUS
 62
     7
 10
662.016798
 20
2091.022093
 11
662.249347
 21
2090.919743
  0
LINE
  8
CSLAYER1
  6
CONTINUOUS
 62
     7
 10
662.249347
 20
2090.919743
 11
662.465459
 21
2090.806157
  0
LINE
  8
CSLAYER1
  6
CONTINUOUS
 62
     7
 10
662.465459
 20
2090.806157
 11
662.663490
 21
2090.682200
  0
LINE
  8
CSLAYER1
  6
CONTINUOUS
 62
     7
 10
662.663490
 20
2090.682200
 11
662.841932
 21
2090.548815
  0
LINE
  8
CSLAYER1
  6
CONTINUOUS
 62
     7
 10
662.841932
 20
2090.548815
 11
662.999426
 21
2090.407018
  0
LINE
  8
CSLAYER1
  6
CONTINUOUS
 62
     7
 10
662.999426
 20
2090.407018
 11
663.134775
 21
2090.257886
  0
LINE
  8
CSLAYER1
  6
CONTINUOUS
 62
     7
 10
663.134775
 20
2090.257886
 11
663.246948
 21
2090.102556
  0
LINE
  8
CSLAYER1
  6
CONTINUOUS
 62
     7
 10
663.246948
 20
2090.102556
 11
663.335091
 21
2089.942210
  0
LINE
  8
CSLAYER1
  6
CONTINUOUS
 62
     7
 10
663.335091
 20
2089.942210
 11
663.398535
 21
2089.778067
  0
LINE
  8
CSLAYER1
  6
CONTINUOUS
 62
     7
 10
663.398535
 20
2089.778067
 11
663.436795
 21
2089.611377
  0
LINE
  8
CSLAYER1
  6
CONTINUOUS
 62
     7
 10
663.436795
 20
2089.611377
 11
663.449581
 21
2089.443409
  0
LINE
  8
CSLAYER1
  6
CONTINUOUS
 62
     7
 10
663.449581
 20
2089.443409
 11
663.436795
 21
2089.275441
  0
LINE
  8
CSLAYER1
  6
CONTINUOUS
 62
     7
 10
663.436795
 20
2089.275441
 11
663.398535
 21
2089.108752
  0
LINE
  8
CSLAYER1
  6
CONTINUOUS
 62
     7
 10
663.398535
 20
2089.108752
 11
663.335091
 21
2088.944609
  0
LINE
  8
CSLAYER1
  6
CONTINUOUS
 62
     7
 10
663.335091
 20
2088.944609
 11
663.246948
 21
2088.784262
  0
LINE
  8
CSLAYER1
  6
CONTINUOUS
 62
     7
 10
663.246948
 20
2088.784262
 11
663.134775
 21
2088.628932
  0
LINE
  8
CSLAYER1
  6
CONTINUOUS
 62
     7
 10
663.134775
 20
2088.628932
 11
662.999426
 21
2088.479801
  0
LINE
  8
CSLAYER1
  6
CONTINUOUS
 62
     7
 10
662.999426
 20
2088.479801
 11
662.841932
 21
2088.338003
  0
LINE
  8
CSLAYER1
  6
CONTINUOUS
 62
     7
 10
662.841932
 20
2088.338003
 11
662.663490
 21
2088.204618
  0
LINE
  8
CSLAYER1
  6
CONTINUOUS
 62
     7
 10
662.663490
 20
2088.204618
 11
662.465459
 21
2088.080661
  0
LINE
  8
CSLAYER1
  6
CONTINUOUS
 62
     7
 10
662.465459
 20
2088.080661
 11
662.249347
 21
2087.967076
  0
LINE
  8
CSLAYER1
  6
CONTINUOUS
 62
     7
 10
662.249347
 20
2087.967076
 11
662.016798
 21
2087.864726
  0
LINE
  8
CSLAYER1
  6
CONTINUOUS
 62
     7
 10
662.016798
 20
2087.864726
 11
661.769581
 21
2087.774391
  0
LINE
  8
CSLAYER1
  6
CONTINUOUS
 62
     7
 10
661.769581
 20
2087.774391
 11
661.509578
 21
2087.696758
  0
LINE
  8
CSLAYER1
  6
CONTINUOUS
 62
     7
 10
661.509578
 20
2087.696758
 11
661.238768
 21
2087.632418
  0
LINE
  8
CSLAYER1
  6
CONTINUOUS
 62
     7
 10
661.238768
 20
2087.632418
 11
660.959213
 21
2087.581861
  0
LINE
  8
CSLAYER1
  6
CONTINUOUS
 62
     7
 10
660.959213
 20
2087.581861
 11
660.673039
 21
2087.545471
  0
LINE
  8
CSLAYER1
  6
CONTINUOUS
 62
     7
 10
660.673039
 20
2087.545471
 11
660.382424
 21
2087.523526
  0
LINE
  8
CSLAYER1
  6
CONTINUOUS
 62
     7
 10
660.382424
 20
2087.523526
 11
660.089581
 21
2087.516192
  0
LINE
  8
CSLAYER1
  6
CONTINUOUS
 62
     7
 10
660.089581
 20
2087.516192
 11
659.796737
 21
2087.523526
  0
LINE
  8
CSLAYER1
  6
CONTINUOUS
 62
     7
 10
659.796737
 20
2087.523526
 11
659.506123
 21
2087.545471
  0
LINE
  8
CSLAYER1
  6
CONTINUOUS
 62
     7
 10
659.506123
 20
2087.545471
 11
659.219949
 21
2087.581861
  0
LINE
  8
CSLAYER1
  6
CONTINUOUS
 62
     7
 10
659.219949
 20
2087.581861
 11
658.940393
 21
2087.632418
  0
LINE
  8
CSLAYER1
  6
CONTINUOUS
 62
     7
 10
658.940393
 20
2087.632418
 11
658.669583
 21
2087.696758
  0
LINE
  8
CSLAYER1
  6
CONTINUOUS
 62
     7
 10
658.669583
 20
2087.696758
 11
658.409581
 21
2087.774391
  0
LINE
  8
CSLAYER1
  6
CONTINUOUS
 62
     7
 10
658.409581
 20
2087.774391
 11
658.162364
 21
2087.864726
  0
LINE
  8
CSLAYER1
  6
CONTINUOUS
 62
     7
 10
658.162364
 20
2087.864726
 11
657.929814
 21
2087.967076
  0
LINE
  8
CSLAYER1
  6
CONTINUOUS
 62
     7
 10
657.929814
 20
2087.967076
 11
657.713702
 21
2088.080661
  0
LINE
  8
CSLAYER1
  6
CONTINUOUS
 62
     7
 10
657.713702
 20
2088.080661
 11
657.515671
 21
2088.204618
  0
LINE
  8
CSLAYER1
  6
CONTINUOUS
 62
     7
 10
657.515671
 20
2088.204618
 11
657.337230
 21
2088.338003
  0
LINE
  8
CSLAYER1
  6
CONTINUOUS
 62
     7
 10
657.337230
 20
2088.338003
 11
657.179735
 21
2088.479801
  0
LINE
  8
CSLAYER1
  6
CONTINUOUS
 62
     7
 10
657.179735
 20
2088.479801
 11
657.044387
 21
2088.628932
  0
LINE
  8
CSLAYER1
  6
CONTINUOUS
 62
     7
 10
657.044387
 20
2088.628932
 11
656.932213
 21
2088.784262
  0
LINE
  8
CSLAYER1
  6
CONTINUOUS
 62
     7
 10
656.932213
 20
2088.784262
 11
656.844070
 21
2088.944609
  0
LINE
  8
CSLAYER1
  6
CONTINUOUS
 62
     7
 10
656.844070
 20
2088.944609
 11
656.780627
 21
2089.108752
  0
LINE
  8
CSLAYER1
  6
CONTINUOUS
 62
     7
 10
656.780627
 20
2089.108752
 11
656.742366
 21
2089.275441
  0
LINE
  8
CSLAYER1
  6
CONTINUOUS
 62
     7
 10
656.742366
 20
2089.275441
 11
656.729581
 21
2089.443409
  0
LINE
  8
CSLAYER1
  6
CONTINUOUS
 62
     7
 10
666.473581
 20
2089.443409
 11
666.473581
 21
2085.814670
  0
LINE
  8
CSLAYER1
  6
CONTINUOUS
 62
     7
 10
653.705581
 20
2089.443409
 11
653.705581
 21
2085.814670
  0
LINE
  8
CSLAYER1
  6
CONTINUOUS
 62
     7
 10
663.625466
 20
2086.397932
 11
663.625466
 21
2082.769193
  0
LINE
  8
CSLAYER1
  6
CONTINUOUS
 62
     7
 10
656.306379
 20
2086.497381
 11
656.306379
 21
2082.868641
  0
LINE
  8
CSLAYER1
  6
CONTINUOUS
 62
     7
 10
666.473581
 20
2085.814670
 11
666.449288
 21
2085.495531
  0
LINE
  8
CSLAYER1
  6
CONTINUOUS
 62
     7
 10
666.449288
 20
2085.495531
 11
666.376593
 21
2085.178820
  0
LINE
  8
CSLAYER1
  6
CONTINUOUS
 62
     7
 10
666.376593
 20
2085.178820
 11
666.256051
 21
2084.866949
  0
LINE
  8
CSLAYER1
  6
CONTINUOUS
 62
     7
 10
666.256051
 20
2084.866949
 11
666.088578
 21
2084.562290
  0
LINE
  8
CSLAYER1
  6
CONTINUOUS
 62
     7
 10
666.088578
 20
2084.562290
 11
665.875450
 21
2084.267163
  0
LINE
  8
CSLAYER1
  6
CONTINUOUS
 62
     7
 10
665.875450
 20
2084.267163
 11
665.618287
 21
2083.983814
  0
LINE
  8
CSLAYER1
  6
CONTINUOUS
 62
     7
 10
665.618287
 20
2083.983814
 11
665.319047
 21
2083.714398
  0
LINE
  8
CSLAYER1
  6
CONTINUOUS
 62
     7
 10
665.319047
 20
2083.714398
 11
664.980008
 21
2083.460967
  0
LINE
  8
CSLAYER1
  6
CONTINUOUS
 62
     7
 10
664.980008
 20
2083.460967
 11
664.603750
 21
2083.225448
  0
LINE
  8
CSLAYER1
  6
CONTINUOUS
 62
     7
 10
664.603750
 20
2083.225448
 11
664.193137
 21
2083.009636
  0
LINE
  8
CSLAYER1
  6
CONTINUOUS
 62
     7
 10
664.193137
 20
2083.009636
 11
663.751293
 21
2082.815171
  0
LINE
  8
CSLAYER1
  6
CONTINUOUS
 62
     7
 10
663.751293
 20
2082.815171
 11
663.281581
 21
2082.643534
  0
LINE
  8
CSLAYER1
  6
CONTINUOUS
 62
     7
 10
663.281581
 20
2082.643534
 11
662.787576
 21
2082.496032
  0
LINE
  8
CSLAYER1
  6
CONTINUOUS
 62
     7
 10
662.787576
 20
2082.496032
 11
662.273037
 21
2082.373786
  0
LINE
  8
CSLAYER1
  6
CONTINUOUS
 62
     7
 10
662.273037
 20
2082.373786
 11
661.741881
 21
2082.277728
  0
LINE
  8
CSLAYER1
  6
CONTINUOUS
 62
     7
 10
661.741881
 20
2082.277728
 11
661.198151
 21
2082.208587
  0
LINE
  8
CSLAYER1
  6
CONTINUOUS
 62
     7
 10
661.198151
 20
2082.208587
 11
660.645983
 21
2082.166892
  0
LINE
  8
CSLAYER1
  6
CONTINUOUS
 62
     7
 10
660.645983
 20
2082.166892
 11
660.089581
 21
2082.152958
  0
LINE
  8
CSLAYER1
  6
CONTINUOUS
 62
     7
 10
660.089581
 20
2082.152958
 11
659.533178
 21
2082.166892
  0
LINE
  8
CSLAYER1
  6
CONTINUOUS
 62
     7
 10
659.533178
 20
2082.166892
 11
658.981011
 21
2082.208587
  0
LINE
  8
CSLAYER1
  6
CONTINUOUS
 62
     7
 10
658.981011
 20
2082.208587
 11
658.437280
 21
2082.277728
  0
LINE
  8
CSLAYER1
  6
CONTINUOUS
 62
     7
 10
658.437280
 20
2082.277728
 11
657.906124
 21
2082.373786
  0
LINE
  8
CSLAYER1
  6
CONTINUOUS
 62
     7
 10
657.906124
 20
2082.373786
 11
657.391586
 21
2082.496032
  0
LINE
  8
CSLAYER1
  6
CONTINUOUS
 62
     7
 10
657.391586
 20
2082.496032
 11
656.897581
 21
2082.643534
  0
LINE
  8
CSLAYER1
  6
CONTINUOUS
 62
     7
 10
656.897581
 20
2082.643534
 11
656.427869
 21
2082.815171
  0
LINE
  8
CSLAYER1
  6
CONTINUOUS
 62
     7
 10
656.427869
 20
2082.815171
 11
655.986025
 21
2083.009636
  0
LINE
  8
CSLAYER1
  6
CONTINUOUS
 62
     7
 10
655.986025
 20
2083.009636
 11
655.575411
 21
2083.225448
  0
LINE
  8
CSLAYER1
  6
CONTINUOUS
 62
     7
 10
655.575411
 20
2083.225448
 11
655.199153
 21
2083.460967
  0
LINE
  8
CSLAYER1
  6
CONTINUOUS
 62
     7
 10
655.199153
 20
2083.460967
 11
654.860114
 21
2083.714398
  0
LINE
  8
CSLAYER1
  6
CONTINUOUS
 62
     7
 10
654.860114
 20
2083.714398
 11
654.560874
 21
2083.983814
  0
LINE
  8
CSLAYER1
  6
CONTINUOUS
 62
     7
 10
654.560874
 20
2083.983814
 11
654.303712
 21
2084.267163
  0
LINE
  8
CSLAYER1
  6
CONTINUOUS
 62
     7
 10
654.303712
 20
2084.267163
 11
654.090583
 21
2084.562290
  0
LINE
  8
CSLAYER1
  6
CONTINUOUS
 62
     7
 10
654.090583
 20
2084.562290
 11
653.923110
 21
2084.866949
  0
LINE
  8
CSLAYER1
  6
CONTINUOUS
 62
     7
 10
653.923110
 20
2084.866949
 11
653.802568
 21
2085.178820
  0
LINE
  8
CSLAYER1
  6
CONTINUOUS
 62
     7
 10
653.802568
 20
2085.178820
 11
653.729874
 21
2085.495531
  0
LINE
  8
CSLAYER1
  6
CONTINUOUS
 62
     7
 10
653.729874
 20
2085.495531
 11
653.705581
 21
2085.814670
  0
LINE
  8
CSLAYER1
  6
CONTINUOUS
 62
     7
 10
656.306379
 20
2072.652051
 11
656.306379
 21
2072.103001
  0
LINE
  8
CSLAYER1
  6
CONTINUOUS
 62
     7
 10
666.473581
 20
2075.049030
 11
666.449288
 21
2074.729891
  0
LINE
  8
CSLAYER1
  6
CONTINUOUS
 62
     7
 10
666.449288
 20
2074.729891
 11
666.376593
 21
2074.413180
  0
LINE
  8
CSLAYER1
  6
CONTINUOUS
 62
     7
 10
666.376593
 20
2074.413180
 11
666.256051
 21
2074.101309
  0
LINE
  8
CSLAYER1
  6
CONTINUOUS
 62
     7
 10
666.256051
 20
2074.101309
 11
666.088578
 21
2073.796651
  0
LINE
  8
CSLAYER1
  6
CONTINUOUS
 62
     7
 10
666.088578
 20
2073.796651
 11
665.875450
 21
2073.501524
  0
LINE
  8
CSLAYER1
  6
CONTINUOUS
 62
     7
 10
665.875450
 20
2073.501524
 11
665.618287
 21
2073.218174
  0
LINE
  8
CSLAYER1
  6
CONTINUOUS
 62
     7
 10
665.618287
 20
2073.218174
 11
665.319047
 21
2072.948758
  0
LINE
  8
CSLAYER1
  6
CONTINUOUS
 62
     7
 10
665.319047
 20
2072.948758
 11
664.980008
 21
2072.695327
  0
LINE
  8
CSLAYER1
  6
CONTINUOUS
 62
     7
 10
664.980008
 20
2072.695327
 11
664.603750
 21
2072.459809
  0
LINE
  8
CSLAYER1
  6
CONTINUOUS
 62
     7
 10
664.603750
 20
2072.459809
 11
664.193137
 21
2072.243996
  0
LINE
  8
CSLAYER1
  6
CONTINUOUS
 62
     7
 10
664.193137
 20
2072.243996
 11
663.751293
 21
2072.049531
  0
LINE
  8
CSLAYER1
  6
CONTINUOUS
 62
     7
 10
663.751293
 20
2072.049531
 11
663.281581
 21
2071.877894
  0
LINE
  8
CSLAYER1
  6
CONTINUOUS
 62
     7
 10
663.281581
 20
2071.877894
 11
662.787576
 21
2071.730392
  0
LINE
  8
CSLAYER1
  6
CONTINUOUS
 62
     7
 10
662.787576
 20
2071.730392
 11
662.273037
 21
2071.608146
  0
LINE
  8
CSLAYER1
  6
CONTINUOUS
 62
     7
 10
662.273037
 20
2071.608146
 11
661.741881
 21
2071.512088
  0
LINE
  8
CSLAYER1
  6
CONTINUOUS
 62
     7
 10
661.741881
 20
2071.512088
 11
661.198151
 21
2071.442948
  0
LINE
  8
CSLAYER1
  6
CONTINUOUS
 62
     7
 10
661.198151
 20
2071.442948
 11
660.645983
 21
2071.401252
  0
LINE
  8
CSLAYER1
  6
CONTINUOUS
 62
     7
 10
660.645983
 20
2071.401252
 11
660.089581
 21
2071.387318
  0
LINE
  8
CSLAYER1
  6
CONTINUOUS
 62
     7
 10
660.089581
 20
2071.387318
 11
659.533178
 21
2071.401252
  0
LINE
  8
CSLAYER1
  6
CONTINUOUS
 62
     7
 10
659.533178
 20
2071.401252
 11
658.981011
 21
2071.442948
  0
LINE
  8
CSLAYER1
  6
CONTINUOUS
 62
     7
 10
658.981011
 20
2071.442948
 11
658.437280
 21
2071.512088
  0
LINE
  8
CSLAYER1
  6
CONTINUOUS
 62
     7
 10
658.437280
 20
2071.512088
 11
657.906124
 21
2071.608146
  0
LINE
  8
CSLAYER1
  6
CONTINUOUS
 62
     7
 10
657.906124
 20
2071.608146
 11
657.391586
 21
2071.730392
  0
LINE
  8
CSLAYER1
  6
CONTINUOUS
 62
     7
 10
657.391586
 20
2071.730392
 11
656.897581
 21
2071.877894
  0
LINE
  8
CSLAYER1
  6
CONTINUOUS
 62
     7
 10
656.897581
 20
2071.877894
 11
656.427869
 21
2072.049531
  0
LINE
  8
CSLAYER1
  6
CONTINUOUS
 62
     7
 10
656.427869
 20
2072.049531
 11
655.986025
 21
2072.243996
  0
LINE
  8
CSLAYER1
  6
CONTINUOUS
 62
     7
 10
655.986025
 20
2072.243996
 11
655.805335
 21
2072.338964
  0
LINE
  8
CSLAYER1
  6
CONTINUOUS
 62
     7
 10
666.473581
 20
2080.095910
 11
666.473581
 21
2075.049030
  0
LINE
  8
CSLAYER1
  6
CONTINUOUS
 62
     7
 10
663.449581
 20
2067.464504
 11
663.449581
 21
2071.939283
  0
LINE
  8
CSLAYER1
  6
CONTINUOUS
 62
     7
 10
656.729581
 20
2067.464504
 11
656.729581
 21
2071.939283
  0
LINE
  8
CSLAYER1
  6
CONTINUOUS
 62
     7
 10
663.449581
 20
2067.464504
 11
663.436795
 21
2067.296536
  0
LINE
  8
CSLAYER1
  6
CONTINUOUS
 62
     7
 10
663.436795
 20
2067.296536
 11
663.398535
 21
2067.129847
  0
LINE
  8
CSLAYER1
  6
CONTINUOUS
 62
     7
 10
663.398535
 20
2067.129847
 11
663.335091
 21
2066.965704
  0
LINE
  8
CSLAYER1
  6
CONTINUOUS
 62
     7
 10
663.335091
 20
2066.965704
 11
663.246948
 21
2066.805357
  0
LINE
  8
CSLAYER1
  6
CONTINUOUS
 62
     7
 10
663.246948
 20
2066.805357
 11
663.134775
 21
2066.650027
  0
LINE
  8
CSLAYER1
  6
CONTINUOUS
 62
     7
 10
663.134775
 20
2066.650027
 11
662.999426
 21
2066.500896
  0
LINE
  8
CSLAYER1
  6
CONTINUOUS
 62
     7
 10
662.999426
 20
2066.500896
 11
662.841932
 21
2066.359098
  0
LINE
  8
CSLAYER1
  6
CONTINUOUS
 62
     7
 10
662.841932
 20
2066.359098
 11
662.663490
 21
2066.225713
  0
LINE
  8
CSLAYER1
  6
CONTINUOUS
 62
     7
 10
662.663490
 20
2066.225713
 11
662.465459
 21
2066.101756
  0
LINE
  8
CSLAYER1
  6
CONTINUOUS
 62
     7
 10
662.465459
 20
2066.101756
 11
662.249347
 21
2065.988171
  0
LINE
  8
CSLAYER1
  6
CONTINUOUS
 62
     7
 10
662.249347
 20
2065.988171
 11
662.016798
 21
2065.885821
  0
LINE
  8
CSLAYER1
  6
CONTINUOUS
 62
     7
 10
662.016798
 20
2065.885821
 11
661.769581
 21
2065.795486
  0
LINE
  8
CSLAYER1
  6
CONTINUOUS
 62
     7
 10
661.769581
 20
2065.795486
 11
661.509578
 21
2065.717853
  0
LINE
  8
CSLAYER1
  6
CONTINUOUS
 62
     7
 10
661.509578
 20
2065.717853
 11
661.238768
 21
2065.653513
  0
LINE
  8
CSLAYER1
  6
CONTINUOUS
 62
     7
 10
661.238768
 20
2065.653513
 11
660.959213
 21
2065.602956
  0
LINE
  8
CSLAYER1
  6
CONTINUOUS
 62
     7
 10
660.959213
 20
2065.602956
 11
660.673039
 21
2065.566566
  0
LINE
  8
CSLAYER1
  6
CONTINUOUS
 62
     7
 10
660.673039
 20
2065.566566
 11
660.382424
 21
2065.544621
  0
LINE
  8
CSLAYER1
  6
CONTINUOUS
 62
     7
 10
660.382424
 20
2065.544621
 11
660.089581
 21
2065.537288
  0
LINE
  8
CSLAYER1
  6
CONTINUOUS
 62
     7
 10
660.089581
 20
2065.537288
 11
659.796737
 21
2065.544621
  0
LINE
  8
CSLAYER1
  6
CONTINUOUS
 62
     7
 10
659.796737
 20
2065.544621
 11
659.506123
 21
2065.566566
  0
LINE
  8
CSLAYER1
  6
CONTINUOUS
 62
     7
 10
659.506123
 20
2065.566566
 11
659.219949
 21
2065.602956
  0
LINE
  8
CSLAYER1
  6
CONTINUOUS
 62
     7
 10
659.219949
 20
2065.602956
 11
658.940393
 21
2065.653513
  0
LINE
  8
CSLAYER1
  6
CONTINUOUS
 62
     7
 10
658.940393
 20
2065.653513
 11
658.669583
 21
2065.717853
  0
LINE
  8
CSLAYER1
  6
CONTINUOUS
 62
     7
 10
658.669583
 20
2065.717853
 11
658.409581
 21
2065.795486
  0
LINE
  8
CSLAYER1
  6
CONTINUOUS
 62
     7
 10
658.409581
 20
2065.795486
 11
658.162364
 21
2065.885821
  0
LINE
  8
CSLAYER1
  6
CONTINUOUS
 62
     7
 10
658.162364
 20
2065.885821
 11
657.929814
 21
2065.988171
  0
LINE
  8
CSLAYER1
  6
CONTINUOUS
 62
     7
 10
657.929814
 20
2065.988171
 11
657.713702
 21
2066.101756
  0
LINE
  8
CSLAYER1
  6
CONTINUOUS
 62
     7
 10
657.713702
 20
2066.101756
 11
657.515671
 21
2066.225713
  0
LINE
  8
CSLAYER1
  6
CONTINUOUS
 62
     7
 10
657.515671
 20
2066.225713
 11
657.337230
 21
2066.359098
  0
LINE
  8
CSLAYER1
  6
CONTINUOUS
 62
     7
 10
657.337230
 20
2066.359098
 11
657.179735
 21
2066.500896
  0
LINE
  8
CSLAYER1
  6
CONTINUOUS
 62
     7
 10
657.179735
 20
2066.500896
 11
657.044387
 21
2066.650027
  0
LINE
  8
CSLAYER1
  6
CONTINUOUS
 62
     7
 10
657.044387
 20
2066.650027
 11
656.932213
 21
2066.805357
  0
LINE
  8
CSLAYER1
  6
CONTINUOUS
 62
     7
 10
656.932213
 20
2066.805357
 11
656.844070
 21
2066.965704
  0
LINE
  8
CSLAYER1
  6
CONTINUOUS
 62
     7
 10
656.844070
 20
2066.965704
 11
656.780627
 21
2067.129847
  0
LINE
  8
CSLAYER1
  6
CONTINUOUS
 62
     7
 10
656.780627
 20
2067.129847
 11
656.742366
 21
2067.296536
  0
LINE
  8
CSLAYER1
  6
CONTINUOUS
 62
     7
 10
656.742366
 20
2067.296536
 11
656.729581
 21
2067.464504
  0
LINE
  8
CSLAYER1
  6
CONTINUOUS
 62
     7
 10
661.672478
 20
2080.717595
 11
647.168726
 21
2085.996529
  0
LINE
  8
CSLAYER1
  6
CONTINUOUS
 62
     7
 10
661.672478
 20
2080.717595
 11
661.672478
 21
2076.005161
  0
LINE
  8
CSLAYER1
  6
CONTINUOUS
 62
     7
 10
648.958330
 20
2085.345166
 11
653.705581
 21
2088.311577
  0
LINE
  8
CSLAYER1
  6
CONTINUOUS
 62
     7
 10
661.672478
 20
2079.517656
 11
668.905387
 21
2084.037279
  0
LINE
  8
CSLAYER1
  6
CONTINUOUS
 62
     7
 10
661.672478
 20
2077.095847
 11
668.241647
 21
2081.200720
  0
ARC
  8
CSLAYER1
  6
CONTINUOUS
 62
     7
 10
662.494266
 20
2080.507441
 40
7.403380
 50
30.339165
 51
57.486408
  0
ARC
  8
CSLAYER1
  6
CONTINUOUS
 62
     7
 10
664.153588
 20
2083.653239
 40
4.767292
 50
-30.960488
 51
7.154948
  0
ENDBLK
  8
0
  0
BLOCK
  8
CSLAYER1
  2
BLKF0009
 70
   64
 10
0.0
 20
0.0
 30
0.0
  0
ARC
  8
CSLAYER1
  6
CONTINUOUS
 62
     3
 10
1495.068972
 20
1494.012322
 40
9.500000
 50
-190.922071
 51
10.922071
  0
LINE
  8
CSLAYER1
  6
CONTINUOUS
 62
     3
 10
1485.568972
 20
1495.812322
 11
1485.568972
 21
1488.527494
  0
LINE
  8
CSLAYER1
  6
CONTINUOUS
 62
     3
 10
1485.568972
 20
1488.527494
 11
1495.068972
 21
1483.042667
  0
LINE
  8
CSLAYER1
  6
CONTINUOUS
 62
     3
 10
1495.068972
 20
1483.042667
 11
1504.568972
 21
1488.527494
  0
LINE
  8
CSLAYER1
  6
CONTINUOUS
 62
     3
 10
1504.568972
 20
1488.527494
 11
1504.568972
 21
1495.812322
  0
POINT
  8
CSLAYER1
 62
     3
 10
1495.068972
 20
1494.012322
  0
LINE
  8
CSLAYER1
  6
CONTINUOUS
 62
     3
 10
1472.768972
 20
1513.812322
 11
1472.768972
 21
1495.812322
  0
LINE
  8
CSLAYER1
  6
CONTINUOUS
 62
     3
 10
2372.768972
 20
1513.812322
 11
2372.768972
 21
1495.812322
  0
LINE
  8
CSLAYER1
  6
CONTINUOUS
 62
     3
 10
1525.068972
 20
1481.512322
 11
2355.068972
 21
1481.512322
  0
LINE
  8
CSLAYER1
  6
CONTINUOUS
 62
     3
 10
1472.768972
 20
1513.812322
 11
2372.768972
 21
1513.812322
  0
LINE
  8
CSLAYER1
  6
CONTINUOUS
 62
     3
 10
1472.768972
 20
1495.812322
 11
2372.768972
 21
1495.812322
  0
LINE
  8
CSLAYER1
  6
CONTINUOUS
 62
     3
 10
1475.068972
 20
1495.812322
 11
1475.068972
 21
1488.512322
  0
LINE
  8
CSLAYER1
  6
CONTINUOUS
 62
     3
 10
1472.768972
 20
1495.812322
 11
1475.068972
 21
1495.812322
  0
LINE
  8
CSLAYER1
  6
CONTINUOUS
 62
     3
 10
1480.068972
 20
1483.512322
 11
1494.255506
 21
1483.512322
  0
ARC
  8
CSLAYER1
  6
CONTINUOUS
 62
     3
 10
1480.068972
 20
1488.512322
 40
5.000000
 50
180.000000
 51
270.000000
  0
LINE
  8
CSLAYER1
  6
CONTINUOUS
 62
     3
 10
2355.068972
 20
1495.812322
 11
2355.068972
 21
1481.512322
  0
LINE
  8
CSLAYER1
  6
CONTINUOUS
 62
     3
 10
1525.068972
 20
1492.512322
 11
1500.068972
 21
1483.512322
  0
LINE
  8
CSLAYER1
  6
CONTINUOUS
 62
     3
 10
1525.068972
 20
1495.812322
 11
1525.068972
 21
1481.512322
  0
ARC
  8
CSLAYER1
  6
DASHED
 62
     5
 10
1985.738260
 20
1494.012322
 40
13.000000
 50
-74.057631
 51
254.057631
  0
POINT
  8
CSLAYER1
 62
     4
 10
1985.738260
 20
1494.012322
  0
POINT
  8
CSLAYER1
 62
     7
 10
1495.068972
 20
1494.012322
  0
ARC
  8
CSLAYER1
  6
CONTINUOUS
 62
     4
 10
1985.738260
 20
1494.012322
 40
13.000000
 50
254.057631
 51
285.942369
  0
LINE
  8
CSLAYER1
  6
CONTINUOUS
 62
     3
 10
1495.882439
 20
1483.512322
 11
1500.068972
 21
1483.512322
  0
LINE
  8
CSLAYER1
  6
CENTER
 62
     5
 10
1495.068972
 20
1504.612395
 11
1495.068972
 21
1481.959687
  0
LINE
  8
CSLAYER1
  6
CENTER
 62
     5
 10
1484.089076
 20
1494.012322
 11
1506.314374
 21
1494.012322
  0
LINE
  8
CSLAYER1
  6
CENTER
 62
     5
 10
1985.738260
 20
1510.286146
 11
1985.738260
 21
1476.768600
  0
LINE
  8
CSLAYER1
  6
CENTER
 62
     5
 10
1969.818603
 20
1494.012322
 11
2001.889348
 21
1494.012322
  0
ENDBLK
  8
0
  0
BLOCK
  8
CSLAYER1
  2
BLKF0010
 70
   64
 10
0.0
 20
0.0
 30
0.0
  0
LINE
  8
CSLAYER1
  6
CONTINUOUS
 62
     3
 10
1492.659947
 20
803.518911
 11
1492.659947
 21
837.518911
  0
LINE
  8
CSLAYER1
  6
CONTINUOUS
 62
     3
 10
1448.659947
 20
803.518911
 11
1498.659947
 21
803.518911
  0
LINE
  8
CSLAYER1
  6
CONTINUOUS
 62
     3
 10
1498.659947
 20
797.518911
 11
1498.659947
 21
803.518911
  0
ENDBLK
  8
0
  0
BLOCK
  8
CSLAYER1
  2
BLKF0011
 70
   64
 10
0.0
 20
0.0
 30
0.0
  0
TEXT
  8
CSLAYER1
 62
     7
 10
1230.801636
 20
1332.799194
 40
40.000000
 41
0.787500
  1
テーブルのズレ
 50
0.000000
 51
0.000000
  7
EASYDRAW_FONT
 72
     5
 11
1440.801636
 21
1332.799194
  0
DIMENSION
  8
CSLAYER1
 62
     3
  2
*D0005
 10
1472.768972
 20
1269.193783
 11
1364.651245
 21
1291.416626
 13
1451.359947
 23
862.518911
 14
1472.768972
 24
1513.812322
  0
INSERT
  8
CSLAYER1
  2
EASYDRAWDIM0006
 10
0.0
 20
0.0
 30
0.0
  0
ENDBLK
  8
0
  0
ENDSEC
  0
SECTION
  2
ENTITIES
  0
LINE
  8
CSLAYER1
  6
CONTINUOUS
 62
     3
 10
210.014867
 20
2450.615788
 11
210.014867
 21
102.068858
  0
LINE
  8
CSLAYER1
  6
CONTINUOUS
 62
     3
 10
3532.588178
 20
2450.615788
 11
210.014867
 21
2450.615788
  0
LINE
  8
CSLAYER1
  6
CONTINUOUS
 62
     3
 10
3532.588178
 20
2450.615788
 11
3532.588178
 21
102.068858
  0
LINE
  8
CSLAYER1
  6
CONTINUOUS
 62
     3
 10
3532.588178
 20
102.068858
 11
210.014867
 21
102.068858
  0
LINE
  8
CSLAYER1
  6
CONTINUOUS
 62
     5
 10
160.014867
 20
1262.068858
 11
110.014867
 21
1262.068858
  0
LINE
  8
CSLAYER1
  6
CONTINUOUS
 62
     5
 10
2732.588178
 20
542.068858
 11
3532.588178
 21
542.068858
  0
LINE
  8
CSLAYER1
  6
CONTINUOUS
 62
     5
 10
2732.588178
 20
182.068858
 11
3532.588178
 21
182.068858
  0
LINE
  8
CSLAYER1
  6
CONTINUOUS
 62
     5
 10
2732.588178
 20
342.068858
 11
3532.588178
 21
342.068858
  0
LINE
  8
CSLAYER1
  6
CONTINUOUS
 62
     5
 10
2732.588178
 20
402.068858
 11
3532.588178
 21
402.068858
  0
LINE
  8
CSLAYER1
  6
CONTINUOUS
 62
     5
 10
2732.588178
 20
462.068858
 11
3532.588178
 21
462.068858
  0
LINE
  8
CSLAYER1
  6
CONTINUOUS
 62
     5
 10
2732.588178
 20
622.068858
 11
3532.588178
 21
622.068858
  0
LINE
  8
CSLAYER1
  6
CONTINUOUS
 62
     5
 10
2732.588178
 20
702.068858
 11
2732.588178
 21
102.068858
  0
LINE
  8
CSLAYER1
  6
CONTINUOUS
 62
     5
 10
2932.588178
 20
702.068858
 11
2932.588178
 21
462.068858
  0
LINE
  8
CSLAYER1
  6
CONTINUOUS
 62
     5
 10
2732.588178
 20
702.068858
 11
3532.588178
 21
702.068858
  0
LINE
  8
CSLAYER1
  6
CONTINUOUS
 62
     5
 10
3232.588178
 20
462.068858
 11
3232.588178
 21
182.068858
  0
TEXT
  8
CSLAYER1
 62
     3
 10
2952.279354
 20
110.631580
 40
59.380363
 41
1.003345
  1
東正車輌株式会社
 50
0.000000
 51
0.000000
  7
EASYDRAW_FONT
 72
     5
 11
3409.051701
 21
110.631580
  0
LINE
  8
CSLAYER1
  6
CONTINUOUS
 62
     5
 10
2982.588178
 20
402.068858
 11
2982.588178
 21
182.068858
  0
TEXT
  8
CSLAYER1
 62
     5
 10
2762.588135
 20
637.068848
 40
50.000000
 41
1.050000
  1
品　名
 50
0.000000
 51
0.000000
  7
EASYDRAW_FONT
 72
     5
 11
2902.588135
 21
637.068848
  0
TEXT
  8
CSLAYER1
 62
     5
 10
2762.588135
 20
557.068848
 40
50.000000
 41
1.050000
  1
型　式
 50
0.000000
 51
0.000000
  7
EASYDRAW_FONT
 72
     5
 11
2902.588135
 21
557.068848
  0
TEXT
  8
CSLAYER1
 62
     5
 10
2737.588135
 20
477.068878
 40
50.000000
 41
1.036364
  1
図面番号
 50
0.000000
 51
0.000000
  7
EASYDRAW_FONT
 72
     5
 11
2927.588135
 21
477.068878
  0
TEXT
  8
CSLAYER1
 62
     5
 10
2762.588135
 20
407.068878
 40
50.000000
 41
0.825000
  1
平成26年01月10日
 50
0.000000
 51
0.000000
  7
EASYDRAW_FONT
 72
     5
 11
3202.588135
 21
407.068878
  0
TEXT
  8
CSLAYER1
 62
     5
 10
3312.588135
 20
407.068878
 40
50.000000
 41
1.050000
  1
Ｂ－４
 50
0.000000
 51
0.000000
  7
EASYDRAW_FONT
 72
     5
 11
3452.588135
 21
407.068878
  0
TEXT
  8
CSLAYER1
 62
     5
 10
2787.588135
 20
347.068878
 40
50.000000
 41
1.050000
  1
検　図
 50
0.000000
 51
0.000000
  7
EASYDRAW_FONT
 72
     5
 11
2927.588135
 21
347.068878
  0
TEXT
  8
CSLAYER1
 62
     5
 10
3037.588135
 20
347.068878
 40
50.000000
 41
1.050000
  1
作　図
 50
0.000000
 51
0.000000
  7
EASYDRAW_FONT
 72
     5
 11
3177.588135
 21
347.068878
  0
TEXT
  8
CSLAYER1
 62
     5
 10
3312.588135
 20
347.068878
 40
50.000000
 41
1.050000
  1
尺　度
 50
0.000000
 51
0.000000
  7
EASYDRAW_FONT
 72
     5
 11
3452.588135
 21
347.068878
  0
TEXT
  8
CSLAYER1
 62
     5
 10
3413.326904
 20
196.554123
 40
50.000000
 41
1.080000
  1
１０
 50
0.000000
 51
0.000000
  7
EASYDRAW_FONT
 72
     5
 11
3503.326904
 21
196.554123
  0
TEXT
  8
CSLAYER1
 62
     5
 10
3393.007324
 20
244.258820
 40
50.000000
 41
1.200000
  1
／
 50
0.000000
 51
0.000000
  7
EASYDRAW_FONT
 72
     5
 11
3433.007324
 21
244.258820
  0
TEXT
  8
CSLAYER1
 62
     5
 10
3362.794434
 20
279.242279
 40
50.000000
 41
1.200000
  1
１
 50
0.000000
 51
0.000000
  7
EASYDRAW_FONT
 72
     5
 11
3402.794434
 21
279.242279
  0
TEXT
  8
CSLAYER1
 62
     3
 10
3072.588135
 20
637.068848
 40
50.000000
 41
0.834783
  1
ゴールドリフター
 50
0.000000
 51
0.000000
  7
EASYDRAW_FONT
 72
     5
 11
3392.588135
 21
637.068848
  0
TEXT
  8
CSLAYER1
 62
     3
 10
2972.588135
 20
557.068848
 40
50.000000
 41
0.821053
  1
GLSH-150-2009
 50
0.000000
 51
0.000000
  7
EASYDRAW_FONT
 72
     5
 11
3492.588135
 21
557.068848
  0
INSERT
  8
CSLAYER1
  2
BLKF0000
 10
0.0
 20
0.0
 30
0.0
  0
LINE
  8
CSLAYER1
  6
CONTINUOUS
 62
     5
 10
3508.588178
 20
2360.615788
 11
2628.588178
 21
2360.615788
  0
LINE
  8
CSLAYER1
  6
CONTINUOUS
 62
     5
 10
3508.588178
 20
2307.282455
 11
2628.588178
 21
2307.282455
  0
LINE
  8
CSLAYER1
  6
CONTINUOUS
 62
     5
 10
3508.588178
 20
2253.949122
 11
2628.588178
 21
2253.949122
  0
LINE
  8
CSLAYER1
  6
CONTINUOUS
 62
     5
 10
3508.588178
 20
2147.282455
 11
2628.588178
 21
2147.282455
  0
LINE
  8
CSLAYER1
  6
CONTINUOUS
 62
     5
 10
3508.588178
 20
2040.615788
 11
2628.588178
 21
2040.615788
  0
LINE
  8
CSLAYER1
  6
CONTINUOUS
 62
     5
 10
3508.588178
 20
1827.282455
 11
2628.588178
 21
1827.282455
  0
LINE
  8
CSLAYER1
  6
CONTINUOUS
 62
     5
 10
3508.588178
 20
1827.282452
 11
2628.588178
 21
1827.282452
  0
LINE
  8
CSLAYER1
  6
CONTINUOUS
 62
     5
 10
3508.588178
 20
1773.949118
 11
2628.588178
 21
1773.949118
  0
TEXT
  8
CSLAYER1
 62
     3
 10
2641.921387
 20
2367.282471
 40
40.000000
 41
0.838235
  1
仕    様
 50
0.000000
 51
0.000000
  7
EASYDRAW_FONT
 72
     5
 11
2831.921387
 21
2367.282471
  0
TEXT
  8
CSLAYER1
 62
     3
 10
2641.921387
 20
2313.949219
 40
40.000000
 41
0.838235
  1
型    式
 50
0.000000
 51
0.000000
  7
EASYDRAW_FONT
 72
     5
 11
2831.921387
 21
2313.949219
  0
TEXT
  8
CSLAYER1
 62
     3
 10
3006.921387
 20
2313.949219
 40
40.000000
 41
0.817105
  1
GLSH-150-2009
 50
0.000000
 51
0.000000
  7
EASYDRAW_FONT
 72
     5
 11
3420.921387
 21
2313.949219
  0
TEXT
  8
CSLAYER1
 62
     3
 10
2641.921387
 20
2260.615967
 40
40.000000
 41
0.859091
  1
均等荷重
 50
0.000000
 51
0.000000
  7
EASYDRAW_FONT
 72
     5
 11
2767.921387
 21
2260.615967
  0
TEXT
  8
CSLAYER1
 62
     3
 10
3433.254639
 20
2260.615967
 40
40.000000
 41
0.930000
  1
ｋｇ
 50
0.000000
 51
0.000000
  7
EASYDRAW_FONT
 72
     5
 11
3495.254639
 21
2260.615967
  0
TEXT
  8
CSLAYER1
 62
     3
 10
2641.921387
 20
2153.949219
 40
40.000000
 41
0.838235
  1
テーブル高サ
 50
0.000000
 51
0.000000
  7
EASYDRAW_FONT
 72
     5
 11
2831.921387
 21
2153.949219
  0
TEXT
  8
CSLAYER1
 62
     3
 10
3433.254639
 20
2153.949219
 40
40.000000
 41
0.930000
  1
ｍｍ
 50
0.000000
 51
0.000000
  7
EASYDRAW_FONT
 72
     5
 11
3495.254639
 21
2153.949219
  0
TEXT
  8
CSLAYER1
 62
     3
 10
2641.921387
 20
2047.282227
 40
40.000000
 41
0.838235
  1
全    長
 50
0.000000
 51
0.000000
  7
EASYDRAW_FONT
 72
     5
 11
2831.921387
 21
2047.282227
  0
TEXT
  8
CSLAYER1
 62
     3
 10
3166.921387
 20
2047.282227
 40
40.000000
 41
0.881250
  1
903
 50
0.000000
 51
0.000000
  7
EASYDRAW_FONT
 72
     5
 11
3260.921387
 21
2047.282227
  0
TEXT
  8
CSLAYER1
 62
     3
 10
3150.921387
 20
1833.948853
 40
40.000000
 41
0.859091
  1
約 28
 50
0.000000
 51
0.000000
  7
EASYDRAW_FONT
 72
     5
 11
3276.921387
 21
1833.948853
  0
TEXT
  8
CSLAYER1
 62
     3
 10
2641.921387
 20
1833.948853
 40
40.000000
 41
0.846429
  1
ポンプ回数
 50
0.000000
 51
0.000000
  7
EASYDRAW_FONT
 72
     5
 11
2799.921387
 21
1833.948853
  0
TEXT
  8
CSLAYER1
 62
     3
 10
2641.921387
 20
1780.615601
 40
40.000000
 41
0.832500
  1
自     重
 50
0.000000
 51
0.000000
  7
EASYDRAW_FONT
 72
     5
 11
2863.921387
 21
1780.615601
  0
TEXT
  8
CSLAYER1
 62
     3
 10
2641.921387
 20
1727.282349
 40
40.000000
 41
0.832500
  1
塗  装  色
 50
0.000000
 51
0.000000
  7
EASYDRAW_FONT
 72
     5
 11
2863.921387
 21
1727.282349
  0
TEXT
  8
CSLAYER1
 62
     3
 10
3166.921387
 20
2260.615967
 40
40.000000
 41
0.881250
  1
150
 50
0.000000
 51
0.000000
  7
EASYDRAW_FONT
 72
     5
 11
3260.921387
 21
2260.615967
  0
TEXT
  8
CSLAYER1
 62
     3
 10
3118.921387
 20
2153.949219
 40
40.000000
 41
0.838235
  1
65～700
 50
0.000000
 51
0.000000
  7
EASYDRAW_FONT
 72
     5
 11
3308.921387
 21
2153.949219
  0
TEXT
  8
CSLAYER1
 62
     3
 10
3433.254639
 20
2047.282227
 40
40.000000
 41
0.930000
  1
ｍｍ
 50
0.000000
 51
0.000000
  7
EASYDRAW_FONT
 72
     5
 11
3495.254639
 21
2047.282227
  0
LINE
  8
CSLAYER1
  6
CONTINUOUS
 62
     5
 10
3508.588178
 20
1987.282455
 11
2628.588178
 21
1987.282455
  0
TEXT
  8
CSLAYER1
 62
     3
 10
2641.921387
 20
1993.948853
 40
40.000000
 41
0.838235
  1
全    幅
 50
0.000000
 51
0.000000
  7
EASYDRAW_FONT
 72
     5
 11
2831.921387
 21
1993.948853
  0
TEXT
  8
CSLAYER1
 62
     3
 10
3166.921387
 20
1993.948853
 40
40.000000
 41
0.881250
  1
300
 50
0.000000
 51
0.000000
  7
EASYDRAW_FONT
 72
     5
 11
3260.921387
 21
1993.948853
  0
TEXT
  8
CSLAYER1
 62
     3
 10
3433.254639
 20
1993.948853
 40
40.000000
 41
0.930000
  1
ｍｍ
 50
0.000000
 51
0.000000
  7
EASYDRAW_FONT
 72
     5
 11
3495.254639
 21
1993.948853
  0
TEXT
  8
CSLAYER1
 62
     3
 10
3433.254639
 20
1780.615601
 40
40.000000
 41
0.930000
  1
ｋｇ
 50
0.000000
 51
0.000000
  7
EASYDRAW_FONT
 72
     5
 11
3495.254639
 21
1780.615601
  0
LINE
  8
CSLAYER1
  6
CONTINUOUS
 62
     5
 10
3508.588178
 20
2200.615788
 11
2628.588178
 21
2200.615788
  0
TEXT
  8
CSLAYER1
 62
     3
 10
2641.921387
 20
2207.282715
 40
40.000000
 41
0.838235
  1
テーブル寸法
 50
0.000000
 51
0.000000
  7
EASYDRAW_FONT
 72
     5
 11
2831.921387
 21
2207.282715
  0
TEXT
  8
CSLAYER1
 62
     3
 10
3433.254639
 20
2207.282715
 40
40.000000
 41
0.930000
  1
ｍｍ
 50
0.000000
 51
0.000000
  7
EASYDRAW_FONT
 72
     5
 11
3495.254639
 21
2207.282715
  0
TEXT
  8
CSLAYER1
 62
     3
 10
3070.921387
 20
2207.282715
 40
40.000000
 41
0.825000
  1
900L×200W
 50
0.000000
 51
0.000000
  7
EASYDRAW_FONT
 72
     5
 11
3356.921387
 21
2207.282715
  0
LINE
  8
CSLAYER1
  6
CONTINUOUS
 62
     5
 10
3508.588178
 20
2093.949122
 11
2628.588178
 21
2093.949122
  0
TEXT
  8
CSLAYER1
 62
     3
 10
3433.254639
 20
2100.615723
 40
40.000000
 41
0.930000
  1
ｍｍ
 50
0.000000
 51
0.000000
  7
EASYDRAW_FONT
 72
     5
 11
3495.254639
 21
2100.615723
  0
TEXT
  8
CSLAYER1
 62
     3
 10
3166.921387
 20
2100.615723
 40
40.000000
 41
0.881250
  1
635
 50
0.000000
 51
0.000000
  7
EASYDRAW_FONT
 72
     5
 11
3260.921387
 21
2100.615723
  0
TEXT
  8
CSLAYER1
 62
     3
 10
2643.753906
 20
2100.615723
 40
40.000000
 41
0.846429
  1
ストローク
 50
0.000000
 51
0.000000
  7
EASYDRAW_FONT
 72
     5
 11
2801.753906
 21
2100.615723
  0
LINE
  8
CSLAYER1
  6
CONTINUOUS
 62
     5
 10
3508.588178
 20
1933.949122
 11
2628.588178
 21
1933.949122
  0
TEXT
  8
CSLAYER1
 62
     3
 10
2641.921387
 20
1940.615601
 40
40.000000
 41
0.838235
  1
全    高
 50
0.000000
 51
0.000000
  7
EASYDRAW_FONT
 72
     5
 11
2831.921387
 21
1940.615601
  0
TEXT
  8
CSLAYER1
 62
     3
 10
3166.921387
 20
1940.615601
 40
40.000000
 41
0.881250
  1
 65
 50
0.000000
 51
0.000000
  7
EASYDRAW_FONT
 72
     5
 11
3260.921387
 21
1940.615601
  0
TEXT
  8
CSLAYER1
 62
     3
 10
3433.254639
 20
1940.615601
 40
40.000000
 41
0.930000
  1
ｍｍ
 50
0.000000
 51
0.000000
  7
EASYDRAW_FONT
 72
     5
 11
3495.254639
 21
1940.615601
  0
LINE
  8
CSLAYER1
  6
CONTINUOUS
 62
     5
 10
3508.588178
 20
1880.615788
 11
2628.588178
 21
1880.615788
  0
TEXT
  8
CSLAYER1
 62
     3
 10
2641.921387
 20
1887.282104
 40
40.000000
 41
0.846429
  1
リフト方式
 50
0.000000
 51
0.000000
  7
EASYDRAW_FONT
 72
     5
 11
2799.921387
 21
1887.282104
  0
TEXT
  8
CSLAYER1
 62
     3
 10
3134.921387
 20
1887.282104
 40
40.000000
 41
0.846429
  1
足踏油圧式
 50
0.000000
 51
0.000000
  7
EASYDRAW_FONT
 72
     5
 11
3292.921387
 21
1887.282104
  0
LINE
  8
CSLAYER1
  6
CONTINUOUS
 62
     5
 10
2932.588178
 20
1720.615785
 11
2932.588178
 21
2360.615788
  0
TEXT
  8
CSLAYER1
 62
     3
 10
3465.254639
 20
1833.948975
 40
40.000000
 41
1.125000
  1
回
 50
0.000000
 51
0.000000
  7
EASYDRAW_FONT
 72
     5
 11
3495.254639
 21
1833.948975
  0
LINE
  8
CSLAYER2
  6
CONTINUOUS
 62
     5
 10
260.014867
 20
1696.506199
 11
260.014867
 21
2400.615788
  0
LINE
  8
CSLAYER2
  6
CONTINUOUS
 62
     5
 10
1061.308998
 20
2400.615788
 11
260.014867
 21
2400.615788
  0
INSERT
  8
CSLAYER1
  2
BLKF0001
 10
0.0
 20
0.0
 30
0.0
  0
INSERT
  8
CSLAYER1
  2
BLKF0002
 10
0.0
 20
0.0
 30
0.0
  0
LINE
  8
CSLAYER1
  6
CONTINUOUS
 62
     7
 10
689.161970
 20
1839.033577
 11
816.688267
 21
1981.054338
  0
LINE
  8
CSLAYER1
  6
CONTINUOUS
 62
     7
 10
465.986078
 20
1926.851597
 11
651.357849
 21
1995.890576
  0
LINE
  8
CSLAYER1
  6
CONTINUOUS
 62
     7
 10
471.051659
 20
1912.896864
 11
690.514316
 21
1994.632489
  0
LINE
  8
CSLAYER1
  6
CONTINUOUS
 62
     7
 10
677.555203
 20
1848.925466
 11
769.317088
 21
1951.116880
  0
LINE
  8
CSLAYER1
  6
CONTINUOUS
 62
     7
 10
799.832219
 20
2128.167860
 11
799.832219
 21
2022.771602
  0
LINE
  8
CSLAYER1
  6
CONTINUOUS
 62
     7
 10
799.832219
 20
2128.167860
 11
679.852265
 21
2171.836992
  0
LINE
  8
CSLAYER1
  6
CONTINUOUS
 62
     7
 10
771.337803
 20
1944.477168
 11
799.832219
 21
1962.282455
  0
LINE
  8
CSLAYER1
  6
CONTINUOUS
 62
     7
 10
771.337803
 20
2110.362572
 11
771.337803
 21
1944.477168
  0
LINE
  8
CSLAYER1
  6
CONTINUOUS
 62
     7
 10
771.337803
 20
2110.362572
 11
799.832219
 21
2128.167860
  0
LINE
  8
CSLAYER1
  6
CONTINUOUS
 62
     7
 10
680.246410
 20
2168.086955
 11
680.246410
 21
2133.260916
  0
LINE
  8
CSLAYER1
  6
CONTINUOUS
 62
     7
 10
651.357849
 20
2154.031704
 11
679.852265
 21
2171.836992
  0
LINE
  8
CSLAYER1
  6
CONTINUOUS
 62
     7
 10
771.337803
 20
1944.477168
 11
769.317088
 21
1945.212648
  0
LINE
  8
CSLAYER1
  6
CONTINUOUS
 62
     7
 10
769.317088
 20
1969.416215
 11
699.905790
 21
1994.679862
  0
LINE
  8
CSLAYER1
  6
CONTINUOUS
 62
     7
 10
795.987861
 20
2127.763801
 11
680.049337
 21
2169.961973
  0
LINE
  8
CSLAYER1
  6
CONTINUOUS
 62
     7
 10
729.180734
 20
2086.018075
 11
795.987861
 21
2127.763801
  0
LINE
  8
CSLAYER1
  6
CONTINUOUS
 62
     7
 10
771.337803
 20
2110.362572
 11
769.317088
 21
2111.098053
  0
LINE
  8
CSLAYER1
  6
CONTINUOUS
 62
     7
 10
769.317088
 20
2111.098053
 11
769.317088
 21
1969.416215
  0
LINE
  8
CSLAYER1
  6
CONTINUOUS
 62
     7
 10
651.357849
 20
2154.031704
 11
651.357849
 21
2152.033541
  0
LINE
  8
CSLAYER1
  6
CONTINUOUS
 62
     7
 10
651.357849
 20
2154.031704
 11
679.852265
 21
2171.836992
  0
LINE
  8
CSLAYER1
  6
CONTINUOUS
 62
     7
 10
653.378564
 20
2153.296224
 11
680.049337
 21
2169.961973
  0
LINE
  8
CSLAYER1
  6
CONTINUOUS
 62
     7
 10
653.378564
 20
2153.296224
 11
651.357849
 21
2154.031704
  0
LINE
  8
CSLAYER1
  6
CONTINUOUS
 62
     7
 10
653.378564
 20
1985.241270
 11
669.831770
 21
1995.522375
  0
LINE
  8
CSLAYER1
  6
CONTINUOUS
 62
     7
 10
727.160019
 20
2086.753555
 11
792.143504
 21
2127.359743
  0
LINE
  8
CSLAYER1
  6
CONTINUOUS
 62
     7
 10
725.580548
 20
2083.904114
 11
725.580548
 21
2016.818358
  0
LINE
  8
CSLAYER1
  6
CONTINUOUS
 62
     7
 10
727.601263
 20
2083.168634
 11
727.601263
 21
2017.172712
  0
LINE
  8
CSLAYER1
  6
CONTINUOUS
 62
     7
 10
792.143504
 20
2127.359743
 11
775.220015
 21
2133.519389
  0
LINE
  8
CSLAYER1
  6
CONTINUOUS
 62
     7
 10
725.580548
 20
2085.224233
 11
616.532896
 21
2124.914332
  0
LINE
  8
CSLAYER1
  6
CONTINUOUS
 62
     7
 10
725.580548
 20
2018.024233
 11
692.100335
 21
2030.210034
  0
LINE
  8
CSLAYER1
  6
CONTINUOUS
 62
     7
 10
616.842397
 20
2128.467730
 11
680.246410
 21
2168.086955
  0
LINE
  8
CSLAYER1
  6
CONTINUOUS
 62
     7
 10
614.821681
 20
2129.203210
 11
651.357849
 21
2152.033541
  0
LINE
  8
CSLAYER1
  6
CONTINUOUS
 62
     7
 10
611.662739
 20
2123.504327
 11
611.662739
 21
2057.649245
  0
LINE
  8
CSLAYER1
  6
CONTINUOUS
 62
     7
 10
613.683454
 20
2122.768847
 11
613.683454
 21
2058.635404
  0
LINE
  8
CSLAYER1
  6
CONTINUOUS
 62
     7
 10
616.532896
 20
2124.914332
 11
616.532896
 21
2057.714332
  0
LINE
  8
CSLAYER1
  6
CONTINUOUS
 62
     7
 10
616.532896
 20
2124.914332
 11
648.425234
 21
2144.842877
  0
LINE
  8
CSLAYER1
  6
CONTINUOUS
 62
     7
 10
756.924405
 20
2105.352408
 11
648.425234
 21
2144.842877
  0
LINE
  8
CSLAYER1
  6
CONTINUOUS
 62
     7
 10
732.741791
 20
2014.323271
 11
769.317088
 21
2037.178053
  0
LINE
  8
CSLAYER1
  6
CONTINUOUS
 62
     7
 10
729.583272
 20
2014.109221
 11
726.527846
 21
2015.221305
  0
LINE
  8
CSLAYER1
  6
CONTINUOUS
 62
     7
 10
675.599349
 20
1993.423148
 11
652.640375
 21
2001.779531
  0
LINE
  8
CSLAYER1
  6
CONTINUOUS
 62
     7
 10
675.599349
 20
1993.423148
 11
679.496028
 21
1995.858063
  0
LINE
  8
CSLAYER1
  6
CONTINUOUS
 62
     7
 10
659.701258
 20
2040.055963
 11
660.986410
 21
2040.859015
  0
LINE
  8
CSLAYER1
  6
CONTINUOUS
 62
     7
 10
667.543374
 20
2027.238020
 11
668.948934
 21
2028.116312
  0
LINE
  8
CSLAYER1
  6
CONTINUOUS
 62
     7
 10
660.986410
 20
2040.859015
 11
661.320066
 21
2041.033795
  0
LINE
  8
CSLAYER1
  6
CONTINUOUS
 62
     7
 10
661.320066
 20
2041.033795
 11
661.681484
 21
2041.158756
  0
LINE
  8
CSLAYER1
  6
CONTINUOUS
 62
     7
 10
661.681484
 20
2041.158756
 11
662.067911
 21
2041.232945
  0
LINE
  8
CSLAYER1
  6
CONTINUOUS
 62
     7
 10
662.067911
 20
2041.232945
 11
662.476407
 21
2041.255798
  0
LINE
  8
CSLAYER1
  6
CONTINUOUS
 62
     7
 10
662.476407
 20
2041.255798
 11
662.903863
 21
2041.227142
  0
LINE
  8
CSLAYER1
  6
CONTINUOUS
 62
     7
 10
662.903863
 20
2041.227142
 11
663.347026
 21
2041.147195
  0
LINE
  8
CSLAYER1
  6
CONTINUOUS
 62
     7
 10
663.347026
 20
2041.147195
 11
663.802523
 21
2041.016564
  0
LINE
  8
CSLAYER1
  6
CONTINUOUS
 62
     7
 10
663.802523
 20
2041.016564
 11
664.266888
 21
2040.836245
  0
LINE
  8
CSLAYER1
  6
CONTINUOUS
 62
     7
 10
664.266888
 20
2040.836245
 11
664.736586
 21
2040.607609
  0
LINE
  8
CSLAYER1
  6
CONTINUOUS
 62
     7
 10
664.736586
 20
2040.607609
 11
665.208042
 21
2040.332396
  0
LINE
  8
CSLAYER1
  6
CONTINUOUS
 62
     7
 10
665.208042
 20
2040.332396
 11
665.677670
 21
2040.012702
  0
LINE
  8
CSLAYER1
  6
CONTINUOUS
 62
     7
 10
665.677670
 20
2040.012702
 11
666.141893
 21
2039.650959
  0
LINE
  8
CSLAYER1
  6
CONTINUOUS
 62
     7
 10
666.141893
 20
2039.650959
 11
666.597181
 21
2039.249920
  0
LINE
  8
CSLAYER1
  6
CONTINUOUS
 62
     7
 10
666.597181
 20
2039.249920
 11
667.040066
 21
2038.812637
  0
LINE
  8
CSLAYER1
  6
CONTINUOUS
 62
     7
 10
667.040066
 20
2038.812637
 11
667.467180
 21
2038.342438
  0
LINE
  8
CSLAYER1
  6
CONTINUOUS
 62
     7
 10
667.467180
 20
2038.342438
 11
667.875270
 21
2037.842903
  0
LINE
  8
CSLAYER1
  6
CONTINUOUS
 62
     7
 10
667.875270
 20
2037.842903
 11
668.261233
 21
2037.317832
  0
LINE
  8
CSLAYER1
  6
CONTINUOUS
 62
     7
 10
668.261233
 20
2037.317832
 11
668.622129
 21
2036.771222
  0
LINE
  8
CSLAYER1
  6
CONTINUOUS
 62
     7
 10
668.622129
 20
2036.771222
 11
668.955212
 21
2036.207232
  0
LINE
  8
CSLAYER1
  6
CONTINUOUS
 62
     7
 10
668.955212
 20
2036.207232
 11
669.257948
 21
2035.630156
  0
LINE
  8
CSLAYER1
  6
CONTINUOUS
 62
     7
 10
669.257948
 20
2035.630156
 11
669.528033
 21
2035.044384
  0
LINE
  8
CSLAYER1
  6
CONTINUOUS
 62
     7
 10
669.528033
 20
2035.044384
 11
669.763410
 21
2034.454376
  0
LINE
  8
CSLAYER1
  6
CONTINUOUS
 62
     7
 10
669.763410
 20
2034.454376
 11
669.962289
 21
2033.864621
  0
LINE
  8
CSLAYER1
  6
CONTINUOUS
 62
     7
 10
669.962289
 20
2033.864621
 11
670.123156
 21
2033.279607
  0
LINE
  8
CSLAYER1
  6
CONTINUOUS
 62
     7
 10
670.123156
 20
2033.279607
 11
670.244786
 21
2032.703788
  0
LINE
  8
CSLAYER1
  6
CONTINUOUS
 62
     7
 10
670.244786
 20
2032.703788
 11
670.326254
 21
2032.141545
  0
LINE
  8
CSLAYER1
  6
CONTINUOUS
 62
     7
 10
670.326254
 20
2032.141545
 11
670.366941
 21
2031.597157
  0
LINE
  8
CSLAYER1
  6
CONTINUOUS
 62
     7
 10
670.366941
 20
2031.597157
 11
670.366535
 21
2031.074768
  0
LINE
  8
CSLAYER1
  6
CONTINUOUS
 62
     7
 10
670.366535
 20
2031.074768
 11
670.325041
 21
2030.578353
  0
LINE
  8
CSLAYER1
  6
CONTINUOUS
 62
     7
 10
670.325041
 20
2030.578353
 11
670.242775
 21
2030.111690
  0
LINE
  8
CSLAYER1
  6
CONTINUOUS
 62
     7
 10
670.242775
 20
2030.111690
 11
670.120361
 21
2029.678332
  0
LINE
  8
CSLAYER1
  6
CONTINUOUS
 62
     7
 10
670.120361
 20
2029.678332
 11
669.958732
 21
2029.281575
  0
LINE
  8
CSLAYER1
  6
CONTINUOUS
 62
     7
 10
669.958732
 20
2029.281575
 11
669.759119
 21
2028.924439
  0
LINE
  8
CSLAYER1
  6
CONTINUOUS
 62
     7
 10
669.759119
 20
2028.924439
 11
669.523039
 21
2028.609643
  0
LINE
  8
CSLAYER1
  6
CONTINUOUS
 62
     7
 10
669.523039
 20
2028.609643
 11
669.252291
 21
2028.339582
  0
LINE
  8
CSLAYER1
  6
CONTINUOUS
 62
     7
 10
669.252291
 20
2028.339582
 11
668.948934
 21
2028.116312
  0
LINE
  8
CSLAYER1
  6
CONTINUOUS
 62
     7
 10
659.717153
 20
2040.052124
 11
659.914506
 21
2040.155504
  0
LINE
  8
CSLAYER1
  6
CONTINUOUS
 62
     7
 10
659.914506
 20
2040.155504
 11
660.275923
 21
2040.280464
  0
LINE
  8
CSLAYER1
  6
CONTINUOUS
 62
     7
 10
660.275923
 20
2040.280464
 11
660.662350
 21
2040.354653
  0
LINE
  8
CSLAYER1
  6
CONTINUOUS
 62
     7
 10
660.662350
 20
2040.354653
 11
661.070847
 21
2040.377507
  0
LINE
  8
CSLAYER1
  6
CONTINUOUS
 62
     7
 10
661.070847
 20
2040.377507
 11
661.498303
 21
2040.348851
  0
LINE
  8
CSLAYER1
  6
CONTINUOUS
 62
     7
 10
661.498303
 20
2040.348851
 11
661.941466
 21
2040.268903
  0
LINE
  8
CSLAYER1
  6
CONTINUOUS
 62
     7
 10
661.941466
 20
2040.268903
 11
662.396963
 21
2040.138273
  0
LINE
  8
CSLAYER1
  6
CONTINUOUS
 62
     7
 10
662.396963
 20
2040.138273
 11
662.861327
 21
2039.957953
  0
LINE
  8
CSLAYER1
  6
CONTINUOUS
 62
     7
 10
662.861327
 20
2039.957953
 11
663.331025
 21
2039.729317
  0
LINE
  8
CSLAYER1
  6
CONTINUOUS
 62
     7
 10
663.331025
 20
2039.729317
 11
663.802482
 21
2039.454105
  0
LINE
  8
CSLAYER1
  6
CONTINUOUS
 62
     7
 10
663.802482
 20
2039.454105
 11
664.272109
 21
2039.134410
  0
LINE
  8
CSLAYER1
  6
CONTINUOUS
 62
     7
 10
664.272109
 20
2039.134410
 11
664.736333
 21
2038.772667
  0
LINE
  8
CSLAYER1
  6
CONTINUOUS
 62
     7
 10
668.920694
 20
2031.263253
 11
668.961380
 21
2030.718866
  0
LINE
  8
CSLAYER1
  6
CONTINUOUS
 62
     7
 10
668.961380
 20
2030.718866
 11
668.960975
 21
2030.196476
  0
LINE
  8
CSLAYER1
  6
CONTINUOUS
 62
     7
 10
668.960975
 20
2030.196476
 11
668.919481
 21
2029.700062
  0
LINE
  8
CSLAYER1
  6
CONTINUOUS
 62
     7
 10
668.919481
 20
2029.700062
 11
668.837214
 21
2029.233399
  0
LINE
  8
CSLAYER1
  6
CONTINUOUS
 62
     7
 10
668.837214
 20
2029.233399
 11
668.714801
 21
2028.800040
  0
LINE
  8
CSLAYER1
  6
CONTINUOUS
 62
     7
 10
668.714801
 20
2028.800040
 11
668.553172
 21
2028.403283
  0
LINE
  8
CSLAYER1
  6
CONTINUOUS
 62
     7
 10
668.553172
 20
2028.403283
 11
668.353558
 21
2028.046147
  0
LINE
  8
CSLAYER1
  6
CONTINUOUS
 62
     7
 10
668.353558
 20
2028.046147
 11
668.117479
 21
2027.731351
  0
LINE
  8
CSLAYER1
  6
CONTINUOUS
 62
     7
 10
668.117479
 20
2027.731351
 11
667.846731
 21
2027.461291
  0
LINE
  8
CSLAYER1
  6
CONTINUOUS
 62
     7
 10
667.846731
 20
2027.461291
 11
667.543374
 21
2027.238020
  0
LINE
  8
CSLAYER1
  6
CONTINUOUS
 62
     7
 10
653.378564
 20
1985.241270
 11
651.357849
 21
1985.976751
  0
LINE
  8
CSLAYER1
  6
CONTINUOUS
 62
     7
 10
653.378564
 20
2001.510852
 11
653.378564
 21
1985.241270
  0
LINE
  8
CSLAYER1
  6
CONTINUOUS
 62
     7
 10
651.357849
 20
1996.472988
 11
651.357849
 21
1995.890576
  0
LINE
  8
CSLAYER1
  6
CONTINUOUS
 62
     7
 10
632.984359
 20
2111.281512
 11
633.193267
 21
2111.390946
  0
LINE
  8
CSLAYER1
  6
CONTINUOUS
 62
     7
 10
633.193267
 20
2111.390946
 11
633.419557
 21
2111.469185
  0
LINE
  8
CSLAYER1
  6
CONTINUOUS
 62
     7
 10
633.419557
 20
2111.469185
 11
633.661506
 21
2111.515637
  0
LINE
  8
CSLAYER1
  6
CONTINUOUS
 62
     7
 10
633.661506
 20
2111.515637
 11
633.917273
 21
2111.529946
  0
LINE
  8
CSLAYER1
  6
CONTINUOUS
 62
     7
 10
633.917273
 20
2111.529946
 11
634.184911
 21
2111.512004
  0
LINE
  8
CSLAYER1
  6
CONTINUOUS
 62
     7
 10
634.184911
 20
2111.512004
 11
634.462383
 21
2111.461947
  0
LINE
  8
CSLAYER1
  6
CONTINUOUS
 62
     7
 10
634.462383
 20
2111.461947
 11
634.747578
 21
2111.380157
  0
LINE
  8
CSLAYER1
  6
CONTINUOUS
 62
     7
 10
634.747578
 20
2111.380157
 11
635.038325
 21
2111.267256
  0
LINE
  8
CSLAYER1
  6
CONTINUOUS
 62
     7
 10
635.038325
 20
2111.267256
 11
635.332412
 21
2111.124103
  0
LINE
  8
CSLAYER1
  6
CONTINUOUS
 62
     7
 10
635.332412
 20
2111.124103
 11
635.627599
 21
2110.951787
  0
LINE
  8
CSLAYER1
  6
CONTINUOUS
 62
     7
 10
635.627599
 20
2110.951787
 11
635.921641
 21
2110.751621
  0
LINE
  8
CSLAYER1
  6
CONTINUOUS
 62
     7
 10
635.921641
 20
2110.751621
 11
636.212300
 21
2110.525127
  0
LINE
  8
CSLAYER1
  6
CONTINUOUS
 62
     7
 10
636.212300
 20
2110.525127
 11
636.497364
 21
2110.274029
  0
LINE
  8
CSLAYER1
  6
CONTINUOUS
 62
     7
 10
636.497364
 20
2110.274029
 11
636.774662
 21
2110.000238
  0
LINE
  8
CSLAYER1
  6
CONTINUOUS
 62
     7
 10
636.774662
 20
2110.000238
 11
637.042086
 21
2109.705838
  0
LINE
  8
CSLAYER1
  6
CONTINUOUS
 62
     7
 10
637.042086
 20
2109.705838
 11
637.297599
 21
2109.393070
  0
LINE
  8
CSLAYER1
  6
CONTINUOUS
 62
     7
 10
637.297599
 20
2109.393070
 11
637.539257
 21
2109.064314
  0
LINE
  8
CSLAYER1
  6
CONTINUOUS
 62
     7
 10
637.539257
 20
2109.064314
 11
637.765220
 21
2108.722071
  0
LINE
  8
CSLAYER1
  6
CONTINUOUS
 62
     7
 10
637.765220
 20
2108.722071
 11
637.973770
 21
2108.368947
  0
LINE
  8
CSLAYER1
  6
CONTINUOUS
 62
     7
 10
637.973770
 20
2108.368947
 11
638.163318
 21
2108.007629
  0
LINE
  8
CSLAYER1
  6
CONTINUOUS
 62
     7
 10
638.163318
 20
2108.007629
 11
638.332423
 21
2107.640867
  0
LINE
  8
CSLAYER1
  6
CONTINUOUS
 62
     7
 10
638.332423
 20
2107.640867
 11
638.479797
 21
2107.271452
  0
LINE
  8
CSLAYER1
  6
CONTINUOUS
 62
     7
 10
638.479797
 20
2107.271452
 11
638.604319
 21
2106.902196
  0
LINE
  8
CSLAYER1
  6
CONTINUOUS
 62
     7
 10
638.604319
 20
2106.902196
 11
638.705040
 21
2106.535908
  0
LINE
  8
CSLAYER1
  6
CONTINUOUS
 62
     7
 10
638.705040
 20
2106.535908
 11
638.781195
 21
2106.175377
  0
LINE
  8
CSLAYER1
  6
CONTINUOUS
 62
     7
 10
638.781195
 20
2106.175377
 11
638.832204
 21
2105.823347
  0
LINE
  8
CSLAYER1
  6
CONTINUOUS
 62
     7
 10
638.832204
 20
2105.823347
 11
638.857679
 21
2105.482496
  0
LINE
  8
CSLAYER1
  6
CONTINUOUS
 62
     7
 10
638.857679
 20
2105.482496
 11
638.857425
 21
2105.155419
  0
LINE
  8
CSLAYER1
  6
CONTINUOUS
 62
     7
 10
638.857425
 20
2105.155419
 11
638.831445
 21
2104.844604
  0
LINE
  8
CSLAYER1
  6
CONTINUOUS
 62
     7
 10
638.831445
 20
2104.844604
 11
638.779936
 21
2104.552418
  0
LINE
  8
CSLAYER1
  6
CONTINUOUS
 62
     7
 10
638.779936
 20
2104.552418
 11
638.703291
 21
2104.281085
  0
LINE
  8
CSLAYER1
  6
CONTINUOUS
 62
     7
 10
638.703291
 20
2104.281085
 11
638.602092
 21
2104.032668
  0
LINE
  8
CSLAYER1
  6
CONTINUOUS
 62
     7
 10
638.602092
 20
2104.032668
 11
638.477110
 21
2103.809059
  0
LINE
  8
CSLAYER1
  6
CONTINUOUS
 62
     7
 10
638.477110
 20
2103.809059
 11
638.329297
 21
2103.611959
  0
LINE
  8
CSLAYER1
  6
CONTINUOUS
 62
     7
 10
638.329297
 20
2103.611959
 11
638.159776
 21
2103.442869
  0
LINE
  8
CSLAYER1
  6
CONTINUOUS
 62
     7
 10
638.159776
 20
2103.442869
 11
637.969839
 21
2103.303076
  0
LINE
  8
CSLAYER1
  6
CONTINUOUS
 62
     7
 10
637.969839
 20
2103.303076
 11
637.760930
 21
2103.193643
  0
LINE
  8
CSLAYER1
  6
CONTINUOUS
 62
     7
 10
637.760930
 20
2103.193643
 11
637.534641
 21
2103.115403
  0
LINE
  8
CSLAYER1
  6
CONTINUOUS
 62
     7
 10
637.534641
 20
2103.115403
 11
637.292692
 21
2103.068952
  0
LINE
  8
CSLAYER1
  6
CONTINUOUS
 62
     7
 10
637.292692
 20
2103.068952
 11
637.036925
 21
2103.054643
  0
LINE
  8
CSLAYER1
  6
CONTINUOUS
 62
     7
 10
637.036925
 20
2103.054643
 11
636.769287
 21
2103.072585
  0
LINE
  8
CSLAYER1
  6
CONTINUOUS
 62
     7
 10
636.769287
 20
2103.072585
 11
636.491814
 21
2103.122641
  0
LINE
  8
CSLAYER1
  6
CONTINUOUS
 62
     7
 10
636.491814
 20
2103.122641
 11
636.206619
 21
2103.204432
  0
LINE
  8
CSLAYER1
  6
CONTINUOUS
 62
     7
 10
636.206619
 20
2103.204432
 11
635.915872
 21
2103.317333
  0
LINE
  8
CSLAYER1
  6
CONTINUOUS
 62
     7
 10
635.915872
 20
2103.317333
 11
635.621786
 21
2103.460486
  0
LINE
  8
CSLAYER1
  6
CONTINUOUS
 62
     7
 10
635.621786
 20
2103.460486
 11
635.326599
 21
2103.632801
  0
LINE
  8
CSLAYER1
  6
CONTINUOUS
 62
     7
 10
635.326599
 20
2103.632801
 11
635.032556
 21
2103.832968
  0
LINE
  8
CSLAYER1
  6
CONTINUOUS
 62
     7
 10
635.032556
 20
2103.832968
 11
634.741897
 21
2104.059462
  0
LINE
  8
CSLAYER1
  6
CONTINUOUS
 62
     7
 10
634.741897
 20
2104.059462
 11
634.456834
 21
2104.310560
  0
LINE
  8
CSLAYER1
  6
CONTINUOUS
 62
     7
 10
634.456834
 20
2104.310560
 11
634.179535
 21
2104.584350
  0
LINE
  8
CSLAYER1
  6
CONTINUOUS
 62
     7
 10
634.179535
 20
2104.584350
 11
633.912112
 21
2104.878750
  0
LINE
  8
CSLAYER1
  6
CONTINUOUS
 62
     7
 10
633.912112
 20
2104.878750
 11
633.656599
 21
2105.191518
  0
LINE
  8
CSLAYER1
  6
CONTINUOUS
 62
     7
 10
633.656599
 20
2105.191518
 11
633.414941
 21
2105.520275
  0
LINE
  8
CSLAYER1
  6
CONTINUOUS
 62
     7
 10
633.414941
 20
2105.520275
 11
633.188977
 21
2105.862517
  0
LINE
  8
CSLAYER1
  6
CONTINUOUS
 62
     7
 10
633.188977
 20
2105.862517
 11
632.980428
 21
2106.215641
  0
LINE
  8
CSLAYER1
  6
CONTINUOUS
 62
     7
 10
632.980428
 20
2106.215641
 11
632.790879
 21
2106.576959
  0
LINE
  8
CSLAYER1
  6
CONTINUOUS
 62
     7
 10
632.790879
 20
2106.576959
 11
632.621774
 21
2106.943721
  0
LINE
  8
CSLAYER1
  6
CONTINUOUS
 62
     7
 10
632.621774
 20
2106.943721
 11
632.474400
 21
2107.313136
  0
LINE
  8
CSLAYER1
  6
CONTINUOUS
 62
     7
 10
632.474400
 20
2107.313136
 11
632.349879
 21
2107.682393
  0
LINE
  8
CSLAYER1
  6
CONTINUOUS
 62
     7
 10
632.349879
 20
2107.682393
 11
632.249157
 21
2108.048680
  0
LINE
  8
CSLAYER1
  6
CONTINUOUS
 62
     7
 10
632.249157
 20
2108.048680
 11
632.173002
 21
2108.409211
  0
LINE
  8
CSLAYER1
  6
CONTINUOUS
 62
     7
 10
632.173002
 20
2108.409211
 11
632.121993
 21
2108.761242
  0
LINE
  8
CSLAYER1
  6
CONTINUOUS
 62
     7
 10
632.121993
 20
2108.761242
 11
632.096519
 21
2109.102092
  0
LINE
  8
CSLAYER1
  6
CONTINUOUS
 62
     7
 10
632.096519
 20
2109.102092
 11
632.096773
 21
2109.429170
  0
LINE
  8
CSLAYER1
  6
CONTINUOUS
 62
     7
 10
632.096773
 20
2109.429170
 11
632.122753
 21
2109.739984
  0
LINE
  8
CSLAYER1
  6
CONTINUOUS
 62
     7
 10
632.122753
 20
2109.739984
 11
632.174262
 21
2110.032170
  0
LINE
  8
CSLAYER1
  6
CONTINUOUS
 62
     7
 10
632.174262
 20
2110.032170
 11
632.250907
 21
2110.303504
  0
LINE
  8
CSLAYER1
  6
CONTINUOUS
 62
     7
 10
632.250907
 20
2110.303504
 11
632.352106
 21
2110.551921
  0
LINE
  8
CSLAYER1
  6
CONTINUOUS
 62
     7
 10
632.352106
 20
2110.551921
 11
632.477087
 21
2110.775530
  0
LINE
  8
CSLAYER1
  6
CONTINUOUS
 62
     7
 10
632.477087
 20
2110.775530
 11
632.624901
 21
2110.972629
  0
LINE
  8
CSLAYER1
  6
CONTINUOUS
 62
     7
 10
632.624901
 20
2110.972629
 11
632.794421
 21
2111.141719
  0
LINE
  8
CSLAYER1
  6
CONTINUOUS
 62
     7
 10
632.794421
 20
2111.141719
 11
632.984359
 21
2111.281512
  0
LINE
  8
CSLAYER1
  6
CONTINUOUS
 62
     7
 10
698.993541
 20
2163.066847
 11
698.993541
 21
2126.437519
  0
LINE
  8
CSLAYER1
  6
CONTINUOUS
 62
     7
 10
697.169898
 20
2161.927309
 11
698.993541
 21
2163.066847
  0
LINE
  8
CSLAYER1
  6
CONTINUOUS
 62
     7
 10
697.169898
 20
2161.927309
 11
697.169898
 21
2127.101270
  0
LINE
  8
CSLAYER1
  6
CONTINUOUS
 62
     7
 10
697.169898
 20
2161.927309
 11
680.246410
 21
2168.086955
  0
LINE
  8
CSLAYER1
  6
CONTINUOUS
 62
     7
 10
775.220015
 20
2133.519389
 11
777.043658
 21
2134.658928
  0
LINE
  8
CSLAYER1
  6
CONTINUOUS
 62
     7
 10
775.220015
 20
2133.519389
 11
775.220015
 21
2116.784774
  0
LINE
  8
CSLAYER1
  6
CONTINUOUS
 62
     7
 10
685.732812
 20
2156.887942
 11
685.956642
 21
2157.005192
  0
LINE
  8
CSLAYER1
  6
CONTINUOUS
 62
     7
 10
685.956642
 20
2157.005192
 11
686.199096
 21
2157.089021
  0
LINE
  8
CSLAYER1
  6
CONTINUOUS
 62
     7
 10
686.199096
 20
2157.089021
 11
686.458327
 21
2157.138790
  0
LINE
  8
CSLAYER1
  6
CONTINUOUS
 62
     7
 10
686.458327
 20
2157.138790
 11
686.732363
 21
2157.154121
  0
LINE
  8
CSLAYER1
  6
CONTINUOUS
 62
     7
 10
686.732363
 20
2157.154121
 11
687.019118
 21
2157.134897
  0
LINE
  8
CSLAYER1
  6
CONTINUOUS
 62
     7
 10
687.019118
 20
2157.134897
 11
687.316410
 21
2157.081265
  0
LINE
  8
CSLAYER1
  6
CONTINUOUS
 62
     7
 10
687.316410
 20
2157.081265
 11
687.621976
 21
2156.993633
  0
LINE
  8
CSLAYER1
  6
CONTINUOUS
 62
     7
 10
687.621976
 20
2156.993633
 11
687.933490
 21
2156.872667
  0
LINE
  8
CSLAYER1
  6
CONTINUOUS
 62
     7
 10
687.933490
 20
2156.872667
 11
688.248583
 21
2156.719289
  0
LINE
  8
CSLAYER1
  6
CONTINUOUS
 62
     7
 10
688.248583
 20
2156.719289
 11
688.564855
 21
2156.534665
  0
LINE
  8
CSLAYER1
  6
CONTINUOUS
 62
     7
 10
688.564855
 20
2156.534665
 11
688.879900
 21
2156.320201
  0
LINE
  8
CSLAYER1
  6
CONTINUOUS
 62
     7
 10
688.879900
 20
2156.320201
 11
689.191320
 21
2156.077529
  0
LINE
  8
CSLAYER1
  6
CONTINUOUS
 62
     7
 10
689.191320
 20
2156.077529
 11
689.496746
 21
2155.808496
  0
LINE
  8
CSLAYER1
  6
CONTINUOUS
 62
     7
 10
689.496746
 20
2155.808496
 11
689.793851
 21
2155.515149
  0
LINE
  8
CSLAYER1
  6
CONTINUOUS
 62
     7
 10
689.793851
 20
2155.515149
 11
690.080377
 21
2155.199720
  0
LINE
  8
CSLAYER1
  6
CONTINUOUS
 62
     7
 10
690.080377
 20
2155.199720
 11
690.354141
 21
2154.864611
  0
LINE
  8
CSLAYER1
  6
CONTINUOUS
 62
     7
 10
690.354141
 20
2154.864611
 11
690.613060
 21
2154.512372
  0
LINE
  8
CSLAYER1
  6
CONTINUOUS
 62
     7
 10
690.613060
 20
2154.512372
 11
690.855164
 21
2154.145684
  0
LINE
  8
CSLAYER1
  6
CONTINUOUS
 62
     7
 10
690.855164
 20
2154.145684
 11
691.078610
 21
2153.767337
  0
LINE
  8
CSLAYER1
  6
CONTINUOUS
 62
     7
 10
691.078610
 20
2153.767337
 11
691.281697
 21
2153.380210
  0
LINE
  8
CSLAYER1
  6
CONTINUOUS
 62
     7
 10
691.281697
 20
2153.380210
 11
691.462881
 21
2152.987251
  0
LINE
  8
CSLAYER1
  6
CONTINUOUS
 62
     7
 10
691.462881
 20
2152.987251
 11
691.620782
 21
2152.591449
  0
LINE
  8
CSLAYER1
  6
CONTINUOUS
 62
     7
 10
691.620782
 20
2152.591449
 11
691.754198
 21
2152.195817
  0
LINE
  8
CSLAYER1
  6
CONTINUOUS
 62
     7
 10
691.754198
 20
2152.195817
 11
691.862114
 21
2151.803367
  0
LINE
  8
CSLAYER1
  6
CONTINUOUS
 62
     7
 10
691.862114
 20
2151.803367
 11
691.943708
 21
2151.417083
  0
LINE
  8
CSLAYER1
  6
CONTINUOUS
 62
     7
 10
691.943708
 20
2151.417083
 11
691.998361
 21
2151.039908
  0
LINE
  8
CSLAYER1
  6
CONTINUOUS
 62
     7
 10
691.998361
 20
2151.039908
 11
692.025655
 21
2150.674711
  0
LINE
  8
CSLAYER1
  6
CONTINUOUS
 62
     7
 10
692.025655
 20
2150.674711
 11
692.025383
 21
2150.324271
  0
LINE
  8
CSLAYER1
  6
CONTINUOUS
 62
     7
 10
692.025383
 20
2150.324271
 11
691.997547
 21
2149.991255
  0
LINE
  8
CSLAYER1
  6
CONTINUOUS
 62
     7
 10
691.997547
 20
2149.991255
 11
691.942359
 21
2149.678199
  0
LINE
  8
CSLAYER1
  6
CONTINUOUS
 62
     7
 10
691.942359
 20
2149.678199
 11
691.860239
 21
2149.387484
  0
LINE
  8
CSLAYER1
  6
CONTINUOUS
 62
     7
 10
691.860239
 20
2149.387484
 11
691.751812
 21
2149.121323
  0
LINE
  8
CSLAYER1
  6
CONTINUOUS
 62
     7
 10
691.751812
 20
2149.121323
 11
691.617903
 21
2148.881742
  0
LINE
  8
CSLAYER1
  6
CONTINUOUS
 62
     7
 10
691.617903
 20
2148.881742
 11
691.459531
 21
2148.670564
  0
LINE
  8
CSLAYER1
  6
CONTINUOUS
 62
     7
 10
691.459531
 20
2148.670564
 11
691.277902
 21
2148.489396
  0
LINE
  8
CSLAYER1
  6
CONTINUOUS
 62
     7
 10
691.277902
 20
2148.489396
 11
691.074398
 21
2148.339618
  0
LINE
  8
CSLAYER1
  6
CONTINUOUS
 62
     7
 10
691.074398
 20
2148.339618
 11
690.850567
 21
2148.222368
  0
LINE
  8
CSLAYER1
  6
CONTINUOUS
 62
     7
 10
690.850567
 20
2148.222368
 11
690.608114
 21
2148.138539
  0
LINE
  8
CSLAYER1
  6
CONTINUOUS
 62
     7
 10
690.608114
 20
2148.138539
 11
690.348883
 21
2148.088770
  0
LINE
  8
CSLAYER1
  6
CONTINUOUS
 62
     7
 10
690.348883
 20
2148.088770
 11
690.074847
 21
2148.073439
  0
LINE
  8
CSLAYER1
  6
CONTINUOUS
 62
     7
 10
690.074847
 20
2148.073439
 11
689.788092
 21
2148.092663
  0
LINE
  8
CSLAYER1
  6
CONTINUOUS
 62
     7
 10
689.788092
 20
2148.092663
 11
689.490800
 21
2148.146295
  0
LINE
  8
CSLAYER1
  6
CONTINUOUS
 62
     7
 10
689.490800
 20
2148.146295
 11
689.185234
 21
2148.233927
  0
LINE
  8
CSLAYER1
  6
CONTINUOUS
 62
     7
 10
689.185234
 20
2148.233927
 11
688.873719
 21
2148.354893
  0
LINE
  8
CSLAYER1
  6
CONTINUOUS
 62
     7
 10
688.873719
 20
2148.354893
 11
688.558627
 21
2148.508271
  0
LINE
  8
CSLAYER1
  6
CONTINUOUS
 62
     7
 10
688.558627
 20
2148.508271
 11
688.242354
 21
2148.692895
  0
LINE
  8
CSLAYER1
  6
CONTINUOUS
 62
     7
 10
688.242354
 20
2148.692895
 11
687.927309
 21
2148.907359
  0
LINE
  8
CSLAYER1
  6
CONTINUOUS
 62
     7
 10
687.927309
 20
2148.907359
 11
687.615889
 21
2149.150031
  0
LINE
  8
CSLAYER1
  6
CONTINUOUS
 62
     7
 10
687.615889
 20
2149.150031
 11
687.310464
 21
2149.419064
  0
LINE
  8
CSLAYER1
  6
CONTINUOUS
 62
     7
 10
687.310464
 20
2149.419064
 11
687.013358
 21
2149.712412
  0
LINE
  8
CSLAYER1
  6
CONTINUOUS
 62
     7
 10
687.013358
 20
2149.712412
 11
686.726833
 21
2150.027840
  0
LINE
  8
CSLAYER1
  6
CONTINUOUS
 62
     7
 10
686.726833
 20
2150.027840
 11
686.453069
 21
2150.362949
  0
LINE
  8
CSLAYER1
  6
CONTINUOUS
 62
     7
 10
686.453069
 20
2150.362949
 11
686.194150
 21
2150.715188
  0
LINE
  8
CSLAYER1
  6
CONTINUOUS
 62
     7
 10
686.194150
 20
2150.715188
 11
685.952046
 21
2151.081876
  0
LINE
  8
CSLAYER1
  6
CONTINUOUS
 62
     7
 10
685.952046
 20
2151.081876
 11
685.728600
 21
2151.460223
  0
LINE
  8
CSLAYER1
  6
CONTINUOUS
 62
     7
 10
685.728600
 20
2151.460223
 11
685.525512
 21
2151.847350
  0
LINE
  8
CSLAYER1
  6
CONTINUOUS
 62
     7
 10
685.525512
 20
2151.847350
 11
685.344329
 21
2152.240309
  0
LINE
  8
CSLAYER1
  6
CONTINUOUS
 62
     7
 10
685.344329
 20
2152.240309
 11
685.186428
 21
2152.636111
  0
LINE
  8
CSLAYER1
  6
CONTINUOUS
 62
     7
 10
685.186428
 20
2152.636111
 11
685.053012
 21
2153.031743
  0
LINE
  8
CSLAYER1
  6
CONTINUOUS
 62
     7
 10
685.053012
 20
2153.031743
 11
684.945096
 21
2153.424193
  0
LINE
  8
CSLAYER1
  6
CONTINUOUS
 62
     7
 10
684.945096
 20
2153.424193
 11
684.863501
 21
2153.810477
  0
LINE
  8
CSLAYER1
  6
CONTINUOUS
 62
     7
 10
684.863501
 20
2153.810477
 11
684.808849
 21
2154.187652
  0
LINE
  8
CSLAYER1
  6
CONTINUOUS
 62
     7
 10
684.808849
 20
2154.187652
 11
684.781555
 21
2154.552850
  0
LINE
  8
CSLAYER1
  6
CONTINUOUS
 62
     7
 10
684.781555
 20
2154.552850
 11
684.781827
 21
2154.903290
  0
LINE
  8
CSLAYER1
  6
CONTINUOUS
 62
     7
 10
684.781827
 20
2154.903290
 11
684.809663
 21
2155.236305
  0
LINE
  8
CSLAYER1
  6
CONTINUOUS
 62
     7
 10
684.809663
 20
2155.236305
 11
684.864851
 21
2155.549361
  0
LINE
  8
CSLAYER1
  6
CONTINUOUS
 62
     7
 10
684.864851
 20
2155.549361
 11
684.946971
 21
2155.840076
  0
LINE
  8
CSLAYER1
  6
CONTINUOUS
 62
     7
 10
684.946971
 20
2155.840076
 11
685.055398
 21
2156.106237
  0
LINE
  8
CSLAYER1
  6
CONTINUOUS
 62
     7
 10
685.055398
 20
2156.106237
 11
685.189307
 21
2156.345818
  0
LINE
  8
CSLAYER1
  6
CONTINUOUS
 62
     7
 10
685.189307
 20
2156.345818
 11
685.347678
 21
2156.556996
  0
LINE
  8
CSLAYER1
  6
CONTINUOUS
 62
     7
 10
685.347678
 20
2156.556996
 11
685.529307
 21
2156.738164
  0
LINE
  8
CSLAYER1
  6
CONTINUOUS
 62
     7
 10
685.529307
 20
2156.738164
 11
685.732812
 21
2156.887942
  0
LINE
  8
CSLAYER1
  6
CONTINUOUS
 62
     7
 10
685.732812
 20
2156.887942
 11
688.184371
 21
2158.419846
  0
LINE
  8
CSLAYER1
  6
CONTINUOUS
 62
     7
 10
691.074398
 20
2148.339618
 11
693.525957
 21
2149.871522
  0
LINE
  8
CSLAYER1
  6
CONTINUOUS
 62
     7
 10
689.191320
 20
2156.077529
 11
691.642879
 21
2157.609433
  0
LINE
  8
CSLAYER1
  6
CONTINUOUS
 62
     7
 10
691.734624
 20
2152.253860
 11
694.186183
 21
2153.785764
  0
LINE
  8
CSLAYER1
  6
CONTINUOUS
 62
     7
 10
688.184371
 20
2158.419846
 11
688.408201
 21
2158.537096
  0
LINE
  8
CSLAYER1
  6
CONTINUOUS
 62
     7
 10
688.408201
 20
2158.537096
 11
688.650655
 21
2158.620925
  0
LINE
  8
CSLAYER1
  6
CONTINUOUS
 62
     7
 10
688.650655
 20
2158.620925
 11
688.909886
 21
2158.670694
  0
LINE
  8
CSLAYER1
  6
CONTINUOUS
 62
     7
 10
688.909886
 20
2158.670694
 11
689.183922
 21
2158.686025
  0
LINE
  8
CSLAYER1
  6
CONTINUOUS
 62
     7
 10
689.183922
 20
2158.686025
 11
689.470677
 21
2158.666801
  0
LINE
  8
CSLAYER1
  6
CONTINUOUS
 62
     7
 10
689.470677
 20
2158.666801
 11
689.767968
 21
2158.613169
  0
LINE
  8
CSLAYER1
  6
CONTINUOUS
 62
     7
 10
689.767968
 20
2158.613169
 11
690.073534
 21
2158.525537
  0
LINE
  8
CSLAYER1
  6
CONTINUOUS
 62
     7
 10
690.073534
 20
2158.525537
 11
690.385049
 21
2158.404571
  0
LINE
  8
CSLAYER1
  6
CONTINUOUS
 62
     7
 10
690.385049
 20
2158.404571
 11
690.700142
 21
2158.251193
  0
LINE
  8
CSLAYER1
  6
CONTINUOUS
 62
     7
 10
690.700142
 20
2158.251193
 11
691.016414
 21
2158.066569
  0
LINE
  8
CSLAYER1
  6
CONTINUOUS
 62
     7
 10
691.016414
 20
2158.066569
 11
691.331459
 21
2157.852105
  0
LINE
  8
CSLAYER1
  6
CONTINUOUS
 62
     7
 10
691.331459
 20
2157.852105
 11
691.642879
 21
2157.609433
  0
LINE
  8
CSLAYER1
  6
CONTINUOUS
 62
     7
 10
691.642879
 20
2157.609433
 11
691.948305
 21
2157.340400
  0
LINE
  8
CSLAYER1
  6
CONTINUOUS
 62
     7
 10
691.948305
 20
2157.340400
 11
692.245410
 21
2157.047053
  0
LINE
  8
CSLAYER1
  6
CONTINUOUS
 62
     7
 10
692.245410
 20
2157.047053
 11
692.531936
 21
2156.731624
  0
LINE
  8
CSLAYER1
  6
CONTINUOUS
 62
     7
 10
692.531936
 20
2156.731624
 11
692.805699
 21
2156.396515
  0
LINE
  8
CSLAYER1
  6
CONTINUOUS
 62
     7
 10
692.805699
 20
2156.396515
 11
693.064619
 21
2156.044276
  0
LINE
  8
CSLAYER1
  6
CONTINUOUS
 62
     7
 10
693.064619
 20
2156.044276
 11
693.306722
 21
2155.677588
  0
LINE
  8
CSLAYER1
  6
CONTINUOUS
 62
     7
 10
693.306722
 20
2155.677588
 11
693.530168
 21
2155.299241
  0
LINE
  8
CSLAYER1
  6
CONTINUOUS
 62
     7
 10
693.530168
 20
2155.299241
 11
693.733256
 21
2154.912114
  0
LINE
  8
CSLAYER1
  6
CONTINUOUS
 62
     7
 10
693.733256
 20
2154.912114
 11
693.914440
 21
2154.519155
  0
LINE
  8
CSLAYER1
  6
CONTINUOUS
 62
     7
 10
693.914440
 20
2154.519155
 11
694.072340
 21
2154.123353
  0
LINE
  8
CSLAYER1
  6
CONTINUOUS
 62
     7
 10
694.072340
 20
2154.123353
 11
694.205756
 21
2153.727721
  0
LINE
  8
CSLAYER1
  6
CONTINUOUS
 62
     7
 10
694.205756
 20
2153.727721
 11
694.313672
 21
2153.335271
  0
LINE
  8
CSLAYER1
  6
CONTINUOUS
 62
     7
 10
694.313672
 20
2153.335271
 11
694.395267
 21
2152.948987
  0
LINE
  8
CSLAYER1
  6
CONTINUOUS
 62
     7
 10
694.395267
 20
2152.948987
 11
694.449919
 21
2152.571812
  0
LINE
  8
CSLAYER1
  6
CONTINUOUS
 62
     7
 10
694.449919
 20
2152.571812
 11
694.477213
 21
2152.206615
  0
LINE
  8
CSLAYER1
  6
CONTINUOUS
 62
     7
 10
694.477213
 20
2152.206615
 11
694.476941
 21
2151.856175
  0
LINE
  8
CSLAYER1
  6
CONTINUOUS
 62
     7
 10
694.476941
 20
2151.856175
 11
694.449106
 21
2151.523159
  0
LINE
  8
CSLAYER1
  6
CONTINUOUS
 62
     7
 10
694.449106
 20
2151.523159
 11
694.393918
 21
2151.210103
  0
LINE
  8
CSLAYER1
  6
CONTINUOUS
 62
     7
 10
694.393918
 20
2151.210103
 11
694.311798
 21
2150.919388
  0
LINE
  8
CSLAYER1
  6
CONTINUOUS
 62
     7
 10
694.311798
 20
2150.919388
 11
694.203371
 21
2150.653227
  0
LINE
  8
CSLAYER1
  6
CONTINUOUS
 62
     7
 10
694.203371
 20
2150.653227
 11
694.069462
 21
2150.413646
  0
LINE
  8
CSLAYER1
  6
CONTINUOUS
 62
     7
 10
694.069462
 20
2150.413646
 11
693.911090
 21
2150.202468
  0
LINE
  8
CSLAYER1
  6
CONTINUOUS
 62
     7
 10
693.911090
 20
2150.202468
 11
693.729461
 21
2150.021300
  0
LINE
  8
CSLAYER1
  6
CONTINUOUS
 62
     7
 10
693.729461
 20
2150.021300
 11
693.525957
 21
2149.871522
  0
LINE
  8
CSLAYER1
  6
CONTINUOUS
 62
     7
 10
776.412398
 20
2123.883272
 11
778.863957
 21
2125.415176
  0
LINE
  8
CSLAYER1
  6
CONTINUOUS
 62
     7
 10
779.870907
 20
2123.072859
 11
782.322465
 21
2124.604763
  0
LINE
  8
CSLAYER1
  6
CONTINUOUS
 62
     7
 10
782.414210
 20
2119.249190
 11
784.865769
 21
2120.781094
  0
LINE
  8
CSLAYER1
  6
CONTINUOUS
 62
     7
 10
778.863957
 20
2125.415176
 11
779.087787
 21
2125.532426
  0
LINE
  8
CSLAYER1
  6
CONTINUOUS
 62
     7
 10
779.087787
 20
2125.532426
 11
779.330241
 21
2125.616254
  0
LINE
  8
CSLAYER1
  6
CONTINUOUS
 62
     7
 10
779.330241
 20
2125.616254
 11
779.589472
 21
2125.666024
  0
LINE
  8
CSLAYER1
  6
CONTINUOUS
 62
     7
 10
779.589472
 20
2125.666024
 11
779.863508
 21
2125.681355
  0
LINE
  8
CSLAYER1
  6
CONTINUOUS
 62
     7
 10
779.863508
 20
2125.681355
 11
780.150263
 21
2125.662131
  0
LINE
  8
CSLAYER1
  6
CONTINUOUS
 62
     7
 10
780.150263
 20
2125.662131
 11
780.447555
 21
2125.608499
  0
LINE
  8
CSLAYER1
  6
CONTINUOUS
 62
     7
 10
780.447555
 20
2125.608499
 11
780.753121
 21
2125.520867
  0
LINE
  8
CSLAYER1
  6
CONTINUOUS
 62
     7
 10
780.753121
 20
2125.520867
 11
781.064635
 21
2125.399901
  0
LINE
  8
CSLAYER1
  6
CONTINUOUS
 62
     7
 10
781.064635
 20
2125.399901
 11
781.379728
 21
2125.246523
  0
LINE
  8
CSLAYER1
  6
CONTINUOUS
 62
     7
 10
781.379728
 20
2125.246523
 11
781.696000
 21
2125.061899
  0
LINE
  8
CSLAYER1
  6
CONTINUOUS
 62
     7
 10
781.696000
 20
2125.061899
 11
782.011045
 21
2124.847435
  0
LINE
  8
CSLAYER1
  6
CONTINUOUS
 62
     7
 10
782.011045
 20
2124.847435
 11
782.322465
 21
2124.604763
  0
LINE
  8
CSLAYER1
  6
CONTINUOUS
 62
     7
 10
782.322465
 20
2124.604763
 11
782.627891
 21
2124.335729
  0
LINE
  8
CSLAYER1
  6
CONTINUOUS
 62
     7
 10
782.627891
 20
2124.335729
 11
782.924996
 21
2124.042382
  0
LINE
  8
CSLAYER1
  6
CONTINUOUS
 62
     7
 10
782.924996
 20
2124.042382
 11
783.211522
 21
2123.726954
  0
LINE
  8
CSLAYER1
  6
CONTINUOUS
 62
     7
 10
783.211522
 20
2123.726954
 11
783.485286
 21
2123.391845
  0
LINE
  8
CSLAYER1
  6
CONTINUOUS
 62
     7
 10
783.485286
 20
2123.391845
 11
783.744205
 21
2123.039606
  0
LINE
  8
CSLAYER1
  6
CONTINUOUS
 62
     7
 10
783.744205
 20
2123.039606
 11
783.986309
 21
2122.672918
  0
LINE
  8
CSLAYER1
  6
CONTINUOUS
 62
     7
 10
783.986309
 20
2122.672918
 11
784.163331
 21
2122.373178
  0
LINE
  8
CSLAYER1
  6
CONTINUOUS
 62
     7
 10
776.412398
 20
2123.883272
 11
776.636228
 21
2124.000522
  0
LINE
  8
CSLAYER1
  6
CONTINUOUS
 62
     7
 10
776.636228
 20
2124.000522
 11
776.878682
 21
2124.084350
  0
LINE
  8
CSLAYER1
  6
CONTINUOUS
 62
     7
 10
776.878682
 20
2124.084350
 11
777.137913
 21
2124.134120
  0
LINE
  8
CSLAYER1
  6
CONTINUOUS
 62
     7
 10
777.137913
 20
2124.134120
 11
777.411949
 21
2124.149451
  0
LINE
  8
CSLAYER1
  6
CONTINUOUS
 62
     7
 10
777.411949
 20
2124.149451
 11
777.698704
 21
2124.130227
  0
LINE
  8
CSLAYER1
  6
CONTINUOUS
 62
     7
 10
777.698704
 20
2124.130227
 11
777.995996
 21
2124.076595
  0
LINE
  8
CSLAYER1
  6
CONTINUOUS
 62
     7
 10
777.995996
 20
2124.076595
 11
778.301562
 21
2123.988963
  0
LINE
  8
CSLAYER1
  6
CONTINUOUS
 62
     7
 10
778.301562
 20
2123.988963
 11
778.613076
 21
2123.867997
  0
LINE
  8
CSLAYER1
  6
CONTINUOUS
 62
     7
 10
778.613076
 20
2123.867997
 11
778.928169
 21
2123.714619
  0
LINE
  8
CSLAYER1
  6
CONTINUOUS
 62
     7
 10
778.928169
 20
2123.714619
 11
779.244441
 21
2123.529995
  0
LINE
  8
CSLAYER1
  6
CONTINUOUS
 62
     7
 10
779.244441
 20
2123.529995
 11
779.559486
 21
2123.315531
  0
LINE
  8
CSLAYER1
  6
CONTINUOUS
 62
     7
 10
779.559486
 20
2123.315531
 11
779.870907
 21
2123.072859
  0
LINE
  8
CSLAYER1
  6
CONTINUOUS
 62
     7
 10
779.870907
 20
2123.072859
 11
780.176332
 21
2122.803825
  0
LINE
  8
CSLAYER1
  6
CONTINUOUS
 62
     7
 10
780.176332
 20
2122.803825
 11
780.473438
 21
2122.510478
  0
LINE
  8
CSLAYER1
  6
CONTINUOUS
 62
     7
 10
780.473438
 20
2122.510478
 11
780.759963
 21
2122.195050
  0
LINE
  8
CSLAYER1
  6
CONTINUOUS
 62
     7
 10
780.759963
 20
2122.195050
 11
781.033727
 21
2121.859941
  0
LINE
  8
CSLAYER1
  6
CONTINUOUS
 62
     7
 10
781.033727
 20
2121.859941
 11
781.292646
 21
2121.507702
  0
LINE
  8
CSLAYER1
  6
CONTINUOUS
 62
     7
 10
781.292646
 20
2121.507702
 11
781.534750
 21
2121.141014
  0
LINE
  8
CSLAYER1
  6
CONTINUOUS
 62
     7
 10
781.534750
 20
2121.141014
 11
781.711772
 21
2120.841274
  0
LINE
  8
CSLAYER1
  6
CONTINUOUS
 62
     7
 10
776.823435
 20
2117.786702
 11
776.631632
 21
2118.077206
  0
LINE
  8
CSLAYER1
  6
CONTINUOUS
 62
     7
 10
776.631632
 20
2118.077206
 11
776.408186
 21
2118.455553
  0
LINE
  8
CSLAYER1
  6
CONTINUOUS
 62
     7
 10
776.408186
 20
2118.455553
 11
776.205098
 21
2118.842679
  0
LINE
  8
CSLAYER1
  6
CONTINUOUS
 62
     7
 10
776.205098
 20
2118.842679
 11
776.023915
 21
2119.235639
  0
LINE
  8
CSLAYER1
  6
CONTINUOUS
 62
     7
 10
776.023915
 20
2119.235639
 11
775.866014
 21
2119.631441
  0
LINE
  8
CSLAYER1
  6
CONTINUOUS
 62
     7
 10
775.866014
 20
2119.631441
 11
775.732598
 21
2120.027072
  0
LINE
  8
CSLAYER1
  6
CONTINUOUS
 62
     7
 10
775.732598
 20
2120.027072
 11
775.624682
 21
2120.419523
  0
LINE
  8
CSLAYER1
  6
CONTINUOUS
 62
     7
 10
775.624682
 20
2120.419523
 11
775.543088
 21
2120.805806
  0
LINE
  8
CSLAYER1
  6
CONTINUOUS
 62
     7
 10
775.543088
 20
2120.805806
 11
775.488435
 21
2121.182982
  0
LINE
  8
CSLAYER1
  6
CONTINUOUS
 62
     7
 10
775.488435
 20
2121.182982
 11
775.461141
 21
2121.548179
  0
LINE
  8
CSLAYER1
  6
CONTINUOUS
 62
     7
 10
775.461141
 20
2121.548179
 11
775.461413
 21
2121.898619
  0
LINE
  8
CSLAYER1
  6
CONTINUOUS
 62
     7
 10
775.461413
 20
2121.898619
 11
775.489249
 21
2122.231635
  0
LINE
  8
CSLAYER1
  6
CONTINUOUS
 62
     7
 10
775.489249
 20
2122.231635
 11
775.544437
 21
2122.544691
  0
LINE
  8
CSLAYER1
  6
CONTINUOUS
 62
     7
 10
775.544437
 20
2122.544691
 11
775.626557
 21
2122.835406
  0
LINE
  8
CSLAYER1
  6
CONTINUOUS
 62
     7
 10
775.626557
 20
2122.835406
 11
775.734984
 21
2123.101567
  0
LINE
  8
CSLAYER1
  6
CONTINUOUS
 62
     7
 10
775.734984
 20
2123.101567
 11
775.868893
 21
2123.341148
  0
LINE
  8
CSLAYER1
  6
CONTINUOUS
 62
     7
 10
775.868893
 20
2123.341148
 11
776.027264
 21
2123.552326
  0
LINE
  8
CSLAYER1
  6
CONTINUOUS
 62
     7
 10
776.027264
 20
2123.552326
 11
776.208894
 21
2123.733494
  0
LINE
  8
CSLAYER1
  6
CONTINUOUS
 62
     7
 10
776.208894
 20
2123.733494
 11
776.412398
 21
2123.883272
  0
ARC
  8
CSLAYER1
  6
CONTINUOUS
 62
     7
 10
620.403454
 20
2122.768847
 40
6.720000
 50
122.000000
 51
180.000000
  0
ARC
  8
CSLAYER1
  6
CONTINUOUS
 62
     7
 10
618.382739
 20
2123.504327
 40
6.720000
 50
122.000000
 51
180.000000
  0
ARC
  8
CSLAYER1
  6
CONTINUOUS
 62
     7
 10
617.043454
 20
2058.635404
 40
3.360000
 50
256.943959
 51
302.000000
  0
ARC
  8
CSLAYER1
  6
CONTINUOUS
 62
     7
 10
614.774715
 20
2058.916211
 40
3.360000
 50
202.152506
 51
217.167534
  0
LINE
  8
CSLAYER1
  6
CONTINUOUS
 62
     7
 10
616.284417
 20
2055.362261
 11
612.097224
 21
2056.886275
  0
ARC
  8
CSLAYER1
  6
CONTINUOUS
 62
     7
 10
730.961263
 20
2083.168634
 40
3.360000
 50
122.000000
 51
180.000000
  0
ARC
  8
CSLAYER1
  6
CONTINUOUS
 62
     7
 10
728.940548
 20
2083.904114
 40
3.360000
 50
122.000000
 51
180.000000
  0
ARC
  8
CSLAYER1
  6
CONTINUOUS
 62
     7
 10
730.961263
 20
2017.172712
 40
3.360000
 50
180.000000
 51
302.000000
  0
ARC
  8
CSLAYER1
  6
CONTINUOUS
 62
     7
 10
728.831550
 20
2017.667229
 40
3.360000
 50
194.633804
 51
226.715114
  0
LINE
  8
CSLAYER1
  6
CONTINUOUS
 62
     7
 10
651.357849
 20
2152.033541
 11
680.049337
 21
2169.961973
  0
LINE
  8
CSLAYER1
  6
CONTINUOUS
 62
     7
 10
619.930818
 20
2056.477590
 11
616.532896
 21
2057.714332
  0
ARC
  8
CSLAYER1
  6
CONTINUOUS
 62
     7
 10
617.043454
 20
2058.635404
 40
3.360000
 50
180.000000
 51
256.943959
  0
LINE
  8
CSLAYER1
  6
CONTINUOUS
 62
     7
 10
651.357849
 20
2002.246332
 11
651.357849
 21
1985.976751
  0
LINE
  8
CSLAYER1
  6
CONTINUOUS
 62
     7
 10
407.086921
 20
1906.708158
 11
407.524892
 21
1906.830829
  0
LINE
  8
CSLAYER1
  6
CONTINUOUS
 62
     7
 10
407.524892
 20
1906.830829
 11
407.983144
 21
1906.887687
  0
LINE
  8
CSLAYER1
  6
CONTINUOUS
 62
     7
 10
407.983144
 20
1906.887687
 11
408.458188
 21
1906.878299
  0
LINE
  8
CSLAYER1
  6
CONTINUOUS
 62
     7
 10
408.458188
 20
1906.878299
 11
408.946412
 21
1906.802737
  0
LINE
  8
CSLAYER1
  6
CONTINUOUS
 62
     7
 10
408.946412
 20
1906.802737
 11
409.444097
 21
1906.661575
  0
LINE
  8
CSLAYER1
  6
CONTINUOUS
 62
     7
 10
409.444097
 20
1906.661575
 11
409.947457
 21
1906.455888
  0
LINE
  8
CSLAYER1
  6
CONTINUOUS
 62
     7
 10
409.947457
 20
1906.455888
 11
410.452661
 21
1906.187241
  0
LINE
  8
CSLAYER1
  6
CONTINUOUS
 62
     7
 10
410.452661
 20
1906.187241
 11
410.955864
 21
1905.857680
  0
LINE
  8
CSLAYER1
  6
CONTINUOUS
 62
     7
 10
410.955864
 20
1905.857680
 11
411.453236
 21
1905.469711
  0
LINE
  8
CSLAYER1
  6
CONTINUOUS
 62
     7
 10
411.453236
 20
1905.469711
 11
411.940992
 21
1905.026288
  0
LINE
  8
CSLAYER1
  6
CONTINUOUS
 62
     7
 10
411.940992
 20
1905.026288
 11
412.415420
 21
1904.530786
  0
LINE
  8
CSLAYER1
  6
CONTINUOUS
 62
     7
 10
412.415420
 20
1904.530786
 11
412.872909
 21
1903.986975
  0
LINE
  8
CSLAYER1
  6
CONTINUOUS
 62
     7
 10
412.872909
 20
1903.986975
 11
413.309978
 21
1903.398995
  0
LINE
  8
CSLAYER1
  6
CONTINUOUS
 62
     7
 10
413.309978
 20
1903.398995
 11
413.723299
 21
1902.771320
  0
LINE
  8
CSLAYER1
  6
CONTINUOUS
 62
     7
 10
413.723299
 20
1902.771320
 11
414.109728
 21
1902.108726
  0
LINE
  8
CSLAYER1
  6
CONTINUOUS
 62
     7
 10
414.109728
 20
1902.108726
 11
414.466323
 21
1901.416258
  0
LINE
  8
CSLAYER1
  6
CONTINUOUS
 62
     7
 10
414.466323
 20
1901.416258
 11
414.790371
 21
1900.699185
  0
LINE
  8
CSLAYER1
  6
CONTINUOUS
 62
     7
 10
414.790371
 20
1900.699185
 11
415.079405
 21
1899.962964
  0
LINE
  8
CSLAYER1
  6
CONTINUOUS
 62
     7
 10
415.079405
 20
1899.962964
 11
415.331226
 21
1899.213198
  0
LINE
  8
CSLAYER1
  6
CONTINUOUS
 62
     7
 10
415.331226
 20
1899.213198
 11
415.543917
 21
1898.455594
  0
LINE
  8
CSLAYER1
  6
CONTINUOUS
 62
     7
 10
415.543917
 20
1898.455594
 11
415.715859
 21
1897.695918
  0
LINE
  8
CSLAYER1
  6
CONTINUOUS
 62
     7
 10
415.715859
 20
1897.695918
 11
415.845744
 21
1896.939950
  0
LINE
  8
CSLAYER1
  6
CONTINUOUS
 62
     7
 10
415.845744
 20
1896.939950
 11
415.932583
 21
1896.193445
  0
LINE
  8
CSLAYER1
  6
CONTINUOUS
 62
     7
 10
415.932583
 20
1896.193445
 11
415.975716
 21
1895.462084
  0
LINE
  8
CSLAYER1
  6
CONTINUOUS
 62
     7
 10
415.975716
 20
1895.462084
 11
415.974814
 21
1894.751432
  0
LINE
  8
CSLAYER1
  6
CONTINUOUS
 62
     7
 10
415.974814
 20
1894.751432
 11
415.929884
 21
1894.066899
  0
LINE
  8
CSLAYER1
  6
CONTINUOUS
 62
     7
 10
415.929884
 20
1894.066899
 11
415.841268
 21
1893.413694
  0
LINE
  8
CSLAYER1
  6
CONTINUOUS
 62
     7
 10
415.841268
 20
1893.413694
 11
415.709640
 21
1892.796788
  0
LINE
  8
CSLAYER1
  6
CONTINUOUS
 62
     7
 10
415.709640
 20
1892.796788
 11
415.536002
 21
1892.220877
  0
LINE
  8
CSLAYER1
  6
CONTINUOUS
 62
     7
 10
415.536002
 20
1892.220877
 11
415.321676
 21
1891.690343
  0
LINE
  8
CSLAYER1
  6
CONTINUOUS
 62
     7
 10
415.321676
 20
1891.690343
 11
415.068293
 21
1891.209224
  0
LINE
  8
CSLAYER1
  6
CONTINUOUS
 62
     7
 10
415.068293
 20
1891.209224
 11
414.777781
 21
1890.781182
  0
LINE
  8
CSLAYER1
  6
CONTINUOUS
 62
     7
 10
414.777781
 20
1890.781182
 11
414.452351
 21
1890.409474
  0
LINE
  8
CSLAYER1
  6
CONTINUOUS
 62
     7
 10
414.452351
 20
1890.409474
 11
414.094480
 21
1890.096929
  0
LINE
  8
CSLAYER1
  6
CONTINUOUS
 62
     7
 10
414.094480
 20
1890.096929
 11
413.706891
 21
1889.845926
  0
LINE
  8
CSLAYER1
  6
CONTINUOUS
 62
     7
 10
413.706891
 20
1889.845926
 11
413.292535
 21
1889.658375
  0
LINE
  8
CSLAYER1
  6
CONTINUOUS
 62
     7
 10
413.292535
 20
1889.658375
 11
412.854564
 21
1889.535704
  0
LINE
  8
CSLAYER1
  6
CONTINUOUS
 62
     7
 10
412.854564
 20
1889.535704
 11
412.396313
 21
1889.478847
  0
LINE
  8
CSLAYER1
  6
CONTINUOUS
 62
     7
 10
412.396313
 20
1889.478847
 11
411.921268
 21
1889.488235
  0
LINE
  8
CSLAYER1
  6
CONTINUOUS
 62
     7
 10
411.921268
 20
1889.488235
 11
411.433045
 21
1889.563797
  0
LINE
  8
CSLAYER1
  6
CONTINUOUS
 62
     7
 10
411.433045
 20
1889.563797
 11
410.935359
 21
1889.704959
  0
LINE
  8
CSLAYER1
  6
CONTINUOUS
 62
     7
 10
410.935359
 20
1889.704959
 11
410.431999
 21
1889.910646
  0
LINE
  8
CSLAYER1
  6
CONTINUOUS
 62
     7
 10
410.431999
 20
1889.910646
 11
409.926795
 21
1890.179292
  0
LINE
  8
CSLAYER1
  6
CONTINUOUS
 62
     7
 10
409.926795
 20
1890.179292
 11
409.423592
 21
1890.508854
  0
LINE
  8
CSLAYER1
  6
CONTINUOUS
 62
     7
 10
409.423592
 20
1890.508854
 11
408.926220
 21
1890.896823
  0
LINE
  8
CSLAYER1
  6
CONTINUOUS
 62
     7
 10
408.926220
 20
1890.896823
 11
408.438464
 21
1891.340245
  0
LINE
  8
CSLAYER1
  6
CONTINUOUS
 62
     7
 10
408.438464
 20
1891.340245
 11
407.964036
 21
1891.835748
  0
LINE
  8
CSLAYER1
  6
CONTINUOUS
 62
     7
 10
407.964036
 20
1891.835748
 11
407.506547
 21
1892.379559
  0
LINE
  8
CSLAYER1
  6
CONTINUOUS
 62
     7
 10
407.506547
 20
1892.379559
 11
407.069479
 21
1892.967539
  0
LINE
  8
CSLAYER1
  6
CONTINUOUS
 62
     7
 10
407.069479
 20
1892.967539
 11
406.656157
 21
1893.595214
  0
LINE
  8
CSLAYER1
  6
CONTINUOUS
 62
     7
 10
406.656157
 20
1893.595214
 11
406.269728
 21
1894.257808
  0
LINE
  8
CSLAYER1
  6
CONTINUOUS
 62
     7
 10
406.269728
 20
1894.257808
 11
405.913133
 21
1894.950276
  0
LINE
  8
CSLAYER1
  6
CONTINUOUS
 62
     7
 10
405.913133
 20
1894.950276
 11
405.589085
 21
1895.667349
  0
LINE
  8
CSLAYER1
  6
CONTINUOUS
 62
     7
 10
405.589085
 20
1895.667349
 11
405.300051
 21
1896.403570
  0
LINE
  8
CSLAYER1
  6
CONTINUOUS
 62
     7
 10
405.300051
 20
1896.403570
 11
405.048231
 21
1897.153336
  0
LINE
  8
CSLAYER1
  6
CONTINUOUS
 62
     7
 10
405.048231
 20
1897.153336
 11
404.835540
 21
1897.910940
  0
LINE
  8
CSLAYER1
  6
CONTINUOUS
 62
     7
 10
404.835540
 20
1897.910940
 11
404.663598
 21
1898.670616
  0
LINE
  8
CSLAYER1
  6
CONTINUOUS
 62
     7
 10
404.663598
 20
1898.670616
 11
404.533712
 21
1899.426584
  0
LINE
  8
CSLAYER1
  6
CONTINUOUS
 62
     7
 10
404.533712
 20
1899.426584
 11
404.446873
 21
1900.173089
  0
LINE
  8
CSLAYER1
  6
CONTINUOUS
 62
     7
 10
404.446873
 20
1900.173089
 11
404.403740
 21
1900.904450
  0
LINE
  8
CSLAYER1
  6
CONTINUOUS
 62
     7
 10
404.403740
 20
1900.904450
 11
404.404643
 21
1901.615101
  0
LINE
  8
CSLAYER1
  6
CONTINUOUS
 62
     7
 10
404.404643
 20
1901.615101
 11
404.449573
 21
1902.299635
  0
LINE
  8
CSLAYER1
  6
CONTINUOUS
 62
     7
 10
404.449573
 20
1902.299635
 11
404.538189
 21
1902.952840
  0
LINE
  8
CSLAYER1
  6
CONTINUOUS
 62
     7
 10
404.538189
 20
1902.952840
 11
404.669817
 21
1903.569746
  0
LINE
  8
CSLAYER1
  6
CONTINUOUS
 62
     7
 10
404.669817
 20
1903.569746
 11
404.843454
 21
1904.145657
  0
LINE
  8
CSLAYER1
  6
CONTINUOUS
 62
     7
 10
404.843454
 20
1904.145657
 11
405.057780
 21
1904.676191
  0
LINE
  8
CSLAYER1
  6
CONTINUOUS
 62
     7
 10
405.057780
 20
1904.676191
 11
405.311164
 21
1905.157310
  0
LINE
  8
CSLAYER1
  6
CONTINUOUS
 62
     7
 10
405.311164
 20
1905.157310
 11
405.601676
 21
1905.585352
  0
LINE
  8
CSLAYER1
  6
CONTINUOUS
 62
     7
 10
405.601676
 20
1905.585352
 11
405.927105
 21
1905.957060
  0
LINE
  8
CSLAYER1
  6
CONTINUOUS
 62
     7
 10
405.927105
 20
1905.957060
 11
406.284977
 21
1906.269605
  0
LINE
  8
CSLAYER1
  6
CONTINUOUS
 62
     7
 10
406.284977
 20
1906.269605
 11
406.672565
 21
1906.520608
  0
LINE
  8
CSLAYER1
  6
CONTINUOUS
 62
     7
 10
406.672565
 20
1906.520608
 11
407.086921
 21
1906.708158
  0
LINE
  8
CSLAYER1
  6
CONTINUOUS
 62
     7
 10
407.086921
 20
1906.708158
 11
462.602579
 21
1927.384145
  0
LINE
  8
CSLAYER1
  6
CONTINUOUS
 62
     7
 10
413.292535
 20
1889.658375
 11
468.808192
 21
1910.334362
  0
LINE
  8
CSLAYER1
  6
CONTINUOUS
 62
     7
 10
462.602579
 20
1927.384145
 11
463.040549
 21
1927.506816
  0
LINE
  8
CSLAYER1
  6
CONTINUOUS
 62
     7
 10
463.040549
 20
1927.506816
 11
463.498801
 21
1927.563674
  0
LINE
  8
CSLAYER1
  6
CONTINUOUS
 62
     7
 10
463.498801
 20
1927.563674
 11
463.973846
 21
1927.554286
  0
LINE
  8
CSLAYER1
  6
CONTINUOUS
 62
     7
 10
463.973846
 20
1927.554286
 11
464.462069
 21
1927.478723
  0
LINE
  8
CSLAYER1
  6
CONTINUOUS
 62
     7
 10
464.462069
 20
1927.478723
 11
464.959754
 21
1927.337561
  0
LINE
  8
CSLAYER1
  6
CONTINUOUS
 62
     7
 10
464.959754
 20
1927.337561
 11
465.463114
 21
1927.131875
  0
LINE
  8
CSLAYER1
  6
CONTINUOUS
 62
     7
 10
465.463114
 20
1927.131875
 11
465.968318
 21
1926.863228
  0
LINE
  8
CSLAYER1
  6
CONTINUOUS
 62
     7
 10
465.968318
 20
1926.863228
 11
466.471521
 21
1926.533666
  0
LINE
  8
CSLAYER1
  6
CONTINUOUS
 62
     7
 10
466.471521
 20
1926.533666
 11
466.968893
 21
1926.145698
  0
LINE
  8
CSLAYER1
  6
CONTINUOUS
 62
     7
 10
466.968893
 20
1926.145698
 11
467.456649
 21
1925.702275
  0
LINE
  8
CSLAYER1
  6
CONTINUOUS
 62
     7
 10
467.456649
 20
1925.702275
 11
467.931077
 21
1925.206773
  0
LINE
  8
CSLAYER1
  6
CONTINUOUS
 62
     7
 10
467.931077
 20
1925.206773
 11
468.388566
 21
1924.662962
  0
LINE
  8
CSLAYER1
  6
CONTINUOUS
 62
     7
 10
468.388566
 20
1924.662962
 11
468.825635
 21
1924.074982
  0
LINE
  8
CSLAYER1
  6
CONTINUOUS
 62
     7
 10
468.825635
 20
1924.074982
 11
469.238956
 21
1923.447306
  0
LINE
  8
CSLAYER1
  6
CONTINUOUS
 62
     7
 10
469.238956
 20
1923.447306
 11
469.625385
 21
1922.784713
  0
LINE
  8
CSLAYER1
  6
CONTINUOUS
 62
     7
 10
469.625385
 20
1922.784713
 11
469.981980
 21
1922.092245
  0
LINE
  8
CSLAYER1
  6
CONTINUOUS
 62
     7
 10
469.981980
 20
1922.092245
 11
470.306028
 21
1921.375171
  0
LINE
  8
CSLAYER1
  6
CONTINUOUS
 62
     7
 10
470.306028
 20
1921.375171
 11
470.595062
 21
1920.638950
  0
LINE
  8
CSLAYER1
  6
CONTINUOUS
 62
     7
 10
470.595062
 20
1920.638950
 11
470.846883
 21
1919.889185
  0
LINE
  8
CSLAYER1
  6
CONTINUOUS
 62
     7
 10
470.846883
 20
1919.889185
 11
471.059574
 21
1919.131581
  0
LINE
  8
CSLAYER1
  6
CONTINUOUS
 62
     7
 10
471.059574
 20
1919.131581
 11
471.231516
 21
1918.371904
  0
LINE
  8
CSLAYER1
  6
CONTINUOUS
 62
     7
 10
471.231516
 20
1918.371904
 11
471.361401
 21
1917.615937
  0
LINE
  8
CSLAYER1
  6
CONTINUOUS
 62
     7
 10
471.361401
 20
1917.615937
 11
471.448240
 21
1916.869432
  0
LINE
  8
CSLAYER1
  6
CONTINUOUS
 62
     7
 10
471.448240
 20
1916.869432
 11
471.491373
 21
1916.138071
  0
LINE
  8
CSLAYER1
  6
CONTINUOUS
 62
     7
 10
471.491373
 20
1916.138071
 11
471.490471
 21
1915.427419
  0
LINE
  8
CSLAYER1
  6
CONTINUOUS
 62
     7
 10
471.490471
 20
1915.427419
 11
471.445541
 21
1914.742886
  0
LINE
  8
CSLAYER1
  6
CONTINUOUS
 62
     7
 10
471.445541
 20
1914.742886
 11
471.356925
 21
1914.089681
  0
LINE
  8
CSLAYER1
  6
CONTINUOUS
 62
     7
 10
471.356925
 20
1914.089681
 11
471.225297
 21
1913.472775
  0
LINE
  8
CSLAYER1
  6
CONTINUOUS
 62
     7
 10
471.225297
 20
1913.472775
 11
471.051659
 21
1912.896864
  0
LINE
  8
CSLAYER1
  6
CONTINUOUS
 62
     7
 10
471.051659
 20
1912.896864
 11
470.837333
 21
1912.366329
  0
LINE
  8
CSLAYER1
  6
CONTINUOUS
 62
     7
 10
470.837333
 20
1912.366329
 11
470.583950
 21
1911.885210
  0
LINE
  8
CSLAYER1
  6
CONTINUOUS
 62
     7
 10
470.583950
 20
1911.885210
 11
470.293438
 21
1911.457168
  0
LINE
  8
CSLAYER1
  6
CONTINUOUS
 62
     7
 10
470.293438
 20
1911.457168
 11
469.968008
 21
1911.085460
  0
LINE
  8
CSLAYER1
  6
CONTINUOUS
 62
     7
 10
469.968008
 20
1911.085460
 11
469.610137
 21
1910.772916
  0
LINE
  8
CSLAYER1
  6
CONTINUOUS
 62
     7
 10
469.610137
 20
1910.772916
 11
469.222548
 21
1910.521913
  0
LINE
  8
CSLAYER1
  6
CONTINUOUS
 62
     7
 10
469.222548
 20
1910.521913
 11
468.808192
 21
1910.334362
  0
LINE
  8
CSLAYER1
  6
CONTINUOUS
 62
     7
 10
644.923997
 20
1814.409909
 11
645.253111
 21
1814.723835
  0
LINE
  8
CSLAYER1
  6
CONTINUOUS
 62
     7
 10
645.253111
 20
1814.723835
 11
645.631030
 21
1814.989174
  0
LINE
  8
CSLAYER1
  6
CONTINUOUS
 62
     7
 10
645.631030
 20
1814.989174
 11
646.054878
 21
1815.203905
  0
LINE
  8
CSLAYER1
  6
CONTINUOUS
 62
     7
 10
646.054878
 20
1815.203905
 11
646.521427
 21
1815.366394
  0
LINE
  8
CSLAYER1
  6
CONTINUOUS
 62
     7
 10
646.521427
 20
1815.366394
 11
647.027129
 21
1815.475405
  0
LINE
  8
CSLAYER1
  6
CONTINUOUS
 62
     7
 10
647.027129
 20
1815.475405
 11
647.568134
 21
1815.530107
  0
LINE
  8
CSLAYER1
  6
CONTINUOUS
 62
     7
 10
647.568134
 20
1815.530107
 11
648.140324
 21
1815.530085
  0
LINE
  8
CSLAYER1
  6
CONTINUOUS
 62
     7
 10
648.140324
 20
1815.530085
 11
648.739346
 21
1815.475339
  0
LINE
  8
CSLAYER1
  6
CONTINUOUS
 62
     7
 10
648.739346
 20
1815.475339
 11
649.360640
 21
1815.366285
  0
LINE
  8
CSLAYER1
  6
CONTINUOUS
 62
     7
 10
649.360640
 20
1815.366285
 11
649.999477
 21
1815.203754
  0
LINE
  8
CSLAYER1
  6
CONTINUOUS
 62
     7
 10
649.999477
 20
1815.203754
 11
650.650996
 21
1814.988982
  0
LINE
  8
CSLAYER1
  6
CONTINUOUS
 62
     7
 10
650.650996
 20
1814.988982
 11
651.310239
 21
1814.723603
  0
LINE
  8
CSLAYER1
  6
CONTINUOUS
 62
     7
 10
651.310239
 20
1814.723603
 11
651.972188
 21
1814.409639
  0
LINE
  8
CSLAYER1
  6
CONTINUOUS
 62
     7
 10
651.972188
 20
1814.409639
 11
652.631804
 21
1814.049477
  0
LINE
  8
CSLAYER1
  6
CONTINUOUS
 62
     7
 10
652.631804
 20
1814.049477
 11
653.284070
 21
1813.645859
  0
LINE
  8
CSLAYER1
  6
CONTINUOUS
 62
     7
 10
653.284070
 20
1813.645859
 11
653.924019
 21
1813.201857
  0
LINE
  8
CSLAYER1
  6
CONTINUOUS
 62
     7
 10
653.924019
 20
1813.201857
 11
654.546781
 21
1812.720850
  0
LINE
  8
CSLAYER1
  6
CONTINUOUS
 62
     7
 10
654.546781
 20
1812.720850
 11
655.147618
 21
1812.206499
  0
LINE
  8
CSLAYER1
  6
CONTINUOUS
 62
     7
 10
655.147618
 20
1812.206499
 11
655.721956
 21
1811.662718
  0
LINE
  8
CSLAYER1
  6
CONTINUOUS
 62
     7
 10
655.721956
 20
1811.662718
 11
656.265425
 21
1811.093646
  0
LINE
  8
CSLAYER1
  6
CONTINUOUS
 62
     7
 10
656.265425
 20
1811.093646
 11
656.773887
 21
1810.503613
  0
LINE
  8
CSLAYER1
  6
CONTINUOUS
 62
     7
 10
656.773887
 20
1810.503613
 11
657.243474
 21
1809.897111
  0
LINE
  8
CSLAYER1
  6
CONTINUOUS
 62
     7
 10
657.243474
 20
1809.897111
 11
657.670612
 21
1809.278755
  0
LINE
  8
CSLAYER1
  6
CONTINUOUS
 62
     7
 10
657.670612
 20
1809.278755
 11
658.052049
 21
1808.653250
  0
LINE
  8
CSLAYER1
  6
CONTINUOUS
 62
     7
 10
658.052049
 20
1808.653250
 11
658.384883
 21
1808.025359
  0
LINE
  8
CSLAYER1
  6
CONTINUOUS
 62
     7
 10
658.384883
 20
1808.025359
 11
658.666581
 21
1807.399859
  0
LINE
  8
CSLAYER1
  6
CONTINUOUS
 62
     7
 10
658.666581
 20
1807.399859
 11
658.894999
 21
1806.781510
  0
LINE
  8
CSLAYER1
  6
CONTINUOUS
 62
     7
 10
658.894999
 20
1806.781510
 11
659.068398
 21
1806.175019
  0
LINE
  8
CSLAYER1
  6
CONTINUOUS
 62
     7
 10
659.068398
 20
1806.175019
 11
659.185459
 21
1805.585001
  0
LINE
  8
CSLAYER1
  6
CONTINUOUS
 62
     7
 10
659.185459
 20
1805.585001
 11
659.245291
 21
1805.015948
  0
LINE
  8
CSLAYER1
  6
CONTINUOUS
 62
     7
 10
659.245291
 20
1805.015948
 11
659.247439
 21
1804.472189
  0
LINE
  8
CSLAYER1
  6
CONTINUOUS
 62
     7
 10
659.247439
 20
1804.472189
 11
659.191885
 21
1803.957862
  0
LINE
  8
CSLAYER1
  6
CONTINUOUS
 62
     7
 10
659.191885
 20
1803.957862
 11
659.079054
 21
1803.476884
  0
LINE
  8
CSLAYER1
  6
CONTINUOUS
 62
     7
 10
659.079054
 20
1803.476884
 11
658.909804
 21
1803.032913
  0
LINE
  8
CSLAYER1
  6
CONTINUOUS
 62
     7
 10
658.909804
 20
1803.032913
 11
658.685422
 21
1802.629329
  0
LINE
  8
CSLAYER1
  6
CONTINUOUS
 62
     7
 10
658.685422
 20
1802.629329
 11
658.407617
 21
1802.269203
  0
LINE
  8
CSLAYER1
  6
CONTINUOUS
 62
     7
 10
658.407617
 20
1802.269203
 11
658.078502
 21
1801.955276
  0
LINE
  8
CSLAYER1
  6
CONTINUOUS
 62
     7
 10
658.078502
 20
1801.955276
 11
657.700583
 21
1801.689938
  0
LINE
  8
CSLAYER1
  6
CONTINUOUS
 62
     7
 10
657.700583
 20
1801.689938
 11
657.276736
 21
1801.475207
  0
LINE
  8
CSLAYER1
  6
CONTINUOUS
 62
     7
 10
657.276736
 20
1801.475207
 11
656.810186
 21
1801.312717
  0
LINE
  8
CSLAYER1
  6
CONTINUOUS
 62
     7
 10
656.810186
 20
1801.312717
 11
656.304485
 21
1801.203707
  0
LINE
  8
CSLAYER1
  6
CONTINUOUS
 62
     7
 10
656.304485
 20
1801.203707
 11
655.763480
 21
1801.149004
  0
LINE
  8
CSLAYER1
  6
CONTINUOUS
 62
     7
 10
655.763480
 20
1801.149004
 11
655.191289
 21
1801.149026
  0
LINE
  8
CSLAYER1
  6
CONTINUOUS
 62
     7
 10
655.191289
 20
1801.149026
 11
654.592268
 21
1801.203772
  0
LINE
  8
CSLAYER1
  6
CONTINUOUS
 62
     7
 10
654.592268
 20
1801.203772
 11
653.970974
 21
1801.312826
  0
LINE
  8
CSLAYER1
  6
CONTINUOUS
 62
     7
 10
653.970974
 20
1801.312826
 11
653.332136
 21
1801.475358
  0
LINE
  8
CSLAYER1
  6
CONTINUOUS
 62
     7
 10
653.332136
 20
1801.475358
 11
652.680617
 21
1801.690130
  0
LINE
  8
CSLAYER1
  6
CONTINUOUS
 62
     7
 10
652.680617
 20
1801.690130
 11
652.021375
 21
1801.955508
  0
LINE
  8
CSLAYER1
  6
CONTINUOUS
 62
     7
 10
652.021375
 20
1801.955508
 11
651.359426
 21
1802.269473
  0
LINE
  8
CSLAYER1
  6
CONTINUOUS
 62
     7
 10
651.359426
 20
1802.269473
 11
650.699809
 21
1802.629635
  0
LINE
  8
CSLAYER1
  6
CONTINUOUS
 62
     7
 10
650.699809
 20
1802.629635
 11
650.047544
 21
1803.033252
  0
LINE
  8
CSLAYER1
  6
CONTINUOUS
 62
     7
 10
650.047544
 20
1803.033252
 11
649.407595
 21
1803.477254
  0
LINE
  8
CSLAYER1
  6
CONTINUOUS
 62
     7
 10
649.407595
 20
1803.477254
 11
648.784832
 21
1803.958261
  0
LINE
  8
CSLAYER1
  6
CONTINUOUS
 62
     7
 10
648.784832
 20
1803.958261
 11
648.183995
 21
1804.472612
  0
LINE
  8
CSLAYER1
  6
CONTINUOUS
 62
     7
 10
648.183995
 20
1804.472612
 11
647.609657
 21
1805.016393
  0
LINE
  8
CSLAYER1
  6
CONTINUOUS
 62
     7
 10
647.609657
 20
1805.016393
 11
647.066189
 21
1805.585466
  0
LINE
  8
CSLAYER1
  6
CONTINUOUS
 62
     7
 10
647.066189
 20
1805.585466
 11
646.557727
 21
1806.175498
  0
LINE
  8
CSLAYER1
  6
CONTINUOUS
 62
     7
 10
646.557727
 20
1806.175498
 11
646.088140
 21
1806.782001
  0
LINE
  8
CSLAYER1
  6
CONTINUOUS
 62
     7
 10
646.088140
 20
1806.782001
 11
645.661002
 21
1807.400357
  0
LINE
  8
CSLAYER1
  6
CONTINUOUS
 62
     7
 10
645.661002
 20
1807.400357
 11
645.279565
 21
1808.025861
  0
LINE
  8
CSLAYER1
  6
CONTINUOUS
 62
     7
 10
645.279565
 20
1808.025861
 11
644.946731
 21
1808.653753
  0
LINE
  8
CSLAYER1
  6
CONTINUOUS
 62
     7
 10
644.946731
 20
1808.653753
 11
644.665033
 21
1809.279253
  0
LINE
  8
CSLAYER1
  6
CONTINUOUS
 62
     7
 10
644.665033
 20
1809.279253
 11
644.436615
 21
1809.897602
  0
LINE
  8
CSLAYER1
  6
CONTINUOUS
 62
     7
 10
644.436615
 20
1809.897602
 11
644.263216
 21
1810.504093
  0
LINE
  8
CSLAYER1
  6
CONTINUOUS
 62
     7
 10
644.263216
 20
1810.504093
 11
644.146155
 21
1811.094110
  0
LINE
  8
CSLAYER1
  6
CONTINUOUS
 62
     7
 10
644.146155
 20
1811.094110
 11
644.086323
 21
1811.663164
  0
LINE
  8
CSLAYER1
  6
CONTINUOUS
 62
     7
 10
644.086323
 20
1811.663164
 11
644.084175
 21
1812.206923
  0
LINE
  8
CSLAYER1
  6
CONTINUOUS
 62
     7
 10
644.084175
 20
1812.206923
 11
644.139728
 21
1812.721249
  0
LINE
  8
CSLAYER1
  6
CONTINUOUS
 62
     7
 10
644.139728
 20
1812.721249
 11
644.252559
 21
1813.202228
  0
LINE
  8
CSLAYER1
  6
CONTINUOUS
 62
     7
 10
644.252559
 20
1813.202228
 11
644.421810
 21
1813.646199
  0
LINE
  8
CSLAYER1
  6
CONTINUOUS
 62
     7
 10
644.421810
 20
1813.646199
 11
644.646192
 21
1814.049783
  0
LINE
  8
CSLAYER1
  6
CONTINUOUS
 62
     7
 10
644.646192
 20
1814.049783
 11
644.923997
 21
1814.409909
  0
LINE
  8
CSLAYER1
  6
CONTINUOUS
 62
     7
 10
658.407617
 20
1802.269203
 11
688.394686
 21
1835.664561
  0
LINE
  8
CSLAYER1
  6
CONTINUOUS
 62
     7
 10
644.923997
 20
1814.409909
 11
674.911066
 21
1847.805267
  0
LINE
  8
CSLAYER1
  6
CONTINUOUS
 62
     7
 10
674.911066
 20
1847.805267
 11
675.240181
 21
1848.119194
  0
LINE
  8
CSLAYER1
  6
CONTINUOUS
 62
     7
 10
675.240181
 20
1848.119194
 11
675.618100
 21
1848.384532
  0
LINE
  8
CSLAYER1
  6
CONTINUOUS
 62
     7
 10
675.618100
 20
1848.384532
 11
676.041947
 21
1848.599263
  0
LINE
  8
CSLAYER1
  6
CONTINUOUS
 62
     7
 10
676.041947
 20
1848.599263
 11
676.508497
 21
1848.761752
  0
LINE
  8
CSLAYER1
  6
CONTINUOUS
 62
     7
 10
676.508497
 20
1848.761752
 11
677.014198
 21
1848.870763
  0
LINE
  8
CSLAYER1
  6
CONTINUOUS
 62
     7
 10
677.014198
 20
1848.870763
 11
677.555203
 21
1848.925466
  0
LINE
  8
CSLAYER1
  6
CONTINUOUS
 62
     7
 10
677.555203
 20
1848.925466
 11
678.127394
 21
1848.925444
  0
LINE
  8
CSLAYER1
  6
CONTINUOUS
 62
     7
 10
678.127394
 20
1848.925444
 11
678.726415
 21
1848.870697
  0
LINE
  8
CSLAYER1
  6
CONTINUOUS
 62
     7
 10
678.726415
 20
1848.870697
 11
679.347709
 21
1848.761644
  0
LINE
  8
CSLAYER1
  6
CONTINUOUS
 62
     7
 10
679.347709
 20
1848.761644
 11
679.986546
 21
1848.599112
  0
LINE
  8
CSLAYER1
  6
CONTINUOUS
 62
     7
 10
679.986546
 20
1848.599112
 11
680.638066
 21
1848.384340
  0
LINE
  8
CSLAYER1
  6
CONTINUOUS
 62
     7
 10
680.638066
 20
1848.384340
 11
681.297308
 21
1848.118962
  0
LINE
  8
CSLAYER1
  6
CONTINUOUS
 62
     7
 10
681.297308
 20
1848.118962
 11
681.959257
 21
1847.804997
  0
LINE
  8
CSLAYER1
  6
CONTINUOUS
 62
     7
 10
681.959257
 20
1847.804997
 11
682.618874
 21
1847.444835
  0
LINE
  8
CSLAYER1
  6
CONTINUOUS
 62
     7
 10
682.618874
 20
1847.444835
 11
683.271139
 21
1847.041217
  0
LINE
  8
CSLAYER1
  6
CONTINUOUS
 62
     7
 10
683.271139
 20
1847.041217
 11
683.911088
 21
1846.597216
  0
LINE
  8
CSLAYER1
  6
CONTINUOUS
 62
     7
 10
683.911088
 20
1846.597216
 11
684.533851
 21
1846.116209
  0
LINE
  8
CSLAYER1
  6
CONTINUOUS
 62
     7
 10
684.533851
 20
1846.116209
 11
685.134687
 21
1845.601857
  0
LINE
  8
CSLAYER1
  6
CONTINUOUS
 62
     7
 10
685.134687
 20
1845.601857
 11
685.709026
 21
1845.058076
  0
LINE
  8
CSLAYER1
  6
CONTINUOUS
 62
     7
 10
685.709026
 20
1845.058076
 11
686.252494
 21
1844.489004
  0
LINE
  8
CSLAYER1
  6
CONTINUOUS
 62
     7
 10
686.252494
 20
1844.489004
 11
686.760956
 21
1843.898972
  0
LINE
  8
CSLAYER1
  6
CONTINUOUS
 62
     7
 10
686.760956
 20
1843.898972
 11
687.230543
 21
1843.292469
  0
LINE
  8
CSLAYER1
  6
CONTINUOUS
 62
     7
 10
687.230543
 20
1843.292469
 11
687.657681
 21
1842.674113
  0
LINE
  8
CSLAYER1
  6
CONTINUOUS
 62
     7
 10
687.657681
 20
1842.674113
 11
688.039118
 21
1842.048609
  0
LINE
  8
CSLAYER1
  6
CONTINUOUS
 62
     7
 10
688.039118
 20
1842.048609
 11
688.371952
 21
1841.420717
  0
LINE
  8
CSLAYER1
  6
CONTINUOUS
 62
     7
 10
688.371952
 20
1841.420717
 11
688.653650
 21
1840.795217
  0
LINE
  8
CSLAYER1
  6
CONTINUOUS
 62
     7
 10
688.653650
 20
1840.795217
 11
688.882068
 21
1840.176868
  0
LINE
  8
CSLAYER1
  6
CONTINUOUS
 62
     7
 10
688.882068
 20
1840.176868
 11
689.055467
 21
1839.570377
  0
LINE
  8
CSLAYER1
  6
CONTINUOUS
 62
     7
 10
689.055467
 20
1839.570377
 11
689.172528
 21
1838.980360
  0
LINE
  8
CSLAYER1
  6
CONTINUOUS
 62
     7
 10
689.172528
 20
1838.980360
 11
689.232360
 21
1838.411306
  0
LINE
  8
CSLAYER1
  6
CONTINUOUS
 62
     7
 10
689.232360
 20
1838.411306
 11
689.234508
 21
1837.867547
  0
LINE
  8
CSLAYER1
  6
CONTINUOUS
 62
     7
 10
689.234508
 20
1837.867547
 11
689.178955
 21
1837.353221
  0
LINE
  8
CSLAYER1
  6
CONTINUOUS
 62
     7
 10
689.178955
 20
1837.353221
 11
689.066123
 21
1836.872242
  0
LINE
  8
CSLAYER1
  6
CONTINUOUS
 62
     7
 10
689.066123
 20
1836.872242
 11
688.896873
 21
1836.428271
  0
LINE
  8
CSLAYER1
  6
CONTINUOUS
 62
     7
 10
688.896873
 20
1836.428271
 11
688.672491
 21
1836.024687
  0
LINE
  8
CSLAYER1
  6
CONTINUOUS
 62
     7
 10
688.672491
 20
1836.024687
 11
688.394686
 21
1835.664561
  0
LINE
  8
CSLAYER1
  6
CONTINUOUS
 62
     7
 10
769.317088
 20
1969.416215
 11
769.317088
 21
1951.116880
  0
LINE
  8
CSLAYER1
  6
CONTINUOUS
 62
     7
 10
769.317088
 20
1951.116880
 11
769.317088
 21
1945.212648
  0
LINE
  8
CSLAYER1
  6
CONTINUOUS
 62
     7
 10
799.832219
 20
2022.771602
 11
799.832219
 21
2002.420400
  0
LINE
  8
CSLAYER1
  6
CONTINUOUS
 62
     7
 10
799.832219
 20
1984.884211
 11
799.832219
 21
1962.282455
  0
LINE
  8
CSLAYER1
  6
CONTINUOUS
 62
     7
 10
811.417087
 20
2015.612235
 11
814.251988
 21
2013.059876
  0
LINE
  8
CSLAYER1
  6
CONTINUOUS
 62
     7
 10
814.251988
 20
2013.059876
 11
816.688267
 21
2010.375511
  0
LINE
  8
CSLAYER1
  6
CONTINUOUS
 62
     7
 10
816.688267
 20
2010.375511
 11
818.707381
 21
2007.579570
  0
LINE
  8
CSLAYER1
  6
CONTINUOUS
 62
     7
 10
818.707381
 20
2007.579570
 11
820.293966
 21
2004.693332
  0
LINE
  8
CSLAYER1
  6
CONTINUOUS
 62
     7
 10
820.293966
 20
2004.693332
 11
821.435945
 21
2001.738763
  0
LINE
  8
CSLAYER1
  6
CONTINUOUS
 62
     7
 10
821.435945
 20
2001.738763
 11
822.124627
 21
1998.738349
  0
LINE
  8
CSLAYER1
  6
CONTINUOUS
 62
     7
 10
822.124627
 20
1998.738349
 11
822.354772
 21
1995.714924
  0
LINE
  8
CSLAYER1
  6
CONTINUOUS
 62
     7
 10
822.354772
 20
1995.714924
 11
822.124627
 21
1992.691500
  0
LINE
  8
CSLAYER1
  6
CONTINUOUS
 62
     7
 10
822.124627
 20
1992.691500
 11
821.435945
 21
1989.691086
  0
LINE
  8
CSLAYER1
  6
CONTINUOUS
 62
     7
 10
821.435945
 20
1989.691086
 11
820.293966
 21
1986.736517
  0
LINE
  8
CSLAYER1
  6
CONTINUOUS
 62
     7
 10
820.293966
 20
1986.736517
 11
818.707381
 21
1983.850279
  0
LINE
  8
CSLAYER1
  6
CONTINUOUS
 62
     7
 10
818.707381
 20
1983.850279
 11
816.688267
 21
1981.054338
  0
LINE
  8
CSLAYER1
  6
CONTINUOUS
 62
     7
 10
816.688267
 20
1981.054338
 11
814.251988
 21
1978.369973
  0
LINE
  8
CSLAYER1
  6
CONTINUOUS
 62
     7
 10
799.832219
 20
2022.771602
 11
804.640590
 21
2020.244390
  0
LINE
  8
CSLAYER1
  6
CONTINUOUS
 62
     7
 10
804.640590
 20
2020.244390
 11
808.205140
 21
2018.013164
  0
LINE
  8
CSLAYER1
  6
CONTINUOUS
 62
     7
 10
808.205140
 20
2018.013164
 11
811.417087
 21
2015.612235
  0
LINE
  8
CSLAYER1
  6
CONTINUOUS
 62
     7
 10
803.051180
 20
1998.471707
 11
803.304877
 21
1997.366413
  0
LINE
  8
CSLAYER1
  6
CONTINUOUS
 62
     7
 10
803.304877
 20
1997.366413
 11
803.478764
 21
1995.082048
  0
LINE
  8
CSLAYER1
  6
CONTINUOUS
 62
     7
 10
803.478764
 20
1995.082048
 11
803.304877
 21
1992.797683
  0
LINE
  8
CSLAYER1
  6
CONTINUOUS
 62
     7
 10
803.304877
 20
1992.797683
 11
802.784539
 21
1990.530704
  0
LINE
  8
CSLAYER1
  6
CONTINUOUS
 62
     7
 10
802.784539
 20
1990.530704
 11
801.921710
 21
1988.298363
  0
LINE
  8
CSLAYER1
  6
CONTINUOUS
 62
     7
 10
801.921710
 20
1988.298363
 11
800.722958
 21
1986.117649
  0
LINE
  8
CSLAYER1
  6
CONTINUOUS
 62
     7
 10
800.722958
 20
1986.117649
 11
799.832219
 21
1984.884211
  0
LINE
  8
CSLAYER1
  6
CONTINUOUS
 62
     7
 10
799.832219
 20
2002.428975
 11
799.789663
 21
2002.467289
  0
LINE
  8
CSLAYER1
  6
CONTINUOUS
 62
     7
 10
799.789663
 20
2002.467289
 11
801.630407
 21
2000.439102
  0
LINE
  8
CSLAYER1
  6
CONTINUOUS
 62
     7
 10
801.630407
 20
2000.439102
 11
803.155960
 21
1998.326614
  0
LINE
  8
CSLAYER1
  6
CONTINUOUS
 62
     7
 10
799.832219
 20
2002.420400
 11
799.832219
 21
1984.884211
  0
LINE
  8
CSLAYER1
  6
CONTINUOUS
 62
     7
 10
618.200853
 20
2022.640495
 11
561.368243
 21
2043.325873
  0
LINE
  8
CSLAYER1
  6
CONTINUOUS
 62
     7
 10
627.079325
 20
2033.711545
 11
570.246715
 21
2054.396923
  0
LINE
  8
CSLAYER1
  6
CONTINUOUS
 62
     7
 10
624.023421
 20
2033.393548
 11
567.233416
 21
2054.063419
  0
LINE
  8
CSLAYER1
  6
CONTINUOUS
 62
     7
 10
622.687203
 20
2032.449636
 11
565.854594
 21
2053.135015
  0
LINE
  8
CSLAYER1
  6
CONTINUOUS
 62
     7
 10
621.638774
 20
2031.400978
 11
564.806165
 21
2052.086357
  0
LINE
  8
CSLAYER1
  6
CONTINUOUS
 62
     7
 10
620.778265
 20
2030.283923
 11
563.945655
 21
2050.969302
  0
LINE
  8
CSLAYER1
  6
CONTINUOUS
 62
     7
 10
620.058361
 20
2029.115692
 11
563.225953
 21
2049.800997
  0
LINE
  8
CSLAYER1
  6
CONTINUOUS
 62
     7
 10
619.465625
 20
2027.901175
 11
562.633015
 21
2048.586554
  0
LINE
  8
CSLAYER1
  6
CONTINUOUS
 62
     7
 10
618.979829
 20
2026.647736
 11
562.147220
 21
2047.333114
  0
LINE
  8
CSLAYER1
  6
CONTINUOUS
 62
     7
 10
618.593959
 20
2025.357926
 11
561.766429
 21
2046.041455
  0
LINE
  8
CSLAYER1
  6
CONTINUOUS
 62
     7
 10
564.041102
 20
2037.347140
 11
563.626745
 21
2037.534691
  0
LINE
  8
CSLAYER1
  6
CONTINUOUS
 62
     7
 10
563.626745
 20
2037.534691
 11
563.239157
 21
2037.785694
  0
LINE
  8
CSLAYER1
  6
CONTINUOUS
 62
     7
 10
563.239157
 20
2037.785694
 11
562.881286
 21
2038.098238
  0
LINE
  8
CSLAYER1
  6
CONTINUOUS
 62
     7
 10
562.881286
 20
2038.098238
 11
562.555856
 21
2038.469946
  0
LINE
  8
CSLAYER1
  6
CONTINUOUS
 62
     7
 10
562.555856
 20
2038.469946
 11
562.265344
 21
2038.897988
  0
LINE
  8
CSLAYER1
  6
CONTINUOUS
 62
     7
 10
562.265344
 20
2038.897988
 11
562.011960
 21
2039.379107
  0
LINE
  8
CSLAYER1
  6
CONTINUOUS
 62
     7
 10
562.011960
 20
2039.379107
 11
561.797634
 21
2039.909642
  0
LINE
  8
CSLAYER1
  6
CONTINUOUS
 62
     7
 10
561.797634
 20
2039.909642
 11
561.623997
 21
2040.485553
  0
LINE
  8
CSLAYER1
  6
CONTINUOUS
 62
     7
 10
561.623997
 20
2040.485553
 11
561.492369
 21
2041.102459
  0
LINE
  8
CSLAYER1
  6
CONTINUOUS
 62
     7
 10
561.492369
 20
2041.102459
 11
561.403753
 21
2041.755664
  0
LINE
  8
CSLAYER1
  6
CONTINUOUS
 62
     7
 10
561.403753
 20
2041.755664
 11
561.358823
 21
2042.440197
  0
LINE
  8
CSLAYER1
  6
CONTINUOUS
 62
     7
 10
561.358823
 20
2042.440197
 11
561.357921
 21
2043.150849
  0
LINE
  8
CSLAYER1
  6
CONTINUOUS
 62
     7
 10
561.357921
 20
2043.150849
 11
561.401053
 21
2043.882210
  0
LINE
  8
CSLAYER1
  6
CONTINUOUS
 62
     7
 10
561.401053
 20
2043.882210
 11
561.487893
 21
2044.628715
  0
LINE
  8
CSLAYER1
  6
CONTINUOUS
 62
     7
 10
561.487893
 20
2044.628715
 11
561.617778
 21
2045.384682
  0
LINE
  8
CSLAYER1
  6
CONTINUOUS
 62
     7
 10
561.617778
 20
2045.384682
 11
561.789720
 21
2046.144359
  0
LINE
  8
CSLAYER1
  6
CONTINUOUS
 62
     7
 10
561.789720
 20
2046.144359
 11
562.002411
 21
2046.901963
  0
LINE
  8
CSLAYER1
  6
CONTINUOUS
 62
     7
 10
562.002411
 20
2046.901963
 11
562.254231
 21
2047.651728
  0
LINE
  8
CSLAYER1
  6
CONTINUOUS
 62
     7
 10
562.254231
 20
2047.651728
 11
562.543266
 21
2048.387949
  0
LINE
  8
CSLAYER1
  6
CONTINUOUS
 62
     7
 10
562.543266
 20
2048.387949
 11
562.867313
 21
2049.105023
  0
LINE
  8
CSLAYER1
  6
CONTINUOUS
 62
     7
 10
562.867313
 20
2049.105023
 11
563.223909
 21
2049.797491
  0
LINE
  8
CSLAYER1
  6
CONTINUOUS
 62
     7
 10
563.223909
 20
2049.797491
 11
563.610337
 21
2050.460084
  0
LINE
  8
CSLAYER1
  6
CONTINUOUS
 62
     7
 10
563.610337
 20
2050.460084
 11
564.023659
 21
2051.087760
  0
LINE
  8
CSLAYER1
  6
CONTINUOUS
 62
     7
 10
564.023659
 20
2051.087760
 11
564.460727
 21
2051.675740
  0
LINE
  8
CSLAYER1
  6
CONTINUOUS
 62
     7
 10
564.460727
 20
2051.675740
 11
564.918216
 21
2052.219551
  0
LINE
  8
CSLAYER1
  6
CONTINUOUS
 62
     7
 10
564.918216
 20
2052.219551
 11
565.392644
 21
2052.715053
  0
LINE
  8
CSLAYER1
  6
CONTINUOUS
 62
     7
 10
565.392644
 20
2052.715053
 11
565.880400
 21
2053.158476
  0
LINE
  8
CSLAYER1
  6
CONTINUOUS
 62
     7
 10
565.880400
 20
2053.158476
 11
566.377772
 21
2053.546444
  0
LINE
  8
CSLAYER1
  6
CONTINUOUS
 62
     7
 10
566.377772
 20
2053.546444
 11
566.880975
 21
2053.876006
  0
LINE
  8
CSLAYER1
  6
CONTINUOUS
 62
     7
 10
566.880975
 20
2053.876006
 11
567.386179
 21
2054.144653
  0
LINE
  8
CSLAYER1
  6
CONTINUOUS
 62
     7
 10
567.386179
 20
2054.144653
 11
567.889539
 21
2054.350340
  0
LINE
  8
CSLAYER1
  6
CONTINUOUS
 62
     7
 10
567.889539
 20
2054.350340
 11
568.387225
 21
2054.491501
  0
LINE
  8
CSLAYER1
  6
CONTINUOUS
 62
     7
 10
568.387225
 20
2054.491501
 11
568.875448
 21
2054.567064
  0
LINE
  8
CSLAYER1
  6
CONTINUOUS
 62
     7
 10
568.875448
 20
2054.567064
 11
569.350493
 21
2054.576452
  0
LINE
  8
CSLAYER1
  6
CONTINUOUS
 62
     7
 10
569.350493
 20
2054.576452
 11
569.808745
 21
2054.519594
  0
LINE
  8
CSLAYER1
  6
CONTINUOUS
 62
     7
 10
569.808745
 20
2054.519594
 11
570.246715
 21
2054.396923
  0
LINE
  8
CSLAYER1
  6
CONTINUOUS
 62
     7
 10
618.334063
 20
2024.022265
 11
561.497252
 21
2044.709173
  0
LINE
  8
CSLAYER1
  6
CONTINUOUS
 62
     7
 10
618.227821
 20
2021.200425
 11
561.395211
 21
2041.885803
  0
LINE
  8
CSLAYER1
  6
CONTINUOUS
 62
     7
 10
618.482811
 20
2019.677361
 11
561.662359
 21
2040.358314
  0
LINE
  8
CSLAYER1
  6
CONTINUOUS
 62
     7
 10
619.221355
 20
2017.978298
 11
562.436059
 21
2038.646455
  0
LINE
  8
CSLAYER1
  6
CONTINUOUS
 62
     7
 10
620.873711
 20
2016.661762
 11
564.041102
 21
2037.347140
  0
LINE
  8
CSLAYER1
  6
CONTINUOUS
 62
     7
 10
694.611385
 20
1994.176769
 11
677.451093
 21
1996.085523
  0
LINE
  8
CSLAYER1
  6
CONTINUOUS
 62
     7
 10
627.079325
 20
2033.711545
 11
627.493681
 21
2033.523994
  0
LINE
  8
CSLAYER1
  6
CONTINUOUS
 62
     7
 10
627.493681
 20
2033.523994
 11
627.881270
 21
2033.272991
  0
LINE
  8
CSLAYER1
  6
CONTINUOUS
 62
     7
 10
627.881270
 20
2033.272991
 11
628.239141
 21
2032.960447
  0
LINE
  8
CSLAYER1
  6
CONTINUOUS
 62
     7
 10
628.239141
 20
2032.960447
 11
628.564571
 21
2032.588739
  0
LINE
  8
CSLAYER1
  6
CONTINUOUS
 62
     7
 10
628.564571
 20
2032.588739
 11
628.855083
 21
2032.160696
  0
LINE
  8
CSLAYER1
  6
CONTINUOUS
 62
     7
 10
628.855083
 20
2032.160696
 11
629.108466
 21
2031.679577
  0
LINE
  8
CSLAYER1
  6
CONTINUOUS
 62
     7
 10
629.108466
 20
2031.679577
 11
629.322792
 21
2031.149043
  0
LINE
  8
CSLAYER1
  6
CONTINUOUS
 62
     7
 10
629.322792
 20
2031.149043
 11
629.496430
 21
2030.573132
  0
LINE
  8
CSLAYER1
  6
CONTINUOUS
 62
     7
 10
629.496430
 20
2030.573132
 11
629.604598
 21
2030.066174
  0
LINE
  8
CSLAYER1
  6
CONTINUOUS
 62
     7
 10
624.504789
 20
2017.356456
 11
624.239451
 21
2017.182679
  0
LINE
  8
CSLAYER1
  6
CONTINUOUS
 62
     7
 10
624.239451
 20
2017.182679
 11
623.734247
 21
2016.914032
  0
LINE
  8
CSLAYER1
  6
CONTINUOUS
 62
     7
 10
623.734247
 20
2016.914032
 11
623.230887
 21
2016.708345
  0
LINE
  8
CSLAYER1
  6
CONTINUOUS
 62
     7
 10
623.230887
 20
2016.708345
 11
622.733201
 21
2016.567184
  0
LINE
  8
CSLAYER1
  6
CONTINUOUS
 62
     7
 10
622.733201
 20
2016.567184
 11
622.244978
 21
2016.491621
  0
LINE
  8
CSLAYER1
  6
CONTINUOUS
 62
     7
 10
622.244978
 20
2016.491621
 11
621.769933
 21
2016.482233
  0
LINE
  8
CSLAYER1
  6
CONTINUOUS
 62
     7
 10
621.769933
 20
2016.482233
 11
621.311682
 21
2016.539091
  0
LINE
  8
CSLAYER1
  6
CONTINUOUS
 62
     7
 10
621.311682
 20
2016.539091
 11
620.873711
 21
2016.661762
  0
LINE
  8
CSLAYER1
  6
CONTINUOUS
 62
     7
 10
620.873711
 20
2016.661762
 11
620.459355
 21
2016.849312
  0
LINE
  8
CSLAYER1
  6
CONTINUOUS
 62
     7
 10
620.459355
 20
2016.849312
 11
620.071766
 21
2017.100315
  0
LINE
  8
CSLAYER1
  6
CONTINUOUS
 62
     7
 10
620.071766
 20
2017.100315
 11
619.713895
 21
2017.412860
  0
LINE
  8
CSLAYER1
  6
CONTINUOUS
 62
     7
 10
619.713895
 20
2017.412860
 11
619.388465
 21
2017.784568
  0
LINE
  8
CSLAYER1
  6
CONTINUOUS
 62
     7
 10
619.388465
 20
2017.784568
 11
619.097953
 21
2018.212610
  0
LINE
  8
CSLAYER1
  6
CONTINUOUS
 62
     7
 10
619.097953
 20
2018.212610
 11
618.844570
 21
2018.693729
  0
LINE
  8
CSLAYER1
  6
CONTINUOUS
 62
     7
 10
618.844570
 20
2018.693729
 11
618.630244
 21
2019.224263
  0
LINE
  8
CSLAYER1
  6
CONTINUOUS
 62
     7
 10
618.630244
 20
2019.224263
 11
618.456606
 21
2019.800175
  0
LINE
  8
CSLAYER1
  6
CONTINUOUS
 62
     7
 10
618.456606
 20
2019.800175
 11
618.324979
 21
2020.417080
  0
LINE
  8
CSLAYER1
  6
CONTINUOUS
 62
     7
 10
618.324979
 20
2020.417080
 11
618.236363
 21
2021.070286
  0
LINE
  8
CSLAYER1
  6
CONTINUOUS
 62
     7
 10
618.236363
 20
2021.070286
 11
618.191432
 21
2021.754819
  0
LINE
  8
CSLAYER1
  6
CONTINUOUS
 62
     7
 10
618.191432
 20
2021.754819
 11
618.190530
 21
2022.465470
  0
LINE
  8
CSLAYER1
  6
CONTINUOUS
 62
     7
 10
618.190530
 20
2022.465470
 11
618.233663
 21
2023.196832
  0
LINE
  8
CSLAYER1
  6
CONTINUOUS
 62
     7
 10
618.233663
 20
2023.196832
 11
618.320502
 21
2023.943337
  0
LINE
  8
CSLAYER1
  6
CONTINUOUS
 62
     7
 10
618.320502
 20
2023.943337
 11
618.450387
 21
2024.699304
  0
LINE
  8
CSLAYER1
  6
CONTINUOUS
 62
     7
 10
618.450387
 20
2024.699304
 11
618.622330
 21
2025.458981
  0
LINE
  8
CSLAYER1
  6
CONTINUOUS
 62
     7
 10
618.622330
 20
2025.458981
 11
618.835020
 21
2026.216585
  0
LINE
  8
CSLAYER1
  6
CONTINUOUS
 62
     7
 10
618.835020
 20
2026.216585
 11
619.086841
 21
2026.966350
  0
LINE
  8
CSLAYER1
  6
CONTINUOUS
 62
     7
 10
619.086841
 20
2026.966350
 11
619.375875
 21
2027.702571
  0
LINE
  8
CSLAYER1
  6
CONTINUOUS
 62
     7
 10
619.375875
 20
2027.702571
 11
619.699923
 21
2028.419644
  0
LINE
  8
CSLAYER1
  6
CONTINUOUS
 62
     7
 10
619.699923
 20
2028.419644
 11
620.056518
 21
2029.112113
  0
LINE
  8
CSLAYER1
  6
CONTINUOUS
 62
     7
 10
620.056518
 20
2029.112113
 11
620.442947
 21
2029.774706
  0
LINE
  8
CSLAYER1
  6
CONTINUOUS
 62
     7
 10
620.442947
 20
2029.774706
 11
620.856269
 21
2030.402381
  0
LINE
  8
CSLAYER1
  6
CONTINUOUS
 62
     7
 10
620.856269
 20
2030.402381
 11
621.293337
 21
2030.990362
  0
LINE
  8
CSLAYER1
  6
CONTINUOUS
 62
     7
 10
621.293337
 20
2030.990362
 11
621.750826
 21
2031.534173
  0
LINE
  8
CSLAYER1
  6
CONTINUOUS
 62
     7
 10
621.750826
 20
2031.534173
 11
622.225254
 21
2032.029675
  0
LINE
  8
CSLAYER1
  6
CONTINUOUS
 62
     7
 10
622.225254
 20
2032.029675
 11
622.713010
 21
2032.473098
  0
LINE
  8
CSLAYER1
  6
CONTINUOUS
 62
     7
 10
622.713010
 20
2032.473098
 11
623.210382
 21
2032.861066
  0
LINE
  8
CSLAYER1
  6
CONTINUOUS
 62
     7
 10
623.210382
 20
2032.861066
 11
623.713585
 21
2033.190628
  0
LINE
  8
CSLAYER1
  6
CONTINUOUS
 62
     7
 10
623.713585
 20
2033.190628
 11
624.218789
 21
2033.459274
  0
LINE
  8
CSLAYER1
  6
CONTINUOUS
 62
     7
 10
624.218789
 20
2033.459274
 11
624.722149
 21
2033.664961
  0
LINE
  8
CSLAYER1
  6
CONTINUOUS
 62
     7
 10
624.722149
 20
2033.664961
 11
625.219835
 21
2033.806123
  0
LINE
  8
CSLAYER1
  6
CONTINUOUS
 62
     7
 10
625.219835
 20
2033.806123
 11
625.708058
 21
2033.881686
  0
LINE
  8
CSLAYER1
  6
CONTINUOUS
 62
     7
 10
625.708058
 20
2033.881686
 11
626.183103
 21
2033.891074
  0
LINE
  8
CSLAYER1
  6
CONTINUOUS
 62
     7
 10
626.183103
 20
2033.891074
 11
626.641354
 21
2033.834216
  0
LINE
  8
CSLAYER1
  6
CONTINUOUS
 62
     7
 10
626.641354
 20
2033.834216
 11
627.079325
 21
2033.711545
  0
LINE
  8
CSLAYER1
  6
CONTINUOUS
 62
     7
 10
696.122413
 20
2007.761370
 11
678.906760
 21
2009.676283
  0
LINE
  8
CSLAYER1
  6
CONTINUOUS
 62
     7
 10
620.559309
 20
2026.386716
 11
620.777819
 21
2026.943299
  0
LINE
  8
CSLAYER1
  6
CONTINUOUS
 62
     7
 10
620.777819
 20
2026.943299
 11
621.022799
 21
2027.485406
  0
LINE
  8
CSLAYER1
  6
CONTINUOUS
 62
     7
 10
621.022799
 20
2027.485406
 11
621.292385
 21
2028.008912
  0
LINE
  8
CSLAYER1
  6
CONTINUOUS
 62
     7
 10
621.292385
 20
2028.008912
 11
621.584525
 21
2028.509832
  0
LINE
  8
CSLAYER1
  6
CONTINUOUS
 62
     7
 10
621.584525
 20
2028.509832
 11
621.896996
 21
2028.984355
  0
LINE
  8
CSLAYER1
  6
CONTINUOUS
 62
     7
 10
621.896996
 20
2028.984355
 11
622.227420
 21
2029.428868
  0
LINE
  8
CSLAYER1
  6
CONTINUOUS
 62
     7
 10
622.227420
 20
2029.428868
 11
622.573282
 21
2029.839989
  0
LINE
  8
CSLAYER1
  6
CONTINUOUS
 62
     7
 10
622.573282
 20
2029.839989
 11
622.931949
 21
2030.214589
  0
LINE
  8
CSLAYER1
  6
CONTINUOUS
 62
     7
 10
622.931949
 20
2030.214589
 11
623.300693
 21
2030.549817
  0
LINE
  8
CSLAYER1
  6
CONTINUOUS
 62
     7
 10
623.300693
 20
2030.549817
 11
623.676706
 21
2030.843121
  0
LINE
  8
CSLAYER1
  6
CONTINUOUS
 62
     7
 10
623.676706
 20
2030.843121
 11
624.057128
 21
2031.092269
  0
LINE
  8
CSLAYER1
  6
CONTINUOUS
 62
     7
 10
624.057128
 20
2031.092269
 11
624.439062
 21
2031.295366
  0
LINE
  8
CSLAYER1
  6
CONTINUOUS
 62
     7
 10
624.439062
 20
2031.295366
 11
624.819602
 21
2031.450865
  0
LINE
  8
CSLAYER1
  6
CONTINUOUS
 62
     7
 10
624.819602
 20
2031.450865
 11
625.195852
 21
2031.557584
  0
LINE
  8
CSLAYER1
  6
CONTINUOUS
 62
     7
 10
625.195852
 20
2031.557584
 11
625.564949
 21
2031.614709
  0
LINE
  8
CSLAYER1
  6
CONTINUOUS
 62
     7
 10
625.564949
 20
2031.614709
 11
625.924083
 21
2031.621806
  0
LINE
  8
CSLAYER1
  6
CONTINUOUS
 62
     7
 10
625.924083
 20
2031.621806
 11
626.270521
 21
2031.578822
  0
LINE
  8
CSLAYER1
  6
CONTINUOUS
 62
     7
 10
626.270521
 20
2031.578822
 11
626.637844
 21
2031.475939
  0
LINE
  8
CSLAYER1
  6
CONTINUOUS
 62
     7
 10
621.596930
 20
2018.738235
 11
621.303913
 21
2018.927993
  0
LINE
  8
CSLAYER1
  6
CONTINUOUS
 62
     7
 10
621.303913
 20
2018.927993
 11
621.033362
 21
2019.164277
  0
LINE
  8
CSLAYER1
  6
CONTINUOUS
 62
     7
 10
621.033362
 20
2019.164277
 11
620.787337
 21
2019.445288
  0
LINE
  8
CSLAYER1
  6
CONTINUOUS
 62
     7
 10
620.787337
 20
2019.445288
 11
620.567710
 21
2019.768888
  0
LINE
  8
CSLAYER1
  6
CONTINUOUS
 62
     7
 10
620.567710
 20
2019.768888
 11
620.376152
 21
2020.132614
  0
LINE
  8
CSLAYER1
  6
CONTINUOUS
 62
     7
 10
620.376152
 20
2020.132614
 11
620.214122
 21
2020.533698
  0
LINE
  8
CSLAYER1
  6
CONTINUOUS
 62
     7
 10
620.214122
 20
2020.533698
 11
620.082852
 21
2020.969087
  0
LINE
  8
CSLAYER1
  6
CONTINUOUS
 62
     7
 10
620.082852
 20
2020.969087
 11
619.983341
 21
2021.435468
  0
LINE
  8
CSLAYER1
  6
CONTINUOUS
 62
     7
 10
619.983341
 20
2021.435468
 11
619.916347
 21
2021.929291
  0
LINE
  8
CSLAYER1
  6
CONTINUOUS
 62
     7
 10
619.916347
 20
2021.929291
 11
619.882380
 21
2022.446798
  0
LINE
  8
CSLAYER1
  6
CONTINUOUS
 62
     7
 10
619.882380
 20
2022.446798
 11
619.881698
 21
2022.984050
  0
LINE
  8
CSLAYER1
  6
CONTINUOUS
 62
     7
 10
619.881698
 20
2022.984050
 11
619.914307
 21
2023.536960
  0
LINE
  8
CSLAYER1
  6
CONTINUOUS
 62
     7
 10
619.914307
 20
2023.536960
 11
619.979957
 21
2024.101317
  0
LINE
  8
CSLAYER1
  6
CONTINUOUS
 62
     7
 10
619.979957
 20
2024.101317
 11
620.078150
 21
2024.672829
  0
LINE
  8
CSLAYER1
  6
CONTINUOUS
 62
     7
 10
620.078150
 20
2024.672829
 11
620.208138
 21
2025.247144
  0
LINE
  8
CSLAYER1
  6
CONTINUOUS
 62
     7
 10
620.208138
 20
2025.247144
 11
620.368933
 21
2025.819893
  0
LINE
  8
CSLAYER1
  6
CONTINUOUS
 62
     7
 10
620.368933
 20
2025.819893
 11
620.559309
 21
2026.386716
  0
ARC
  8
CSLAYER1
  6
CONTINUOUS
 62
     7
 10
696.555674
 20
2001.825572
 40
7.892050
 50
255.737756
 51
348.379625
  0
LINE
  8
CSLAYER1
  6
CONTINUOUS
 62
     7
 10
696.122413
 20
2007.761370
 11
717.344001
 21
2021.022091
  0
INSERT
  8
CSLAYER1
  2
EASYDRAWDIM0000
 10
0.0
 20
0.0
 30
0.0
  0
INSERT
  8
CSLAYER1
  2
EASYDRAWDIM0001
 10
0.0
 20
0.0
 30
0.0
  0
TEXT
  8
CSLAYER1
 62
     3
 10
492.720703
 20
2327.540771
 40
40.000000
 41
0.771429
  1
足踏式油圧ポンプユニット
 50
0.000000
 51
0.000000
  7
EASYDRAW_FONT
 72
     5
 11
852.720703
 21
2327.540771
  0
TEXT
  8
CSLAYER1
 62
     3
 10
402.745117
 20
1722.589355
 40
40.000000
 41
0.763393
  1
外形寸法 400W×500D×280H
 50
0.000000
 51
0.000000
  7
EASYDRAW_FONT
 72
     5
 11
972.745117
 21
1722.589355
  0
LINE
  8
CSLAYER1
  6
CONTINUOUS
 62
     5
 10
1061.308998
 20
2400.615788
 11
1061.308998
 21
1696.506199
  0
LINE
  8
CSLAYER1
  6
CONTINUOUS
 62
     5
 10
1061.308998
 20
1696.506199
 11
260.014867
 21
1696.506199
  0
INSERT
  8
CSLAYER1
  2
EASYDRAWDIM0002
 10
0.0
 20
0.0
 30
0.0
  0
LINE
  8
CSLAYER1
  6
CONTINUOUS
 62
     7
 10
477.811773
 20
2372.986932
 11
867.823019
 21
2372.986932
  0
LINE
  8
CSLAYER1
  6
CONTINUOUS
 62
     7
 10
867.823019
 20
2372.986932
 11
867.823019
 21
2322.842629
  0
LINE
  8
CSLAYER1
  6
CONTINUOUS
 62
     7
 10
867.823019
 20
2322.842629
 11
477.811773
 21
2322.842629
  0
LINE
  8
CSLAYER1
  6
CONTINUOUS
 62
     7
 10
477.811773
 20
2322.842629
 11
477.811773
 21
2372.986932
  0
INSERT
  8
CSLAYER1
  2
BLKF0003
 10
0.0
 20
0.0
 30
0.0
  0
INSERT
  8
CSLAYER1
  2
BLKF0004
 10
0.0
 20
0.0
 30
0.0
  0
LINE
  8
CSLAYER1
  6
CONTINUOUS
 62
     7
 10
663.837995
 20
2056.962087
 11
660.891103
 21
2055.260699
  0
LINE
  8
CSLAYER1
  6
CONTINUOUS
 62
     7
 10
668.261607
 20
2049.300168
 11
665.314715
 21
2047.598779
  0
LINE
  8
CSLAYER1
  6
CONTINUOUS
 62
     7
 10
661.741798
 20
2053.787253
 11
664.130846
 21
2053.210179
  0
LINE
  8
CSLAYER1
  6
CONTINUOUS
 62
     7
 10
664.130846
 20
2053.210179
 11
665.158784
 21
2051.429739
  0
LINE
  8
CSLAYER1
  6
CONTINUOUS
 62
     7
 10
665.158784
 20
2051.429739
 11
664.464020
 21
2049.072225
  0
LINE
  8
CSLAYER1
  6
CONTINUOUS
 62
     7
 10
664.464020
 20
2049.072225
 11
662.074972
 21
2049.649299
  0
LINE
  8
CSLAYER1
  6
CONTINUOUS
 62
     7
 10
662.074972
 20
2049.649299
 11
661.047034
 21
2051.429739
  0
LINE
  8
CSLAYER1
  6
CONTINUOUS
 62
     7
 10
661.047034
 20
2051.429739
 11
661.741798
 21
2053.787253
  0
INSERT
  8
CSLAYER1
  2
BLKF0005
 10
0.0
 20
0.0
 30
0.0
  0
LINE
  8
CSLAYER1
  6
CONTINUOUS
 62
     7
 10
665.035346
 20
2059.099195
 11
662.850540
 21
2057.837796
  0
LINE
  8
CSLAYER1
  6
CONTINUOUS
 62
     7
 10
670.949025
 20
2048.577557
 11
668.848309
 21
2047.399989
  0
INSERT
  8
CSLAYER1
  2
BLKF0006
 10
0.0
 20
0.0
 30
0.0
  0
LINE
  8
CSLAYER1
  6
CONTINUOUS
 62
     7
 10
692.100335
 20
2061.511859
 11
671.056059
 21
2069.171349
  0
LINE
  8
CSLAYER1
  6
CONTINUOUS
 62
     7
 10
692.100335
 20
2061.511859
 11
692.100335
 21
2027.703525
  0
LINE
  8
CSLAYER1
  6
CONTINUOUS
 62
     7
 10
681.905242
 20
2055.141258
 11
681.905242
 21
2009.342759
  0
LINE
  8
CSLAYER1
  6
CONTINUOUS
 62
     7
 10
666.752321
 20
2031.569181
 11
664.618396
 21
2024.578247
  0
LINE
  8
CSLAYER1
  6
CONTINUOUS
 62
     7
 10
664.618396
 20
2024.578247
 11
657.497108
 21
2026.225681
  0
LINE
  8
CSLAYER1
  6
CONTINUOUS
 62
     7
 10
657.497108
 20
2026.225681
 11
654.412037
 21
2031.569181
  0
LINE
  8
CSLAYER1
  6
CONTINUOUS
 62
     7
 10
654.412037
 20
2031.569181
 11
656.497179
 21
2038.644608
  0
LINE
  8
CSLAYER1
  6
CONTINUOUS
 62
     7
 10
656.497179
 20
2038.644608
 11
663.667250
 21
2036.912680
  0
LINE
  8
CSLAYER1
  6
CONTINUOUS
 62
     7
 10
663.667250
 20
2036.912680
 11
666.752321
 21
2031.569181
  0
LINE
  8
CSLAYER1
  6
CONTINUOUS
 62
     7
 10
669.420899
 20
2033.109885
 11
667.286975
 21
2026.118952
  0
LINE
  8
CSLAYER1
  6
CONTINUOUS
 62
     7
 10
666.335828
 20
2038.453385
 11
669.420899
 21
2033.109885
  0
LINE
  8
CSLAYER1
  6
CONTINUOUS
 62
     7
 10
659.165757
 20
2040.185313
 11
666.335828
 21
2038.453385
  0
LINE
  8
CSLAYER1
  6
CONTINUOUS
 62
     7
 10
667.286975
 20
2026.118952
 11
664.618396
 21
2024.578247
  0
LINE
  8
CSLAYER1
  6
CONTINUOUS
 62
     7
 10
669.420899
 20
2033.109885
 11
666.752321
 21
2031.569181
  0
LINE
  8
CSLAYER1
  6
CONTINUOUS
 62
     7
 10
666.335828
 20
2038.453385
 11
663.667250
 21
2036.912680
  0
LINE
  8
CSLAYER1
  6
CONTINUOUS
 62
     7
 10
659.165757
 20
2040.185313
 11
656.497179
 21
2038.644608
  0
INSERT
  8
CSLAYER1
  2
BLKF0007
 10
0.0
 20
0.0
 30
0.0
  0
LINE
  8
CSLAYER1
  6
CONTINUOUS
 62
     7
 10
683.212959
 20
2061.124847
 11
681.553252
 21
2059.380743
  0
LINE
  8
CSLAYER1
  6
CONTINUOUS
 62
     7
 10
681.553252
 20
2059.380743
 11
679.539334
 21
2059.380743
  0
LINE
  8
CSLAYER1
  6
CONTINUOUS
 62
     7
 10
679.539334
 20
2059.380743
 11
677.879626
 21
2061.124847
  0
LINE
  8
CSLAYER1
  6
CONTINUOUS
 62
     7
 10
677.879626
 20
2061.124847
 11
679.539334
 21
2062.868951
  0
LINE
  8
CSLAYER1
  6
CONTINUOUS
 62
     7
 10
679.539334
 20
2062.868951
 11
681.553252
 21
2062.868951
  0
LINE
  8
CSLAYER1
  6
CONTINUOUS
 62
     7
 10
681.553252
 20
2062.868951
 11
683.212959
 21
2061.124847
  0
INSERT
  8
CSLAYER1
  2
BLKF0008
 10
0.0
 20
0.0
 30
0.0
  0
LINE
  8
CSLAYER1
  6
CONTINUOUS
 62
     7
 10
681.905242
 20
2055.141258
 11
660.860967
 21
2062.800748
  0
LINE
  8
CSLAYER1
  6
CONTINUOUS
 62
     7
 10
681.905242
 20
2055.141258
 11
692.100335
 21
2061.511859
  0
LINE
  8
CSLAYER1
  6
CONTINUOUS
 62
     7
 10
647.332355
 20
2066.408212
 11
647.332355
 21
2021.642162
  0
LINE
  8
CSLAYER1
  6
CONTINUOUS
 62
     7
 10
660.860967
 20
2062.800748
 11
671.056059
 21
2069.171349
  0
LINE
  8
CSLAYER1
  6
CONTINUOUS
 62
     7
 10
660.860967
 20
2061.484200
 11
647.332355
 21
2066.408212
  0
LINE
  8
CSLAYER1
  6
CONTINUOUS
 62
     7
 10
660.860967
 20
2062.800748
 11
660.860967
 21
2061.484200
  0
LINE
  8
CSLAYER1
  6
CONTINUOUS
 62
     7
 10
656.786492
 20
2061.787943
 11
650.148145
 21
2064.204103
  0
LINE
  8
CSLAYER1
  6
CONTINUOUS
 62
     7
 10
649.754167
 20
2065.526744
 11
650.148145
 21
2064.204103
  0
LINE
  8
CSLAYER1
  6
CONTINUOUS
 62
     7
 10
656.786492
 20
2061.787943
 11
659.000996
 21
2062.161174
  0
LINE
  8
CSLAYER1
  6
CONTINUOUS
 62
     7
 10
669.724653
 20
2068.339394
 11
663.449581
 21
2070.623333
  0
LINE
  8
CSLAYER1
  6
CONTINUOUS
 62
     7
 10
647.332355
 20
2066.408212
 11
656.388255
 21
2072.066966
  0
LINE
  8
CSLAYER1
  6
CONTINUOUS
 62
     7
 10
656.786492
 20
2061.787943
 11
656.786492
 21
2048.034488
  0
LINE
  8
CSLAYER1
  6
CONTINUOUS
 62
     7
 10
659.000996
 20
2062.161174
 11
659.000996
 21
2049.507154
  0
LINE
  8
CSLAYER1
  6
CONTINUOUS
 62
     7
 10
650.148145
 20
2064.204103
 11
650.148145
 21
2050.450649
  0
LINE
  8
CSLAYER1
  6
CONTINUOUS
 62
     7
 10
650.148145
 20
2050.450649
 11
651.873074
 21
2045.334602
  0
LINE
  8
CSLAYER1
  6
CONTINUOUS
 62
     7
 10
656.786492
 20
2048.034488
 11
654.409331
 21
2044.271010
  0
LINE
  8
CSLAYER1
  6
CONTINUOUS
 62
     7
 10
651.873074
 20
2045.334602
 11
651.873074
 21
2019.849310
  0
LINE
  8
CSLAYER1
  6
CONTINUOUS
 62
     7
 10
654.409331
 20
2044.271010
 11
654.409331
 21
2018.131200
  0
LINE
  8
CSLAYER1
  6
CONTINUOUS
 62
     7
 10
656.786492
 20
2048.034488
 11
658.908240
 21
2049.360304
  0
LINE
  8
CSLAYER1
  6
CONTINUOUS
 62
     7
 10
654.409331
 20
2044.271010
 11
656.531079
 21
2045.596826
  0
LINE
  8
CSLAYER1
  6
CONTINUOUS
 62
     7
 10
659.000996
 20
2049.507154
 11
656.623835
 21
2045.743676
  0
LINE
  8
CSLAYER1
  6
CONTINUOUS
 62
     7
 10
656.623835
 20
2045.743676
 11
656.623835
 21
2038.717734
  0
LINE
  8
CSLAYER1
  6
CONTINUOUS
 62
     7
 10
656.623835
 20
2027.738235
 11
656.623835
 21
2017.231238
  0
LINE
  8
CSLAYER1
  6
CONTINUOUS
 62
     7
 10
692.100335
 20
2027.703525
 11
694.635133
 21
2029.287443
  0
LINE
  8
CSLAYER1
  6
CONTINUOUS
 62
     7
 10
662.974461
 20
2014.209226
 11
626.637844
 21
2031.475939
  0
LINE
  8
CSLAYER1
  6
CONTINUOUS
 62
     7
 10
657.057750
 20
2001.887690
 11
621.596930
 21
2018.738235
  0
LINE
  8
CSLAYER1
  6
CONTINUOUS
 62
     7
 10
707.265368
 20
2014.724261
 11
704.285966
 21
2000.235906
  0
ARC
  8
CSLAYER1
  6
CONTINUOUS
 62
     7
 10
684.434217
 20
2059.369816
 40
50.000000
 50
244.583509
 51
263.653028
  0
ARC
  8
CSLAYER1
  6
CONTINUOUS
 62
     7
 10
684.526237
 20
2059.693246
 40
64.000000
 50
244.583509
 51
263.653028
  0
LINE
  8
CSLAYER1
  6
CONTINUOUS
 62
     7
 10
675.599349
 20
1996.318876
 11
675.599349
 21
1993.423148
  0
LINE
  8
CSLAYER1
  6
CONTINUOUS
 62
     7
 10
652.640375
 20
2001.779531
 11
649.833433
 21
2005.320597
  0
LINE
  8
CSLAYER1
  6
CONTINUOUS
 62
     4
 10
1451.359947
 20
2179.788402
 11
2351.359947
 21
2179.788402
  0
LINE
  8
CSLAYER1
  6
CONTINUOUS
 62
     3
 10
1448.659947
 20
1939.788402
 11
1448.659947
 21
2105.638402
  0
LINE
  8
CSLAYER1
  6
CONTINUOUS
 62
     3
 10
1498.659947
 20
1939.788402
 11
1498.659947
 21
1979.788402
  0
LINE
  8
CSLAYER1
  6
CONTINUOUS
 62
     4
 10
1451.359947
 20
2179.788402
 11
1451.359947
 21
1979.788402
  0
LINE
  8
CSLAYER1
  6
CONTINUOUS
 62
     4
 10
2351.359947
 20
2179.788402
 11
2351.359947
 21
1979.788402
  0
LINE
  8
CSLAYER1
  6
CONTINUOUS
 62
     3
 10
1458.659947
 20
1929.788402
 11
1488.659947
 21
1929.788402
  0
ARC
  8
CSLAYER1
  6
CONTINUOUS
 62
     3
 10
1458.659947
 20
1939.788402
 40
10.000000
 50
180.000000
 51
270.000000
  0
ARC
  8
CSLAYER1
  6
CONTINUOUS
 62
     3
 10
1488.659947
 20
1939.788402
 40
10.000000
 50
270.000000
 51
360.000000
  0
LINE
  8
CSLAYER1
  6
CENTER
 62
     5
 10
1195.164092
 20
2109.788402
 11
1451.359947
 21
2109.788402
  0
LINE
  8
CSLAYER1
  6
CENTER
 62
     5
 10
1408.659947
 20
2079.788402
 11
2391.359947
 21
2079.788402
  0
ARC
  8
CSLAYER1
  6
CONTINUOUS
 62
     3
 10
1488.659947
 20
2219.788402
 40
10.000000
 50
0.000000
 51
90.000000
  0
LINE
  8
CSLAYER1
  6
CONTINUOUS
 62
     3
 10
1458.659947
 20
2229.788402
 11
1488.659947
 21
2229.788402
  0
ARC
  8
CSLAYER1
  6
CONTINUOUS
 62
     3
 10
1458.659947
 20
2219.788402
 40
10.000000
 50
90.000000
 51
180.000000
  0
LINE
  8
CSLAYER1
  6
CONTINUOUS
 62
     3
 10
1498.659947
 20
2219.788402
 11
1498.659947
 21
2179.788402
  0
LINE
  8
CSLAYER1
  6
CONTINUOUS
 62
     4
 10
1581.572211
 20
1010.214103
 11
1574.781753
 21
1014.738326
  0
LINE
  8
CSLAYER1
  6
CENTER
 62
     5
 10
1473.659947
 20
2193.525600
 11
1473.659947
 21
2216.051203
  0
LINE
  8
CSLAYER1
  6
CENTER
 62
     5
 10
1462.397145
 20
2204.788402
 11
1484.922748
 21
2204.788402
  0
CIRCLE
  8
CSLAYER1
  6
CONTINUOUS
 62
     3
 10
1473.659947
 20
2204.788402
 40
6.500000
  0
LINE
  8
CSLAYER1
  6
CENTER
 62
     5
 10
1473.659947
 20
1966.051203
 11
1473.659947
 21
1943.525600
  0
LINE
  8
CSLAYER1
  6
CENTER
 62
     5
 10
1462.397145
 20
1954.788402
 11
1484.922748
 21
1954.788402
  0
CIRCLE
  8
CSLAYER1
  6
CONTINUOUS
 62
     3
 10
1473.659947
 20
1954.788402
 40
6.500000
  0
LINE
  8
CSLAYER1
  6
CENTER
 62
     5
 10
880.838476
 20
1553.812322
 11
880.838476
 21
757.518911
  0
LINE
  8
CSLAYER1
  6
CONTINUOUS
 62
     3
 10
780.838476
 20
837.518911
 11
980.838476
 21
837.518911
  0
LINE
  8
CSLAYER1
  6
CONTINUOUS
 62
     3
 10
780.838476
 20
837.518911
 11
780.838476
 21
803.518911
  0
LINE
  8
CSLAYER1
  6
CONTINUOUS
 62
     3
 10
980.838476
 20
837.518911
 11
980.838476
 21
803.518911
  0
LINE
  8
CSLAYER1
  6
CONTINUOUS
 62
     3
 10
1030.838476
 20
797.518911
 11
1030.838476
 21
803.518911
  0
LINE
  8
CSLAYER1
  6
CENTER
 62
     5
 10
1005.838476
 20
788.589550
 11
1005.838476
 21
812.799512
  0
LINE
  8
CSLAYER1
  6
CONTINUOUS
 62
     3
 10
955.338476
 20
797.518911
 11
955.338476
 21
837.518911
  0
LINE
  8
CSLAYER1
  6
CONTINUOUS
 62
     3
 10
1030.838476
 20
803.518911
 11
955.338476
 21
803.518911
  0
LINE
  8
CSLAYER1
  6
CONTINUOUS
 62
     3
 10
958.338476
 20
825.988567
 11
958.338476
 21
804.049256
  0
LINE
  8
CSLAYER1
  6
CONTINUOUS
 62
     3
 10
955.338476
 20
804.268911
 11
958.338476
 21
804.268911
  0
LINE
  8
CSLAYER1
  6
CONTINUOUS
 62
     3
 10
955.338476
 20
825.768911
 11
958.338476
 21
825.768911
  0
LINE
  8
CSLAYER1
  6
CONTINUOUS
 62
     3
 10
955.338476
 20
816.531108
 11
958.338476
 21
813.031108
  0
LINE
  8
CSLAYER1
  6
CONTINUOUS
 62
     3
 10
966.338476
 20
806.018911
 11
966.338476
 21
824.018911
  0
LINE
  8
CSLAYER1
  6
CONTINUOUS
 62
     3
 10
958.338476
 20
809.534084
 11
965.201295
 21
809.534084
  0
LINE
  8
CSLAYER1
  6
CONTINUOUS
 62
     3
 10
958.338476
 20
804.049256
 11
965.201295
 21
804.049256
  0
LINE
  8
CSLAYER1
  6
CONTINUOUS
 62
     3
 10
966.338476
 20
806.018911
 11
965.201295
 21
804.049256
  0
ARC
  8
CSLAYER1
  6
CONTINUOUS
 62
     3
 10
962.558431
 20
806.791670
 40
3.808617
 50
5.661633
 51
46.059028
  0
ARC
  8
CSLAYER1
  6
CONTINUOUS
 62
     3
 10
952.542731
 20
815.018911
 40
13.795744
 50
-23.426598
 51
23.426598
  0
LINE
  8
CSLAYER1
  6
CONTINUOUS
 62
     3
 10
958.338476
 20
820.503739
 11
965.201295
 21
820.503739
  0
LINE
  8
CSLAYER1
  6
CONTINUOUS
 62
     3
 10
958.338476
 20
825.988567
 11
965.201295
 21
825.988567
  0
LINE
  8
CSLAYER1
  6
CONTINUOUS
 62
     3
 10
966.338476
 20
824.018911
 11
965.201295
 21
825.988567
  0
ARC
  8
CSLAYER1
  6
CONTINUOUS
 62
     3
 10
962.558431
 20
823.246153
 40
3.808617
 50
313.940972
 51
354.338367
  0
LINE
  8
CSLAYER1
  6
CENTER
 62
     5
 10
955.338476
 20
815.018911
 11
966.338476
 21
815.018911
  0
LINE
  8
CSLAYER1
  6
CONTINUOUS
 62
     3
 10
730.838476
 20
797.518911
 11
730.838476
 21
803.518911
  0
LINE
  8
CSLAYER1
  6
CENTER
 62
     5
 10
755.838476
 20
788.589550
 11
755.838476
 21
812.799512
  0
LINE
  8
CSLAYER1
  6
CONTINUOUS
 62
     3
 10
730.838476
 20
803.518911
 11
806.338476
 21
803.518911
  0
LINE
  8
CSLAYER1
  6
CONTINUOUS
 62
     3
 10
803.338476
 20
825.988567
 11
803.338476
 21
804.049256
  0
LINE
  8
CSLAYER1
  6
CONTINUOUS
 62
     3
 10
806.338476
 20
804.268911
 11
803.338476
 21
804.268911
  0
LINE
  8
CSLAYER1
  6
CONTINUOUS
 62
     3
 10
806.338476
 20
825.768911
 11
803.338476
 21
825.768911
  0
LINE
  8
CSLAYER1
  6
CONTINUOUS
 62
     3
 10
806.338476
 20
816.531108
 11
803.338476
 21
813.031108
  0
LINE
  8
CSLAYER1
  6
CONTINUOUS
 62
     3
 10
795.338476
 20
806.018911
 11
795.338476
 21
824.018911
  0
LINE
  8
CSLAYER1
  6
CONTINUOUS
 62
     3
 10
803.338476
 20
809.534084
 11
796.475656
 21
809.534084
  0
LINE
  8
CSLAYER1
  6
CONTINUOUS
 62
     3
 10
803.338476
 20
804.049256
 11
796.475656
 21
804.049256
  0
LINE
  8
CSLAYER1
  6
CONTINUOUS
 62
     3
 10
795.338476
 20
806.018911
 11
796.475656
 21
804.049256
  0
ARC
  8
CSLAYER1
  6
CONTINUOUS
 62
     3
 10
799.118520
 20
806.791670
 40
3.808617
 50
133.940972
 51
174.338367
  0
ARC
  8
CSLAYER1
  6
CONTINUOUS
 62
     3
 10
809.134220
 20
815.018911
 40
13.795744
 50
156.573402
 51
203.426598
  0
LINE
  8
CSLAYER1
  6
CONTINUOUS
 62
     3
 10
803.338476
 20
820.503739
 11
796.475656
 21
820.503739
  0
LINE
  8
CSLAYER1
  6
CONTINUOUS
 62
     3
 10
803.338476
 20
825.988567
 11
796.475656
 21
825.988567
  0
LINE
  8
CSLAYER1
  6
CONTINUOUS
 62
     3
 10
795.338476
 20
824.018911
 11
796.475656
 21
825.988567
  0
ARC
  8
CSLAYER1
  6
CONTINUOUS
 62
     3
 10
799.118520
 20
823.246153
 40
3.808617
 50
185.661633
 51
226.059028
  0
LINE
  8
CSLAYER1
  6
CENTER
 62
     5
 10
806.338476
 20
815.018911
 11
795.338476
 21
815.018911
  0
LINE
  8
CSLAYER1
  6
CONTINUOUS
 62
     3
 10
806.338476
 20
797.518911
 11
806.338476
 21
837.518911
  0
LINE
  8
CSLAYER1
  6
CENTER
 62
     5
 10
850.838476
 20
800.829348
 11
850.838476
 21
834.092667
  0
LINE
  8
CSLAYER1
  6
CENTER
 62
     5
 10
832.964529
 20
817.518911
 11
869.961487
 21
817.518911
  0
CIRCLE
  8
CSLAYER1
  6
CONTINUOUS
 62
     3
 10
850.838476
 20
817.518911
 40
12.500000
  0
LINE
  8
CSLAYER1
  6
CONTINUOUS
 62
     3
 10
980.838476
 20
1513.812322
 11
780.838476
 21
1513.812322
  0
LINE
  8
CSLAYER1
  6
CONTINUOUS
 62
     3
 10
926.838476
 20
837.518911
 11
926.838476
 21
1495.812322
  0
LINE
  8
CSLAYER1
  6
CONTINUOUS
 62
     3
 10
935.838476
 20
837.518911
 11
935.838476
 21
1495.812322
  0
LINE
  8
CSLAYER1
  6
CONTINUOUS
 62
     3
 10
938.838476
 20
837.518911
 11
938.838476
 21
1483.512322
  0
LINE
  8
CSLAYER1
  6
CONTINUOUS
 62
     3
 10
947.838476
 20
837.518911
 11
947.838476
 21
1483.042667
  0
LINE
  8
CSLAYER1
  6
CONTINUOUS
 62
     3
 10
980.838476
 20
1495.812322
 11
780.838476
 21
1495.812322
  0
LINE
  8
CSLAYER1
  6
CONTINUOUS
 62
     3
 10
980.838476
 20
1495.812322
 11
980.838476
 21
1513.812322
  0
LINE
  8
CSLAYER1
  6
CONTINUOUS
 62
     3
 10
936.838476
 20
1485.362322
 11
935.838476
 21
1485.362322
  0
LINE
  8
CSLAYER1
  6
CONTINUOUS
 62
     3
 10
937.838476
 20
1495.812322
 11
937.838476
 21
1486.362322
  0
LINE
  8
CSLAYER1
  6
CONTINUOUS
 62
     3
 10
937.838476
 20
1486.362322
 11
936.838476
 21
1485.362322
  0
LINE
  8
CSLAYER1
  6
CONTINUOUS
 62
     3
 10
936.838476
 20
1495.812322
 11
936.838476
 21
1485.362322
  0
LINE
  8
CSLAYER1
  6
CONTINUOUS
 62
     3
 10
938.338476
 20
1483.512322
 11
944.338476
 21
1483.512322
  0
LINE
  8
CSLAYER1
  6
CONTINUOUS
 62
     3
 10
944.338476
 20
1495.812322
 11
944.338476
 21
1483.512322
  0
LINE
  8
CSLAYER1
  6
CONTINUOUS
 62
     3
 10
938.338476
 20
1495.812322
 11
938.338476
 21
1483.512322
  0
LINE
  8
CSLAYER1
  6
CONTINUOUS
 62
     3
 10
926.838476
 20
1485.362322
 11
834.838476
 21
1485.362322
  0
LINE
  8
CSLAYER1
  6
CENTER
 62
     5
 10
806.338476
 20
1494.012322
 11
955.338476
 21
1494.012322
  0
LINE
  8
CSLAYER1
  6
CONTINUOUS
 62
     3
 10
947.338476
 20
1483.042667
 11
947.338476
 21
1495.812322
  0
LINE
  8
CSLAYER1
  6
CONTINUOUS
 62
     3
 10
944.338476
 20
1483.262322
 11
947.338476
 21
1483.262322
  0
LINE
  8
CSLAYER1
  6
CONTINUOUS
 62
     3
 10
944.338476
 20
1492.500125
 11
947.177501
 21
1495.812322
  0
LINE
  8
CSLAYER1
  6
CONTINUOUS
 62
     3
 10
955.338476
 20
1495.812322
 11
955.338476
 21
1485.012322
  0
ARC
  8
CSLAYER1
  6
CONTINUOUS
 62
     3
 10
941.542731
 20
1494.012322
 40
13.795744
 50
-23.426598
 51
7.497043
  0
LINE
  8
CSLAYER1
  6
CONTINUOUS
 62
     3
 10
947.338476
 20
1488.527494
 11
954.201295
 21
1488.527494
  0
LINE
  8
CSLAYER1
  6
CONTINUOUS
 62
     3
 10
947.338476
 20
1483.042667
 11
954.201295
 21
1483.042667
  0
LINE
  8
CSLAYER1
  6
CONTINUOUS
 62
     3
 10
955.338476
 20
1485.012322
 11
954.201295
 21
1483.042667
  0
ARC
  8
CSLAYER1
  6
CONTINUOUS
 62
     3
 10
951.558431
 20
1485.785080
 40
3.808617
 50
5.661633
 51
46.059028
  0
LINE
  8
CSLAYER1
  6
CENTER
 62
     5
 10
825.838476
 20
1200.135292
 11
935.838476
 21
1200.135292
  0
LINE
  8
CSLAYER1
  6
CENTER
 62
     5
 10
801.338476
 20
1145.885674
 11
960.338476
 21
1145.885674
  0
LINE
  8
CSLAYER1
  6
CONTINUOUS
 62
     3
 10
959.338476
 20
1140.885674
 11
958.838476
 21
1140.885674
  0
LINE
  8
CSLAYER1
  6
CONTINUOUS
 62
     3
 10
948.338476
 20
1156.385674
 11
948.338476
 21
1135.385674
  0
LINE
  8
CSLAYER1
  6
CONTINUOUS
 62
     3
 10
960.338476
 20
1141.885674
 11
960.338476
 21
1149.885674
  0
LINE
  8
CSLAYER1
  6
CONTINUOUS
 62
     3
 10
938.838476
 20
1159.885674
 11
935.838476
 21
1159.885674
  0
LINE
  8
CSLAYER1
  6
CONTINUOUS
 62
     3
 10
938.838476
 20
1131.885674
 11
935.838476
 21
1131.885674
  0
LINE
  8
CSLAYER1
  6
CONTINUOUS
 62
     3
 10
950.338476
 20
1156.385674
 11
950.338476
 21
1135.385674
  0
LINE
  8
CSLAYER1
  6
CONTINUOUS
 62
     3
 10
952.838476
 20
1155.085674
 11
952.838476
 21
1136.685674
  0
LINE
  8
CSLAYER1
  6
CONTINUOUS
 62
     3
 10
952.838476
 20
1136.685674
 11
950.338476
 21
1136.685674
  0
LINE
  8
CSLAYER1
  6
CONTINUOUS
 62
     3
 10
950.338476
 20
1135.385674
 11
948.338476
 21
1135.385674
  0
LINE
  8
CSLAYER1
  6
CONTINUOUS
 62
     3
 10
952.838476
 20
1155.085674
 11
950.338476
 21
1155.085674
  0
LINE
  8
CSLAYER1
  6
CONTINUOUS
 62
     3
 10
950.338476
 20
1156.385674
 11
948.338476
 21
1156.385674
  0
LINE
  8
CSLAYER1
  6
CONTINUOUS
 62
     3
 10
958.838476
 20
1154.385674
 11
958.838476
 21
1137.385674
  0
LINE
  8
CSLAYER1
  6
CONTINUOUS
 62
     3
 10
959.338476
 20
1140.885674
 11
960.338476
 21
1141.885674
  0
LINE
  8
CSLAYER1
  6
CONTINUOUS
 62
     3
 10
960.038476
 20
1141.585674
 11
958.838476
 21
1141.585674
  0
LINE
  8
CSLAYER1
  6
CONTINUOUS
 62
     3
 10
959.338476
 20
1140.885674
 11
959.338476
 21
1150.885674
  0
LINE
  8
CSLAYER1
  6
CONTINUOUS
 62
     3
 10
958.079286
 20
1136.070720
 11
953.597665
 21
1136.070720
  0
LINE
  8
CSLAYER1
  6
CONTINUOUS
 62
     3
 10
958.079286
 20
1140.978197
 11
953.597665
 21
1140.978197
  0
LINE
  8
CSLAYER1
  6
CONTINUOUS
 62
     3
 10
958.838476
 20
1137.385674
 11
958.079286
 21
1136.070720
  0
ARC
  8
CSLAYER1
  6
CONTINUOUS
 62
     3
 10
942.597665
 20
1145.885674
 40
16.240811
 50
-17.587954
 51
17.587954
  0
ARC
  8
CSLAYER1
  6
CONTINUOUS
 62
     3
 10
954.497551
 20
1138.524458
 40
4.341619
 50
-27.480777
 51
34.413868
  0
LINE
  8
CSLAYER1
  6
CONTINUOUS
 62
     3
 10
958.838476
 20
1154.385674
 11
958.079286
 21
1155.700629
  0
ARC
  8
CSLAYER1
  6
CONTINUOUS
 62
     3
 10
954.497551
 20
1153.246890
 40
4.341619
 50
-34.413868
 51
27.480777
  0
LINE
  8
CSLAYER1
  6
CONTINUOUS
 62
     3
 10
952.838476
 20
1137.385674
 11
953.597665
 21
1136.070720
  0
ARC
  8
CSLAYER1
  6
CONTINUOUS
 62
     3
 10
969.079286
 20
1145.885674
 40
16.240811
 50
162.412046
 51
197.587954
  0
ARC
  8
CSLAYER1
  6
CONTINUOUS
 62
     3
 10
957.179400
 20
1138.524458
 40
4.341619
 50
145.586132
 51
207.480777
  0
LINE
  8
CSLAYER1
  6
CONTINUOUS
 62
     3
 10
952.838476
 20
1154.385674
 11
953.597665
 21
1155.700629
  0
ARC
  8
CSLAYER1
  6
CONTINUOUS
 62
     3
 10
957.179400
 20
1153.246890
 40
4.341619
 50
152.519223
 51
214.413868
  0
LINE
  8
CSLAYER1
  6
CONTINUOUS
 62
     3
 10
958.079286
 20
1155.700629
 11
953.597665
 21
1155.700629
  0
LINE
  8
CSLAYER1
  6
CONTINUOUS
 62
     3
 10
958.079286
 20
1150.793152
 11
953.597665
 21
1150.793152
  0
LINE
  8
CSLAYER1
  6
CONTINUOUS
 62
     3
 10
959.338476
 20
1150.885674
 11
958.838476
 21
1150.885674
  0
LINE
  8
CSLAYER1
  6
CONTINUOUS
 62
     3
 10
959.338476
 20
1150.885674
 11
960.338476
 21
1149.885674
  0
LINE
  8
CSLAYER1
  6
CONTINUOUS
 62
     3
 10
960.038476
 20
1150.185674
 11
958.838476
 21
1150.185674
  0
LINE
  8
CSLAYER1
  6
CONTINUOUS
 62
     3
 10
950.338476
 20
1147.787122
 11
952.838476
 21
1144.417557
  0
LINE
  8
CSLAYER1
  6
CONTINUOUS
 62
     3
 10
947.838476
 20
1138.385674
 11
948.338476
 21
1138.385674
  0
LINE
  8
CSLAYER1
  6
CONTINUOUS
 62
     3
 10
947.838476
 20
1153.385674
 11
948.338476
 21
1153.385674
  0
LINE
  8
CSLAYER1
  6
CENTER
 62
     5
 10
891.338476
 20
1200.135292
 11
891.338476
 21
871.053469
  0
LINE
  8
CSLAYER1
  6
CONTINUOUS
 62
     3
 10
920.338476
 20
849.599229
 11
920.338476
 21
903.142709
  0
LINE
  8
CSLAYER1
  6
CONTINUOUS
 62
     3
 10
914.338476
 20
849.599229
 11
914.338476
 21
903.142709
  0
LINE
  8
CSLAYER1
  6
CONTINUOUS
 62
     3
 10
862.338476
 20
849.599229
 11
862.338476
 21
903.142709
  0
LINE
  8
CSLAYER1
  6
CONTINUOUS
 62
     3
 10
868.338476
 20
849.599229
 11
868.338476
 21
903.142709
  0
LINE
  8
CSLAYER1
  6
CONTINUOUS
 62
     3
 10
913.838476
 20
1187.535292
 11
913.838476
 21
1212.735292
  0
LINE
  8
CSLAYER1
  6
CONTINUOUS
 62
     3
 10
868.838476
 20
1187.535292
 11
868.838476
 21
1212.735292
  0
LINE
  8
CSLAYER1
  6
CONTINUOUS
 62
     3
 10
869.838476
 20
1213.735292
 11
912.838476
 21
1213.735292
  0
LINE
  8
CSLAYER1
  6
CONTINUOUS
 62
     3
 10
868.838476
 20
1212.735292
 11
869.838476
 21
1213.735292
  0
LINE
  8
CSLAYER1
  6
CONTINUOUS
 62
     3
 10
912.838476
 20
1213.735292
 11
913.838476
 21
1212.735292
  0
POINT
  8
CSLAYER1
 62
     3
 10
891.338476
 20
1200.135292
  0
LINE
  8
CSLAYER1
  6
CONTINUOUS
 62
     3
 10
914.838476
 20
1208.135292
 11
913.838476
 21
1208.135292
  0
LINE
  8
CSLAYER1
  6
CONTINUOUS
 62
     3
 10
868.838476
 20
1208.135292
 11
867.838476
 21
1208.135292
  0
LINE
  8
CSLAYER1
  6
CONTINUOUS
 62
     3
 10
909.338476
 20
1023.061374
 11
909.338476
 21
1188.470172
  0
LINE
  8
CSLAYER1
  6
CONTINUOUS
 62
     3
 10
909.338476
 20
1188.470172
 11
909.269980
 21
1189.230743
  0
LINE
  8
CSLAYER1
  6
CONTINUOUS
 62
     3
 10
909.269980
 20
1189.230743
 11
909.065015
 21
1189.985525
  0
LINE
  8
CSLAYER1
  6
CONTINUOUS
 62
     3
 10
909.065015
 20
1189.985525
 11
908.725140
 21
1190.728775
  0
LINE
  8
CSLAYER1
  6
CONTINUOUS
 62
     3
 10
908.725140
 20
1190.728775
 11
908.252943
 21
1191.454836
  0
LINE
  8
CSLAYER1
  6
CONTINUOUS
 62
     3
 10
908.252943
 20
1191.454836
 11
907.652016
 21
1192.158181
  0
LINE
  8
CSLAYER1
  6
CONTINUOUS
 62
     3
 10
907.652016
 20
1192.158181
 11
906.926933
 21
1192.833458
  0
LINE
  8
CSLAYER1
  6
CONTINUOUS
 62
     3
 10
906.926933
 20
1192.833458
 11
906.083212
 21
1193.475529
  0
LINE
  8
CSLAYER1
  6
CONTINUOUS
 62
     3
 10
906.083212
 20
1193.475529
 11
905.127276
 21
1194.079505
  0
LINE
  8
CSLAYER1
  6
CONTINUOUS
 62
     3
 10
905.127276
 20
1194.079505
 11
904.066398
 21
1194.640791
  0
LINE
  8
CSLAYER1
  6
CONTINUOUS
 62
     3
 10
904.066398
 20
1194.640791
 11
902.908653
 21
1195.155115
  0
LINE
  8
CSLAYER1
  6
CONTINUOUS
 62
     3
 10
902.908653
 20
1195.155115
 11
901.662851
 21
1195.618562
  0
LINE
  8
CSLAYER1
  6
CONTINUOUS
 62
     3
 10
901.662851
 20
1195.618562
 11
900.338476
 21
1196.027606
  0
LINE
  8
CSLAYER1
  6
CONTINUOUS
 62
     3
 10
900.338476
 20
1196.027606
 11
898.945604
 21
1196.379133
  0
LINE
  8
CSLAYER1
  6
CONTINUOUS
 62
     3
 10
898.945604
 20
1196.379133
 11
897.494838
 21
1196.670468
  0
LINE
  8
CSLAYER1
  6
CONTINUOUS
 62
     3
 10
897.494838
 20
1196.670468
 11
895.997218
 21
1196.899394
  0
LINE
  8
CSLAYER1
  6
CONTINUOUS
 62
     3
 10
895.997218
 20
1196.899394
 11
894.464143
 21
1197.064169
  0
LINE
  8
CSLAYER1
  6
CONTINUOUS
 62
     3
 10
894.464143
 20
1197.064169
 11
892.907279
 21
1197.163538
  0
LINE
  8
CSLAYER1
  6
CONTINUOUS
 62
     3
 10
892.907279
 20
1197.163538
 11
891.338476
 21
1197.196745
  0
LINE
  8
CSLAYER1
  6
CONTINUOUS
 62
     3
 10
891.338476
 20
1197.196745
 11
889.769672
 21
1197.163538
  0
LINE
  8
CSLAYER1
  6
CONTINUOUS
 62
     3
 10
889.769672
 20
1197.163538
 11
888.212808
 21
1197.064169
  0
LINE
  8
CSLAYER1
  6
CONTINUOUS
 62
     3
 10
888.212808
 20
1197.064169
 11
886.679733
 21
1196.899394
  0
LINE
  8
CSLAYER1
  6
CONTINUOUS
 62
     3
 10
886.679733
 20
1196.899394
 11
885.182113
 21
1196.670468
  0
LINE
  8
CSLAYER1
  6
CONTINUOUS
 62
     3
 10
885.182113
 20
1196.670468
 11
883.731347
 21
1196.379133
  0
LINE
  8
CSLAYER1
  6
CONTINUOUS
 62
     3
 10
883.731347
 20
1196.379133
 11
882.338476
 21
1196.027606
  0
LINE
  8
CSLAYER1
  6
CONTINUOUS
 62
     3
 10
882.338476
 20
1196.027606
 11
881.014100
 21
1195.618562
  0
LINE
  8
CSLAYER1
  6
CONTINUOUS
 62
     3
 10
881.014100
 20
1195.618562
 11
879.768299
 21
1195.155115
  0
LINE
  8
CSLAYER1
  6
CONTINUOUS
 62
     3
 10
879.768299
 20
1195.155115
 11
878.610553
 21
1194.640791
  0
LINE
  8
CSLAYER1
  6
CONTINUOUS
 62
     3
 10
878.610553
 20
1194.640791
 11
877.549676
 21
1194.079505
  0
LINE
  8
CSLAYER1
  6
CONTINUOUS
 62
     3
 10
877.549676
 20
1194.079505
 11
876.593739
 21
1193.475529
  0
LINE
  8
CSLAYER1
  6
CONTINUOUS
 62
     3
 10
876.593739
 20
1193.475529
 11
875.750018
 21
1192.833458
  0
LINE
  8
CSLAYER1
  6
CONTINUOUS
 62
     3
 10
875.750018
 20
1192.833458
 11
875.024935
 21
1192.158181
  0
LINE
  8
CSLAYER1
  6
CONTINUOUS
 62
     3
 10
875.024935
 20
1192.158181
 11
874.424008
 21
1191.454836
  0
LINE
  8
CSLAYER1
  6
CONTINUOUS
 62
     3
 10
874.424008
 20
1191.454836
 11
873.951811
 21
1190.728775
  0
LINE
  8
CSLAYER1
  6
CONTINUOUS
 62
     3
 10
873.951811
 20
1190.728775
 11
873.611936
 21
1189.985525
  0
LINE
  8
CSLAYER1
  6
CONTINUOUS
 62
     3
 10
873.611936
 20
1189.985525
 11
873.406971
 21
1189.230743
  0
LINE
  8
CSLAYER1
  6
CONTINUOUS
 62
     3
 10
873.406971
 20
1189.230743
 11
873.338476
 21
1188.470172
  0
LINE
  8
CSLAYER1
  6
CONTINUOUS
 62
     3
 10
873.338476
 20
1023.100515
 11
873.338476
 21
1188.470172
  0
LINE
  8
CSLAYER1
  6
CENTER
 62
     5
 10
851.338476
 20
837.518911
 11
851.338476
 21
972.517548
  0
LINE
  8
CSLAYER1
  6
CONTINUOUS
 62
     3
 10
858.338476
 20
966.817548
 11
844.338476
 21
966.817548
  0
LINE
  8
CSLAYER1
  6
CONTINUOUS
 62
     3
 10
858.338476
 20
959.017548
 11
844.338476
 21
959.017548
  0
LINE
  8
CSLAYER1
  6
CONTINUOUS
 62
     3
 10
857.770407
 20
953.817548
 11
844.906544
 21
953.817548
  0
LINE
  8
CSLAYER1
  6
CONTINUOUS
 62
     3
 10
857.338476
 20
951.817548
 11
845.338476
 21
951.817548
  0
LINE
  8
CSLAYER1
  6
CONTINUOUS
 62
     3
 10
857.338476
 20
944.817548
 11
845.338476
 21
944.817548
  0
LINE
  8
CSLAYER1
  6
CONTINUOUS
 62
     3
 10
856.221502
 20
919.817548
 11
846.455449
 21
919.817548
  0
LINE
  8
CSLAYER1
  6
CONTINUOUS
 62
     3
 10
856.838476
 20
941.817548
 11
856.838476
 21
944.817548
  0
LINE
  8
CSLAYER1
  6
CONTINUOUS
 62
     3
 10
859.421379
 20
959.642762
 11
859.421379
 21
966.192333
  0
LINE
  8
CSLAYER1
  6
CONTINUOUS
 62
     3
 10
855.379927
 20
959.642762
 11
855.379927
 21
966.192333
  0
ARC
  8
CSLAYER1
  6
CONTINUOUS
 62
     3
 10
828.650705
 20
959.059769
 40
29.587800
 50
345.831727
 51
359.918240
  0
ARC
  8
CSLAYER1
  6
CONTINUOUS
 62
     3
 10
874.026246
 20
959.059769
 40
29.587800
 50
180.081760
 51
194.168273
  0
LINE
  8
CSLAYER1
  6
CONTINUOUS
 62
     3
 10
855.685790
 20
951.817548
 11
855.685790
 21
953.817548
  0
LINE
  8
CSLAYER1
  6
CONTINUOUS
 62
     3
 10
853.704024
 20
951.817548
 11
853.704024
 21
953.817548
  0
LINE
  8
CSLAYER1
  6
CONTINUOUS
 62
     3
 10
846.991161
 20
951.817548
 11
846.991161
 21
953.817548
  0
LINE
  8
CSLAYER1
  6
CONTINUOUS
 62
     3
 10
848.972927
 20
951.817548
 11
848.972927
 21
953.817548
  0
LINE
  8
CSLAYER1
  6
CONTINUOUS
 62
     3
 10
858.338476
 20
966.817548
 11
859.421379
 21
966.192333
  0
ARC
  8
CSLAYER1
  6
CONTINUOUS
 62
     3
 10
857.400653
 20
963.265919
 40
3.556295
 50
64.625569
 51
124.625569
  0
ARC
  8
CSLAYER1
  6
CONTINUOUS
 62
     3
 10
851.338476
 20
953.442762
 40
13.374785
 50
72.412046
 51
107.587954
  0
LINE
  8
CSLAYER1
  6
CONTINUOUS
 62
     3
 10
858.338476
 20
959.017548
 11
859.421379
 21
959.642762
  0
ARC
  8
CSLAYER1
  6
CONTINUOUS
 62
     3
 10
857.400653
 20
962.569176
 40
3.556295
 50
235.374431
 51
295.374431
  0
ARC
  8
CSLAYER1
  6
CONTINUOUS
 62
     3
 10
851.338476
 20
972.392333
 40
13.374785
 50
252.412046
 51
287.587954
  0
LINE
  8
CSLAYER1
  6
CONTINUOUS
 62
     3
 10
843.255572
 20
959.642762
 11
843.255572
 21
966.192333
  0
LINE
  8
CSLAYER1
  6
CONTINUOUS
 62
     3
 10
847.297024
 20
959.642762
 11
847.297024
 21
966.192333
  0
LINE
  8
CSLAYER1
  6
CONTINUOUS
 62
     3
 10
844.338476
 20
966.817548
 11
843.255572
 21
966.192333
  0
ARC
  8
CSLAYER1
  6
CONTINUOUS
 62
     3
 10
845.276298
 20
963.265919
 40
3.556295
 50
55.374431
 51
115.374431
  0
LINE
  8
CSLAYER1
  6
CONTINUOUS
 62
     3
 10
844.338476
 20
959.017548
 11
843.255572
 21
959.642762
  0
ARC
  8
CSLAYER1
  6
CONTINUOUS
 62
     3
 10
845.276298
 20
962.569176
 40
3.556295
 50
244.625569
 51
304.625569
  0
LINE
  8
CSLAYER1
  6
CONTINUOUS
 62
     3
 10
858.266679
 20
945.353446
 11
858.266679
 21
951.081649
  0
LINE
  8
CSLAYER1
  6
CONTINUOUS
 62
     3
 10
854.802577
 20
945.353446
 11
854.802577
 21
951.081649
  0
LINE
  8
CSLAYER1
  6
CONTINUOUS
 62
     3
 10
857.338476
 20
944.817548
 11
858.266679
 21
945.353446
  0
ARC
  8
CSLAYER1
  6
CONTINUOUS
 62
     3
 10
851.338476
 20
956.281649
 40
11.464102
 50
252.178595
 51
287.821405
  0
ARC
  8
CSLAYER1
  6
CONTINUOUS
 62
     3
 10
856.534628
 20
947.883476
 40
3.066114
 50
236.143645
 51
295.804157
  0
LINE
  8
CSLAYER1
  6
CONTINUOUS
 62
     3
 10
857.338476
 20
951.617548
 11
858.266679
 21
951.081649
  0
ARC
  8
CSLAYER1
  6
CONTINUOUS
 62
     3
 10
851.338476
 20
940.153446
 40
11.464102
 50
72.178595
 51
107.821405
  0
ARC
  8
CSLAYER1
  6
CONTINUOUS
 62
     3
 10
856.534628
 20
948.551619
 40
3.066114
 50
64.195843
 51
123.856355
  0
LINE
  8
CSLAYER1
  6
CONTINUOUS
 62
     3
 10
857.338476
 20
951.617548
 11
845.338476
 21
951.617548
  0
LINE
  8
CSLAYER1
  6
CONTINUOUS
 62
     3
 10
854.802577
 20
951.617548
 11
854.802577
 21
951.817548
  0
LINE
  8
CSLAYER1
  6
CONTINUOUS
 62
     3
 10
845.838476
 20
941.817548
 11
845.838476
 21
944.817548
  0
LINE
  8
CSLAYER1
  6
CONTINUOUS
 62
     3
 10
844.410272
 20
945.353446
 11
844.410272
 21
951.081649
  0
LINE
  8
CSLAYER1
  6
CONTINUOUS
 62
     3
 10
847.874374
 20
945.353446
 11
847.874374
 21
951.081649
  0
LINE
  8
CSLAYER1
  6
CONTINUOUS
 62
     3
 10
845.338476
 20
944.817548
 11
844.410272
 21
945.353446
  0
ARC
  8
CSLAYER1
  6
CONTINUOUS
 62
     3
 10
846.142323
 20
947.883476
 40
3.066114
 50
244.195843
 51
303.856355
  0
LINE
  8
CSLAYER1
  6
CONTINUOUS
 62
     3
 10
845.338476
 20
951.617548
 11
844.410272
 21
951.081649
  0
ARC
  8
CSLAYER1
  6
CONTINUOUS
 62
     3
 10
846.142323
 20
948.551619
 40
3.066114
 50
56.143645
 51
115.804157
  0
LINE
  8
CSLAYER1
  6
CONTINUOUS
 62
     3
 10
847.874374
 20
951.617548
 11
847.874374
 21
951.817548
  0
LINE
  8
CSLAYER1
  6
CONTINUOUS
 62
     3
 10
858.266679
 20
932.817548
 11
858.266679
 21
941.281649
  0
LINE
  8
CSLAYER1
  6
CONTINUOUS
 62
     3
 10
854.802577
 20
932.817548
 11
854.802577
 21
941.281649
  0
LINE
  8
CSLAYER1
  6
CONTINUOUS
 62
     3
 10
857.338476
 20
941.817548
 11
858.266679
 21
941.281649
  0
ARC
  8
CSLAYER1
  6
CONTINUOUS
 62
     3
 10
851.338476
 20
930.353446
 40
11.464102
 50
72.178595
 51
107.821405
  0
ARC
  8
CSLAYER1
  6
CONTINUOUS
 62
     3
 10
856.534628
 20
938.751619
 40
3.066114
 50
64.195843
 51
123.856355
  0
LINE
  8
CSLAYER1
  6
CONTINUOUS
 62
     3
 10
857.338476
 20
941.817548
 11
845.338476
 21
941.817548
  0
LINE
  8
CSLAYER1
  6
CONTINUOUS
 62
     3
 10
844.410272
 20
932.817548
 11
844.410272
 21
941.281649
  0
LINE
  8
CSLAYER1
  6
CONTINUOUS
 62
     3
 10
847.874374
 20
932.817548
 11
847.874374
 21
941.281649
  0
LINE
  8
CSLAYER1
  6
CONTINUOUS
 62
     3
 10
845.338476
 20
941.817548
 11
844.410272
 21
941.281649
  0
ARC
  8
CSLAYER1
  6
CONTINUOUS
 62
     3
 10
846.142323
 20
938.751619
 40
3.066114
 50
56.143645
 51
115.804157
  0
LINE
  8
CSLAYER1
  6
CONTINUOUS
 62
     3
 10
857.217757
 20
920.731088
 11
858.266679
 21
932.817548
  0
ARC
  8
CSLAYER1
  6
CONTINUOUS
 62
     3
 10
836.160987
 20
932.817548
 40
18.641590
 50
330.443788
 51
360.000000
  0
ARC
  8
CSLAYER1
  6
CONTINUOUS
 62
     3
 10
851.338476
 20
924.257402
 40
1.217263
 50
210.578468
 51
329.421532
  0
ARC
  8
CSLAYER1
  6
CONTINUOUS
 62
     3
 10
873.444167
 20
932.817548
 40
18.641590
 50
180.000000
 51
209.556212
  0
ARC
  8
CSLAYER1
  6
CONTINUOUS
 62
     3
 10
858.266679
 20
924.257402
 40
1.217263
 50
210.578468
 51
227.594217
  0
ARC
  8
CSLAYER1
  6
CONTINUOUS
 62
     3
 10
856.221502
 20
920.817548
 40
1.000000
 50
270.000000
 51
355.040021
  0
LINE
  8
CSLAYER1
  6
CONTINUOUS
 62
     3
 10
845.459194
 20
920.731088
 11
844.410272
 21
932.817548
  0
ARC
  8
CSLAYER1
  6
CONTINUOUS
 62
     3
 10
866.515964
 20
932.817548
 40
18.641590
 50
180.000000
 51
209.556212
  0
ARC
  8
CSLAYER1
  6
CONTINUOUS
 62
     3
 10
829.232784
 20
932.817548
 40
18.641590
 50
330.443788
 51
360.000000
  0
ARC
  8
CSLAYER1
  6
CONTINUOUS
 62
     3
 10
844.410272
 20
924.257402
 40
1.217263
 50
312.405783
 51
329.421532
  0
ARC
  8
CSLAYER1
  6
CONTINUOUS
 62
     3
 10
846.455449
 20
920.817548
 40
1.000000
 50
184.959979
 51
270.000000
  0
LINE
  8
CSLAYER1
  6
CONTINUOUS
 62
     3
 10
858.338476
 20
986.517548
 11
845.838476
 21
986.517548
  0
LINE
  8
CSLAYER1
  6
CENTER
 62
     5
 10
863.838476
 20
979.517548
 11
858.338476
 21
979.517548
  0
LINE
  8
CSLAYER1
  6
CONTINUOUS
 62
     3
 10
844.338476
 20
972.517548
 11
844.338476
 21
985.017548
  0
LINE
  8
CSLAYER1
  6
CONTINUOUS
 62
     3
 10
858.338476
 20
972.517548
 11
844.338476
 21
972.517548
  0
LINE
  8
CSLAYER1
  6
CONTINUOUS
 62
     3
 10
858.338476
 20
972.517548
 11
858.338476
 21
986.515103
  0
LINE
  8
CSLAYER1
  6
CONTINUOUS
 62
     3
 10
855.938476
 20
966.817548
 11
855.938476
 21
972.517548
  0
LINE
  8
CSLAYER1
  6
CONTINUOUS
 62
     5
 10
855.338476
 20
966.817548
 11
855.338476
 21
971.478317
  0
LINE
  8
CSLAYER1
  6
CONTINUOUS
 62
     5
 10
855.938476
 20
972.517548
 11
855.338476
 21
971.478317
  0
LINE
  8
CSLAYER1
  6
CONTINUOUS
 62
     3
 10
846.738476
 20
966.817548
 11
846.738476
 21
972.517548
  0
LINE
  8
CSLAYER1
  6
CONTINUOUS
 62
     5
 10
846.738476
 20
972.517548
 11
847.338476
 21
971.478317
  0
LINE
  8
CSLAYER1
  6
CONTINUOUS
 62
     5
 10
855.338476
 20
971.478317
 11
847.338476
 21
971.478317
  0
LINE
  8
CSLAYER1
  6
CONTINUOUS
 62
     3
 10
863.838476
 20
974.665762
 11
858.338476
 21
974.567548
  0
LINE
  8
CSLAYER1
  6
CONTINUOUS
 62
     5
 10
863.838476
 20
975.365873
 11
858.325978
 21
975.267436
  0
LINE
  8
CSLAYER1
  6
CONTINUOUS
 62
     3
 10
863.838476
 20
984.369333
 11
858.338476
 21
984.467548
  0
LINE
  8
CSLAYER1
  6
CONTINUOUS
 62
     5
 10
863.838476
 20
983.669222
 11
858.325978
 21
983.767659
  0
ARC
  8
CSLAYER1
  6
CONTINUOUS
 62
     3
 10
845.838476
 20
985.017548
 40
1.500000
 50
90.000000
 51
180.000000
  0
LINE
  8
CSLAYER1
  6
CONTINUOUS
 62
     3
 10
869.838476
 20
1186.535292
 11
873.338476
 21
1186.535292
  0
LINE
  8
CSLAYER1
  6
CONTINUOUS
 62
     3
 10
868.838476
 20
1187.535292
 11
869.838476
 21
1186.535292
  0
LINE
  8
CSLAYER1
  6
CONTINUOUS
 62
     3
 10
912.838476
 20
1186.535292
 11
913.838476
 21
1187.535292
  0
LINE
  8
CSLAYER1
  6
CONTINUOUS
 62
     3
 10
914.838476
 20
1192.135292
 11
913.838476
 21
1192.135292
  0
LINE
  8
CSLAYER1
  6
CONTINUOUS
 62
     3
 10
868.838476
 20
1192.135292
 11
867.838476
 21
1192.135292
  0
LINE
  8
CSLAYER1
  6
CONTINUOUS
 62
     3
 10
855.838476
 20
1217.135292
 11
867.838476
 21
1217.135292
  0
LINE
  8
CSLAYER1
  6
CONTINUOUS
 62
     3
 10
855.838476
 20
1145.379130
 11
867.838476
 21
1145.379130
  0
LINE
  8
CSLAYER1
  6
CONTINUOUS
 62
     3
 10
914.838476
 20
1145.379130
 11
914.838476
 21
1217.135292
  0
LINE
  8
CSLAYER1
  6
CONTINUOUS
 62
     3
 10
867.838476
 20
1145.379130
 11
867.838476
 21
1217.135292
  0
LINE
  8
CSLAYER1
  6
CONTINUOUS
 62
     3
 10
855.838476
 20
1145.379130
 11
855.838476
 21
1217.135292
  0
LINE
  8
CSLAYER1
  6
CONTINUOUS
 62
     3
 10
914.838476
 20
1145.379130
 11
926.838476
 21
1145.379130
  0
LINE
  8
CSLAYER1
  6
CONTINUOUS
 62
     3
 10
914.838476
 20
1217.135292
 11
926.838476
 21
1217.135292
  0
LINE
  8
CSLAYER1
  6
CONTINUOUS
 62
     3
 10
834.838476
 20
1208.135292
 11
855.838476
 21
1208.135292
  0
LINE
  8
CSLAYER1
  6
CONTINUOUS
 62
     3
 10
834.838476
 20
1192.135292
 11
855.838476
 21
1192.135292
  0
LINE
  8
CSLAYER1
  6
CONTINUOUS
 62
     3
 10
926.838476
 20
1291.092340
 11
834.838476
 21
1291.092340
  0
LINE
  8
CSLAYER1
  6
CONTINUOUS
 62
     3
 10
802.338476
 20
1140.885674
 11
802.838476
 21
1140.885674
  0
LINE
  8
CSLAYER1
  6
CONTINUOUS
 62
     3
 10
813.338476
 20
1156.385674
 11
813.338476
 21
1135.385674
  0
LINE
  8
CSLAYER1
  6
CONTINUOUS
 62
     3
 10
801.338476
 20
1141.885674
 11
801.338476
 21
1149.885674
  0
LINE
  8
CSLAYER1
  6
CONTINUOUS
 62
     3
 10
822.838476
 20
1159.885674
 11
825.838476
 21
1159.885674
  0
LINE
  8
CSLAYER1
  6
CONTINUOUS
 62
     3
 10
822.838476
 20
837.518911
 11
822.838476
 21
1483.512322
  0
LINE
  8
CSLAYER1
  6
CONTINUOUS
 62
     3
 10
825.838476
 20
837.518911
 11
825.838476
 21
1495.812322
  0
LINE
  8
CSLAYER1
  6
CONTINUOUS
 62
     3
 10
822.838476
 20
1131.885674
 11
825.838476
 21
1131.885674
  0
LINE
  8
CSLAYER1
  6
CONTINUOUS
 62
     3
 10
811.338476
 20
1156.385674
 11
811.338476
 21
1135.385674
  0
LINE
  8
CSLAYER1
  6
CONTINUOUS
 62
     3
 10
808.838476
 20
1155.085674
 11
808.838476
 21
1136.685674
  0
LINE
  8
CSLAYER1
  6
CONTINUOUS
 62
     3
 10
808.838476
 20
1136.685674
 11
811.338476
 21
1136.685674
  0
LINE
  8
CSLAYER1
  6
CONTINUOUS
 62
     3
 10
811.338476
 20
1135.385674
 11
813.338476
 21
1135.385674
  0
LINE
  8
CSLAYER1
  6
CONTINUOUS
 62
     3
 10
808.838476
 20
1155.085674
 11
811.338476
 21
1155.085674
  0
LINE
  8
CSLAYER1
  6
CONTINUOUS
 62
     3
 10
811.338476
 20
1156.385674
 11
813.338476
 21
1156.385674
  0
LINE
  8
CSLAYER1
  6
CONTINUOUS
 62
     3
 10
802.838476
 20
1154.385674
 11
802.838476
 21
1137.385674
  0
LINE
  8
CSLAYER1
  6
CONTINUOUS
 62
     3
 10
802.338476
 20
1140.885674
 11
801.338476
 21
1141.885674
  0
LINE
  8
CSLAYER1
  6
CONTINUOUS
 62
     3
 10
801.638476
 20
1141.585674
 11
802.838476
 21
1141.585674
  0
LINE
  8
CSLAYER1
  6
CONTINUOUS
 62
     3
 10
802.338476
 20
1140.885674
 11
802.338476
 21
1150.885674
  0
LINE
  8
CSLAYER1
  6
CONTINUOUS
 62
     3
 10
803.597665
 20
1136.070720
 11
808.079286
 21
1136.070720
  0
LINE
  8
CSLAYER1
  6
CONTINUOUS
 62
     3
 10
803.597665
 20
1140.978197
 11
808.079286
 21
1140.978197
  0
LINE
  8
CSLAYER1
  6
CONTINUOUS
 62
     3
 10
802.838476
 20
1137.385674
 11
803.597665
 21
1136.070720
  0
ARC
  8
CSLAYER1
  6
CONTINUOUS
 62
     3
 10
819.079286
 20
1145.885674
 40
16.240811
 50
162.412046
 51
197.587954
  0
ARC
  8
CSLAYER1
  6
CONTINUOUS
 62
     3
 10
807.179400
 20
1138.524458
 40
4.341619
 50
145.586132
 51
207.480777
  0
LINE
  8
CSLAYER1
  6
CONTINUOUS
 62
     3
 10
802.838476
 20
1154.385674
 11
803.597665
 21
1155.700629
  0
ARC
  8
CSLAYER1
  6
CONTINUOUS
 62
     3
 10
807.179400
 20
1153.246890
 40
4.341619
 50
152.519223
 51
214.413868
  0
LINE
  8
CSLAYER1
  6
CONTINUOUS
 62
     3
 10
808.838476
 20
1137.385674
 11
808.079286
 21
1136.070720
  0
ARC
  8
CSLAYER1
  6
CONTINUOUS
 62
     3
 10
792.597665
 20
1145.885674
 40
16.240811
 50
-17.587954
 51
17.587954
  0
ARC
  8
CSLAYER1
  6
CONTINUOUS
 62
     3
 10
804.497551
 20
1138.524458
 40
4.341619
 50
-27.480777
 51
34.413868
  0
LINE
  8
CSLAYER1
  6
CONTINUOUS
 62
     3
 10
808.838476
 20
1154.385674
 11
808.079286
 21
1155.700629
  0
ARC
  8
CSLAYER1
  6
CONTINUOUS
 62
     3
 10
804.497551
 20
1153.246890
 40
4.341619
 50
-34.413868
 51
27.480777
  0
LINE
  8
CSLAYER1
  6
CONTINUOUS
 62
     3
 10
803.597665
 20
1155.700629
 11
808.079286
 21
1155.700629
  0
LINE
  8
CSLAYER1
  6
CONTINUOUS
 62
     3
 10
803.597665
 20
1150.793152
 11
808.079286
 21
1150.793152
  0
LINE
  8
CSLAYER1
  6
CONTINUOUS
 62
     3
 10
802.338476
 20
1150.885674
 11
802.838476
 21
1150.885674
  0
LINE
  8
CSLAYER1
  6
CONTINUOUS
 62
     3
 10
802.338476
 20
1150.885674
 11
801.338476
 21
1149.885674
  0
LINE
  8
CSLAYER1
  6
CONTINUOUS
 62
     3
 10
801.638476
 20
1150.185674
 11
802.838476
 21
1150.185674
  0
LINE
  8
CSLAYER1
  6
CONTINUOUS
 62
     3
 10
811.338476
 20
1147.787122
 11
808.838476
 21
1144.417557
  0
LINE
  8
CSLAYER1
  6
CONTINUOUS
 62
     3
 10
813.838476
 20
1138.385674
 11
813.338476
 21
1138.385674
  0
LINE
  8
CSLAYER1
  6
CONTINUOUS
 62
     3
 10
813.838476
 20
1153.385674
 11
813.338476
 21
1153.385674
  0
LINE
  8
CSLAYER1
  6
CONTINUOUS
 62
     3
 10
780.838476
 20
1495.812322
 11
780.838476
 21
1513.812322
  0
LINE
  8
CSLAYER1
  6
CONTINUOUS
 62
     3
 10
824.838476
 20
1485.362322
 11
825.838476
 21
1485.362322
  0
LINE
  8
CSLAYER1
  6
CONTINUOUS
 62
     3
 10
823.838476
 20
1495.812322
 11
823.838476
 21
1486.362322
  0
LINE
  8
CSLAYER1
  6
CONTINUOUS
 62
     3
 10
823.838476
 20
1486.362322
 11
824.838476
 21
1485.362322
  0
LINE
  8
CSLAYER1
  6
CONTINUOUS
 62
     3
 10
824.838476
 20
1495.812322
 11
824.838476
 21
1485.362322
  0
LINE
  8
CSLAYER1
  6
CONTINUOUS
 62
     3
 10
823.338476
 20
1483.512322
 11
817.338476
 21
1483.512322
  0
LINE
  8
CSLAYER1
  6
CONTINUOUS
 62
     3
 10
817.338476
 20
1495.812322
 11
817.338476
 21
1483.262322
  0
LINE
  8
CSLAYER1
  6
CONTINUOUS
 62
     3
 10
823.338476
 20
1495.812322
 11
823.338476
 21
1483.512322
  0
LINE
  8
CSLAYER1
  6
CONTINUOUS
 62
     3
 10
814.338476
 20
1483.042667
 11
814.338476
 21
1495.812322
  0
LINE
  8
CSLAYER1
  6
CONTINUOUS
 62
     3
 10
817.338476
 20
1483.262322
 11
814.338476
 21
1483.262322
  0
LINE
  8
CSLAYER1
  6
CONTINUOUS
 62
     3
 10
817.338476
 20
1492.500125
 11
814.499450
 21
1495.812322
  0
LINE
  8
CSLAYER1
  6
CONTINUOUS
 62
     3
 10
806.338476
 20
1495.812322
 11
806.338476
 21
1485.012322
  0
ARC
  8
CSLAYER1
  6
CONTINUOUS
 62
     3
 10
820.134220
 20
1494.012322
 40
13.795744
 50
172.502957
 51
203.426598
  0
LINE
  8
CSLAYER1
  6
CONTINUOUS
 62
     3
 10
814.338476
 20
1488.527494
 11
807.475656
 21
1488.527494
  0
LINE
  8
CSLAYER1
  6
CONTINUOUS
 62
     3
 10
814.338476
 20
1483.042667
 11
807.475656
 21
1483.042667
  0
LINE
  8
CSLAYER1
  6
CONTINUOUS
 62
     3
 10
806.338476
 20
1485.012322
 11
807.475656
 21
1483.042667
  0
ARC
  8
CSLAYER1
  6
CONTINUOUS
 62
     3
 10
810.118520
 20
1485.785080
 40
3.808617
 50
133.940972
 51
174.338367
  0
LINE
  8
CSLAYER1
  6
CONTINUOUS
 62
     3
 10
834.838476
 20
837.518911
 11
834.838476
 21
1495.812322
  0
LINE
  8
CSLAYER1
  6
CONTINUOUS
 62
     3
 10
813.838476
 20
837.518911
 11
813.838476
 21
1483.042667
  0
LINE
  8
CSLAYER1
  6
CONTINUOUS
 62
     3
 10
795.838476
 20
1481.512322
 11
795.838476
 21
1495.812322
  0
LINE
  8
CSLAYER1
  6
CONTINUOUS
 62
     3
 10
800.338476
 20
1481.512322
 11
800.338476
 21
1495.812322
  0
LINE
  8
CSLAYER1
  6
CONTINUOUS
 62
     3
 10
795.838476
 20
1481.512322
 11
800.338476
 21
1481.512322
  0
LINE
  8
CSLAYER1
  6
CONTINUOUS
 62
     3
 10
965.838476
 20
1481.512322
 11
965.838476
 21
1495.812322
  0
LINE
  8
CSLAYER1
  6
CONTINUOUS
 62
     3
 10
961.338476
 20
1481.512322
 11
961.338476
 21
1495.812322
  0
LINE
  8
CSLAYER1
  6
CONTINUOUS
 62
     3
 10
965.838476
 20
1481.512322
 11
961.338476
 21
1481.512322
  0
LINE
  8
CSLAYER1
  6
CONTINUOUS
 62
     3
 10
909.338476
 20
1186.535292
 11
912.838476
 21
1186.535292
  0
LINE
  8
CSLAYER1
  6
CONTINUOUS
 62
     3
 10
834.838476
 20
1171.854854
 11
855.838476
 21
1171.854854
  0
LINE
  8
CSLAYER1
  6
CONTINUOUS
 62
     3
 10
834.838476
 20
1123.254854
 11
873.338476
 21
1123.254854
  0
LINE
  8
CSLAYER1
  6
CONTINUOUS
 62
     3
 10
834.838476
 20
1430.375807
 11
926.838476
 21
1430.375807
  0
LINE
  8
CSLAYER1
  6
CONTINUOUS
 62
     3
 10
867.838476
 20
1171.854854
 11
873.338476
 21
1171.854854
  0
LINE
  8
CSLAYER1
  6
CONTINUOUS
 62
     3
 10
909.338476
 20
1171.854854
 11
914.838476
 21
1171.854854
  0
LINE
  8
CSLAYER1
  6
CONTINUOUS
 62
     3
 10
909.338476
 20
1123.254854
 11
926.838476
 21
1123.254854
  0
LINE
  8
CSLAYER1
  6
CENTER
 62
     5
 10
862.338476
 20
887.142709
 11
920.338476
 21
887.142709
  0
LINE
  8
CSLAYER1
  6
CONTINUOUS
 62
     3
 10
914.250954
 20
1017.106441
 11
918.733830
 21
999.817215
  0
LINE
  8
CSLAYER1
  6
CONTINUOUS
 62
     3
 10
914.250954
 20
1017.106441
 11
913.989054
 21
1018.070886
  0
LINE
  8
CSLAYER1
  6
CONTINUOUS
 62
     3
 10
913.989054
 20
1018.070886
 11
913.554770
 21
1019.020594
  0
LINE
  8
CSLAYER1
  6
CONTINUOUS
 62
     3
 10
913.554770
 20
1019.020594
 11
912.951406
 21
1019.948338
  0
LINE
  8
CSLAYER1
  6
CONTINUOUS
 62
     3
 10
912.951406
 20
1019.948338
 11
912.183555
 21
1020.847057
  0
LINE
  8
CSLAYER1
  6
CONTINUOUS
 62
     3
 10
912.183555
 20
1020.847057
 11
911.257060
 21
1021.709911
  0
LINE
  8
CSLAYER1
  6
CONTINUOUS
 62
     3
 10
911.257060
 20
1021.709911
 11
910.178973
 21
1022.530334
  0
LINE
  8
CSLAYER1
  6
CONTINUOUS
 62
     3
 10
910.178973
 20
1022.530334
 11
908.957498
 21
1023.302082
  0
LINE
  8
CSLAYER1
  6
CONTINUOUS
 62
     3
 10
908.957498
 20
1023.302082
 11
907.601932
 21
1024.019280
  0
LINE
  8
CSLAYER1
  6
CONTINUOUS
 62
     3
 10
907.601932
 20
1024.019280
 11
906.122591
 21
1024.676472
  0
LINE
  8
CSLAYER1
  6
CONTINUOUS
 62
     3
 10
906.122591
 20
1024.676472
 11
904.530734
 21
1025.268655
  0
LINE
  8
CSLAYER1
  6
CONTINUOUS
 62
     3
 10
904.530734
 20
1025.268655
 11
902.838476
 21
1025.791322
  0
LINE
  8
CSLAYER1
  6
CONTINUOUS
 62
     3
 10
902.838476
 20
1025.791322
 11
901.058696
 21
1026.240495
  0
LINE
  8
CSLAYER1
  6
CONTINUOUS
 62
     3
 10
901.058696
 20
1026.240495
 11
899.204939
 21
1026.612757
  0
LINE
  8
CSLAYER1
  6
CONTINUOUS
 62
     3
 10
899.204939
 20
1026.612757
 11
897.291314
 21
1026.905274
  0
LINE
  8
CSLAYER1
  6
CONTINUOUS
 62
     3
 10
897.291314
 20
1026.905274
 11
895.332384
 21
1027.115819
  0
LINE
  8
CSLAYER1
  6
CONTINUOUS
 62
     3
 10
895.332384
 20
1027.115819
 11
893.343058
 21
1027.242790
  0
LINE
  8
CSLAYER1
  6
CONTINUOUS
 62
     3
 10
893.343058
 20
1027.242790
 11
891.338476
 21
1027.285222
  0
LINE
  8
CSLAYER1
  6
CONTINUOUS
 62
     3
 10
868.425997
 20
1017.106441
 11
863.943121
 21
999.817215
  0
LINE
  8
CSLAYER1
  6
CONTINUOUS
 62
     3
 10
868.425997
 20
1017.106441
 11
868.687897
 21
1018.070886
  0
LINE
  8
CSLAYER1
  6
CONTINUOUS
 62
     3
 10
868.687897
 20
1018.070886
 11
869.122182
 21
1019.020594
  0
LINE
  8
CSLAYER1
  6
CONTINUOUS
 62
     3
 10
869.122182
 20
1019.020594
 11
869.725545
 21
1019.948338
  0
LINE
  8
CSLAYER1
  6
CONTINUOUS
 62
     3
 10
869.725545
 20
1019.948338
 11
870.493396
 21
1020.847057
  0
LINE
  8
CSLAYER1
  6
CONTINUOUS
 62
     3
 10
870.493396
 20
1020.847057
 11
871.419891
 21
1021.709911
  0
LINE
  8
CSLAYER1
  6
CONTINUOUS
 62
     3
 10
871.419891
 20
1021.709911
 11
872.497979
 21
1022.530334
  0
LINE
  8
CSLAYER1
  6
CONTINUOUS
 62
     3
 10
872.497979
 20
1022.530334
 11
873.719453
 21
1023.302082
  0
LINE
  8
CSLAYER1
  6
CONTINUOUS
 62
     3
 10
873.719453
 20
1023.302082
 11
875.075020
 21
1024.019280
  0
LINE
  8
CSLAYER1
  6
CONTINUOUS
 62
     3
 10
875.075020
 20
1024.019280
 11
876.554361
 21
1024.676472
  0
LINE
  8
CSLAYER1
  6
CONTINUOUS
 62
     3
 10
876.554361
 20
1024.676472
 11
878.146218
 21
1025.268655
  0
LINE
  8
CSLAYER1
  6
CONTINUOUS
 62
     3
 10
878.146218
 20
1025.268655
 11
879.838476
 21
1025.791322
  0
LINE
  8
CSLAYER1
  6
CONTINUOUS
 62
     3
 10
879.838476
 20
1025.791322
 11
881.618256
 21
1026.240495
  0
LINE
  8
CSLAYER1
  6
CONTINUOUS
 62
     3
 10
881.618256
 20
1026.240495
 11
883.472012
 21
1026.612757
  0
LINE
  8
CSLAYER1
  6
CONTINUOUS
 62
     3
 10
883.472012
 20
1026.612757
 11
885.385638
 21
1026.905274
  0
LINE
  8
CSLAYER1
  6
CONTINUOUS
 62
     3
 10
885.385638
 20
1026.905274
 11
887.344567
 21
1027.115819
  0
LINE
  8
CSLAYER1
  6
CONTINUOUS
 62
     3
 10
887.344567
 20
1027.115819
 11
889.333893
 21
1027.242790
  0
LINE
  8
CSLAYER1
  6
CONTINUOUS
 62
     3
 10
889.333893
 20
1027.242790
 11
891.338476
 21
1027.285222
  0
LINE
  8
CSLAYER1
  6
CONTINUOUS
 62
     3
 10
918.838476
 20
998.655231
 11
918.838476
 21
968.066336
  0
LINE
  8
CSLAYER1
  6
CONTINUOUS
 62
     3
 10
918.838476
 20
998.655231
 11
918.733830
 21
999.817215
  0
LINE
  8
CSLAYER1
  6
CONTINUOUS
 62
     3
 10
918.733830
 20
999.817215
 11
918.420689
 21
1000.970355
  0
LINE
  8
CSLAYER1
  6
CONTINUOUS
 62
     3
 10
918.420689
 20
1000.970355
 11
917.901436
 21
1002.105875
  0
LINE
  8
CSLAYER1
  6
CONTINUOUS
 62
     3
 10
917.901436
 20
1002.105875
 11
917.180023
 21
1003.215134
  0
LINE
  8
CSLAYER1
  6
CONTINUOUS
 62
     3
 10
917.180023
 20
1003.215134
 11
916.261940
 21
1004.289690
  0
LINE
  8
CSLAYER1
  6
CONTINUOUS
 62
     3
 10
916.261940
 20
1004.289690
 11
915.154174
 21
1005.321364
  0
LINE
  8
CSLAYER1
  6
CONTINUOUS
 62
     3
 10
915.154174
 20
1005.321364
 11
913.865157
 21
1006.302304
  0
LINE
  8
CSLAYER1
  6
CONTINUOUS
 62
     3
 10
913.865157
 20
1006.302304
 11
912.404698
 21
1007.225046
  0
LINE
  8
CSLAYER1
  6
CONTINUOUS
 62
     3
 10
912.404698
 20
1007.225046
 11
910.783912
 21
1008.082566
  0
LINE
  8
CSLAYER1
  6
CONTINUOUS
 62
     3
 10
910.783912
 20
1008.082566
 11
909.015135
 21
1008.868339
  0
LINE
  8
CSLAYER1
  6
CONTINUOUS
 62
     3
 10
909.015135
 20
1008.868339
 11
907.111828
 21
1009.576383
  0
LINE
  8
CSLAYER1
  6
CONTINUOUS
 62
     3
 10
907.111828
 20
1009.576383
 11
905.088476
 21
1010.201311
  0
LINE
  8
CSLAYER1
  6
CONTINUOUS
 62
     3
 10
905.088476
 20
1010.201311
 11
902.960478
 21
1010.738367
  0
LINE
  8
CSLAYER1
  6
CONTINUOUS
 62
     3
 10
902.960478
 20
1010.738367
 11
900.744029
 21
1011.183462
  0
LINE
  8
CSLAYER1
  6
CONTINUOUS
 62
     3
 10
900.744029
 20
1011.183462
 11
898.455999
 21
1011.533210
  0
LINE
  8
CSLAYER1
  6
CONTINUOUS
 62
     3
 10
898.455999
 20
1011.533210
 11
896.113800
 21
1011.784949
  0
LINE
  8
CSLAYER1
  6
CONTINUOUS
 62
     3
 10
896.113800
 20
1011.784949
 11
893.735258
 21
1011.936763
  0
LINE
  8
CSLAYER1
  6
CONTINUOUS
 62
     3
 10
893.735258
 20
1011.936763
 11
891.338476
 21
1011.987496
  0
LINE
  8
CSLAYER1
  6
CONTINUOUS
 62
     3
 10
891.338476
 20
1011.987496
 11
888.941693
 21
1011.936763
  0
LINE
  8
CSLAYER1
  6
CONTINUOUS
 62
     3
 10
888.941693
 20
1011.936763
 11
886.563151
 21
1011.784949
  0
LINE
  8
CSLAYER1
  6
CONTINUOUS
 62
     3
 10
886.563151
 20
1011.784949
 11
884.220952
 21
1011.533210
  0
LINE
  8
CSLAYER1
  6
CONTINUOUS
 62
     3
 10
884.220952
 20
1011.533210
 11
881.932922
 21
1011.183462
  0
LINE
  8
CSLAYER1
  6
CONTINUOUS
 62
     3
 10
881.932922
 20
1011.183462
 11
879.716473
 21
1010.738367
  0
LINE
  8
CSLAYER1
  6
CONTINUOUS
 62
     3
 10
879.716473
 20
1010.738367
 11
877.588476
 21
1010.201311
  0
LINE
  8
CSLAYER1
  6
CONTINUOUS
 62
     3
 10
877.588476
 20
1010.201311
 11
875.565124
 21
1009.576383
  0
LINE
  8
CSLAYER1
  6
CONTINUOUS
 62
     3
 10
875.565124
 20
1009.576383
 11
873.661816
 21
1008.868339
  0
LINE
  8
CSLAYER1
  6
CONTINUOUS
 62
     3
 10
873.661816
 20
1008.868339
 11
871.893039
 21
1008.082566
  0
LINE
  8
CSLAYER1
  6
CONTINUOUS
 62
     3
 10
871.893039
 20
1008.082566
 11
870.272253
 21
1007.225046
  0
LINE
  8
CSLAYER1
  6
CONTINUOUS
 62
     3
 10
870.272253
 20
1007.225046
 11
868.811794
 21
1006.302304
  0
LINE
  8
CSLAYER1
  6
CONTINUOUS
 62
     3
 10
868.811794
 20
1006.302304
 11
867.522777
 21
1005.321364
  0
LINE
  8
CSLAYER1
  6
CONTINUOUS
 62
     3
 10
867.522777
 20
1005.321364
 11
866.415011
 21
1004.289690
  0
LINE
  8
CSLAYER1
  6
CONTINUOUS
 62
     3
 10
866.415011
 20
1004.289690
 11
865.496928
 21
1003.215134
  0
LINE
  8
CSLAYER1
  6
CONTINUOUS
 62
     3
 10
865.496928
 20
1003.215134
 11
864.775515
 21
1002.105875
  0
LINE
  8
CSLAYER1
  6
CONTINUOUS
 62
     3
 10
864.775515
 20
1002.105875
 11
864.256262
 21
1000.970355
  0
LINE
  8
CSLAYER1
  6
CONTINUOUS
 62
     3
 10
864.256262
 20
1000.970355
 11
863.943121
 21
999.817215
  0
LINE
  8
CSLAYER1
  6
CONTINUOUS
 62
     3
 10
863.943121
 20
999.817215
 11
863.838476
 21
998.655231
  0
LINE
  8
CSLAYER1
  6
CONTINUOUS
 62
     3
 10
863.838476
 20
998.655231
 11
863.838476
 21
968.066336
  0
LINE
  8
CSLAYER1
  6
CONTINUOUS
 62
     3
 10
915.638476
 20
905.248519
 11
915.638476
 21
968.066336
  0
LINE
  8
CSLAYER1
  6
CONTINUOUS
 62
     3
 10
918.838476
 20
968.066336
 11
918.733830
 21
969.228319
  0
LINE
  8
CSLAYER1
  6
CONTINUOUS
 62
     3
 10
918.733830
 20
969.228319
 11
918.420689
 21
970.381459
  0
LINE
  8
CSLAYER1
  6
CONTINUOUS
 62
     3
 10
918.420689
 20
970.381459
 11
917.901436
 21
971.516979
  0
LINE
  8
CSLAYER1
  6
CONTINUOUS
 62
     3
 10
917.901436
 20
971.516979
 11
917.180023
 21
972.626239
  0
LINE
  8
CSLAYER1
  6
CONTINUOUS
 62
     3
 10
917.180023
 20
972.626239
 11
916.261940
 21
973.700794
  0
LINE
  8
CSLAYER1
  6
CONTINUOUS
 62
     3
 10
916.261940
 20
973.700794
 11
915.154174
 21
974.732468
  0
LINE
  8
CSLAYER1
  6
CONTINUOUS
 62
     3
 10
915.154174
 20
974.732468
 11
913.865157
 21
975.713408
  0
LINE
  8
CSLAYER1
  6
CONTINUOUS
 62
     3
 10
913.865157
 20
975.713408
 11
912.404698
 21
976.636150
  0
LINE
  8
CSLAYER1
  6
CONTINUOUS
 62
     3
 10
912.404698
 20
976.636150
 11
910.783912
 21
977.493670
  0
LINE
  8
CSLAYER1
  6
CONTINUOUS
 62
     3
 10
910.783912
 20
977.493670
 11
909.015135
 21
978.279443
  0
LINE
  8
CSLAYER1
  6
CONTINUOUS
 62
     3
 10
909.015135
 20
978.279443
 11
907.111828
 21
978.987487
  0
LINE
  8
CSLAYER1
  6
CONTINUOUS
 62
     3
 10
907.111828
 20
978.987487
 11
905.088476
 21
979.612415
  0
LINE
  8
CSLAYER1
  6
CONTINUOUS
 62
     3
 10
905.088476
 20
979.612415
 11
902.960478
 21
980.149471
  0
LINE
  8
CSLAYER1
  6
CONTINUOUS
 62
     3
 10
902.960478
 20
980.149471
 11
900.744029
 21
980.594566
  0
LINE
  8
CSLAYER1
  6
CONTINUOUS
 62
     3
 10
900.744029
 20
980.594566
 11
898.455999
 21
980.944314
  0
LINE
  8
CSLAYER1
  6
CONTINUOUS
 62
     3
 10
898.455999
 20
980.944314
 11
896.113800
 21
981.196053
  0
LINE
  8
CSLAYER1
  6
CONTINUOUS
 62
     3
 10
896.113800
 20
981.196053
 11
893.735258
 21
981.347867
  0
LINE
  8
CSLAYER1
  6
CONTINUOUS
 62
     3
 10
893.735258
 20
981.347867
 11
891.338476
 21
981.398600
  0
LINE
  8
CSLAYER1
  6
CONTINUOUS
 62
     3
 10
891.338476
 20
981.398600
 11
888.941693
 21
981.347867
  0
LINE
  8
CSLAYER1
  6
CONTINUOUS
 62
     3
 10
888.941693
 20
981.347867
 11
886.563151
 21
981.196053
  0
LINE
  8
CSLAYER1
  6
CONTINUOUS
 62
     3
 10
886.563151
 20
981.196053
 11
884.220952
 21
980.944314
  0
LINE
  8
CSLAYER1
  6
CONTINUOUS
 62
     3
 10
884.220952
 20
980.944314
 11
881.932922
 21
980.594566
  0
LINE
  8
CSLAYER1
  6
CONTINUOUS
 62
     3
 10
881.932922
 20
980.594566
 11
879.716473
 21
980.149471
  0
LINE
  8
CSLAYER1
  6
CONTINUOUS
 62
     3
 10
879.716473
 20
980.149471
 11
877.588476
 21
979.612415
  0
LINE
  8
CSLAYER1
  6
CONTINUOUS
 62
     3
 10
877.588476
 20
979.612415
 11
875.565124
 21
978.987487
  0
LINE
  8
CSLAYER1
  6
CONTINUOUS
 62
     3
 10
875.565124
 20
978.987487
 11
873.661816
 21
978.279443
  0
LINE
  8
CSLAYER1
  6
CONTINUOUS
 62
     3
 10
873.661816
 20
978.279443
 11
871.893039
 21
977.493670
  0
LINE
  8
CSLAYER1
  6
CONTINUOUS
 62
     3
 10
871.893039
 20
977.493670
 11
870.272253
 21
976.636150
  0
LINE
  8
CSLAYER1
  6
CONTINUOUS
 62
     3
 10
870.272253
 20
976.636150
 11
868.811794
 21
975.713408
  0
LINE
  8
CSLAYER1
  6
CONTINUOUS
 62
     3
 10
868.811794
 20
975.713408
 11
867.522777
 21
974.732468
  0
LINE
  8
CSLAYER1
  6
CONTINUOUS
 62
     3
 10
867.522777
 20
974.732468
 11
866.415011
 21
973.700794
  0
LINE
  8
CSLAYER1
  6
CONTINUOUS
 62
     3
 10
866.415011
 20
973.700794
 11
865.496928
 21
972.626239
  0
LINE
  8
CSLAYER1
  6
CONTINUOUS
 62
     3
 10
865.496928
 20
972.626239
 11
864.775515
 21
971.516979
  0
LINE
  8
CSLAYER1
  6
CONTINUOUS
 62
     3
 10
864.775515
 20
971.516979
 11
864.256262
 21
970.381459
  0
LINE
  8
CSLAYER1
  6
CONTINUOUS
 62
     3
 10
864.256262
 20
970.381459
 11
863.943121
 21
969.228319
  0
LINE
  8
CSLAYER1
  6
CONTINUOUS
 62
     3
 10
863.943121
 20
969.228319
 11
863.838476
 21
968.066336
  0
LINE
  8
CSLAYER1
  6
CONTINUOUS
 62
     3
 10
863.838476
 20
968.066336
 11
863.943121
 21
966.904352
  0
LINE
  8
CSLAYER1
  6
CONTINUOUS
 62
     3
 10
863.943121
 20
966.904352
 11
864.256262
 21
965.751212
  0
LINE
  8
CSLAYER1
  6
CONTINUOUS
 62
     3
 10
864.256262
 20
965.751212
 11
864.775515
 21
964.615692
  0
LINE
  8
CSLAYER1
  6
CONTINUOUS
 62
     3
 10
864.775515
 20
964.615692
 11
865.496928
 21
963.506432
  0
LINE
  8
CSLAYER1
  6
CONTINUOUS
 62
     3
 10
865.496928
 20
963.506432
 11
866.415011
 21
962.431877
  0
LINE
  8
CSLAYER1
  6
CONTINUOUS
 62
     3
 10
866.415011
 20
962.431877
 11
867.038476
 21
961.851238
  0
LINE
  8
CSLAYER1
  6
CONTINUOUS
 62
     3
 10
915.638476
 20
961.851238
 11
916.261940
 21
962.431877
  0
LINE
  8
CSLAYER1
  6
CONTINUOUS
 62
     3
 10
916.261940
 20
962.431877
 11
917.180023
 21
963.506432
  0
LINE
  8
CSLAYER1
  6
CONTINUOUS
 62
     3
 10
917.180023
 20
963.506432
 11
917.901436
 21
964.615692
  0
LINE
  8
CSLAYER1
  6
CONTINUOUS
 62
     3
 10
917.901436
 20
964.615692
 11
918.420689
 21
965.751212
  0
LINE
  8
CSLAYER1
  6
CONTINUOUS
 62
     3
 10
918.420689
 20
965.751212
 11
918.733830
 21
966.904352
  0
LINE
  8
CSLAYER1
  6
CONTINUOUS
 62
     3
 10
918.733830
 20
966.904352
 11
918.838476
 21
968.066336
  0
LINE
  8
CSLAYER1
  6
CONTINUOUS
 62
     3
 10
915.638476
 20
968.066336
 11
915.546007
 21
969.093106
  0
LINE
  8
CSLAYER1
  6
CONTINUOUS
 62
     3
 10
915.546007
 20
969.093106
 11
915.269304
 21
970.112063
  0
LINE
  8
CSLAYER1
  6
CONTINUOUS
 62
     3
 10
915.269304
 20
970.112063
 11
914.810473
 21
971.115450
  0
LINE
  8
CSLAYER1
  6
CONTINUOUS
 62
     3
 10
914.810473
 20
971.115450
 11
914.173006
 21
972.095632
  0
LINE
  8
CSLAYER1
  6
CONTINUOUS
 62
     3
 10
914.173006
 20
972.095632
 11
913.361755
 21
973.045148
  0
LINE
  8
CSLAYER1
  6
CONTINUOUS
 62
     3
 10
913.361755
 20
973.045148
 11
912.382893
 21
973.956772
  0
LINE
  8
CSLAYER1
  6
CONTINUOUS
 62
     3
 10
912.382893
 20
973.956772
 11
911.243870
 21
974.823567
  0
LINE
  8
CSLAYER1
  6
CONTINUOUS
 62
     3
 10
911.243870
 20
974.823567
 11
909.953356
 21
975.638935
  0
LINE
  8
CSLAYER1
  6
CONTINUOUS
 62
     3
 10
909.953356
 20
975.638935
 11
908.521170
 21
976.396671
  0
LINE
  8
CSLAYER1
  6
CONTINUOUS
 62
     3
 10
908.521170
 20
976.396671
 11
906.958214
 21
977.091008
  0
LINE
  8
CSLAYER1
  6
CONTINUOUS
 62
     3
 10
906.958214
 20
977.091008
 11
905.276383
 21
977.716662
  0
LINE
  8
CSLAYER1
  6
CONTINUOUS
 62
     3
 10
905.276383
 20
977.716662
 11
903.488476
 21
978.268871
  0
LINE
  8
CSLAYER1
  6
CONTINUOUS
 62
     3
 10
903.488476
 20
978.268871
 11
901.608099
 21
978.743433
  0
LINE
  8
CSLAYER1
  6
CONTINUOUS
 62
     3
 10
901.608099
 20
978.743433
 11
899.649565
 21
979.136736
  0
LINE
  8
CSLAYER1
  6
CONTINUOUS
 62
     3
 10
899.649565
 20
979.136736
 11
897.627778
 21
979.445786
  0
LINE
  8
CSLAYER1
  6
CONTINUOUS
 62
     3
 10
897.627778
 20
979.445786
 11
895.558126
 21
979.668231
  0
LINE
  8
CSLAYER1
  6
CONTINUOUS
 62
     3
 10
895.558126
 20
979.668231
 11
893.456360
 21
979.802380
  0
LINE
  8
CSLAYER1
  6
CONTINUOUS
 62
     3
 10
893.456360
 20
979.802380
 11
891.338476
 21
979.847209
  0
LINE
  8
CSLAYER1
  6
CONTINUOUS
 62
     3
 10
891.338476
 20
979.847209
 11
889.220591
 21
979.802380
  0
LINE
  8
CSLAYER1
  6
CONTINUOUS
 62
     3
 10
889.220591
 20
979.802380
 11
887.118825
 21
979.668231
  0
LINE
  8
CSLAYER1
  6
CONTINUOUS
 62
     3
 10
887.118825
 20
979.668231
 11
885.049173
 21
979.445786
  0
LINE
  8
CSLAYER1
  6
CONTINUOUS
 62
     3
 10
885.049173
 20
979.445786
 11
883.027386
 21
979.136736
  0
LINE
  8
CSLAYER1
  6
CONTINUOUS
 62
     3
 10
883.027386
 20
979.136736
 11
881.068852
 21
978.743433
  0
LINE
  8
CSLAYER1
  6
CONTINUOUS
 62
     3
 10
881.068852
 20
978.743433
 11
879.188476
 21
978.268871
  0
LINE
  8
CSLAYER1
  6
CONTINUOUS
 62
     3
 10
879.188476
 20
978.268871
 11
877.400568
 21
977.716662
  0
LINE
  8
CSLAYER1
  6
CONTINUOUS
 62
     3
 10
877.400568
 20
977.716662
 11
875.718737
 21
977.091008
  0
LINE
  8
CSLAYER1
  6
CONTINUOUS
 62
     3
 10
875.718737
 20
977.091008
 11
874.155781
 21
976.396671
  0
LINE
  8
CSLAYER1
  6
CONTINUOUS
 62
     3
 10
874.155781
 20
976.396671
 11
872.723596
 21
975.638935
  0
LINE
  8
CSLAYER1
  6
CONTINUOUS
 62
     3
 10
872.723596
 20
975.638935
 11
871.433081
 21
974.823567
  0
LINE
  8
CSLAYER1
  6
CONTINUOUS
 62
     3
 10
871.433081
 20
974.823567
 11
870.294058
 21
973.956772
  0
LINE
  8
CSLAYER1
  6
CONTINUOUS
 62
     3
 10
870.294058
 20
973.956772
 11
869.315196
 21
973.045148
  0
LINE
  8
CSLAYER1
  6
CONTINUOUS
 62
     3
 10
869.315196
 20
973.045148
 11
868.503945
 21
972.095632
  0
LINE
  8
CSLAYER1
  6
CONTINUOUS
 62
     3
 10
868.503945
 20
972.095632
 11
867.866478
 21
971.115450
  0
LINE
  8
CSLAYER1
  6
CONTINUOUS
 62
     3
 10
867.866478
 20
971.115450
 11
867.407647
 21
970.112063
  0
LINE
  8
CSLAYER1
  6
CONTINUOUS
 62
     3
 10
867.407647
 20
970.112063
 11
867.130944
 21
969.093106
  0
LINE
  8
CSLAYER1
  6
CONTINUOUS
 62
     3
 10
867.130944
 20
969.093106
 11
867.038476
 21
968.066336
  0
LINE
  8
CSLAYER1
  6
CONTINUOUS
 62
     3
 10
867.038476
 20
905.248519
 11
867.038476
 21
968.066336
  0
LINE
  8
CSLAYER1
  6
CONTINUOUS
 62
     3
 10
913.838476
 20
874.659623
 11
913.838476
 21
905.248519
  0
LINE
  8
CSLAYER1
  6
CONTINUOUS
 62
     3
 10
913.838476
 20
905.248519
 11
913.752856
 21
906.199233
  0
LINE
  8
CSLAYER1
  6
CONTINUOUS
 62
     3
 10
913.752856
 20
906.199233
 11
913.496650
 21
907.142711
  0
LINE
  8
CSLAYER1
  6
CONTINUOUS
 62
     3
 10
913.496650
 20
907.142711
 11
913.071807
 21
908.071773
  0
LINE
  8
CSLAYER1
  6
CONTINUOUS
 62
     3
 10
913.071807
 20
908.071773
 11
912.481560
 21
908.979349
  0
LINE
  8
CSLAYER1
  6
CONTINUOUS
 62
     3
 10
912.481560
 20
908.979349
 11
911.730401
 21
909.858530
  0
LINE
  8
CSLAYER1
  6
CONTINUOUS
 62
     3
 10
911.730401
 20
909.858530
 11
910.824047
 21
910.702627
  0
LINE
  8
CSLAYER1
  6
CONTINUOUS
 62
     3
 10
910.824047
 20
910.702627
 11
909.769397
 21
911.505215
  0
LINE
  8
CSLAYER1
  6
CONTINUOUS
 62
     3
 10
909.769397
 20
911.505215
 11
908.574476
 21
912.260185
  0
LINE
  8
CSLAYER1
  6
CONTINUOUS
 62
     3
 10
908.574476
 20
912.260185
 11
907.248378
 21
912.961793
  0
LINE
  8
CSLAYER1
  6
CONTINUOUS
 62
     3
 10
907.248378
 20
912.961793
 11
905.801197
 21
913.604697
  0
LINE
  8
CSLAYER1
  6
CONTINUOUS
 62
     3
 10
905.801197
 20
913.604697
 11
904.243945
 21
914.184007
  0
LINE
  8
CSLAYER1
  6
CONTINUOUS
 62
     3
 10
904.243945
 20
914.184007
 11
902.588476
 21
914.695311
  0
LINE
  8
CSLAYER1
  6
CONTINUOUS
 62
     3
 10
902.588476
 20
914.695311
 11
900.847386
 21
915.134720
  0
LINE
  8
CSLAYER1
  6
CONTINUOUS
 62
     3
 10
900.847386
 20
915.134720
 11
899.033929
 21
915.498889
  0
LINE
  8
CSLAYER1
  6
CONTINUOUS
 62
     3
 10
899.033929
 20
915.498889
 11
897.161904
 21
915.785047
  0
LINE
  8
CSLAYER1
  6
CONTINUOUS
 62
     3
 10
897.161904
 20
915.785047
 11
895.245560
 21
915.991015
  0
LINE
  8
CSLAYER1
  6
CONTINUOUS
 62
     3
 10
895.245560
 20
915.991015
 11
893.299480
 21
916.115226
  0
LINE
  8
CSLAYER1
  6
CONTINUOUS
 62
     3
 10
893.299480
 20
916.115226
 11
891.338476
 21
916.156735
  0
LINE
  8
CSLAYER1
  6
CONTINUOUS
 62
     3
 10
891.338476
 20
916.156735
 11
889.377471
 21
916.115226
  0
LINE
  8
CSLAYER1
  6
CONTINUOUS
 62
     3
 10
889.377471
 20
916.115226
 11
887.431392
 21
915.991015
  0
LINE
  8
CSLAYER1
  6
CONTINUOUS
 62
     3
 10
887.431392
 20
915.991015
 11
885.515047
 21
915.785047
  0
LINE
  8
CSLAYER1
  6
CONTINUOUS
 62
     3
 10
885.515047
 20
915.785047
 11
883.643022
 21
915.498889
  0
LINE
  8
CSLAYER1
  6
CONTINUOUS
 62
     3
 10
883.643022
 20
915.498889
 11
881.829565
 21
915.134720
  0
LINE
  8
CSLAYER1
  6
CONTINUOUS
 62
     3
 10
881.829565
 20
915.134720
 11
880.088476
 21
914.695311
  0
LINE
  8
CSLAYER1
  6
CONTINUOUS
 62
     3
 10
880.088476
 20
914.695311
 11
878.433006
 21
914.184007
  0
LINE
  8
CSLAYER1
  6
CONTINUOUS
 62
     3
 10
878.433006
 20
914.184007
 11
876.875754
 21
913.604697
  0
LINE
  8
CSLAYER1
  6
CONTINUOUS
 62
     3
 10
876.875754
 20
913.604697
 11
875.428573
 21
912.961793
  0
LINE
  8
CSLAYER1
  6
CONTINUOUS
 62
     3
 10
875.428573
 20
912.961793
 11
874.102476
 21
912.260185
  0
LINE
  8
CSLAYER1
  6
CONTINUOUS
 62
     3
 10
874.102476
 20
912.260185
 11
872.907555
 21
911.505215
  0
LINE
  8
CSLAYER1
  6
CONTINUOUS
 62
     3
 10
872.907555
 20
911.505215
 11
871.852904
 21
910.702627
  0
LINE
  8
CSLAYER1
  6
CONTINUOUS
 62
     3
 10
871.852904
 20
910.702627
 11
870.946550
 21
909.858530
  0
LINE
  8
CSLAYER1
  6
CONTINUOUS
 62
     3
 10
870.946550
 20
909.858530
 11
870.195392
 21
908.979349
  0
LINE
  8
CSLAYER1
  6
CONTINUOUS
 62
     3
 10
870.195392
 20
908.979349
 11
869.605144
 21
908.071773
  0
LINE
  8
CSLAYER1
  6
CONTINUOUS
 62
     3
 10
869.605144
 20
908.071773
 11
869.180301
 21
907.142711
  0
LINE
  8
CSLAYER1
  6
CONTINUOUS
 62
     3
 10
869.180301
 20
907.142711
 11
868.924095
 21
906.199233
  0
LINE
  8
CSLAYER1
  6
CONTINUOUS
 62
     3
 10
868.924095
 20
906.199233
 11
868.838476
 21
905.248519
  0
LINE
  8
CSLAYER1
  6
CONTINUOUS
 62
     3
 10
868.838476
 20
905.248519
 11
868.924095
 21
904.297805
  0
LINE
  8
CSLAYER1
  6
CONTINUOUS
 62
     3
 10
915.638476
 20
905.248519
 11
915.546007
 21
906.275290
  0
LINE
  8
CSLAYER1
  6
CONTINUOUS
 62
     3
 10
915.546007
 20
906.275290
 11
915.269304
 21
907.294246
  0
LINE
  8
CSLAYER1
  6
CONTINUOUS
 62
     3
 10
915.269304
 20
907.294246
 11
914.810473
 21
908.297633
  0
LINE
  8
CSLAYER1
  6
CONTINUOUS
 62
     3
 10
914.810473
 20
908.297633
 11
914.173006
 21
909.277815
  0
LINE
  8
CSLAYER1
  6
CONTINUOUS
 62
     3
 10
914.173006
 20
909.277815
 11
913.361755
 21
910.227331
  0
LINE
  8
CSLAYER1
  6
CONTINUOUS
 62
     3
 10
913.361755
 20
910.227331
 11
912.382893
 21
911.138956
  0
LINE
  8
CSLAYER1
  6
CONTINUOUS
 62
     3
 10
912.382893
 20
911.138956
 11
911.243870
 21
912.005750
  0
LINE
  8
CSLAYER1
  6
CONTINUOUS
 62
     3
 10
911.243870
 20
912.005750
 11
909.953356
 21
912.821119
  0
LINE
  8
CSLAYER1
  6
CONTINUOUS
 62
     3
 10
909.953356
 20
912.821119
 11
908.521170
 21
913.578855
  0
LINE
  8
CSLAYER1
  6
CONTINUOUS
 62
     3
 10
908.521170
 20
913.578855
 11
906.958214
 21
914.273192
  0
LINE
  8
CSLAYER1
  6
CONTINUOUS
 62
     3
 10
906.958214
 20
914.273192
 11
905.276383
 21
914.898846
  0
LINE
  8
CSLAYER1
  6
CONTINUOUS
 62
     3
 10
905.276383
 20
914.898846
 11
903.488476
 21
915.451055
  0
LINE
  8
CSLAYER1
  6
CONTINUOUS
 62
     3
 10
903.488476
 20
915.451055
 11
901.608099
 21
915.925617
  0
LINE
  8
CSLAYER1
  6
CONTINUOUS
 62
     3
 10
901.608099
 20
915.925617
 11
899.649565
 21
916.318919
  0
LINE
  8
CSLAYER1
  6
CONTINUOUS
 62
     3
 10
899.649565
 20
916.318919
 11
897.627778
 21
916.627969
  0
LINE
  8
CSLAYER1
  6
CONTINUOUS
 62
     3
 10
897.627778
 20
916.627969
 11
895.558126
 21
916.850415
  0
LINE
  8
CSLAYER1
  6
CONTINUOUS
 62
     3
 10
895.558126
 20
916.850415
 11
893.456360
 21
916.984563
  0
LINE
  8
CSLAYER1
  6
CONTINUOUS
 62
     3
 10
893.456360
 20
916.984563
 11
891.338476
 21
917.029393
  0
LINE
  8
CSLAYER1
  6
CONTINUOUS
 62
     3
 10
891.338476
 20
917.029393
 11
889.220591
 21
916.984563
  0
LINE
  8
CSLAYER1
  6
CONTINUOUS
 62
     3
 10
889.220591
 20
916.984563
 11
887.118825
 21
916.850415
  0
LINE
  8
CSLAYER1
  6
CONTINUOUS
 62
     3
 10
887.118825
 20
916.850415
 11
885.049173
 21
916.627969
  0
LINE
  8
CSLAYER1
  6
CONTINUOUS
 62
     3
 10
885.049173
 20
916.627969
 11
883.027386
 21
916.318919
  0
LINE
  8
CSLAYER1
  6
CONTINUOUS
 62
     3
 10
883.027386
 20
916.318919
 11
881.068852
 21
915.925617
  0
LINE
  8
CSLAYER1
  6
CONTINUOUS
 62
     3
 10
881.068852
 20
915.925617
 11
879.188476
 21
915.451055
  0
LINE
  8
CSLAYER1
  6
CONTINUOUS
 62
     3
 10
879.188476
 20
915.451055
 11
877.400568
 21
914.898846
  0
LINE
  8
CSLAYER1
  6
CONTINUOUS
 62
     3
 10
877.400568
 20
914.898846
 11
875.718737
 21
914.273192
  0
LINE
  8
CSLAYER1
  6
CONTINUOUS
 62
     3
 10
875.718737
 20
914.273192
 11
874.155781
 21
913.578855
  0
LINE
  8
CSLAYER1
  6
CONTINUOUS
 62
     3
 10
874.155781
 20
913.578855
 11
872.723596
 21
912.821119
  0
LINE
  8
CSLAYER1
  6
CONTINUOUS
 62
     3
 10
872.723596
 20
912.821119
 11
871.433081
 21
912.005750
  0
LINE
  8
CSLAYER1
  6
CONTINUOUS
 62
     3
 10
871.433081
 20
912.005750
 11
870.294058
 21
911.138956
  0
LINE
  8
CSLAYER1
  6
CONTINUOUS
 62
     3
 10
870.294058
 20
911.138956
 11
869.315196
 21
910.227331
  0
LINE
  8
CSLAYER1
  6
CONTINUOUS
 62
     3
 10
869.315196
 20
910.227331
 11
868.503945
 21
909.277815
  0
LINE
  8
CSLAYER1
  6
CONTINUOUS
 62
     3
 10
868.503945
 20
909.277815
 11
867.866478
 21
908.297633
  0
LINE
  8
CSLAYER1
  6
CONTINUOUS
 62
     3
 10
867.866478
 20
908.297633
 11
867.407647
 21
907.294246
  0
LINE
  8
CSLAYER1
  6
CONTINUOUS
 62
     3
 10
867.407647
 20
907.294246
 11
867.130944
 21
906.275290
  0
LINE
  8
CSLAYER1
  6
CONTINUOUS
 62
     3
 10
867.130944
 20
906.275290
 11
867.038476
 21
905.248519
  0
LINE
  8
CSLAYER1
  6
CONTINUOUS
 62
     3
 10
867.038476
 20
905.248519
 11
867.130944
 21
904.221748
  0
LINE
  8
CSLAYER1
  6
CONTINUOUS
 62
     3
 10
867.130944
 20
904.221748
 11
867.423963
 21
903.142709
  0
LINE
  8
CSLAYER1
  6
CONTINUOUS
 62
     3
 10
868.338476
 20
901.473652
 11
868.838476
 21
900.827677
  0
LINE
  8
CSLAYER1
  6
CONTINUOUS
 62
     3
 10
915.252988
 20
903.142709
 11
915.546007
 21
904.221748
  0
LINE
  8
CSLAYER1
  6
CONTINUOUS
 62
     3
 10
915.546007
 20
904.221748
 11
915.638476
 21
905.248519
  0
LINE
  8
CSLAYER1
  6
CONTINUOUS
 62
     3
 10
868.838476
 20
874.659623
 11
868.838476
 21
905.248519
  0
LINE
  8
CSLAYER1
  6
CONTINUOUS
 62
     3
 10
913.838476
 20
874.659623
 11
913.752856
 21
875.610337
  0
LINE
  8
CSLAYER1
  6
CONTINUOUS
 62
     3
 10
913.752856
 20
875.610337
 11
913.496650
 21
876.553815
  0
LINE
  8
CSLAYER1
  6
CONTINUOUS
 62
     3
 10
913.496650
 20
876.553815
 11
913.071807
 21
877.482877
  0
LINE
  8
CSLAYER1
  6
CONTINUOUS
 62
     3
 10
913.071807
 20
877.482877
 11
912.481560
 21
878.390453
  0
LINE
  8
CSLAYER1
  6
CONTINUOUS
 62
     3
 10
912.481560
 20
878.390453
 11
911.730401
 21
879.269634
  0
LINE
  8
CSLAYER1
  6
CONTINUOUS
 62
     3
 10
911.730401
 20
879.269634
 11
910.824047
 21
880.113731
  0
LINE
  8
CSLAYER1
  6
CONTINUOUS
 62
     3
 10
910.824047
 20
880.113731
 11
909.769397
 21
880.916319
  0
LINE
  8
CSLAYER1
  6
CONTINUOUS
 62
     3
 10
909.769397
 20
880.916319
 11
908.574476
 21
881.671289
  0
LINE
  8
CSLAYER1
  6
CONTINUOUS
 62
     3
 10
908.574476
 20
881.671289
 11
907.248378
 21
882.372897
  0
LINE
  8
CSLAYER1
  6
CONTINUOUS
 62
     3
 10
907.248378
 20
882.372897
 11
905.801197
 21
883.015802
  0
LINE
  8
CSLAYER1
  6
CONTINUOUS
 62
     3
 10
905.801197
 20
883.015802
 11
904.243945
 21
883.595111
  0
LINE
  8
CSLAYER1
  6
CONTINUOUS
 62
     3
 10
904.243945
 20
883.595111
 11
902.588476
 21
884.106416
  0
LINE
  8
CSLAYER1
  6
CONTINUOUS
 62
     3
 10
902.588476
 20
884.106416
 11
900.847386
 21
884.545824
  0
LINE
  8
CSLAYER1
  6
CONTINUOUS
 62
     3
 10
900.847386
 20
884.545824
 11
899.033929
 21
884.909993
  0
LINE
  8
CSLAYER1
  6
CONTINUOUS
 62
     3
 10
899.033929
 20
884.909993
 11
897.161904
 21
885.196151
  0
LINE
  8
CSLAYER1
  6
CONTINUOUS
 62
     3
 10
897.161904
 20
885.196151
 11
895.245560
 21
885.402119
  0
LINE
  8
CSLAYER1
  6
CONTINUOUS
 62
     3
 10
895.245560
 20
885.402119
 11
893.299480
 21
885.526330
  0
LINE
  8
CSLAYER1
  6
CONTINUOUS
 62
     3
 10
893.299480
 20
885.526330
 11
891.338476
 21
885.567839
  0
LINE
  8
CSLAYER1
  6
CONTINUOUS
 62
     3
 10
891.338476
 20
885.567839
 11
889.377471
 21
885.526330
  0
LINE
  8
CSLAYER1
  6
CONTINUOUS
 62
     3
 10
889.377471
 20
885.526330
 11
887.431392
 21
885.402119
  0
LINE
  8
CSLAYER1
  6
CONTINUOUS
 62
     3
 10
887.431392
 20
885.402119
 11
885.515047
 21
885.196151
  0
LINE
  8
CSLAYER1
  6
CONTINUOUS
 62
     3
 10
885.515047
 20
885.196151
 11
883.643022
 21
884.909993
  0
LINE
  8
CSLAYER1
  6
CONTINUOUS
 62
     3
 10
883.643022
 20
884.909993
 11
881.829565
 21
884.545824
  0
LINE
  8
CSLAYER1
  6
CONTINUOUS
 62
     3
 10
881.829565
 20
884.545824
 11
880.088476
 21
884.106416
  0
LINE
  8
CSLAYER1
  6
CONTINUOUS
 62
     3
 10
880.088476
 20
884.106416
 11
878.433006
 21
883.595111
  0
LINE
  8
CSLAYER1
  6
CONTINUOUS
 62
     3
 10
878.433006
 20
883.595111
 11
876.875754
 21
883.015802
  0
LINE
  8
CSLAYER1
  6
CONTINUOUS
 62
     3
 10
876.875754
 20
883.015802
 11
875.428573
 21
882.372897
  0
LINE
  8
CSLAYER1
  6
CONTINUOUS
 62
     3
 10
875.428573
 20
882.372897
 11
874.102476
 21
881.671289
  0
LINE
  8
CSLAYER1
  6
CONTINUOUS
 62
     3
 10
874.102476
 20
881.671289
 11
872.907555
 21
880.916319
  0
LINE
  8
CSLAYER1
  6
CONTINUOUS
 62
     3
 10
872.907555
 20
880.916319
 11
871.852904
 21
880.113731
  0
LINE
  8
CSLAYER1
  6
CONTINUOUS
 62
     3
 10
871.852904
 20
880.113731
 11
870.946550
 21
879.269634
  0
LINE
  8
CSLAYER1
  6
CONTINUOUS
 62
     3
 10
870.946550
 20
879.269634
 11
870.195392
 21
878.390453
  0
LINE
  8
CSLAYER1
  6
CONTINUOUS
 62
     3
 10
870.195392
 20
878.390453
 11
869.605144
 21
877.482877
  0
LINE
  8
CSLAYER1
  6
CONTINUOUS
 62
     3
 10
869.605144
 20
877.482877
 11
869.180301
 21
876.553815
  0
LINE
  8
CSLAYER1
  6
CONTINUOUS
 62
     3
 10
869.180301
 20
876.553815
 11
868.924095
 21
875.610337
  0
LINE
  8
CSLAYER1
  6
CONTINUOUS
 62
     3
 10
868.924095
 20
875.610337
 11
868.838476
 21
874.659623
  0
LINE
  8
CSLAYER1
  6
CONTINUOUS
 62
     3
 10
868.838476
 20
874.659623
 11
868.924095
 21
873.708909
  0
LINE
  8
CSLAYER1
  6
CONTINUOUS
 62
     3
 10
868.924095
 20
873.708909
 11
869.180301
 21
872.765431
  0
LINE
  8
CSLAYER1
  6
CONTINUOUS
 62
     3
 10
869.180301
 20
872.765431
 11
869.605144
 21
871.836369
  0
LINE
  8
CSLAYER1
  6
CONTINUOUS
 62
     3
 10
869.605144
 20
871.836369
 11
870.195392
 21
870.928793
  0
LINE
  8
CSLAYER1
  6
CONTINUOUS
 62
     3
 10
870.195392
 20
870.928793
 11
870.946550
 21
870.049611
  0
LINE
  8
CSLAYER1
  6
CONTINUOUS
 62
     3
 10
870.946550
 20
870.049611
 11
871.834969
 21
869.222217
  0
LINE
  8
CSLAYER1
  6
CONTINUOUS
 62
     3
 10
910.841982
 20
869.222217
 11
911.730401
 21
870.049611
  0
LINE
  8
CSLAYER1
  6
CONTINUOUS
 62
     3
 10
911.730401
 20
870.049611
 11
912.481560
 21
870.928793
  0
LINE
  8
CSLAYER1
  6
CONTINUOUS
 62
     3
 10
912.481560
 20
870.928793
 11
913.071807
 21
871.836369
  0
LINE
  8
CSLAYER1
  6
CONTINUOUS
 62
     3
 10
913.071807
 20
871.836369
 11
913.496650
 21
872.765431
  0
LINE
  8
CSLAYER1
  6
CONTINUOUS
 62
     3
 10
913.496650
 20
872.765431
 11
913.752856
 21
873.708909
  0
LINE
  8
CSLAYER1
  6
CONTINUOUS
 62
     3
 10
913.752856
 20
873.708909
 11
913.838476
 21
874.659623
  0
LINE
  8
CSLAYER1
  6
CENTER
 62
     5
 10
857.290481
 20
877.728227
 11
868.338476
 21
877.728227
  0
LINE
  8
CSLAYER1
  6
CONTINUOUS
 62
     3
 10
862.338476
 20
903.142709
 11
868.338476
 21
903.142709
  0
LINE
  8
CSLAYER1
  6
CONTINUOUS
 62
     3
 10
862.338476
 20
849.599229
 11
868.338476
 21
849.599229
  0
LINE
  8
CSLAYER1
  6
CONTINUOUS
 62
     3
 10
822.838476
 20
869.061980
 11
825.838476
 21
869.061980
  0
LINE
  8
CSLAYER1
  6
CONTINUOUS
 62
     3
 10
914.338476
 20
901.473652
 11
913.838476
 21
900.827677
  0
LINE
  8
CSLAYER1
  6
CONTINUOUS
 62
     3
 10
914.338476
 20
903.142709
 11
920.338476
 21
903.142709
  0
LINE
  8
CSLAYER1
  6
CONTINUOUS
 62
     3
 10
914.338476
 20
849.599229
 11
920.338476
 21
849.599229
  0
LINE
  8
CSLAYER1
  6
CONTINUOUS
 62
     3
 10
834.838476
 20
869.061980
 11
847.188476
 21
869.061980
  0
LINE
  8
CSLAYER1
  6
CONTINUOUS
 62
     3
 10
868.338476
 20
869.061980
 11
914.338476
 21
869.061980
  0
LINE
  8
CSLAYER1
  6
CONTINUOUS
 62
     3
 10
935.838476
 20
869.061980
 11
938.838476
 21
869.061980
  0
LINE
  8
CSLAYER1
  6
CONTINUOUS
 62
     3
 10
920.338476
 20
869.061980
 11
926.838476
 21
869.061980
  0
LINE
  8
CSLAYER1
  6
CONTINUOUS
 62
     3
 10
834.838476
 20
1039.053571
 11
873.338476
 21
1039.053571
  0
LINE
  8
CSLAYER1
  6
CONTINUOUS
 62
     3
 10
834.838476
 20
1037.045148
 11
873.338476
 21
1037.045148
  0
LINE
  8
CSLAYER1
  6
CONTINUOUS
 62
     3
 10
909.338476
 20
1039.053571
 11
926.838476
 21
1039.053571
  0
LINE
  8
CSLAYER1
  6
CONTINUOUS
 62
     3
 10
909.338476
 20
1037.045148
 11
926.838476
 21
1037.045148
  0
LINE
  8
CSLAYER1
  6
CONTINUOUS
 62
     3
 10
847.188476
 20
837.518911
 11
847.188476
 21
919.817548
  0
LINE
  8
CSLAYER1
  6
CONTINUOUS
 62
     3
 10
855.488476
 20
837.518911
 11
855.488476
 21
919.817548
  0
LINE
  8
CSLAYER1
  6
CONTINUOUS
 62
     3
 10
855.488476
 20
869.061980
 11
862.338476
 21
869.061980
  0
LINE
  8
CSLAYER1
  6
CENTER
 62
     5
 10
1522.814375
 20
887.142709
 11
1731.349391
 21
1200.135292
  0
ARC
  8
CSLAYER1
  6
CONTINUOUS
 62
     3
 10
1731.349391
 20
1200.135292
 40
8.000000
 50
32.176883
 51
250.071831
  0
POINT
  8
CSLAYER1
 62
     3
 10
1731.349391
 20
1200.135292
  0
LINE
  8
CSLAYER1
  6
CONTINUOUS
 62
     3
 10
1593.777047
 20
1026.115005
 11
1695.287330
 21
1178.472946
  0
CIRCLE
  8
CSLAYER1
  6
CONTINUOUS
 62
     4
 10
1740.403616
 20
1145.885674
 40
8.500000
  0
LINE
  8
CSLAYER1
  6
CONTINUOUS
 62
     4
 10
1740.380894
 20
1155.700603
 11
1731.892278
 21
1150.773461
  0
LINE
  8
CSLAYER1
  6
CONTINUOUS
 62
     4
 10
1731.892278
 20
1150.773461
 11
1731.915000
 21
1140.958533
  0
LINE
  8
CSLAYER1
  6
CONTINUOUS
 62
     4
 10
1731.915000
 20
1140.958533
 11
1740.426338
 21
1136.070746
  0
LINE
  8
CSLAYER1
  6
CONTINUOUS
 62
     4
 10
1740.426338
 20
1136.070746
 11
1748.914954
 21
1140.997888
  0
LINE
  8
CSLAYER1
  6
CONTINUOUS
 62
     4
 10
1748.914954
 20
1140.997888
 11
1748.892232
 21
1150.812816
  0
LINE
  8
CSLAYER1
  6
CONTINUOUS
 62
     4
 10
1748.892232
 20
1150.812816
 11
1740.380894
 21
1155.700603
  0
CIRCLE
  8
CSLAYER1
  6
CONTINUOUS
 62
     5
 10
1740.403616
 20
1145.885674
 40
5.000000
  0
CIRCLE
  8
CSLAYER1
  6
CONTINUOUS
 62
     4
 10
1740.403616
 20
1145.885674
 40
4.300000
  0
POINT
  8
CSLAYER1
 62
     4
 10
1740.403616
 20
1145.885674
  0
LINE
  8
CSLAYER1
  6
CONTINUOUS
 62
     4
 10
1792.901478
 20
1193.477423
 11
1783.852130
 21
1175.082877
  0
LINE
  8
CSLAYER1
  6
CONTINUOUS
 62
     4
 10
1792.901478
 20
1193.477423
 11
1984.329288
 21
1430.922982
  0
LINE
  8
CSLAYER1
  6
CONTINUOUS
 62
     4
 10
1984.329288
 20
1430.922982
 11
1994.454584
 21
1481.512322
  0
LINE
  8
CSLAYER1
  6
CONTINUOUS
 62
     4
 10
1487.621562
 20
893.678452
 11
1961.531247
 21
1481.512322
  0
LINE
  8
CSLAYER1
  6
CONTINUOUS
 62
     4
 10
1527.150575
 20
856.672275
 11
1783.852130
 21
1175.082877
  0
LINE
  8
CSLAYER1
  6
CONTINUOUS
 62
     4
 10
1487.621562
 20
893.678452
 11
1466.071505
 21
832.585858
  0
LINE
  8
CSLAYER1
  6
CONTINUOUS
 62
     4
 10
1508.497935
 20
837.518911
 11
1521.438507
 21
853.570295
  0
LINE
  8
CSLAYER1
  6
CONTINUOUS
 62
     4
 10
1521.438507
 20
853.570295
 11
1527.150575
 21
856.672275
  0
POINT
  8
CSLAYER1
 62
     4
 10
1473.659947
 20
815.018911
  0
LINE
  8
CSLAYER1
  6
CONTINUOUS
 62
     4
 10
1527.778207
 20
857.450785
 11
1528.167462
 21
857.136969
  0
CIRCLE
  8
CSLAYER1
  6
CONTINUOUS
 62
     4
 10
1522.814375
 20
887.142709
 40
8.000000
  0
LINE
  8
CSLAYER1
  6
CONTINUOUS
 62
     4
 10
1532.856489
 20
899.598870
 11
1540.252334
 21
893.636364
  0
ARC
  8
CSLAYER1
  6
CONTINUOUS
 62
     4
 10
1522.814375
 20
887.142709
 40
16.000000
 50
51.124357
 51
102.499524
  0
POINT
  8
CSLAYER1
 62
     4
 10
1522.814375
 20
887.142709
  0
LINE
  8
CSLAYER1
  6
CONTINUOUS
 62
     4
 10
1528.167462
 20
857.136969
 11
1512.351450
 21
837.518911
  0
POINT
  8
CSLAYER1
 62
     7
 10
1731.349391
 20
1200.135292
  0
LINE
  8
CSLAYER1
  6
CONTINUOUS
 62
     7
 10
1775.774257
 20
1084.486018
 11
1974.878307
 21
837.518911
  0
CIRCLE
  8
CSLAYER1
  6
DASHED
 62
     5
 10
2007.147285
 20
815.018911
 40
13.000000
  0
POINT
  8
CSLAYER1
 62
     7
 10
2007.147285
 20
815.018911
  0
POINT
  8
CSLAYER1
 62
     7
 10
1740.403616
 20
1145.885674
  0
LINE
  8
CSLAYER1
  6
CONTINUOUS
 62
     7
 10
2005.738313
 20
878.108251
 11
2013.862141
 21
837.518911
  0
LINE
  8
CSLAYER1
  6
CONTINUOUS
 62
     7
 10
1513.705772
 20
1488.421570
 11
1740.403616
 21
1207.227336
  0
LINE
  8
CSLAYER1
  6
CONTINUOUS
 62
     7
 10
1519.109822
 20
1426.541966
 11
1486.126458
 21
1483.512322
  0
ARC
  8
CSLAYER1
  6
CONTINUOUS
 62
     7
 10
1510.455593
 20
1421.531544
 40
10.000000
 50
2.933531
 51
30.068979
  0
LINE
  8
CSLAYER1
  6
CONTINUOUS
 62
     7
 10
1520.442489
 20
1422.043318
 11
1521.417231
 21
1403.021943
  0
ARC
  8
CSLAYER1
  6
CONTINUOUS
 62
     7
 10
1531.404127
 20
1403.533717
 40
10.000000
 50
182.933531
 51
218.875643
  0
LINE
  8
CSLAYER1
  6
CONTINUOUS
 62
     7
 10
1696.955102
 20
1175.082877
 11
1705.721982
 21
1164.208508
  0
LINE
  8
CSLAYER1
  6
CONTINUOUS
 62
     7
 10
1775.774257
 20
1084.486018
 11
1759.718319
 21
1097.231874
  0
LINE
  8
CSLAYER1
  6
CONTINUOUS
 62
     7
 10
1687.905754
 20
1193.477423
 11
1696.955102
 21
1175.082877
  0
LINE
  8
CSLAYER1
  6
CONTINUOUS
 62
     7
 10
1687.905754
 20
1193.477423
 11
1523.619027
 21
1397.257396
  0
CIRCLE
  8
CSLAYER1
  6
CONTINUOUS
 62
     7
 10
1740.403616
 20
1145.885674
 40
7.500000
  0
ARC
  8
CSLAYER1
  6
CONTINUOUS
 62
     7
 10
1731.349391
 20
1200.135292
 40
17.000000
 50
42.335098
 51
86.307189
  0
POINT
  8
CSLAYER1
 62
     5
 10
1731.349391
 20
1200.135292
  0
CIRCLE
  8
CSLAYER1
  6
CONTINUOUS
 62
     2
 10
1522.814375
 20
887.142709
 40
8.250000
  0
LINE
  8
CSLAYER1
  6
CONTINUOUS
 62
     4
 10
1589.616018
 20
1028.887340
 11
1594.176763
 21
1025.848690
  0
LINE
  8
CSLAYER1
  6
CONTINUOUS
 62
     4
 10
1556.207616
 20
985.056658
 11
1559.514247
 21
982.853576
  0
LINE
  8
CSLAYER1
  6
CONTINUOUS
 62
     4
 10
1555.929877
 20
986.443331
 11
1574.781753
 21
1014.738326
  0
LINE
  8
CSLAYER1
  6
CONTINUOUS
 62
     4
 10
1574.781753
 20
1014.738326
 11
1589.616018
 21
1028.887340
  0
LINE
  8
CSLAYER1
  6
CONTINUOUS
 62
     2
 10
1579.915373
 20
1005.309862
 11
1590.062118
 21
1020.539227
  0
LINE
  8
CSLAYER1
  6
CONTINUOUS
 62
     4
 10
1555.929877
 20
986.443331
 11
1556.207616
 21
985.056658
  0
LINE
  8
CSLAYER1
  6
CONTINUOUS
 62
     4
 10
1547.237738
 20
967.625891
 11
1558.038469
 21
983.836831
  0
POINT
  8
CSLAYER1
 62
     5
 10
1522.814375
 20
887.142709
  0
CIRCLE
  8
CSLAYER1
  6
CONTINUOUS
 62
     3
 10
1473.659947
 20
815.018911
 40
9.500000
  0
LINE
  8
CSLAYER1
  6
CONTINUOUS
 62
     3
 10
1483.159947
 20
820.503739
 11
1473.659947
 21
825.988567
  0
LINE
  8
CSLAYER1
  6
CONTINUOUS
 62
     3
 10
1473.659947
 20
825.988567
 11
1464.159947
 21
820.503739
  0
LINE
  8
CSLAYER1
  6
CONTINUOUS
 62
     3
 10
1464.159947
 20
820.503739
 11
1464.159947
 21
809.534084
  0
LINE
  8
CSLAYER1
  6
CONTINUOUS
 62
     3
 10
1464.159947
 20
809.534084
 11
1473.659947
 21
804.049256
  0
LINE
  8
CSLAYER1
  6
CONTINUOUS
 62
     3
 10
1473.659947
 20
804.049256
 11
1483.159947
 21
809.534084
  0
LINE
  8
CSLAYER1
  6
CONTINUOUS
 62
     3
 10
1483.159947
 20
809.534084
 11
1483.159947
 21
820.503739
  0
POINT
  8
CSLAYER1
 62
     3
 10
1473.659947
 20
815.018911
  0
LINE
  8
CSLAYER1
  6
CONTINUOUS
 62
     3
 10
1448.659947
 20
837.518911
 11
1448.659947
 21
797.518911
  0
LINE
  8
CSLAYER1
  6
CONTINUOUS
 62
     3
 10
2351.659947
 20
837.518911
 11
2351.659947
 21
797.518911
  0
LINE
  8
CSLAYER1
  6
CONTINUOUS
 62
     3
 10
1448.659947
 20
837.518911
 11
1462.203507
 21
837.518911
  0
LINE
  8
CSLAYER1
  6
CONTINUOUS
 62
     3
 10
1485.116386
 20
837.518911
 11
2351.659947
 21
837.518911
  0
ARC
  8
CSLAYER1
  6
CONTINUOUS
 62
     3
 10
1473.659947
 20
842.518911
 40
12.500000
 50
203.578178
 51
336.421822
  0
LINE
  8
CSLAYER1
  6
CONTINUOUS
 62
     7
 10
1775.085250
 20
1164.208508
 11
2005.738313
 21
878.108251
  0
LINE
  8
CSLAYER1
  6
CONTINUOUS
 62
     7
 10
1740.403616
 20
1121.189681
 11
1759.718319
 21
1097.231874
  0
LINE
  8
CSLAYER1
  6
CONTINUOUS
 62
     4
 10
1508.689574
 20
889.538541
 11
1526.890907
 21
912.115332
  0
ARC
  8
CSLAYER1
  6
CONTINUOUS
 62
     4
 10
1511.025104
 20
887.655645
 40
3.000000
 50
141.124357
 51
231.124357
  0
LINE
  8
CSLAYER1
  6
CONTINUOUS
 62
     4
 10
1509.142208
 20
885.320114
 11
1521.598368
 21
875.278000
  0
ARC
  8
CSLAYER1
  6
CONTINUOUS
 62
     4
 10
1523.481265
 20
877.613530
 40
3.000000
 50
231.124357
 51
321.124357
  0
LINE
  8
CSLAYER1
  6
CONTINUOUS
 62
     4
 10
1525.816795
 20
875.730633
 11
1544.018127
 21
898.307424
  0
ARC
  8
CSLAYER1
  6
CONTINUOUS
 62
     4
 10
1541.682597
 20
900.190321
 40
3.000000
 50
-38.875643
 51
51.124357
  0
LINE
  8
CSLAYER1
  6
CONTINUOUS
 62
     4
 10
1531.109333
 20
912.567966
 11
1543.565494
 21
902.525851
  0
ARC
  8
CSLAYER1
  6
CONTINUOUS
 62
     4
 10
1529.226437
 20
910.232435
 40
3.000000
 50
51.124357
 51
141.124357
  0
LINE
  8
CSLAYER1
  6
CONTINUOUS
 62
     4
 10
1451.359947
 20
1979.788402
 11
2351.359947
 21
1979.788402
  0
CIRCLE
  8
CSLAYER1
  6
CONTINUOUS
 62
     3
 10
850.838476
 20
809.168911
 40
4.150000
  0
LINE
  8
CSLAYER1
  6
CENTER
 62
     5
 10
1473.659947
 20
849.730792
 11
1473.659947
 21
800.588280
  0
LINE
  8
CSLAYER1
  6
CENTER
 62
     5
 10
1461.099756
 20
815.018911
 11
1486.706143
 21
815.018911
  0
LINE
  8
CSLAYER1
  6
CENTER
 62
     5
 10
1512.935489
 20
887.142709
 11
1533.135154
 21
887.142709
  0
LINE
  8
CSLAYER1
  6
CENTER
 62
     5
 10
1522.814375
 20
897.360713
 11
1522.814375
 21
877.288894
  0
LINE
  8
CSLAYER1
  6
CENTER
 62
     5
 10
2007.147285
 20
830.871506
 11
2007.147285
 21
798.942554
  0
LINE
  8
CSLAYER1
  6
CENTER
 62
     5
 10
1991.630351
 20
815.018911
 11
2023.401239
 21
815.018911
  0
LINE
  8
CSLAYER1
  6
CENTER
 62
     5
 10
1729.700365
 20
1145.885674
 11
1751.217027
 21
1145.885674
  0
LINE
  8
CSLAYER1
  6
CENTER
 62
     5
 10
1740.403616
 20
1156.197499
 11
1740.403616
 21
1134.680837
  0
LINE
  8
CSLAYER1
  6
CENTER
 62
     5
 10
1721.848298
 20
1200.135292
 11
1739.056489
 21
1200.135292
  0
LINE
  8
CSLAYER1
  6
CENTER
 62
     5
 10
1731.349391
 20
1209.890792
 11
1731.349391
 21
1190.935576
  0
LINE
  8
CSLAYER1
  6
CONTINUOUS
 62
     5
 10
847.338476
 20
966.817548
 11
847.338476
 21
971.478317
  0
LINE
  8
CSLAYER1
  6
CONTINUOUS
 62
     3
 10
1195.164092
 20
2113.938402
 11
1451.359947
 21
2113.938402
  0
LINE
  8
CSLAYER1
  6
CONTINUOUS
 62
     3
 10
1195.164092
 20
2105.638402
 11
1451.359947
 21
2105.638402
  0
LINE
  8
CSLAYER1
  6
CONTINUOUS
 62
     3
 10
1448.659947
 20
2113.938402
 11
1448.659947
 21
2219.788402
  0
LINE
  8
CSLAYER1
  6
CENTER
 62
     5
 10
1192.277506
 20
813.590396
 11
1448.659947
 21
813.590396
  0
LINE
  8
CSLAYER1
  6
CONTINUOUS
 62
     3
 10
1192.277506
 20
817.740396
 11
1448.659947
 21
817.740396
  0
LINE
  8
CSLAYER1
  6
CONTINUOUS
 62
     3
 10
1192.277506
 20
809.440396
 11
1448.659947
 21
809.440396
  0
INSERT
  8
CSLAYER1
  2
BLKF0009
 10
0.0
 20
0.0
 30
0.0
  0
ARC
  8
CSLAYER1
  6
PHANTOM
 62
     5
 10
1473.659947
 20
842.718911
 40
9.500000
 50
-190.922071
 51
10.922071
  0
LINE
  8
CSLAYER1
  6
PHANTOM
 62
     5
 10
1464.159947
 20
844.518911
 11
1464.159947
 21
837.234084
  0
LINE
  8
CSLAYER1
  6
PHANTOM
 62
     5
 10
1464.159947
 20
837.234084
 11
1473.659947
 21
831.749256
  0
LINE
  8
CSLAYER1
  6
PHANTOM
 62
     5
 10
1473.659947
 20
831.749256
 11
1483.159947
 21
837.234084
  0
LINE
  8
CSLAYER1
  6
PHANTOM
 62
     5
 10
1483.159947
 20
837.234084
 11
1483.159947
 21
844.518911
  0
POINT
  8
CSLAYER1
 62
     5
 10
1473.659947
 20
842.718911
  0
LINE
  8
CSLAYER1
  6
PHANTOM
 62
     5
 10
1451.359947
 20
862.518911
 11
1451.359947
 21
844.518911
  0
LINE
  8
CSLAYER1
  6
PHANTOM
 62
     5
 10
2351.359947
 20
862.518911
 11
2351.359947
 21
844.518911
  0
LINE
  8
CSLAYER1
  6
PHANTOM
 62
     5
 10
1451.359947
 20
862.518911
 11
2351.359947
 21
862.518911
  0
LINE
  8
CSLAYER1
  6
PHANTOM
 62
     5
 10
1451.359947
 20
844.518911
 11
2351.359947
 21
844.518911
  0
LINE
  8
CSLAYER1
  6
PHANTOM
 62
     5
 10
1453.659947
 20
844.518911
 11
1453.659947
 21
837.518911
  0
LINE
  8
CSLAYER1
  6
PHANTOM
 62
     5
 10
1466.577574
 20
832.218911
 11
1472.846480
 21
832.218911
  0
LINE
  8
CSLAYER1
  6
PHANTOM
 62
     5
 10
2333.659947
 20
844.518911
 11
2333.659947
 21
837.518911
  0
LINE
  8
CSLAYER1
  6
PHANTOM
 62
     5
 10
1503.659947
 20
841.218911
 11
1493.382169
 21
837.518911
  0
LINE
  8
CSLAYER1
  6
PHANTOM
 62
     5
 10
1503.659947
 20
844.518911
 11
1503.659947
 21
837.518911
  0
LINE
  8
CSLAYER1
  6
PHANTOM
 62
     5
 10
1474.473413
 20
832.218911
 11
1478.659947
 21
832.218911
  0
LINE
  8
CSLAYER1
  6
PHANTOM
 62
     5
 10
1473.659947
 20
853.318984
 11
1473.659947
 21
830.666276
  0
LINE
  8
CSLAYER1
  6
PHANTOM
 62
     5
 10
1461.473143
 20
842.718911
 11
1484.905349
 21
842.718911
  0
LINE
  8
CSLAYER1
  6
PHANTOM
 62
     5
 10
1482.372265
 20
833.555346
 11
1478.659947
 21
832.218911
  0
DIMENSION
  8
CSLAYER1
 62
     3
  2
*D0000
 10
2372.768972
 20
1613.812322
 11
1922.769165
 21
1623.812256
 13
1472.768972
 23
1513.812322
 14
2372.768972
 24
1513.812322
 70
1
  0
DIMENSION
  8
CSLAYER1
 62
     3
  2
*D0001
 10
1363.405886
 20
2204.788402
 11
1355.153931
 21
2054.235596
 13
1462.397145
 23
1954.788402
 14
1462.397145
 24
2204.788402
 50
90.000000
 70
1
  0
INSERT
  8
CSLAYER1
  2
EASYDRAWDIM0003
 10
0.0
 20
0.0
 30
0.0
  0
INSERT
  8
CSLAYER1
  2
EASYDRAWDIM0004
 10
0.0
 20
0.0
 30
0.0
  0
DIMENSION
  8
CSLAYER1
 62
     3
  2
*D0002
 10
1097.337147
 20
803.518911
 11
1087.337158
 21
830.333313
 13
1030.838476
 23
797.518911
 14
1030.838476
 24
803.518911
 50
90.000000
 70
1
  0
DIMENSION
  8
CSLAYER1
 62
     3
  2
*D0003
 10
2351.659947
 20
587.518911
 11
1900.160034
 21
597.518982
 13
1448.659947
 23
797.518911
 14
2351.659947
 24
797.518911
 52
270.000000
 70
1
  0
DIMENSION
  8
CSLAYER1
 62
     3
  2
*D0004
 10
2492.768972
 20
2179.788402
 11
2482.769043
 21
2079.788330
 13
2351.359947
 23
1979.788402
 14
2351.359947
 24
2179.788402
 50
90.000000
 70
1
  0
INSERT
  8
CSLAYER1
  2
EASYDRAWDIM0005
 10
0.0
 20
0.0
 30
0.0
  0
INSERT
  8
CSLAYER1
  2
BLKF0010
 10
0.0
 20
0.0
 30
0.0
  0
INSERT
  8
CSLAYER1
  2
BLKF0011
 10
0.0
 20
0.0
 30
0.0
  0
TEXT
  8
CSLAYER1
 62
     7
 10
1455.480347
 20
2300.988281
 40
40.000000
 41
0.843750
  1
下降時
 50
0.000000
 51
0.000000
  7
EASYDRAW_FONT
 72
     5
 11
1545.480347
 21
2300.988281
  0
LINE
  8
CSLAYER1
  6
CONTINUOUS
 62
     5
 10
1441.873962
 20
2347.418154
 11
1564.831972
 21
2347.418154
  0
LINE
  8
CSLAYER1
  6
CONTINUOUS
 62
     5
 10
1564.831972
 20
2347.418154
 11
1564.831972
 21
2294.557701
  0
LINE
  8
CSLAYER1
  6
CONTINUOUS
 62
     5
 10
1564.831972
 20
2294.557701
 11
1441.873962
 21
2294.557701
  0
LINE
  8
CSLAYER1
  6
CONTINUOUS
 62
     5
 10
1441.873962
 20
2294.557701
 11
1441.873962
 21
2347.418154
  0
TEXT
  8
CSLAYER1
 62
     5
 10
3095.777800
 20
805.038807
 40
31.844261
 41
0.920655
  1
Ｆ.Ｌ
 50
0.000000
 51
0.000000
  7
EASYDRAW_FONT
 72
     5
 11
3173.958040
 21
805.038807
  0
LINE
  8
CSLAYER1
  6
CONTINUOUS
 62
     3
 10
2707.032161
 20
797.518911
 11
3007.032161
 21
797.518911
  0
LINE
  8
CSLAYER1
  6
CENTER
 62
     5
 10
2982.032161
 20
788.589550
 11
2982.032161
 21
812.799512
  0
LINE
  8
CSLAYER1
  6
CENTER
 62
     5
 10
2732.032161
 20
788.589550
 11
2732.032161
 21
812.799512
  0
LINE
  8
CSLAYER1
  6
CONTINUOUS
 62
     3
 10
2757.032161
 20
837.518911
 11
2957.032161
 21
837.518911
  0
LINE
  8
CSLAYER1
  6
CONTINUOUS
 62
     3
 10
2757.032161
 20
837.518911
 11
2757.032161
 21
803.518911
  0
LINE
  8
CSLAYER1
  6
CONTINUOUS
 62
     3
 10
2957.032161
 20
837.518911
 11
2957.032161
 21
803.518911
  0
LINE
  8
CSLAYER1
  6
CONTINUOUS
 62
     3
 10
3007.032161
 20
797.518911
 11
3007.032161
 21
803.518911
  0
LINE
  8
CSLAYER1
  6
CONTINUOUS
 62
     3
 10
3007.032161
 20
803.518911
 11
2957.032161
 21
803.518911
  0
LINE
  8
CSLAYER1
  6
CONTINUOUS
 62
     3
 10
2707.032161
 20
797.518911
 11
2707.032161
 21
803.518911
  0
LINE
  8
CSLAYER1
  6
CONTINUOUS
 62
     3
 10
2707.032161
 20
803.518911
 11
2757.032161
 21
803.518911
  0
POINT
  8
CSLAYER1
 62
     3
 10
2857.032161
 20
862.318911
  0
POINT
  8
CSLAYER1
 62
     3
 10
2857.032161
 20
837.518911
  0
LINE
  8
CSLAYER1
  6
CENTER
 62
     5
 10
2782.532161
 20
842.518911
 11
2931.532161
 21
842.518911
  0
LINE
  8
CSLAYER1
  6
CONTINUOUS
 62
     3
 10
2957.032161
 20
862.318911
 11
2757.032161
 21
862.318911
  0
LINE
  8
CSLAYER1
  6
CONTINUOUS
 62
     3
 10
2957.032161
 20
844.318911
 11
2757.032161
 21
844.318911
  0
LINE
  8
CSLAYER1
  6
CONTINUOUS
 62
     3
 10
2957.032161
 20
844.318911
 11
2957.032161
 21
862.318911
  0
LINE
  8
CSLAYER1
  6
CONTINUOUS
 62
     3
 10
2914.032161
 20
844.318911
 11
2914.032161
 21
837.518911
  0
LINE
  8
CSLAYER1
  6
CONTINUOUS
 62
     3
 10
2913.032161
 20
844.318911
 11
2913.032161
 21
837.518911
  0
LINE
  8
CSLAYER1
  6
CONTINUOUS
 62
     3
 10
2920.532161
 20
844.318911
 11
2920.532161
 21
837.518911
  0
LINE
  8
CSLAYER1
  6
CONTINUOUS
 62
     3
 10
2914.532161
 20
844.318911
 11
2914.532161
 21
837.518911
  0
LINE
  8
CSLAYER1
  6
CONTINUOUS
 62
     3
 10
2923.532161
 20
837.518911
 11
2923.532161
 21
844.318911
  0
LINE
  8
CSLAYER1
  6
CONTINUOUS
 62
     3
 10
2920.532161
 20
841.006715
 11
2923.371187
 21
844.318911
  0
LINE
  8
CSLAYER1
  6
CONTINUOUS
 62
     3
 10
2931.532161
 20
844.318911
 11
2931.532161
 21
837.518911
  0
ARC
  8
CSLAYER1
  6
CONTINUOUS
 62
     3
 10
2917.736417
 20
842.518911
 40
13.795744
 50
-21.249544
 51
7.497043
  0
LINE
  8
CSLAYER1
  6
CONTINUOUS
 62
     3
 10
2757.032161
 20
844.318911
 11
2757.032161
 21
862.318911
  0
LINE
  8
CSLAYER1
  6
CONTINUOUS
 62
     3
 10
2800.032161
 20
844.318911
 11
2800.032161
 21
837.518911
  0
LINE
  8
CSLAYER1
  6
CONTINUOUS
 62
     3
 10
2801.032161
 20
844.318911
 11
2801.032161
 21
837.518911
  0
LINE
  8
CSLAYER1
  6
CONTINUOUS
 62
     3
 10
2793.532161
 20
844.318911
 11
2793.532161
 21
837.518911
  0
LINE
  8
CSLAYER1
  6
CONTINUOUS
 62
     3
 10
2799.532161
 20
844.318911
 11
2799.532161
 21
837.518911
  0
LINE
  8
CSLAYER1
  6
CONTINUOUS
 62
     3
 10
2790.532161
 20
837.518911
 11
2790.532161
 21
844.318911
  0
LINE
  8
CSLAYER1
  6
CONTINUOUS
 62
     3
 10
2793.532161
 20
841.006715
 11
2790.693136
 21
844.318911
  0
LINE
  8
CSLAYER1
  6
CONTINUOUS
 62
     3
 10
2782.532161
 20
844.318911
 11
2782.532161
 21
837.518911
  0
ARC
  8
CSLAYER1
  6
CONTINUOUS
 62
     3
 10
2796.327905
 20
842.518911
 40
13.795744
 50
172.502957
 51
201.249544
  0
LINE
  8
CSLAYER1
  6
CONTINUOUS
 62
     3
 10
2772.032161
 20
837.518911
 11
2772.032161
 21
844.318911
  0
LINE
  8
CSLAYER1
  6
CONTINUOUS
 62
     3
 10
2776.532161
 20
837.518911
 11
2776.532161
 21
844.318911
  0
LINE
  8
CSLAYER1
  6
CONTINUOUS
 62
     3
 10
2942.032161
 20
837.518911
 11
2942.032161
 21
844.318911
  0
LINE
  8
CSLAYER1
  6
CONTINUOUS
 62
     3
 10
2937.532161
 20
837.518911
 11
2937.532161
 21
844.318911
  0
LINE
  8
CSLAYER1
  6
CENTER
 62
     5
 10
2857.032161
 20
902.318911
 11
2857.032161
 21
757.518911
  0
TEXT
  8
CSLAYER1
 62
     7
 10
2816.114502
 20
949.365234
 40
40.000000
 41
0.843750
  1
下降時
 50
0.000000
 51
0.000000
  7
EASYDRAW_FONT
 72
     5
 11
2906.114502
 21
949.365234
  0
LINE
  8
CSLAYER1
  6
CONTINUOUS
 62
     5
 10
2802.507752
 20
995.795406
 11
2925.465762
 21
995.795406
  0
LINE
  8
CSLAYER1
  6
CONTINUOUS
 62
     5
 10
2925.465762
 20
995.795406
 11
2925.465762
 21
942.934953
  0
LINE
  8
CSLAYER1
  6
CONTINUOUS
 62
     5
 10
2925.465762
 20
942.934953
 11
2802.507752
 21
942.934953
  0
LINE
  8
CSLAYER1
  6
CONTINUOUS
 62
     5
 10
2802.507752
 20
942.934953
 11
2802.507752
 21
995.795406
  0
DIMENSION
  8
CSLAYER1
 62
     3
  2
*D0006
 10
2672.768972
 20
862.318911
 11
2662.769043
 21
829.918884
 13
2706.491008
 23
797.518911
 14
2757.032161
 24
862.318911
 50
90.000000
  0
LINE
  8
CSLAYER1
  6
CONTINUOUS
 62
     5
 10
3216.375980
 20
797.518911
 11
3007.032161
 21
797.518911
  0
LINE
  8
CSLAYER1
  6
CONTINUOUS
 62
     3
 10
2757.032161
 20
803.518911
 11
2757.032161
 21
797.518911
  0
LINE
  8
CSLAYER1
  6
CONTINUOUS
 62
     3
 10
2957.032161
 20
803.518911
 11
2957.032161
 21
797.518911
  0
DIMENSION
  8
CSLAYER1
 62
     3
  2
*D0007
 10
1030.838476
 20
587.518911
 11
880.838623
 21
597.518921
 13
730.838476
 23
797.518911
 14
1030.838476
 24
803.518911
 52
270.000000
  0
DIMENSION
  8
CSLAYER1
 62
     3
  2
*D0008
 10
1473.659947
 20
677.518911
 11
1489.280151
 21
651.314209
 13
1448.659947
 23
762.639417
 14
1473.659947
 24
800.588280
 52
270.000000
  0
DIMENSION
  8
CSLAYER1
 62
     3
  2
*D0009
 10
980.838476
 20
1613.812322
 11
880.838623
 21
1623.812256
 13
780.838476
 23
1513.812322
 14
980.838476
 24
1513.812322
 70
1
  0
LINE
  8
CSLAYER1
  6
CONTINUOUS
 62
     5
 10
2707.032161
 20
797.518911
 11
2351.659947
 21
797.518911
  0
LINE
  8
CSLAYER1
  6
CONTINUOUS
 62
     3
 10
2351.659947
 20
797.518911
 11
1448.659947
 21
797.518911
  0
LINE
  8
CSLAYER1
  6
CONTINUOUS
 62
     5
 10
1448.659947
 20
797.518911
 11
1030.838476
 21
797.518911
  0
LINE
  8
CSLAYER1
  6
CONTINUOUS
 62
     3
 10
1030.838476
 20
797.518911
 11
730.838476
 21
797.518911
  0
LINE
  8
CSLAYER1
  6
CONTINUOUS
 62
     5
 10
730.838476
 20
797.518911
 11
497.193935
 21
797.518911
  0
INSERT
  8
CSLAYER1
  2
EASYDRAWDIM0007
 10
0.0
 20
0.0
 30
0.0
  0
LINE
  8
CSLAYER1
  6
CONTINUOUS
 62
     5
 10
1108.874069
 20
636.736300
 11
1366.071187
 21
636.736300
  0
TEXT
  8
CSLAYER1
 62
     3
 10
1144.128052
 20
644.545044
 40
40.000000
 41
0.787500
  1
(アンカー穴)
 50
0.000000
 51
0.000000
  7
EASYDRAW_FONT
 72
     5
 11
1354.128052
 21
644.545044
  0
LINE
  8
CSLAYER1
  6
CONTINUOUS
 62
     5
 10
1005.838476
 20
797.518911
 11
1108.874069
 21
636.736300
  0
LINE
  8
CSLAYER1
  6
CONTINUOUS
 62
     5
 10
1005.838476
 20
797.518911
 11
1028.010940
 21
777.310453
  0
LINE
  8
CSLAYER1
  6
CONTINUOUS
 62
     5
 10
1005.838476
 20
797.518911
 11
1014.936164
 21
768.931640
  0
LINE
  8
CSLAYER1
  6
CONTINUOUS
 62
     5
 10
1473.659947
 20
797.518911
 11
1366.071187
 21
636.736300
  0
LINE
  8
CSLAYER1
  6
CONTINUOUS
 62
     5
 10
1473.659947
 20
797.518911
 11
1463.997565
 21
769.117531
  0
LINE
  8
CSLAYER1
  6
CONTINUOUS
 62
     5
 10
1473.659947
 20
797.518911
 11
1451.091389
 21
777.753786
  0
TEXT
  8
CSLAYER1
 62
     7
 10
831.702087
 20
501.073792
 40
40.000000
 41
0.843750
  1
上昇時
 50
0.000000
 51
0.000000
  7
EASYDRAW_FONT
 72
     5
 11
921.702087
 21
501.073792
  0
LINE
  8
CSLAYER1
  6
CONTINUOUS
 62
     5
 10
818.095510
 20
547.503915
 11
941.053520
 21
547.503915
  0
LINE
  8
CSLAYER1
  6
CONTINUOUS
 62
     5
 10
941.053520
 20
547.503915
 11
941.053520
 21
494.643462
  0
LINE
  8
CSLAYER1
  6
CONTINUOUS
 62
     5
 10
941.053520
 20
494.643462
 11
818.095510
 21
494.643462
  0
LINE
  8
CSLAYER1
  6
CONTINUOUS
 62
     5
 10
818.095510
 20
494.643462
 11
818.095510
 21
547.503915
  0
DIMENSION
  8
CSLAYER1
 62
     3
  2
*D0010
 10
1498.659947
 20
1719.788402
 11
1388.659912
 21
1729.788452
 13
1448.659947
 23
1939.788402
 14
1498.659947
 24
1939.788402
 52
270.000000
 70
1
  0
DIMENSION
  8
CSLAYER1
 62
     3
  2
*D0011
 10
1473.659947
 20
1809.788402
 11
1388.659912
 21
1819.788452
 13
1448.659947
 23
1939.788402
 14
1473.659947
 24
1943.525600
 52
270.000000
  0
DIMENSION
  8
CSLAYER1
 62
     3
  2
*D0012
 10
1005.838476
 20
677.518911
 11
880.838501
 21
687.518921
 13
755.838476
 23
788.589550
 14
1005.838476
 24
788.589550
 52
270.000000
 70
1
  0
DIMENSION
  8
CSLAYER1
 62
     3
  2
*D0013
 10
2582.768972
 20
1513.812322
 11
2572.769043
 21
1155.665649
 13
2492.768972
 23
797.518911
 14
2372.768972
 24
1513.812322
 50
90.000000
  0
DIMENSION
  8
CSLAYER1
 62
     3
  2
*D0014
 10
2492.768972
 20
1513.812322
 11
2482.768799
 21
1188.165649
 13
2351.359947
 23
862.518911
 14
2351.359947
 24
1513.812322
 50
90.000000
 70
1
  0
DIMENSION
  8
CSLAYER1
 62
     3
  2
*D0015
 10
2492.768972
 20
797.518911
 11
2482.768799
 21
830.018921
 13
2492.768972
 23
862.518911
 14
2492.768972
 24
797.518911
 50
90.000000
 70
1
  0
LINE
  8
CSLAYER1
  6
CONTINUOUS
 62
     5
 10
1473.659947
 20
1954.788402
 11
1562.556090
 21
1809.788402
  0
LINE
  8
CSLAYER1
  6
CONTINUOUS
 62
     5
 10
1473.659947
 20
1954.788402
 11
1495.425321
 21
1934.142132
  0
LINE
  8
CSLAYER1
  6
CONTINUOUS
 62
     5
 10
1473.659947
 20
1954.788402
 11
1482.186179
 21
1926.025520
  0
TEXT
  8
CSLAYER1
 62
     3
 10
3150.921387
 20
1780.615479
 40
40.000000
 41
0.859091
  1
約 46
 50
0.000000
 51
0.000000
  7
EASYDRAW_FONT
 72
     5
 11
3276.921387
 21
1780.615479
  0
ENDSEC
  0
EOF
