  0
SECTION
  2
HEADER
  9
$ACADVER
  1
AC1006
  9
$INSBASE
 10
0.000000
 20
0.000000
 30
0.0
  9
$EXTMIN
 10
0.000000
 20
0.000000
  9
$EXTMAX
 10
3640.000000
 20
2570.000000
  9
$LIMMIN
 10
0.000000
 20
0.000000
  9
$LIMMAX
 10
3640.000000
 20
2570.000000
  9
$VIEWCTR
 10
1820.000000
 20
1285.000000
  9
$VIEWSIZE
 40
2570.000000
  9
$SNAPMODE
 70
     0
  9
$SNAPUNIT
 10
1.0
 20
1.0
  9
$SNAPBASE
 10
0.0
 20
0.0
  9
$SNAPANG
 50
0.0
  9
$SNAPSTYLE
 70
     0
  9
$SNAPISOPAIR
 70
     0
  9
$GRIDMODE
 70
     0
  9
$GRIDUNIT
 10
0.0
 20
0.0
  9
$ORTHOMODE
 70
     0
  9
$REGENMODE
 70
     1
  9
$FILLMODE
 70
     1
  9
$QTEXTMODE
 70
     0
  9
$DRAGMODE
 70
     2
  9
$LTSCALE
 40
15.000000
  9
$OSMODE
 70
     0
  9
$ATTMODE
 70
     1
  9
$TEXTSIZE
 40
0.2
  9
$TRACEWID
 40
0.05
  9
$TEXTSTYLE
  7
STANDARD
  9
$CLAYER
  8
CSLAYER1
  9
$CELTYPE
  6
BYLAYER
  9
$CECOLOR
 62
   256
  9
$DIMSCALE
 40
1.0
  9
$DIMASZ
 40
0.18
  9
$DIMEXO
 40
0.0625
  9
$DIMDLI
 40
0.38
  9
$DIMRND
 40
0.0
  9
$DIMDLE
 40
0.0
  9
$DIMEXE
 40
0.18
  9
$DIMTP
 40
0.0
  9
$DIMTM
 40
0.0
  9
$DIMTXT
 40
0.18
  9
$DIMCEN
 40
0.09
  9
$DIMTSZ
 40
0.0
  9
$DIMTOL
 70
     0
  9
$DIMLIM
 70
     0
  9
$DIMTIH
 70
     1
  9
$DIMTOH
 70
     1
  9
$DIMSE1
 70
     0
  9
$DIMSE2
 70
     0
  9
$DIMTAD
 70
     0
  9
$DIMZIN
 70
     0
  9
$DIMBLK
  1

  9
$LUNITS
 70
     2
  9
$LUPREC
 70
     4
  9
$AXISMODE
 70
     0
  9
$AXISUNIT
 10
0.0
 20
0.0
  9
$SKETCHINC
 40
0.1
  9
$FILLETRAD
 40
0.0
  9
$AUNITS
 70
     0
  9
$AUPREC
 70
     0
  9
$MENU
  1
ACAD
  9
$ELEVATION
 40
0.0
  9
$THICKNESS
 40
0.0
  9
$VIEWDIR
 10
0.0
 20
0.0
 30
1.0
  9
$LIMCHECK
 70
     0
  9
$BLIPMODE
 70
     1
  9
$CHAMFERA
 40
0.0
  9
$CHAMFERB
 40
0.0
  9
$FASTZOOM
 70
     1
  9
$SKPOLY
 70
     0
  9
$TDCREATE
 40
2456676.000000
  9
$TDUPDATE
 40
2456676.000000
  9
$TDINDWG
 40
0.0
  9
$TDUSRTIMER
 40
0.0
  9
$USRTIMER
 70
     1
  9
$ANGBASE
 50
0.0
  9
$ANGDIR
 70
     0
  9
$PDMODE
 70
     0
  9
$PDSIZE
 40
0.0
  9
$PLINEWID
 40
0.0
  9
$COORDS
 70
     0
  9
$USERI1
 70
     0
  9
$USERI2
 70
     0
  9
$USERI3
 70
     0
  9
$USERI4
 70
     0
  9
$USERI5
 70
     0
  9
$USERR1
 40
0.0
  9
$USERR2
 40
0.0
  9
$USERR3
 40
0.0
  9
$USERR4
 40
0.0
  9
$USERR5
 40
0.0
  0
ENDSEC
  0
SECTION
  2
TABLES
  0
TABLE
  2
LTYPE
 70
     9
  0
LTYPE
  2
CONTINUOUS
 70
    64
  3
Solid line
 72
    65
 73
     0
 40
0.0
  0
LTYPE
  2
DASHED
 70
    64
  3
__ __ __ __ __ __ __ __ __ __ __ __ __ __ __
 72
    65
 73
     2
 40
0.75
 49
0.5
 49
-0.25
  0
LTYPE
  2
HIDDEN
 70
    64
  3
_ _ _ _ _ _ _ _ _ _ _ _ _ _ _ _ _ _ _ _ _ _ _
 72
    65
 73
     2
 40
0.375
 49
0.25
 49
-0.125
  0
LTYPE
  2
DOT
 70
    64
  3
...............................................
 72
    65
 73
     2
 40
0.25
 49
0.0
 49
-0.25
  0
LTYPE
  2
DASHDOT
 70
    64
  3
__ . __ . __ . __ . __ . __ . __ . __ . __ . __
 72
    65
 73
     4
 40
1.0
 49
0.5
 49
-0.25
 49
0.0
 49
-0.25
  0
LTYPE
  2
DIVIDE
 70
    64
  3
__ . . __ . . __ . . __ . . __ . . __ . . __
 72
    65
 73
     6
 40
1.25
 49
0.5
 49
-0.25
 49
0.0
 49
-0.25
 49
0.0
 49
-0.25
  0
LTYPE
  2
CENTER
 70
    64
  3
____ _ ____ _ ____ _ ____ _ ____ _ ____ _ ____ 
 72
    65
 73
     4
 40
2.0
 49
1.25
 49
-0.25
 49
0.25
 49
-0.25
  0
LTYPE
  2
PHANTOM
 70
    64
  3
______  __  __  ______  __  __  ______  __  __ 
 72
    65
 73
     6
 40
2.5
 49
1.25
 49
-0.25
 49
0.25
 49
-0.25
 49
0.25
 49
-0.25
  0
LTYPE
  2
BORDER
 70
    64
  3
__ __ . __ __ . __ __ . __ __ . __ __ . __ __ .
 72
    65
 73
     6
 40
1.75
 49
0.5
 49
-0.25
 49
0.5
 49
-0.25
 49
0.0
 49
-0.25
  0
ENDTAB
  0
TABLE
  2
LAYER
 70
    16
  0
LAYER
  2
CSLAYER1
 70
    64
 62
     7
  6
CONTINUOUS
  0
LAYER
  2
CSLAYER2
 70
    64
 62
     7
  6
CONTINUOUS
  0
LAYER
  2
CSLAYER3
 70
    64
 62
     7
  6
CONTINUOUS
  0
LAYER
  2
CSLAYER4
 70
    64
 62
     7
  6
CONTINUOUS
  0
LAYER
  2
CSLAYER5
 70
    64
 62
     7
  6
CONTINUOUS
  0
LAYER
  2
CSLAYER6
 70
    64
 62
     7
  6
CONTINUOUS
  0
LAYER
  2
CSLAYER7
 70
    64
 62
     7
  6
CONTINUOUS
  0
LAYER
  2
CSLAYER8
 70
    64
 62
     7
  6
CONTINUOUS
  0
LAYER
  2
CSLAYER9
 70
    64
 62
     7
  6
CONTINUOUS
  0
LAYER
  2
CSLAYER10
 70
    64
 62
     7
  6
CONTINUOUS
  0
LAYER
  2
CSLAYER11
 70
    64
 62
     7
  6
CONTINUOUS
  0
LAYER
  2
CSLAYER12
 70
    64
 62
     7
  6
CONTINUOUS
  0
LAYER
  2
CSLAYER13
 70
    64
 62
     7
  6
CONTINUOUS
  0
LAYER
  2
CSLAYER14
 70
    64
 62
     7
  6
CONTINUOUS
  0
LAYER
  2
CSLAYER15
 70
    64
 62
     7
  6
CONTINUOUS
  0
LAYER
  2
CSLAYER16
 70
    64
 62
     7
  6
CONTINUOUS
  0
ENDTAB
  0
TABLE
  2
STYLE
 70
     1
  0
STYLE
  2
EASYDRAW_FONT
 70
     0
 40
1.0
 41
1.0
 50
0.0
 71
     0
 42
1.0
  3
monotxt
  4
bigfont
  0
ENDTAB
  0
TABLE
  2
VIEW
 70
     0
  0
ENDTAB
  0
ENDSEC
  0
SECTION
  2
BLOCKS
  0
BLOCK
  8
CSLAYER1
  2
EASYDRAWDIM0000
 70
   64
 10
0.0
 20
0.0
 30
0.0
  0
TEXT
  8
CSLAYER1
 62
     3
 10
283.817871
 20
2226.790283
 40
48.000000
 41
0.787500
  1
昇降切替バルブ
 50
0.000000
 51
0.000000
  7
EASYDRAW_FONT
 72
     5
 11
535.817871
 21
2226.790283
  0
LINE
  8
CSLAYER1
  6
CONTINUOUS
 62
     7
 10
635.714150
 20
2076.068648
 11
535.818350
 21
2216.790004
  0
LINE
  8
CSLAYER1
  6
CONTINUOUS
 62
     7
 10
635.714150
 20
2076.068648
 11
612.608661
 21
2095.203338
  0
LINE
  8
CSLAYER1
  6
CONTINUOUS
 62
     7
 10
635.714150
 20
2076.068648
 11
625.271555
 21
2104.192520
  0
LINE
  8
CSLAYER1
  6
CONTINUOUS
 62
     7
 10
535.818350
 20
2216.790004
 11
275.818350
 21
2216.790004
  0
ENDBLK
  8
0
  0
BLOCK
  8
CSLAYER1
  2
EASYDRAWDIM0001
 70
   64
 10
0.0
 20
0.0
 30
0.0
  0
TEXT
  8
CSLAYER1
 62
     3
 10
307.565430
 20
2137.542725
 40
48.000000
 41
0.794118
  1
ポンプペタル
 50
0.000000
 51
0.000000
  7
EASYDRAW_FONT
 72
     5
 11
523.565430
 21
2137.542725
  0
LINE
  8
CSLAYER1
  6
CONTINUOUS
 62
     7
 10
589.170995
 20
2047.728245
 11
525.517277
 21
2127.542306
  0
LINE
  8
CSLAYER1
  6
CONTINUOUS
 62
     7
 10
589.170995
 20
2047.728245
 11
565.032498
 21
2065.542088
  0
LINE
  8
CSLAYER1
  6
CONTINUOUS
 62
     7
 10
589.170995
 20
2047.728245
 11
577.173365
 21
2075.224734
  0
LINE
  8
CSLAYER1
  6
CONTINUOUS
 62
     7
 10
525.517277
 20
2127.542306
 11
295.517277
 21
2127.542306
  0
ENDBLK
  8
0
  0
BLOCK
  8
CSLAYER1
  2
EASYDRAWDIM0002
 70
   64
 10
0.0
 20
0.0
 30
0.0
  0
TEXT
  8
CSLAYER1
 62
     3
 10
662.285645
 20
2232.663818
 40
48.000000
 41
0.787500
  1
高圧ホース２m
 50
0.000000
 51
0.000000
  7
EASYDRAW_FONT
 72
     5
 11
914.285645
 21
2232.663818
  0
LINE
  8
CSLAYER1
  6
CONTINUOUS
 62
     7
 10
989.601948
 20
2092.818338
 11
922.336915
 21
2222.663629
  0
LINE
  8
CSLAYER1
  6
CONTINUOUS
 62
     7
 10
989.601948
 20
2092.818338
 11
969.378307
 21
2114.976956
  0
LINE
  8
CSLAYER1
  6
CONTINUOUS
 62
     7
 10
989.601948
 20
2092.818338
 11
983.167070
 21
2122.120084
  0
LINE
  8
CSLAYER1
  6
CONTINUOUS
 62
     7
 10
922.336915
 20
2222.663629
 11
652.336915
 21
2222.663629
  0
ENDBLK
  8
0
  0
BLOCK
  8
CSLAYER1
  2
*D0000
 70
    65
 10
0.0
 20
0.0
 30
0.0
  0
TEXT
  8
CSLAYER1
 62
     3
 10
1447.622314
 20
1914.058716
 40
40.000000
 41
0.843750
  1
250
 50
90.000000
 51
0.000000
  7
EASYDRAW_FONT
 72
     5
 11
1447.622314
 21
2004.058716
  0
LINE
  8
CSLAYER1
  6
CONTINUOUS
 62
     5
 10
1544.865780
 20
1859.611268
 11
1445.874521
 21
1859.611268
  0
LINE
  8
CSLAYER1
  6
CONTINUOUS
 62
     5
 10
1544.865780
 20
2109.611268
 11
1445.874521
 21
2109.611268
  0
LINE
  8
CSLAYER1
  6
CONTINUOUS
 62
     5
 10
1455.874521
 20
1859.611268
 11
1455.874521
 21
2109.611268
  0
LINE
  8
CSLAYER1
  6
CONTINUOUS
 62
     5
 10
1455.874521
 20
1859.611268
 11
1448.109950
 21
1888.589043
  0
LINE
  8
CSLAYER1
  6
CONTINUOUS
 62
     5
 10
1455.874521
 20
1859.611268
 11
1463.639093
 21
1888.589043
  0
LINE
  8
CSLAYER1
  6
CONTINUOUS
 62
     5
 10
1455.874521
 20
2109.611268
 11
1448.109950
 21
2080.633494
  0
LINE
  8
CSLAYER1
  6
CONTINUOUS
 62
     5
 10
1455.874521
 20
2109.611268
 11
1463.639093
 21
2080.633494
  0
ENDBLK
  8
0
  0
BLOCK
  8
CSLAYER1
  2
EASYDRAWDIM0003
 70
   64
 10
0.0
 20
0.0
 30
0.0
  0
TEXT
  8
CSLAYER1
 62
     3
 10
1656.035767
 20
1724.611328
 40
40.000000
 41
0.771429
  1
2-%%c13(アンカー穴)
 50
0.000000
 51
0.000000
  7
EASYDRAW_FONT
 72
     5
 11
2016.035767
 21
1724.611328
  0
LINE
  8
CSLAYER1
  6
CONTINUOUS
 62
     5
 10
1651.694609
 20
1714.611268
 11
2026.035862
 21
1714.611268
  0
ENDBLK
  8
0
  0
BLOCK
  8
CSLAYER1
  2
*D0001
 70
    65
 10
0.0
 20
0.0
 30
0.0
  0
TEXT
  8
CSLAYER1
 62
     3
 10
1871.105835
 20
1539.730591
 40
40.000000
 41
0.843750
  1
700
 50
0.000000
 51
0.000000
  7
EASYDRAW_FONT
 72
     5
 11
1961.105835
 21
1539.730591
  0
LINE
  8
CSLAYER1
  6
CONTINUOUS
 62
     5
 10
1566.105886
 20
1439.730716
 11
1566.105886
 21
1539.730716
  0
LINE
  8
CSLAYER1
  6
CONTINUOUS
 62
     5
 10
2266.105886
 20
1439.730716
 11
2266.105886
 21
1539.730716
  0
LINE
  8
CSLAYER1
  6
CONTINUOUS
 62
     5
 10
1566.105886
 20
1529.730716
 11
2266.105886
 21
1529.730716
  0
LINE
  8
CSLAYER1
  6
CONTINUOUS
 62
     5
 10
1566.105886
 20
1529.730716
 11
1595.083661
 21
1537.495287
  0
LINE
  8
CSLAYER1
  6
CONTINUOUS
 62
     5
 10
1566.105886
 20
1529.730716
 11
1595.083661
 21
1521.966145
  0
LINE
  8
CSLAYER1
  6
CONTINUOUS
 62
     5
 10
2266.105886
 20
1529.730716
 11
2237.128112
 21
1537.495287
  0
LINE
  8
CSLAYER1
  6
CONTINUOUS
 62
     5
 10
2266.105886
 20
1529.730716
 11
2237.128112
 21
1521.966145
  0
ENDBLK
  8
0
  0
BLOCK
  8
CSLAYER1
  2
*D0002
 70
    65
 10
0.0
 20
0.0
 30
0.0
  0
TEXT
  8
CSLAYER1
 62
     3
 10
1847.628540
 20
649.752747
 40
40.000000
 41
0.843750
  1
703
 50
0.000000
 51
0.000000
  7
EASYDRAW_FONT
 72
     5
 11
1937.628540
 21
649.752747
  0
LINE
  8
CSLAYER1
  6
CONTINUOUS
 62
     5
 10
1541.128582
 20
839.752606
 11
1541.128582
 21
629.752606
  0
LINE
  8
CSLAYER1
  6
CONTINUOUS
 62
     5
 10
2244.128582
 20
839.752606
 11
2244.128582
 21
629.752606
  0
LINE
  8
CSLAYER1
  6
CONTINUOUS
 62
     5
 10
1541.128582
 20
639.752606
 11
2244.128582
 21
639.752606
  0
LINE
  8
CSLAYER1
  6
CONTINUOUS
 62
     5
 10
1541.128582
 20
639.752606
 11
1570.106357
 21
647.517177
  0
LINE
  8
CSLAYER1
  6
CONTINUOUS
 62
     5
 10
1541.128582
 20
639.752606
 11
1570.106357
 21
631.988034
  0
LINE
  8
CSLAYER1
  6
CONTINUOUS
 62
     5
 10
2244.128582
 20
639.752606
 11
2215.150807
 21
647.517177
  0
LINE
  8
CSLAYER1
  6
CONTINUOUS
 62
     5
 10
2244.128582
 20
639.752606
 11
2215.150807
 21
631.988034
  0
ENDBLK
  8
0
  0
BLOCK
  8
CSLAYER1
  2
*D0003
 70
    65
 10
0.0
 20
0.0
 30
0.0
  0
TEXT
  8
CSLAYER1
 62
     3
 10
1137.286865
 20
857.802185
 40
40.000000
 41
1.125000
  1
6
 50
90.000000
 51
0.000000
  7
EASYDRAW_FONT
 72
     5
 11
1137.286865
 21
887.802185
  0
LINE
  8
CSLAYER1
  6
CONTINUOUS
 62
     5
 10
1090.900271
 20
849.752606
 11
1157.286868
 21
849.752606
  0
LINE
  8
CSLAYER1
  6
CONTINUOUS
 62
     5
 10
1090.900271
 20
855.752606
 11
1157.286868
 21
855.752606
  0
LINE
  8
CSLAYER1
  6
CONTINUOUS
 62
     5
 10
1147.286868
 20
849.752606
 11
1147.286868
 21
799.752606
  0
LINE
  8
CSLAYER1
  6
CONTINUOUS
 62
     5
 10
1147.286868
 20
849.752606
 11
1139.522297
 21
820.774831
  0
LINE
  8
CSLAYER1
  6
CONTINUOUS
 62
     5
 10
1147.286868
 20
849.752606
 11
1155.051439
 21
820.774831
  0
LINE
  8
CSLAYER1
  6
CONTINUOUS
 62
     5
 10
1147.286868
 20
855.752606
 11
1147.286868
 21
889.851568
  0
LINE
  8
CSLAYER1
  6
CONTINUOUS
 62
     5
 10
1147.286868
 20
855.752606
 11
1139.522297
 21
884.730380
  0
LINE
  8
CSLAYER1
  6
CONTINUOUS
 62
     5
 10
1147.286868
 20
855.752606
 11
1155.051439
 21
884.730380
  0
LINE
  8
CSLAYER1
  6
CONTINUOUS
 62
     5
 10
1147.286868
 20
849.752606
 11
1147.286868
 21
855.752606
  0
ENDBLK
  8
0
  0
BLOCK
  8
CSLAYER1
  2
EASYDRAWDIM0004
 70
   64
 10
0.0
 20
0.0
 30
0.0
  0
TEXT
  8
CSLAYER1
 62
     3
 10
1248.931152
 20
1004.292664
 40
40.000000
 41
0.803571
  1
高圧ホース
 50
0.000000
 51
0.000000
  7
EASYDRAW_FONT
 72
     5
 11
1398.931152
 21
1004.292664
  0
LINE
  8
CSLAYER1
  6
CONTINUOUS
 62
     5
 10
1465.476847
 20
875.461198
 11
1398.931178
 21
994.292750
  0
LINE
  8
CSLAYER1
  6
CONTINUOUS
 62
     5
 10
1465.476847
 20
875.461198
 11
1444.543573
 21
896.950685
  0
LINE
  8
CSLAYER1
  6
CONTINUOUS
 62
     5
 10
1465.476847
 20
875.461198
 11
1458.092844
 21
904.538277
  0
LINE
  8
CSLAYER1
  6
CONTINUOUS
 62
     5
 10
1398.931178
 20
994.292750
 11
1238.931178
 21
994.292750
  0
ENDBLK
  8
0
  0
BLOCK
  8
CSLAYER1
  2
EASYDRAWDIM0005
 70
   64
 10
0.0
 20
0.0
 30
0.0
  0
TEXT
  8
CSLAYER1
 62
     3
 10
1496.861084
 20
1882.510841
 40
33.155758
 41
0.767879
  1
穴ヒﾟッチ
 50
90.000000
 51
0.000000
  7
EASYDRAW_FONT
 72
     5
 11
1496.861084
 21
2001.322411
  0
ENDBLK
  8
0
  0
BLOCK
  8
CSLAYER1
  2
*D0004
 70
    65
 10
0.0
 20
0.0
 30
0.0
  0
TEXT
  8
CSLAYER1
 62
     3
 10
2376.105957
 20
1939.611450
 40
40.000000
 41
0.843750
  1
250
 50
90.000000
 51
0.000000
  7
EASYDRAW_FONT
 72
     5
 11
2376.105957
 21
2029.611450
  0
LINE
  8
CSLAYER1
  6
CONTINUOUS
 62
     5
 10
2253.828582
 20
1859.611268
 11
2396.105886
 21
1859.611268
  0
LINE
  8
CSLAYER1
  6
CONTINUOUS
 62
     5
 10
2253.828582
 20
2109.611268
 11
2396.105886
 21
2109.611268
  0
LINE
  8
CSLAYER1
  6
CONTINUOUS
 62
     5
 10
2386.105886
 20
1859.611268
 11
2386.105886
 21
2109.611268
  0
LINE
  8
CSLAYER1
  6
CONTINUOUS
 62
     5
 10
2386.105886
 20
1859.611268
 11
2378.341315
 21
1888.589043
  0
LINE
  8
CSLAYER1
  6
CONTINUOUS
 62
     5
 10
2386.105886
 20
1859.611268
 11
2393.870458
 21
1888.589043
  0
LINE
  8
CSLAYER1
  6
CONTINUOUS
 62
     5
 10
2386.105886
 20
2109.611268
 11
2378.341315
 21
2080.633494
  0
LINE
  8
CSLAYER1
  6
CONTINUOUS
 62
     5
 10
2386.105886
 20
2109.611268
 11
2393.870458
 21
2080.633494
  0
ENDBLK
  8
0
  0
BLOCK
  8
CSLAYER1
  2
*D0005
 70
    65
 10
0.0
 20
0.0
 30
0.0
  0
TEXT
  8
CSLAYER1
 62
     3
 10
1383.138428
 20
1299.925415
 40
40.000000
 41
0.803571
  1
MAX22
 50
0.000000
 51
0.000000
  7
EASYDRAW_FONT
 72
     5
 11
1533.138428
 21
1299.925415
  0
LINE
  8
CSLAYER1
  6
CONTINUOUS
 62
     5
 10
1543.828582
 20
924.552606
 11
1543.828582
 21
1292.209851
  0
LINE
  8
CSLAYER1
  6
CONTINUOUS
 62
     5
 10
1566.105886
 20
1419.730716
 11
1566.105886
 21
1272.209851
  0
LINE
  8
CSLAYER1
  6
CONTINUOUS
 62
     5
 10
1543.828582
 20
1282.209851
 11
1454.712053
 21
1282.209851
  0
LINE
  8
CSLAYER1
  6
CONTINUOUS
 62
     5
 10
1543.828582
 20
1282.209851
 11
1514.850807
 21
1289.974422
  0
LINE
  8
CSLAYER1
  6
CONTINUOUS
 62
     5
 10
1543.828582
 20
1282.209851
 11
1514.850807
 21
1274.445280
  0
LINE
  8
CSLAYER1
  6
CONTINUOUS
 62
     5
 10
1566.105886
 20
1282.209851
 11
1616.105886
 21
1282.209851
  0
LINE
  8
CSLAYER1
  6
CONTINUOUS
 62
     5
 10
1566.105886
 20
1282.209851
 11
1595.083661
 21
1289.974422
  0
LINE
  8
CSLAYER1
  6
CONTINUOUS
 62
     5
 10
1566.105886
 20
1282.209851
 11
1595.083661
 21
1274.445280
  0
LINE
  8
CSLAYER1
  6
CONTINUOUS
 62
     5
 10
1543.828582
 20
1282.209851
 11
1566.105886
 21
1282.209851
  0
ENDBLK
  8
0
  0
BLOCK
  8
CSLAYER1
  2
EASYDRAWDIM0006
 70
   64
 10
0.0
 20
0.0
 30
0.0
  0
TEXT
  8
CSLAYER1
 62
     3
 10
1284.924561
 20
1175.306030
 40
40.000000
 41
0.787500
  1
油圧シリンダー
 50
0.000000
 51
0.000000
  7
EASYDRAW_FONT
 72
     5
 11
1494.924561
 21
1175.306030
  0
LINE
  8
CSLAYER1
  6
CONTINUOUS
 62
     5
 10
1495.889273
 20
1165.306114
 11
1274.924531
 21
1165.306114
  0
ENDBLK
  8
0
  0
BLOCK
  8
CSLAYER1
  2
*D0006
 70
    65
 10
0.0
 20
0.0
 30
0.0
  0
TEXT
  8
CSLAYER1
 62
     3
 10
2556.105713
 20
852.152588
 40
40.000000
 41
0.900000
  1
65
 50
90.000000
 51
0.000000
  7
EASYDRAW_FONT
 72
     5
 11
2556.105713
 21
912.152588
  0
LINE
  8
CSLAYER1
  6
CONTINUOUS
 62
     5
 10
2596.220948
 20
849.752606
 11
2556.105886
 21
849.752606
  0
LINE
  8
CSLAYER1
  6
CONTINUOUS
 62
     5
 10
2646.762101
 20
914.552606
 11
2556.105886
 21
914.552606
  0
LINE
  8
CSLAYER1
  6
CONTINUOUS
 62
     5
 10
2566.105886
 20
849.752606
 11
2566.105886
 21
914.552606
  0
LINE
  8
CSLAYER1
  6
CONTINUOUS
 62
     5
 10
2566.105886
 20
799.752606
 11
2566.105886
 21
849.752606
  0
LINE
  8
CSLAYER1
  6
CONTINUOUS
 62
     5
 10
2566.105886
 20
849.752606
 11
2558.341315
 21
820.774831
  0
LINE
  8
CSLAYER1
  6
CONTINUOUS
 62
     5
 10
2566.105886
 20
849.752606
 11
2573.870458
 21
820.774831
  0
LINE
  8
CSLAYER1
  6
CONTINUOUS
 62
     5
 10
2566.105886
 20
914.552606
 11
2566.105886
 21
964.552606
  0
LINE
  8
CSLAYER1
  6
CONTINUOUS
 62
     5
 10
2566.105886
 20
914.552606
 11
2558.341315
 21
943.530380
  0
LINE
  8
CSLAYER1
  6
CONTINUOUS
 62
     5
 10
2566.105886
 20
914.552606
 11
2573.870458
 21
943.530380
  0
ENDBLK
  8
0
  0
BLOCK
  8
CSLAYER1
  2
*D0007
 70
    65
 10
0.0
 20
0.0
 30
0.0
  0
TEXT
  8
CSLAYER1
 62
     3
 10
1552.219727
 20
660.477905
 40
40.000000
 41
0.900000
  1
25
 50
0.000000
 51
0.000000
  7
EASYDRAW_FONT
 72
     5
 11
1612.219727
 21
660.477905
  0
LINE
  8
CSLAYER1
  6
CONTINUOUS
 62
     5
 10
1541.128582
 20
839.752606
 11
1541.128582
 21
719.752606
  0
LINE
  8
CSLAYER1
  6
CONTINUOUS
 62
     5
 10
1566.128582
 20
839.752606
 11
1566.128582
 21
719.752606
  0
LINE
  8
CSLAYER1
  6
CONTINUOUS
 62
     5
 10
1541.128582
 20
729.752606
 11
1566.128582
 21
729.752606
  0
LINE
  8
CSLAYER1
  6
CONTINUOUS
 62
     5
 10
1491.128582
 20
729.752606
 11
1541.128582
 21
729.752606
  0
LINE
  8
CSLAYER1
  6
CONTINUOUS
 62
     5
 10
1541.128582
 20
729.752606
 11
1512.150807
 21
737.517177
  0
LINE
  8
CSLAYER1
  6
CONTINUOUS
 62
     5
 10
1541.128582
 20
729.752606
 11
1512.150807
 21
721.988034
  0
LINE
  8
CSLAYER1
  6
CONTINUOUS
 62
     5
 10
1566.128582
 20
729.752606
 11
1616.128582
 21
729.752606
  0
LINE
  8
CSLAYER1
  6
CONTINUOUS
 62
     5
 10
1566.128582
 20
729.752606
 11
1595.106357
 21
737.517177
  0
LINE
  8
CSLAYER1
  6
CONTINUOUS
 62
     5
 10
1566.128582
 20
729.752606
 11
1595.106357
 21
721.988034
  0
ENDBLK
  8
0
  0
BLOCK
  8
CSLAYER1
  2
*D0008
 70
    65
 10
0.0
 20
0.0
 30
0.0
  0
TEXT
  8
CSLAYER1
 62
     3
 10
885.900146
 20
649.752625
 40
40.000000
 41
0.843750
  1
300
 50
0.000000
 51
0.000000
  7
EASYDRAW_FONT
 72
     5
 11
975.900146
 21
649.752625
  0
LINE
  8
CSLAYER1
  6
CONTINUOUS
 62
     5
 10
780.900271
 20
839.752606
 11
780.900271
 21
629.752606
  0
LINE
  8
CSLAYER1
  6
CONTINUOUS
 62
     5
 10
1080.900271
 20
845.752606
 11
1080.900271
 21
629.752606
  0
LINE
  8
CSLAYER1
  6
CONTINUOUS
 62
     5
 10
780.900271
 20
639.752606
 11
1080.900271
 21
639.752606
  0
LINE
  8
CSLAYER1
  6
CONTINUOUS
 62
     5
 10
780.900271
 20
639.752606
 11
809.878046
 21
647.517177
  0
LINE
  8
CSLAYER1
  6
CONTINUOUS
 62
     5
 10
780.900271
 20
639.752606
 11
809.878046
 21
631.988034
  0
LINE
  8
CSLAYER1
  6
CONTINUOUS
 62
     5
 10
1080.900271
 20
639.752606
 11
1051.922496
 21
647.517177
  0
LINE
  8
CSLAYER1
  6
CONTINUOUS
 62
     5
 10
1080.900271
 20
639.752606
 11
1051.922496
 21
631.988034
  0
ENDBLK
  8
0
  0
BLOCK
  8
CSLAYER1
  2
*D0009
 70
    65
 10
0.0
 20
0.0
 30
0.0
  0
TEXT
  8
CSLAYER1
 62
     3
 10
885.900146
 20
1539.730713
 40
40.000000
 41
0.843750
  1
250
 50
0.000000
 51
0.000000
  7
EASYDRAW_FONT
 72
     5
 11
975.900146
 21
1539.730713
  0
LINE
  8
CSLAYER1
  6
CONTINUOUS
 62
     5
 10
805.900271
 20
1439.730716
 11
805.900271
 21
1539.730716
  0
LINE
  8
CSLAYER1
  6
CONTINUOUS
 62
     5
 10
1055.900271
 20
1439.730716
 11
1055.900271
 21
1539.730716
  0
LINE
  8
CSLAYER1
  6
CONTINUOUS
 62
     5
 10
805.900271
 20
1529.730716
 11
1055.900271
 21
1529.730716
  0
LINE
  8
CSLAYER1
  6
CONTINUOUS
 62
     5
 10
805.900271
 20
1529.730716
 11
834.878046
 21
1537.495287
  0
LINE
  8
CSLAYER1
  6
CONTINUOUS
 62
     5
 10
805.900271
 20
1529.730716
 11
834.878046
 21
1521.966145
  0
LINE
  8
CSLAYER1
  6
CONTINUOUS
 62
     5
 10
1055.900271
 20
1529.730716
 11
1026.922496
 21
1537.495287
  0
LINE
  8
CSLAYER1
  6
CONTINUOUS
 62
     5
 10
1055.900271
 20
1529.730716
 11
1026.922496
 21
1521.966145
  0
ENDBLK
  8
0
  0
BLOCK
  8
CSLAYER1
  2
EASYDRAWDIM0007
 70
   64
 10
0.0
 20
0.0
 30
0.0
  0
TEXT
  8
CSLAYER1
 62
     3
 10
1162.986938
 20
740.563416
 40
40.000000
 41
0.803571
  1
2-φ13
 50
0.000000
 51
0.000000
  7
EASYDRAW_FONT
 72
     5
 11
1312.986938
 21
740.563416
  0
ENDBLK
  8
0
  0
BLOCK
  8
CSLAYER1
  2
*D0010
 70
    65
 10
0.0
 20
0.0
 30
0.0
  0
LINE
  8
CSLAYER1
  6
CONTINUOUS
 62
     5
 10
1541.128582
 20
1834.611268
 11
1541.128582
 21
1614.611268
  0
LINE
  8
CSLAYER1
  6
CONTINUOUS
 62
     5
 10
1591.128582
 20
1834.611268
 11
1591.128582
 21
1614.611268
  0
LINE
  8
CSLAYER1
  6
CONTINUOUS
 62
     5
 10
1541.128582
 20
1624.611268
 11
1591.128582
 21
1624.611268
  0
LINE
  8
CSLAYER1
  6
CONTINUOUS
 62
     5
 10
1451.128582
 20
1624.611268
 11
1541.128582
 21
1624.611268
  0
LINE
  8
CSLAYER1
  6
CONTINUOUS
 62
     5
 10
1541.128582
 20
1624.611268
 11
1512.150807
 21
1632.375840
  0
LINE
  8
CSLAYER1
  6
CONTINUOUS
 62
     5
 10
1541.128582
 20
1624.611268
 11
1512.150807
 21
1616.846697
  0
LINE
  8
CSLAYER1
  6
CONTINUOUS
 62
     5
 10
1591.128582
 20
1624.611268
 11
1641.128582
 21
1624.611268
  0
LINE
  8
CSLAYER1
  6
CONTINUOUS
 62
     5
 10
1591.128582
 20
1624.611268
 11
1620.106357
 21
1632.375840
  0
LINE
  8
CSLAYER1
  6
CONTINUOUS
 62
     5
 10
1591.128582
 20
1624.611268
 11
1620.106357
 21
1616.846697
  0
TEXT
  8
CSLAYER1
 62
     3
 10
1451.128540
 20
1634.611206
 40
40.000000
 41
0.900000
  1
50
 50
0.000000
 51
0.000000
  7
EASYDRAW_FONT
 72
     5
 11
1511.128540
 21
1634.611206
  0
ENDBLK
  8
0
  0
BLOCK
  8
CSLAYER1
  2
*D0011
 70
    65
 10
0.0
 20
0.0
 30
0.0
  0
LINE
  8
CSLAYER1
  6
CONTINUOUS
 62
     5
 10
1541.128582
 20
1834.611268
 11
1541.128582
 21
1704.611268
  0
LINE
  8
CSLAYER1
  6
CONTINUOUS
 62
     5
 10
1566.128582
 20
1838.348467
 11
1566.128582
 21
1704.611268
  0
LINE
  8
CSLAYER1
  6
CONTINUOUS
 62
     5
 10
1541.128582
 20
1714.611268
 11
1566.128582
 21
1714.611268
  0
LINE
  8
CSLAYER1
  6
CONTINUOUS
 62
     5
 10
1451.128582
 20
1714.611268
 11
1541.128582
 21
1714.611268
  0
LINE
  8
CSLAYER1
  6
CONTINUOUS
 62
     5
 10
1541.128582
 20
1714.611268
 11
1512.150807
 21
1722.375840
  0
LINE
  8
CSLAYER1
  6
CONTINUOUS
 62
     5
 10
1541.128582
 20
1714.611268
 11
1512.150807
 21
1706.846697
  0
LINE
  8
CSLAYER1
  6
CONTINUOUS
 62
     5
 10
1566.128582
 20
1714.611268
 11
1616.128582
 21
1714.611268
  0
LINE
  8
CSLAYER1
  6
CONTINUOUS
 62
     5
 10
1566.128582
 20
1714.611268
 11
1595.106357
 21
1722.375840
  0
LINE
  8
CSLAYER1
  6
CONTINUOUS
 62
     5
 10
1566.128582
 20
1714.611268
 11
1595.106357
 21
1706.846697
  0
TEXT
  8
CSLAYER1
 62
     3
 10
1451.128540
 20
1724.611328
 40
40.000000
 41
0.900000
  1
25
 50
0.000000
 51
0.000000
  7
EASYDRAW_FONT
 72
     5
 11
1511.128540
 21
1724.611328
  0
ENDBLK
  8
0
  0
BLOCK
  8
CSLAYER1
  2
*D0012
 70
    65
 10
0.0
 20
0.0
 30
0.0
  0
LINE
  8
CSLAYER1
  6
CONTINUOUS
 62
     5
 10
2396.105886
 20
849.752606
 11
2486.105886
 21
849.752606
  0
LINE
  8
CSLAYER1
  6
CONTINUOUS
 62
     5
 10
2276.105886
 20
1429.730716
 11
2486.105886
 21
1429.730716
  0
LINE
  8
CSLAYER1
  6
CONTINUOUS
 62
     5
 10
2476.105886
 20
849.752606
 11
2476.105886
 21
1429.730716
  0
LINE
  8
CSLAYER1
  6
CONTINUOUS
 62
     5
 10
2476.105886
 20
849.752606
 11
2468.341315
 21
878.730380
  0
LINE
  8
CSLAYER1
  6
CONTINUOUS
 62
     5
 10
2476.105886
 20
849.752606
 11
2483.870458
 21
878.730380
  0
LINE
  8
CSLAYER1
  6
CONTINUOUS
 62
     5
 10
2476.105886
 20
1429.730716
 11
2468.341315
 21
1400.752941
  0
LINE
  8
CSLAYER1
  6
CONTINUOUS
 62
     5
 10
2476.105886
 20
1429.730716
 11
2483.870458
 21
1400.752941
  0
TEXT
  8
CSLAYER1
 62
     3
 10
2466.105957
 20
1094.741699
 40
40.000000
 41
0.843750
  1
570
 50
90.000000
 51
0.000000
  7
EASYDRAW_FONT
 72
     5
 11
2466.105957
 21
1184.741699
  0
ENDBLK
  8
0
  0
BLOCK
  8
CSLAYER1
  2
*D0013
 70
    65
 10
0.0
 20
0.0
 30
0.0
  0
LINE
  8
CSLAYER1
  6
CONTINUOUS
 62
     5
 10
2253.828582
 20
914.552606
 11
2396.105886
 21
914.552606
  0
LINE
  8
CSLAYER1
  6
CONTINUOUS
 62
     5
 10
2386.105886
 20
914.552606
 11
2386.105886
 21
1429.730716
  0
LINE
  8
CSLAYER1
  6
CONTINUOUS
 62
     5
 10
2386.105886
 20
914.552606
 11
2378.341315
 21
943.530380
  0
LINE
  8
CSLAYER1
  6
CONTINUOUS
 62
     5
 10
2386.105886
 20
914.552606
 11
2393.870458
 21
943.530380
  0
LINE
  8
CSLAYER1
  6
CONTINUOUS
 62
     5
 10
2386.105886
 20
1429.730716
 11
2378.341315
 21
1400.752941
  0
LINE
  8
CSLAYER1
  6
CONTINUOUS
 62
     5
 10
2386.105886
 20
1429.730716
 11
2393.870458
 21
1400.752941
  0
TEXT
  8
CSLAYER1
 62
     3
 10
2376.105957
 20
1127.141602
 40
40.000000
 41
0.843750
  1
505
 50
90.000000
 51
0.000000
  7
EASYDRAW_FONT
 72
     5
 11
2376.105957
 21
1217.141602
  0
ENDBLK
  8
0
  0
BLOCK
  8
CSLAYER1
  2
*D0014
 70
    65
 10
0.0
 20
0.0
 30
0.0
  0
LINE
  8
CSLAYER1
  6
CONTINUOUS
 62
     5
 10
2386.105886
 20
849.752606
 11
2386.105886
 21
914.552606
  0
LINE
  8
CSLAYER1
  6
CONTINUOUS
 62
     5
 10
2386.105886
 20
849.752606
 11
2378.341315
 21
878.730380
  0
LINE
  8
CSLAYER1
  6
CONTINUOUS
 62
     5
 10
2386.105886
 20
849.752606
 11
2393.870458
 21
878.730380
  0
LINE
  8
CSLAYER1
  6
CONTINUOUS
 62
     5
 10
2386.105886
 20
914.552606
 11
2378.341315
 21
885.574831
  0
LINE
  8
CSLAYER1
  6
CONTINUOUS
 62
     5
 10
2386.105886
 20
914.552606
 11
2393.870458
 21
885.574831
  0
TEXT
  8
CSLAYER1
 62
     3
 10
2376.105713
 20
852.152588
 40
40.000000
 41
0.900000
  1
65
 50
90.000000
 51
0.000000
  7
EASYDRAW_FONT
 72
     5
 11
2376.105713
 21
912.152588
  0
ENDBLK
  8
0
  0
BLOCK
  8
CSLAYER1
  2
*D0015
 70
    65
 10
0.0
 20
0.0
 30
0.0
  0
LINE
  8
CSLAYER1
  6
CONTINUOUS
 62
     5
 10
805.900271
 20
830.823245
 11
805.900271
 21
719.752606
  0
LINE
  8
CSLAYER1
  6
CONTINUOUS
 62
     5
 10
1055.900271
 20
830.823245
 11
1055.900271
 21
719.752606
  0
LINE
  8
CSLAYER1
  6
CONTINUOUS
 62
     5
 10
805.900271
 20
729.752606
 11
1055.900271
 21
729.752606
  0
LINE
  8
CSLAYER1
  6
CONTINUOUS
 62
     5
 10
805.900271
 20
729.752606
 11
834.878046
 21
737.517177
  0
LINE
  8
CSLAYER1
  6
CONTINUOUS
 62
     5
 10
805.900271
 20
729.752606
 11
834.878046
 21
721.988034
  0
LINE
  8
CSLAYER1
  6
CONTINUOUS
 62
     5
 10
1055.900271
 20
729.752606
 11
1026.922496
 21
737.517177
  0
LINE
  8
CSLAYER1
  6
CONTINUOUS
 62
     5
 10
1055.900271
 20
729.752606
 11
1026.922496
 21
721.988034
  0
TEXT
  8
CSLAYER1
 62
     3
 10
885.900269
 20
739.752625
 40
40.000000
 41
0.843750
  1
250
 50
0.000000
 51
0.000000
  7
EASYDRAW_FONT
 72
     5
 11
975.900269
 21
739.752625
  0
ENDBLK
  8
0
  0
BLOCK
  8
CSLAYER1
  2
BLKF0000
 70
   64
 10
0.0
 20
0.0
 30
0.0
  0
ARC
  8
CSLAYER1
  6
CONTINUOUS
 62
     5
 10
2878.985478
 20
127.873205
 40
3.549225
 50
6.429109
 51
73.182034
  0
ARC
  8
CSLAYER1
  6
CONTINUOUS
 62
     5
 10
2875.524508
 20
126.714812
 40
6.907754
 50
310.517970
 51
330.092764
  0
ARC
  8
CSLAYER1
  6
CONTINUOUS
 62
     5
 10
2875.463858
 20
127.080330
 40
7.148321
 50
-32.205059
 51
9.585194
  0
ARC
  8
CSLAYER1
  6
CONTINUOUS
 62
     5
 10
2878.756586
 20
124.319331
 40
4.767514
 50
180.000000
 51
218.514150
  0
ARC
  8
CSLAYER1
  6
CONTINUOUS
 62
     5
 10
2877.469865
 20
123.642191
 40
3.348282
 50
222.781148
 51
319.406906
  0
ARC
  8
CSLAYER1
  6
CONTINUOUS
 62
     5
 10
2880.535507
 20
124.732083
 40
6.559434
 50
94.574282
 51
183.607718
  0
LINE
  8
CSLAYER1
  6
CONTINUOUS
 62
     5
 10
2893.979413
 20
119.615251
 11
2893.122377
 21
116.576668
  0
LINE
  8
CSLAYER1
  6
CONTINUOUS
 62
     5
 10
2895.771398
 20
139.482909
 11
2893.667764
 21
142.209842
  0
LINE
  8
CSLAYER1
  6
CONTINUOUS
 62
     5
 10
2893.667764
 20
142.209842
 11
2886.914409
 21
145.967754
  0
LINE
  8
CSLAYER1
  6
CONTINUOUS
 62
     5
 10
2886.914409
 20
145.967754
 11
2880.012382
 21
146.770625
  0
LINE
  8
CSLAYER1
  6
CONTINUOUS
 62
     5
 10
2861.723157
 20
133.391951
 11
2863.869851
 21
138.356182
  0
LINE
  8
CSLAYER1
  6
CONTINUOUS
 62
     5
 10
2863.832854
 20
138.270625
 11
2866.016546
 21
140.905381
  0
LINE
  8
CSLAYER1
  6
CONTINUOUS
 62
     5
 10
2866.016546
 20
140.905381
 11
2869.320968
 21
143.270625
  0
LINE
  8
CSLAYER1
  6
CONTINUOUS
 62
     5
 10
2880.012382
 20
146.770625
 11
2878.494207
 21
146.003780
  0
LINE
  8
CSLAYER1
  6
CONTINUOUS
 62
     5
 10
2878.494207
 20
146.003780
 11
2875.005828
 21
146.003780
  0
LINE
  8
CSLAYER1
  6
CONTINUOUS
 62
     5
 10
2875.005828
 20
146.003780
 11
2871.450366
 21
144.058339
  0
LINE
  8
CSLAYER1
  6
CONTINUOUS
 62
     5
 10
2871.450366
 20
144.058339
 11
2869.320968
 21
143.270625
  0
LINE
  8
CSLAYER1
  6
CONTINUOUS
 62
     5
 10
2861.723157
 20
133.391951
 11
2860.205610
 21
125.843348
  0
LINE
  8
CSLAYER1
  6
CONTINUOUS
 62
     5
 10
2860.205610
 20
125.843348
 11
2860.012382
 21
123.270625
  0
LINE
  8
CSLAYER1
  6
CONTINUOUS
 62
     5
 10
2862.721765
 20
115.430842
 11
2860.012382
 21
121.526953
  0
LINE
  8
CSLAYER1
  6
CONTINUOUS
 62
     5
 10
2860.012382
 20
121.526953
 11
2860.012382
 21
123.270625
  0
LINE
  8
CSLAYER1
  6
CONTINUOUS
 62
     5
 10
2893.122377
 20
116.576668
 11
2891.436590
 21
113.573662
  0
LINE
  8
CSLAYER1
  6
CONTINUOUS
 62
     5
 10
2891.436590
 20
113.573662
 11
2890.012382
 21
112.254951
  0
ARC
  8
CSLAYER1
  6
CONTINUOUS
 62
     5
 10
2877.820438
 20
123.807385
 40
17.266626
 50
208.054813
 51
260.640470
  0
ARC
  8
CSLAYER1
  6
CONTINUOUS
 62
     5
 10
2872.627042
 20
136.549855
 40
29.874611
 50
274.579659
 51
305.587364
  0
ARC
  8
CSLAYER1
  6
CONTINUOUS
 62
     5
 10
2883.599391
 20
130.566132
 40
15.088627
 50
313.467013
 51
331.085078
  0
LINE
  8
CSLAYER1
  6
CONTINUOUS
 62
     5
 10
2898.390723
 20
126.784046
 11
2898.688018
 21
130.566132
  0
LINE
  8
CSLAYER1
  6
CONTINUOUS
 62
     5
 10
2898.688018
 20
130.566132
 11
2897.396020
 21
136.675115
  0
LINE
  8
CSLAYER1
  6
CONTINUOUS
 62
     5
 10
2898.390723
 20
126.784046
 11
2896.807049
 21
123.270625
  0
ARC
  8
CSLAYER1
  6
CONTINUOUS
 62
     5
 10
2883.599391
 20
130.566132
 40
15.088627
 50
23.883193
 51
36.225170
  0
LINE
  8
CSLAYER1
  6
CONTINUOUS
 62
     5
 10
2844.012382
 20
158.270625
 11
2845.012382
 21
159.363269
  0
LINE
  8
CSLAYER1
  6
CONTINUOUS
 62
     5
 10
2844.012382
 20
158.270625
 11
2845.589340
 21
156.825592
  0
LINE
  8
CSLAYER1
  6
CONTINUOUS
 62
     5
 10
2847.128553
 20
154.716300
 11
2847.154821
 21
152.548181
  0
LINE
  8
CSLAYER1
  6
CONTINUOUS
 62
     5
 10
2847.154821
 20
152.548181
 11
2847.362219
 21
151.787722
  0
LINE
  8
CSLAYER1
  6
CONTINUOUS
 62
     5
 10
2847.362219
 20
151.787722
 11
2847.949847
 21
151.061829
  0
LINE
  8
CSLAYER1
  6
CONTINUOUS
 62
     5
 10
2847.949847
 20
151.061829
 11
2848.537474
 21
151.130961
  0
LINE
  8
CSLAYER1
  6
CONTINUOUS
 62
     5
 10
2848.537474
 20
151.130961
 11
2849.159668
 21
151.303793
  0
LINE
  8
CSLAYER1
  6
CONTINUOUS
 62
     5
 10
2849.159668
 20
151.303793
 11
2849.574464
 21
151.130961
  0
LINE
  8
CSLAYER1
  6
CONTINUOUS
 62
     5
 10
2849.574464
 20
151.130961
 11
2850.473189
 21
150.681599
  0
LINE
  8
CSLAYER1
  6
CONTINUOUS
 62
     5
 10
2850.473189
 20
150.681599
 11
2851.249240
 21
150.270625
  0
LINE
  8
CSLAYER1
  6
CONTINUOUS
 62
     5
 10
2851.249240
 20
150.270625
 11
2851.752143
 21
150.301369
  0
LINE
  8
CSLAYER1
  6
CONTINUOUS
 62
     5
 10
2851.752143
 20
150.301369
 11
2854.560015
 21
151.747849
  0
LINE
  8
CSLAYER1
  6
CONTINUOUS
 62
     5
 10
2845.012382
 20
159.363269
 11
2845.345234
 21
160.836976
  0
LINE
  8
CSLAYER1
  6
CONTINUOUS
 62
     5
 10
2845.345234
 20
160.836976
 11
2846.798639
 21
160.987329
  0
LINE
  8
CSLAYER1
  6
CONTINUOUS
 62
     5
 10
2848.292398
 20
163.755787
 11
2850.046571
 21
163.912877
  0
LINE
  8
CSLAYER1
  6
CONTINUOUS
 62
     5
 10
2850.046571
 20
163.912877
 11
2853.581098
 21
164.750691
  0
LINE
  8
CSLAYER1
  6
CONTINUOUS
 62
     5
 10
2853.581098
 20
164.750691
 11
2855.012382
 21
165.082330
  0
LINE
  8
CSLAYER1
  6
CONTINUOUS
 62
     5
 10
2848.292398
 20
163.755787
 11
2846.359507
 21
163.914655
  0
LINE
  8
CSLAYER1
  6
CONTINUOUS
 62
     5
 10
2845.623384
 20
163.045968
 11
2845.716909
 21
162.674806
  0
LINE
  8
CSLAYER1
  6
CONTINUOUS
 62
     5
 10
2845.716909
 20
162.674806
 11
2846.208503
 21
162.137125
  0
LINE
  8
CSLAYER1
  6
CONTINUOUS
 62
     5
 10
2846.208503
 20
162.137125
 11
2846.884445
 21
161.630169
  0
LINE
  8
CSLAYER1
  6
CONTINUOUS
 62
     5
 10
2846.884445
 20
161.630169
 11
2847.007769
 21
161.465736
  0
LINE
  8
CSLAYER1
  6
CONTINUOUS
 62
     5
 10
2845.589340
 20
156.825592
 11
2847.128553
 21
154.716300
  0
ARC
  8
CSLAYER1
  6
CONTINUOUS
 62
     5
 10
2889.999083
 20
-13.388028
 40
180.727463
 50
80.438896
 51
96.353582
  0
ARC
  8
CSLAYER1
  6
CONTINUOUS
 62
     5
 10
2865.100170
 20
131.859872
 40
34.720242
 50
81.866516
 51
106.890578
  0
LINE
  8
CSLAYER1
  6
CONTINUOUS
 62
     5
 10
2924.206643
 20
164.037295
 11
2926.453726
 21
163.015894
  0
LINE
  8
CSLAYER1
  6
CONTINUOUS
 62
     5
 10
2930.028630
 20
161.432722
 11
2926.453726
 21
163.015894
  0
LINE
  8
CSLAYER1
  6
CONTINUOUS
 62
     5
 10
2924.206643
 20
164.037295
 11
2920.012382
 21
164.829866
  0
LINE
  8
CSLAYER1
  6
CONTINUOUS
 62
     5
 10
2930.012382
 20
161.439917
 11
2931.883958
 21
159.871441
  0
LINE
  8
CSLAYER1
  6
CONTINUOUS
 62
     5
 10
2913.255638
 20
162.476768
 11
2914.154913
 21
163.929443
  0
LINE
  8
CSLAYER1
  6
CONTINUOUS
 62
     5
 10
2914.154913
 20
163.929443
 11
2918.830511
 21
162.809934
  0
LINE
  8
CSLAYER1
  6
CONTINUOUS
 62
     5
 10
2918.830511
 20
162.809934
 11
2935.572897
 21
158.270625
  0
LINE
  8
CSLAYER1
  6
CONTINUOUS
 62
     5
 10
2938.512382
 20
158.270625
 11
2931.883958
 21
159.871441
  0
LINE
  8
CSLAYER1
  6
CONTINUOUS
 62
     5
 10
2935.572897
 20
158.270625
 11
2938.512382
 21
158.270625
  0
LINE
  8
CSLAYER1
  6
CONTINUOUS
 62
     5
 10
2880.012382
 20
162.735566
 11
2900.012382
 21
163.270625
  0
LINE
  8
CSLAYER1
  6
CONTINUOUS
 62
     5
 10
2900.012382
 20
163.270625
 11
2913.255638
 21
162.476768
  0
LINE
  8
CSLAYER1
  6
CONTINUOUS
 62
     5
 10
2914.858619
 20
160.416289
 11
2900.012382
 21
161.770625
  0
LINE
  8
CSLAYER1
  6
CONTINUOUS
 62
     5
 10
2900.012382
 20
161.770625
 11
2884.963173
 21
162.179277
  0
LINE
  8
CSLAYER1
  6
CONTINUOUS
 62
     5
 10
2885.012382
 20
162.177940
 11
2880.012382
 21
162.273234
  0
LINE
  8
CSLAYER1
  6
CONTINUOUS
 62
     5
 10
2880.012382
 20
162.735566
 11
2880.012382
 21
162.273234
  0
LINE
  8
CSLAYER1
  6
CONTINUOUS
 62
     5
 10
2937.512382
 20
154.770625
 11
2928.669824
 21
157.081287
  0
LINE
  8
CSLAYER1
  6
CONTINUOUS
 62
     5
 10
2914.858619
 20
160.416289
 11
2925.012382
 21
158.443905
  0
LINE
  8
CSLAYER1
  6
CONTINUOUS
 62
     5
 10
2925.012382
 20
158.443905
 11
2928.669824
 21
157.081287
  0
LINE
  8
CSLAYER1
  6
CONTINUOUS
 62
     5
 10
2937.512382
 20
154.770625
 11
2937.219765
 21
153.931519
  0
LINE
  8
CSLAYER1
  6
CONTINUOUS
 62
     5
 10
2947.012382
 20
149.270625
 11
2946.706355
 21
150.499606
  0
LINE
  8
CSLAYER1
  6
CONTINUOUS
 62
     5
 10
2937.219765
 20
153.931519
 11
2946.706355
 21
150.499606
  0
LINE
  8
CSLAYER1
  6
CONTINUOUS
 62
     5
 10
2883.512382
 20
154.770625
 11
2885.935420
 21
154.770625
  0
LINE
  8
CSLAYER1
  6
CONTINUOUS
 62
     5
 10
2906.012382
 20
155.203120
 11
2906.012382
 21
154.770625
  0
LINE
  8
CSLAYER1
  6
CONTINUOUS
 62
     5
 10
2905.012382
 20
155.737561
 11
2903.301103
 21
156.374740
  0
LINE
  8
CSLAYER1
  6
CONTINUOUS
 62
     5
 10
2903.301103
 20
156.374740
 11
2902.191047
 21
156.425197
  0
LINE
  8
CSLAYER1
  6
CONTINUOUS
 62
     5
 10
2902.191047
 20
156.425197
 11
2901.711705
 21
156.172911
  0
LINE
  8
CSLAYER1
  6
CONTINUOUS
 62
     5
 10
2901.711705
 20
156.172911
 11
2901.610790
 21
155.769255
  0
LINE
  8
CSLAYER1
  6
CONTINUOUS
 62
     5
 10
2901.610790
 20
155.769255
 11
2902.064904
 21
155.466512
  0
LINE
  8
CSLAYER1
  6
CONTINUOUS
 62
     5
 10
2902.064904
 20
155.466512
 11
2903.704760
 21
155.315141
  0
LINE
  8
CSLAYER1
  6
CONTINUOUS
 62
     5
 10
2903.704760
 20
155.315141
 11
2906.012382
 21
155.203120
  0
LINE
  8
CSLAYER1
  6
CONTINUOUS
 62
     5
 10
2947.012382
 20
149.270625
 11
2944.036840
 21
150.457206
  0
LINE
  8
CSLAYER1
  6
CONTINUOUS
 62
     5
 10
2944.036840
 20
150.457206
 11
2933.981150
 21
152.300082
  0
LINE
  8
CSLAYER1
  6
CONTINUOUS
 62
     5
 10
2933.981150
 20
152.300082
 11
2928.955370
 21
153.459877
  0
LINE
  8
CSLAYER1
  6
CONTINUOUS
 62
     5
 10
2906.546603
 20
155.770625
 11
2918.312269
 21
155.770625
  0
LINE
  8
CSLAYER1
  6
CONTINUOUS
 62
     5
 10
2905.012382
 20
155.737561
 11
2905.537042
 21
155.429094
  0
LINE
  8
CSLAYER1
  6
CONTINUOUS
 62
     5
 10
2905.537042
 20
155.429094
 11
2905.833854
 21
155.340050
  0
LINE
  8
CSLAYER1
  6
CONTINUOUS
 62
     5
 10
2905.833854
 20
155.340050
 11
2906.012382
 21
155.365221
  0
LINE
  8
CSLAYER1
  6
CONTINUOUS
 62
     5
 10
2906.012382
 20
155.365221
 11
2906.546603
 21
155.770625
  0
LINE
  8
CSLAYER1
  6
CONTINUOUS
 62
     5
 10
2918.312269
 20
155.770625
 11
2922.762538
 21
154.741799
  0
LINE
  8
CSLAYER1
  6
CONTINUOUS
 62
     5
 10
2922.762538
 20
154.741799
 11
2926.915730
 21
153.576650
  0
LINE
  8
CSLAYER1
  6
CONTINUOUS
 62
     5
 10
2926.915730
 20
153.576650
 11
2928.955370
 21
153.459877
  0
LINE
  8
CSLAYER1
  6
CONTINUOUS
 62
     5
 10
2882.512382
 20
153.770625
 11
2882.512382
 21
153.270625
  0
LINE
  8
CSLAYER1
  6
CONTINUOUS
 62
     5
 10
2880.012382
 20
153.270625
 11
2882.512382
 21
153.270625
  0
ARC
  8
CSLAYER1
  6
CONTINUOUS
 62
     5
 10
2883.512382
 20
153.770625
 40
1.000000
 50
90.000000
 51
180.000000
  0
LINE
  8
CSLAYER1
  6
CONTINUOUS
 62
     5
 10
2885.935420
 20
154.770625
 11
2886.632977
 21
154.198628
  0
LINE
  8
CSLAYER1
  6
CONTINUOUS
 62
     5
 10
2887.235345
 20
154.174668
 11
2888.092942
 21
154.770625
  0
LINE
  8
CSLAYER1
  6
CONTINUOUS
 62
     5
 10
2889.671338
 20
154.770625
 11
2891.338463
 21
154.112549
  0
LINE
  8
CSLAYER1
  6
CONTINUOUS
 62
     5
 10
2891.762172
 20
154.139061
 11
2892.915660
 21
154.770625
  0
LINE
  8
CSLAYER1
  6
CONTINUOUS
 62
     5
 10
2888.092942
 20
154.770625
 11
2889.671338
 21
154.770625
  0
LINE
  8
CSLAYER1
  6
CONTINUOUS
 62
     5
 10
2892.915660
 20
154.770625
 11
2906.012382
 21
154.770625
  0
LINE
  8
CSLAYER1
  6
CONTINUOUS
 62
     5
 10
2858.561365
 20
151.661798
 11
2880.012382
 21
153.270625
  0
LINE
  8
CSLAYER1
  6
CONTINUOUS
 62
     5
 10
2854.560015
 20
151.747849
 11
2858.561365
 21
151.661798
  0
ARC
  8
CSLAYER1
  6
CONTINUOUS
 62
     5
 10
2886.950017
 20
154.585262
 40
0.500000
 50
230.648247
 51
304.796026
  0
ARC
  8
CSLAYER1
  6
CONTINUOUS
 62
     5
 10
2891.522047
 20
154.577626
 40
0.500000
 50
248.459024
 51
298.701829
  0
ARC
  8
CSLAYER1
  6
CONTINUOUS
 62
     5
 10
2846.767769
 20
161.285736
 40
0.300000
 50
-84.093859
 51
36.869898
  0
ARC
  8
CSLAYER1
  6
CONTINUOUS
 62
     5
 10
2846.302166
 20
163.217008
 40
0.700000
 50
85.301319
 51
194.142980
  0
LINE
  8
CSLAYER1
  6
CONTINUOUS
 62
     3
 10
2878.494207
 20
146.003780
 11
2886.604702
 21
146.003780
  0
LINE
  8
CSLAYER1
  6
CONTINUOUS
 62
     3
 10
2872.081690
 20
144.403780
 11
2889.725031
 21
144.403780
  0
LINE
  8
CSLAYER1
  6
CONTINUOUS
 62
     3
 10
2868.668751
 20
142.803780
 11
2892.600395
 21
142.803780
  0
LINE
  8
CSLAYER1
  6
CONTINUOUS
 62
     3
 10
2866.433431
 20
141.203780
 11
2894.443868
 21
141.203780
  0
LINE
  8
CSLAYER1
  6
CONTINUOUS
 62
     3
 10
2864.937776
 20
139.603780
 11
2895.678154
 21
139.603780
  0
LINE
  8
CSLAYER1
  6
CONTINUOUS
 62
     3
 10
2863.717461
 20
138.003780
 11
2896.727531
 21
138.003780
  0
LINE
  8
CSLAYER1
  6
CONTINUOUS
 62
     3
 10
2863.025570
 20
136.403780
 11
2897.453405
 21
136.403780
  0
LINE
  8
CSLAYER1
  6
CONTINUOUS
 62
     3
 10
2862.333678
 20
134.803780
 11
2897.791792
 21
134.803780
  0
LINE
  8
CSLAYER1
  6
CONTINUOUS
 62
     3
 10
2861.685328
 20
133.203780
 11
2898.130178
 21
133.203780
  0
LINE
  8
CSLAYER1
  6
CONTINUOUS
 62
     3
 10
2861.363669
 20
131.603780
 11
2898.468564
 21
131.603780
  0
LINE
  8
CSLAYER1
  6
CONTINUOUS
 62
     3
 10
2861.042010
 20
130.003780
 11
2876.632253
 21
130.003780
  0
LINE
  8
CSLAYER1
  6
CONTINUOUS
 62
     3
 10
2860.720351
 20
128.403780
 11
2875.099992
 21
128.403780
  0
LINE
  8
CSLAYER1
  6
CONTINUOUS
 62
     3
 10
2860.398692
 20
126.803780
 11
2874.311822
 21
126.803780
  0
LINE
  8
CSLAYER1
  6
CONTINUOUS
 62
     3
 10
2860.157574
 20
125.203780
 11
2873.993055
 21
125.203780
  0
LINE
  8
CSLAYER1
  6
CONTINUOUS
 62
     3
 10
2860.037404
 20
123.603780
 11
2874.043075
 21
123.603780
  0
LINE
  8
CSLAYER1
  6
CONTINUOUS
 62
     3
 10
2860.012382
 20
122.003780
 11
2874.589163
 21
122.003780
  0
LINE
  8
CSLAYER1
  6
CONTINUOUS
 62
     3
 10
2860.511570
 20
120.403780
 11
2876.619165
 21
120.403780
  0
LINE
  8
CSLAYER1
  6
CONTINUOUS
 62
     3
 10
2861.222681
 20
118.803780
 11
2893.750537
 21
118.803780
  0
LINE
  8
CSLAYER1
  6
CONTINUOUS
 62
     3
 10
2861.933792
 20
117.203780
 11
2893.299255
 21
117.203780
  0
LINE
  8
CSLAYER1
  6
CONTINUOUS
 62
     3
 10
2862.644904
 20
115.603780
 11
2892.576230
 21
115.603780
  0
LINE
  8
CSLAYER1
  6
CONTINUOUS
 62
     3
 10
2863.606862
 20
114.003780
 11
2891.678044
 21
114.003780
  0
LINE
  8
CSLAYER1
  6
CONTINUOUS
 62
     3
 10
2864.855323
 20
112.403780
 11
2890.173118
 21
112.403780
  0
LINE
  8
CSLAYER1
  6
CONTINUOUS
 62
     3
 10
2866.460744
 20
110.803780
 11
2887.780657
 21
110.803780
  0
LINE
  8
CSLAYER1
  6
CONTINUOUS
 62
     3
 10
2868.607886
 20
109.203780
 11
2884.655534
 21
109.203780
  0
LINE
  8
CSLAYER1
  6
CONTINUOUS
 62
     3
 10
2871.855576
 20
107.603780
 11
2880.017385
 21
107.603780
  0
LINE
  8
CSLAYER1
  6
CONTINUOUS
 62
     3
 10
2881.824077
 20
130.003780
 11
2898.643814
 21
130.003780
  0
LINE
  8
CSLAYER1
  6
CONTINUOUS
 62
     3
 10
2882.494821
 20
128.403780
 11
2898.518044
 21
128.403780
  0
LINE
  8
CSLAYER1
  6
CONTINUOUS
 62
     3
 10
2882.606828
 20
126.803780
 11
2898.392275
 21
126.803780
  0
LINE
  8
CSLAYER1
  6
CONTINUOUS
 62
     3
 10
2882.361471
 20
125.203780
 11
2897.678419
 21
125.203780
  0
LINE
  8
CSLAYER1
  6
CONTINUOUS
 62
     3
 10
2881.709825
 20
123.603780
 11
2896.957219
 21
123.603780
  0
LINE
  8
CSLAYER1
  6
CONTINUOUS
 62
     3
 10
2880.576562
 20
122.003780
 11
2896.023271
 21
122.003780
  0
LINE
  8
CSLAYER1
  6
CONTINUOUS
 62
     3
 10
2878.320565
 20
120.403780
 11
2894.752564
 21
120.403780
  0
TEXT
  8
CSLAYER1
 62
     5
 10
2899.184111
 20
128.014950
 40
4.713448
 41
1.951056
  1
M
 50
0.000000
 51
0.000000
  7
EASYDRAW_FONT
 72
     5
 11
2905.314913
 21
128.014950
  0
TEXT
  8
CSLAYER1
 62
     5
 10
2908.835498
 20
127.956679
 40
4.626621
 41
0.778201
  1
T
 50
0.000000
 51
0.000000
  7
EASYDRAW_FONT
 72
     5
 11
2911.235791
 21
127.956679
  0
TEXT
  8
CSLAYER1
 62
     5
 10
2911.601061
 20
127.991478
 40
4.696183
 41
1.055553
  1
E
 50
0.000000
 51
0.000000
  7
EASYDRAW_FONT
 72
     5
 11
2914.905775
 21
127.991478
  0
TEXT
  8
CSLAYER1
 62
     5
 10
2914.717242
 20
129.607322
 40
0.348283
 41
9.375319
  1
-
 50
0.000000
 51
0.000000
  7
EASYDRAW_FONT
 72
     5
 11
2916.894087
 21
129.607322
  0
TEXT
  8
CSLAYER1
 62
     5
 10
2916.531451
 20
127.960131
 40
4.861659
 41
1.298502
  1
H
 50
0.000000
 51
0.000000
  7
EASYDRAW_FONT
 72
     5
 11
2920.740033
 21
127.960131
  0
TEXT
  8
CSLAYER1
 62
     5
 10
2920.607466
 20
127.990510
 40
4.843139
 41
1.269236
  1
A
 50
0.000000
 51
0.000000
  7
EASYDRAW_FONT
 72
     5
 11
2924.705522
 21
127.990510
  0
TEXT
  8
CSLAYER1
 62
     5
 10
2924.313622
 20
127.948983
 40
4.825362
 41
1.490144
  1
N
 50
0.000000
 51
0.000000
  7
EASYDRAW_FONT
 72
     5
 11
2929.107276
 21
127.948983
  0
TEXT
  8
CSLAYER1
 62
     5
 10
2905.105080
 20
127.926410
 40
4.982325
 41
1.177443
  1
A
 50
0.000000
 51
0.000000
  7
EASYDRAW_FONT
 72
     5
 11
2909.016014
 21
127.926410
  0
TEXT
  8
CSLAYER1
 62
     5
 10
2899.551125
 20
120.931178
 40
4.982325
 41
1.177443
  1
A
 50
0.000000
 51
0.000000
  7
EASYDRAW_FONT
 72
     5
 11
2903.462059
 21
120.931178
  0
TEXT
  8
CSLAYER1
 62
     5
 10
2912.335548
 20
120.959498
 40
4.982325
 41
1.177443
  1
A
 50
0.000000
 51
0.000000
  7
EASYDRAW_FONT
 72
     5
 11
2916.246483
 21
120.959498
  0
TEXT
  8
CSLAYER1
 62
     5
 10
2916.096093
 20
121.016495
 40
4.825362
 41
1.490144
  1
N
 50
0.000000
 51
0.000000
  7
EASYDRAW_FONT
 72
     5
 11
2920.889747
 21
121.016495
  0
TEXT
  8
CSLAYER1
 62
     5
 10
2924.998429
 20
121.024890
 40
4.841775
 41
1.184218
  1
E
 50
0.000000
 51
0.000000
  7
EASYDRAW_FONT
 72
     5
 11
2928.820907
 21
121.024890
  0
TEXT
  8
CSLAYER1
 62
     5
 10
2903.831678
 20
120.929853
 40
4.947865
 41
1.093992
  1
D
 50
0.000000
 51
0.000000
  7
EASYDRAW_FONT
 72
     5
 11
2907.440295
 21
120.929853
  0
TEXT
  8
CSLAYER1
 62
     5
 10
2908.234036
 20
120.924469
 40
4.924210
 41
1.228195
  1
V
 50
0.000000
 51
0.000000
  7
EASYDRAW_FONT
 72
     5
 11
2912.265964
 21
120.924469
  0
TEXT
  8
CSLAYER1
 62
     5
 10
2920.459238
 20
120.945200
 40
5.032894
 41
1.481023
  1
C
 50
0.000000
 51
0.000000
  7
EASYDRAW_FONT
 72
     5
 11
2925.428458
 21
120.945200
  0
LINE
  8
CSLAYER1
  6
CONTINUOUS
 62
     5
 10
2911.089719
 20
132.005597
 11
2910.077657
 21
132.005597
  0
LINE
  8
CSLAYER1
  6
CONTINUOUS
 62
     3
 10
2860.187957
 20
166.230868
 11
2909.985783
 21
166.230868
  0
LINE
  8
CSLAYER1
  6
CONTINUOUS
 62
     3
 10
2853.075593
 20
164.630868
 11
2921.065475
 21
164.630868
  0
LINE
  8
CSLAYER1
  6
CONTINUOUS
 62
     3
 10
2845.627188
 20
163.030868
 11
2891.050499
 21
163.030868
  0
LINE
  8
CSLAYER1
  6
CONTINUOUS
 62
     3
 10
2904.012048
 20
163.030868
 11
2913.598652
 21
163.030868
  0
LINE
  8
CSLAYER1
  6
CONTINUOUS
 62
     3
 10
2917.907786
 20
163.030868
 11
2926.420783
 21
163.030868
  0
LINE
  8
CSLAYER1
  6
CONTINUOUS
 62
     3
 10
2847.030328
 20
161.430868
 11
2903.736797
 21
161.430868
  0
LINE
  8
CSLAYER1
  6
CONTINUOUS
 62
     3
 10
2923.916935
 20
161.430868
 11
2930.023180
 21
161.430868
  0
LINE
  8
CSLAYER1
  6
CONTINUOUS
 62
     3
 10
2845.117994
 20
159.830868
 11
2917.872345
 21
159.830868
  0
LINE
  8
CSLAYER1
  6
CONTINUOUS
 62
     3
 10
2929.818234
 20
159.830868
 11
2932.051956
 21
159.830868
  0
LINE
  8
CSLAYER1
  6
CONTINUOUS
 62
     3
 10
2844.055769
 20
158.230868
 11
2925.584201
 21
158.230868
  0
LINE
  8
CSLAYER1
  6
CONTINUOUS
 62
     3
 10
2845.731436
 20
156.630868
 11
2930.393510
 21
156.630868
  0
LINE
  8
CSLAYER1
  6
CONTINUOUS
 62
     3
 10
2846.899003
 20
155.030868
 11
2906.012382
 21
155.030868
  0
LINE
  8
CSLAYER1
  6
CONTINUOUS
 62
     3
 10
2921.512147
 20
155.030868
 11
2936.516470
 21
155.030868
  0
LINE
  8
CSLAYER1
  6
CONTINUOUS
 62
     3
 10
2847.144127
 20
153.430868
 11
2882.512382
 21
153.430868
  0
LINE
  8
CSLAYER1
  6
CONTINUOUS
 62
     3
 10
2929.081076
 20
153.430868
 11
2938.603679
 21
153.430868
  0
LINE
  8
CSLAYER1
  6
CONTINUOUS
 62
     3
 10
2847.350452
 20
151.830868
 11
2860.815625
 21
151.830868
  0
LINE
  8
CSLAYER1
  6
CONTINUOUS
 62
     3
 10
2936.541425
 20
151.830868
 11
2943.026443
 21
151.830868
  0
LINE
  8
CSLAYER1
  6
CONTINUOUS
 62
     3
 10
2944.604419
 20
150.230868
 11
2946.773273
 21
150.230868
  0
ENDBLK
  8
0
  0
BLOCK
  8
CSLAYER1
  2
BLKF0001
 70
   64
 10
0.0
 20
0.0
 30
0.0
  0
LINE
  8
CSLAYER1
  6
CONTINUOUS
 62
     5
 10
3513.701087
 20
1718.992101
 11
2633.701087
 21
1718.992101
  0
TEXT
  8
CSLAYER1
 62
     3
 10
3111.084229
 20
1724.642212
 40
40.000000
 41
0.832500
  1
１０Ｒ４／１３
 50
0.000000
 51
0.000000
  7
EASYDRAW_FONT
 72
     5
 11
3333.084229
 21
1724.642212
  0
ENDBLK
  8
0
  0
BLOCK
  8
CSLAYER1
  2
BLKF0002
 70
   64
 10
0.0
 20
0.0
 30
0.0
  0
LINE
  8
CSLAYER1
  6
CONTINUOUS
 62
     7
 10
830.408424
 20
2048.635370
 11
843.915450
 21
2055.734473
  0
LINE
  8
CSLAYER1
  6
CONTINUOUS
 62
     7
 10
843.915450
 20
2055.734473
 11
858.449796
 21
2062.131339
  0
LINE
  8
CSLAYER1
  6
CONTINUOUS
 62
     7
 10
858.449796
 20
2062.131339
 11
873.900848
 21
2067.777285
  0
LINE
  8
CSLAYER1
  6
CONTINUOUS
 62
     7
 10
873.900848
 20
2067.777285
 11
890.151013
 21
2072.629340
  0
LINE
  8
CSLAYER1
  6
CONTINUOUS
 62
     7
 10
890.151013
 20
2072.629340
 11
907.076618
 21
2076.650579
  0
LINE
  8
CSLAYER1
  6
CONTINUOUS
 62
     7
 10
907.076618
 20
2076.650579
 11
924.548848
 21
2079.810396
  0
LINE
  8
CSLAYER1
  6
CONTINUOUS
 62
     7
 10
924.548848
 20
2079.810396
 11
942.434730
 21
2082.084744
  0
LINE
  8
CSLAYER1
  6
CONTINUOUS
 62
     7
 10
942.434730
 20
2082.084744
 11
960.598142
 21
2083.456313
  0
LINE
  8
CSLAYER1
  6
CONTINUOUS
 62
     7
 10
960.598142
 20
2083.456313
 11
978.900848
 21
2083.914666
  0
LINE
  8
CSLAYER1
  6
CONTINUOUS
 62
     7
 10
978.900848
 20
2083.914666
 11
997.203554
 21
2083.456313
  0
LINE
  8
CSLAYER1
  6
CONTINUOUS
 62
     7
 10
997.203554
 20
2083.456313
 11
1015.366965
 21
2082.084744
  0
LINE
  8
CSLAYER1
  6
CONTINUOUS
 62
     7
 10
1015.366965
 20
2082.084744
 11
1033.252847
 21
2079.810396
  0
LINE
  8
CSLAYER1
  6
CONTINUOUS
 62
     7
 10
1033.252847
 20
2079.810396
 11
1050.725078
 21
2076.650579
  0
LINE
  8
CSLAYER1
  6
CONTINUOUS
 62
     7
 10
1050.725078
 20
2076.650579
 11
1066.421908
 21
2072.921277
  0
LINE
  8
CSLAYER1
  6
CONTINUOUS
 62
     7
 10
821.498878
 20
2053.745675
 11
835.816326
 21
2061.270725
  0
LINE
  8
CSLAYER1
  6
CONTINUOUS
 62
     7
 10
835.816326
 20
2061.270725
 11
851.222733
 21
2068.051403
  0
LINE
  8
CSLAYER1
  6
CONTINUOUS
 62
     7
 10
851.222733
 20
2068.051403
 11
867.600848
 21
2074.036105
  0
LINE
  8
CSLAYER1
  6
CONTINUOUS
 62
     7
 10
867.600848
 20
2074.036105
 11
884.826023
 21
2079.179284
  0
LINE
  8
CSLAYER1
  6
CONTINUOUS
 62
     7
 10
884.826023
 20
2079.179284
 11
902.767164
 21
2083.441796
  0
LINE
  8
CSLAYER1
  6
CONTINUOUS
 62
     7
 10
902.767164
 20
2083.441796
 11
921.287728
 21
2086.791203
  0
LINE
  8
CSLAYER1
  6
CONTINUOUS
 62
     7
 10
921.287728
 20
2086.791203
 11
940.246763
 21
2089.202012
  0
LINE
  8
CSLAYER1
  6
CONTINUOUS
 62
     7
 10
940.246763
 20
2089.202012
 11
959.499979
 21
2090.655875
  0
LINE
  8
CSLAYER1
  6
CONTINUOUS
 62
     7
 10
959.499979
 20
2090.655875
 11
978.900848
 21
2091.141729
  0
LINE
  8
CSLAYER1
  6
CONTINUOUS
 62
     7
 10
978.900848
 20
2091.141729
 11
998.301716
 21
2090.655875
  0
LINE
  8
CSLAYER1
  6
CONTINUOUS
 62
     7
 10
998.301716
 20
2090.655875
 11
1017.554932
 21
2089.202012
  0
LINE
  8
CSLAYER1
  6
CONTINUOUS
 62
     7
 10
1017.554932
 20
2089.202012
 11
1036.513967
 21
2086.791203
  0
LINE
  8
CSLAYER1
  6
CONTINUOUS
 62
     7
 10
1036.513967
 20
2086.791203
 11
1055.034532
 21
2083.441796
  0
LINE
  8
CSLAYER1
  6
CONTINUOUS
 62
     7
 10
1055.034532
 20
2083.441796
 11
1066.421908
 21
2080.736348
  0
LINE
  8
CSLAYER1
  6
CONTINUOUS
 62
     7
 10
804.945128
 20
2032.710776
 11
830.542995
 21
2048.706099
  0
LINE
  8
CSLAYER1
  6
CONTINUOUS
 62
     7
 10
804.945128
 20
2043.387582
 11
821.641524
 21
2053.820648
  0
ENDBLK
  8
0
  0
BLOCK
  8
CSLAYER1
  2
BLKF0003
 70
   64
 10
0.0
 20
0.0
 30
0.0
  0
LINE
  8
CSLAYER1
  6
CONTINUOUS
 62
     7
 10
673.374516
 20
2047.676484
 11
673.602195
 21
2047.827372
  0
LINE
  8
CSLAYER1
  6
CONTINUOUS
 62
     7
 10
673.602195
 20
2047.827372
 11
673.811309
 21
2048.006268
  0
LINE
  8
CSLAYER1
  6
CONTINUOUS
 62
     7
 10
673.811309
 20
2048.006268
 11
674.000265
 21
2048.211809
  0
LINE
  8
CSLAYER1
  6
CONTINUOUS
 62
     7
 10
674.000265
 20
2048.211809
 11
674.167625
 21
2048.442433
  0
LINE
  8
CSLAYER1
  6
CONTINUOUS
 62
     7
 10
674.167625
 20
2048.442433
 11
674.312117
 21
2048.696383
  0
LINE
  8
CSLAYER1
  6
CONTINUOUS
 62
     7
 10
674.312117
 20
2048.696383
 11
674.432639
 21
2048.971727
  0
LINE
  8
CSLAYER1
  6
CONTINUOUS
 62
     7
 10
674.432639
 20
2048.971727
 11
674.528275
 21
2049.266369
  0
LINE
  8
CSLAYER1
  6
CONTINUOUS
 62
     7
 10
674.528275
 20
2049.266369
 11
674.598298
 21
2049.578067
  0
LINE
  8
CSLAYER1
  6
CONTINUOUS
 62
     7
 10
674.598298
 20
2049.578067
 11
674.642173
 21
2049.904449
  0
LINE
  8
CSLAYER1
  6
CONTINUOUS
 62
     7
 10
674.642173
 20
2049.904449
 11
674.659567
 21
2050.243030
  0
LINE
  8
CSLAYER1
  6
CONTINUOUS
 62
     7
 10
674.659567
 20
2050.243030
 11
674.650349
 21
2050.591235
  0
LINE
  8
CSLAYER1
  6
CONTINUOUS
 62
     7
 10
674.650349
 20
2050.591235
 11
674.614587
 21
2050.946412
  0
LINE
  8
CSLAYER1
  6
CONTINUOUS
 62
     7
 10
674.614587
 20
2050.946412
 11
674.552555
 21
2051.305860
  0
LINE
  8
CSLAYER1
  6
CONTINUOUS
 62
     7
 10
674.552555
 20
2051.305860
 11
674.464723
 21
2051.666841
  0
LINE
  8
CSLAYER1
  6
CONTINUOUS
 62
     7
 10
674.464723
 20
2051.666841
 11
674.351762
 21
2052.026609
  0
LINE
  8
CSLAYER1
  6
CONTINUOUS
 62
     7
 10
674.351762
 20
2052.026609
 11
674.214530
 21
2052.382427
  0
LINE
  8
CSLAYER1
  6
CONTINUOUS
 62
     7
 10
674.214530
 20
2052.382427
 11
674.054071
 21
2052.731585
  0
LINE
  8
CSLAYER1
  6
CONTINUOUS
 62
     7
 10
674.054071
 20
2052.731585
 11
673.871608
 21
2053.071426
  0
LINE
  8
CSLAYER1
  6
CONTINUOUS
 62
     7
 10
673.871608
 20
2053.071426
 11
673.668528
 21
2053.399365
  0
LINE
  8
CSLAYER1
  6
CONTINUOUS
 62
     7
 10
673.668528
 20
2053.399365
 11
673.446378
 21
2053.712905
  0
LINE
  8
CSLAYER1
  6
CONTINUOUS
 62
     7
 10
673.446378
 20
2053.712905
 11
673.206847
 21
2054.009660
  0
LINE
  8
CSLAYER1
  6
CONTINUOUS
 62
     7
 10
673.206847
 20
2054.009660
 11
672.951759
 21
2054.287372
  0
LINE
  8
CSLAYER1
  6
CONTINUOUS
 62
     7
 10
672.951759
 20
2054.287372
 11
672.683056
 21
2054.543927
  0
LINE
  8
CSLAYER1
  6
CONTINUOUS
 62
     7
 10
672.683056
 20
2054.543927
 11
672.402782
 21
2054.777372
  0
LINE
  8
CSLAYER1
  6
CONTINUOUS
 62
     7
 10
672.402782
 20
2054.777372
 11
672.113070
 21
2054.985931
  0
LINE
  8
CSLAYER1
  6
CONTINUOUS
 62
     7
 10
672.113070
 20
2054.985931
 11
671.816125
 21
2055.168017
  0
LINE
  8
CSLAYER1
  6
CONTINUOUS
 62
     7
 10
671.816125
 20
2055.168017
 11
671.514208
 21
2055.322244
  0
LINE
  8
CSLAYER1
  6
CONTINUOUS
 62
     7
 10
671.514208
 20
2055.322244
 11
671.209615
 21
2055.447438
  0
LINE
  8
CSLAYER1
  6
CONTINUOUS
 62
     7
 10
671.209615
 20
2055.447438
 11
670.904665
 21
2055.542646
  0
LINE
  8
CSLAYER1
  6
CONTINUOUS
 62
     7
 10
670.904665
 20
2055.542646
 11
670.601679
 21
2055.607143
  0
LINE
  8
CSLAYER1
  6
CONTINUOUS
 62
     7
 10
670.601679
 20
2055.607143
 11
670.302963
 21
2055.640440
  0
LINE
  8
CSLAYER1
  6
CONTINUOUS
 62
     7
 10
670.302963
 20
2055.640440
 11
670.010791
 21
2055.642282
  0
LINE
  8
CSLAYER1
  6
CONTINUOUS
 62
     7
 10
670.010791
 20
2055.642282
 11
669.727385
 21
2055.612655
  0
LINE
  8
CSLAYER1
  6
CONTINUOUS
 62
     7
 10
669.727385
 20
2055.612655
 11
669.454902
 21
2055.551785
  0
LINE
  8
CSLAYER1
  6
CONTINUOUS
 62
     7
 10
669.454902
 20
2055.551785
 11
669.195417
 21
2055.460135
  0
LINE
  8
CSLAYER1
  6
CONTINUOUS
 62
     7
 10
669.195417
 20
2055.460135
 11
668.950905
 21
2055.338403
  0
ENDBLK
  8
0
  0
BLOCK
  8
CSLAYER1
  2
BLKF0004
 70
   64
 10
0.0
 20
0.0
 30
0.0
  0
LINE
  8
CSLAYER1
  6
CONTINUOUS
 62
     7
 10
666.004013
 20
2053.637014
 11
665.776333
 21
2053.486126
  0
LINE
  8
CSLAYER1
  6
CONTINUOUS
 62
     7
 10
665.776333
 20
2053.486126
 11
665.567220
 21
2053.307231
  0
LINE
  8
CSLAYER1
  6
CONTINUOUS
 62
     7
 10
665.567220
 20
2053.307231
 11
665.378264
 21
2053.101689
  0
LINE
  8
CSLAYER1
  6
CONTINUOUS
 62
     7
 10
665.378264
 20
2053.101689
 11
665.210904
 21
2052.871065
  0
LINE
  8
CSLAYER1
  6
CONTINUOUS
 62
     7
 10
665.210904
 20
2052.871065
 11
665.066412
 21
2052.617115
  0
LINE
  8
CSLAYER1
  6
CONTINUOUS
 62
     7
 10
665.066412
 20
2052.617115
 11
664.945890
 21
2052.341772
  0
LINE
  8
CSLAYER1
  6
CONTINUOUS
 62
     7
 10
664.945890
 20
2052.341772
 11
664.850254
 21
2052.047129
  0
LINE
  8
CSLAYER1
  6
CONTINUOUS
 62
     7
 10
664.850254
 20
2052.047129
 11
664.780231
 21
2051.735431
  0
LINE
  8
CSLAYER1
  6
CONTINUOUS
 62
     7
 10
664.780231
 20
2051.735431
 11
664.736356
 21
2051.409049
  0
LINE
  8
CSLAYER1
  6
CONTINUOUS
 62
     7
 10
664.736356
 20
2051.409049
 11
664.718961
 21
2051.070468
  0
LINE
  8
CSLAYER1
  6
CONTINUOUS
 62
     7
 10
664.718961
 20
2051.070468
 11
664.728180
 21
2050.722263
  0
LINE
  8
CSLAYER1
  6
CONTINUOUS
 62
     7
 10
664.728180
 20
2050.722263
 11
664.763942
 21
2050.367086
  0
LINE
  8
CSLAYER1
  6
CONTINUOUS
 62
     7
 10
664.763942
 20
2050.367086
 11
664.825974
 21
2050.007638
  0
LINE
  8
CSLAYER1
  6
CONTINUOUS
 62
     7
 10
664.825974
 20
2050.007638
 11
664.913805
 21
2049.646657
  0
LINE
  8
CSLAYER1
  6
CONTINUOUS
 62
     7
 10
664.913805
 20
2049.646657
 11
665.026767
 21
2049.286889
  0
LINE
  8
CSLAYER1
  6
CONTINUOUS
 62
     7
 10
665.026767
 20
2049.286889
 11
665.163999
 21
2048.931071
  0
LINE
  8
CSLAYER1
  6
CONTINUOUS
 62
     7
 10
665.163999
 20
2048.931071
 11
665.324458
 21
2048.581913
  0
LINE
  8
CSLAYER1
  6
CONTINUOUS
 62
     7
 10
665.324458
 20
2048.581913
 11
665.506921
 21
2048.242072
  0
LINE
  8
CSLAYER1
  6
CONTINUOUS
 62
     7
 10
665.506921
 20
2048.242072
 11
665.710001
 21
2047.914133
  0
LINE
  8
CSLAYER1
  6
CONTINUOUS
 62
     7
 10
665.710001
 20
2047.914133
 11
665.932151
 21
2047.600593
  0
LINE
  8
CSLAYER1
  6
CONTINUOUS
 62
     7
 10
665.932151
 20
2047.600593
 11
666.171682
 21
2047.303838
  0
LINE
  8
CSLAYER1
  6
CONTINUOUS
 62
     7
 10
666.171682
 20
2047.303838
 11
666.426769
 21
2047.026126
  0
LINE
  8
CSLAYER1
  6
CONTINUOUS
 62
     7
 10
666.426769
 20
2047.026126
 11
666.695473
 21
2046.769571
  0
LINE
  8
CSLAYER1
  6
CONTINUOUS
 62
     7
 10
666.695473
 20
2046.769571
 11
666.975747
 21
2046.536126
  0
LINE
  8
CSLAYER1
  6
CONTINUOUS
 62
     7
 10
666.975747
 20
2046.536126
 11
667.265459
 21
2046.327567
  0
LINE
  8
CSLAYER1
  6
CONTINUOUS
 62
     7
 10
667.265459
 20
2046.327567
 11
667.562404
 21
2046.145481
  0
LINE
  8
CSLAYER1
  6
CONTINUOUS
 62
     7
 10
667.562404
 20
2046.145481
 11
667.864321
 21
2045.991254
  0
LINE
  8
CSLAYER1
  6
CONTINUOUS
 62
     7
 10
667.864321
 20
2045.991254
 11
668.168914
 21
2045.866061
  0
LINE
  8
CSLAYER1
  6
CONTINUOUS
 62
     7
 10
668.168914
 20
2045.866061
 11
668.473864
 21
2045.770853
  0
LINE
  8
CSLAYER1
  6
CONTINUOUS
 62
     7
 10
668.473864
 20
2045.770853
 11
668.776849
 21
2045.706355
  0
LINE
  8
CSLAYER1
  6
CONTINUOUS
 62
     7
 10
668.776849
 20
2045.706355
 11
669.075565
 21
2045.673058
  0
LINE
  8
CSLAYER1
  6
CONTINUOUS
 62
     7
 10
669.075565
 20
2045.673058
 11
669.367738
 21
2045.671217
  0
LINE
  8
CSLAYER1
  6
CONTINUOUS
 62
     7
 10
669.367738
 20
2045.671217
 11
669.651144
 21
2045.700843
  0
LINE
  8
CSLAYER1
  6
CONTINUOUS
 62
     7
 10
669.651144
 20
2045.700843
 11
669.923627
 21
2045.761713
  0
LINE
  8
CSLAYER1
  6
CONTINUOUS
 62
     7
 10
669.923627
 20
2045.761713
 11
670.183111
 21
2045.853363
  0
LINE
  8
CSLAYER1
  6
CONTINUOUS
 62
     7
 10
670.183111
 20
2045.853363
 11
670.427624
 21
2045.975095
  0
LINE
  8
CSLAYER1
  6
CONTINUOUS
 62
     7
 10
670.427624
 20
2045.975095
 11
670.655303
 21
2046.125983
  0
LINE
  8
CSLAYER1
  6
CONTINUOUS
 62
     7
 10
670.655303
 20
2046.125983
 11
670.864417
 21
2046.304879
  0
LINE
  8
CSLAYER1
  6
CONTINUOUS
 62
     7
 10
670.864417
 20
2046.304879
 11
671.053373
 21
2046.510420
  0
LINE
  8
CSLAYER1
  6
CONTINUOUS
 62
     7
 10
671.053373
 20
2046.510420
 11
671.220733
 21
2046.741044
  0
LINE
  8
CSLAYER1
  6
CONTINUOUS
 62
     7
 10
671.220733
 20
2046.741044
 11
671.365225
 21
2046.994994
  0
LINE
  8
CSLAYER1
  6
CONTINUOUS
 62
     7
 10
671.365225
 20
2046.994994
 11
671.485747
 21
2047.270338
  0
LINE
  8
CSLAYER1
  6
CONTINUOUS
 62
     7
 10
671.485747
 20
2047.270338
 11
671.581383
 21
2047.564980
  0
LINE
  8
CSLAYER1
  6
CONTINUOUS
 62
     7
 10
671.581383
 20
2047.564980
 11
671.651406
 21
2047.876678
  0
LINE
  8
CSLAYER1
  6
CONTINUOUS
 62
     7
 10
671.651406
 20
2047.876678
 11
671.695281
 21
2048.203060
  0
LINE
  8
CSLAYER1
  6
CONTINUOUS
 62
     7
 10
671.695281
 20
2048.203060
 11
671.712676
 21
2048.541642
  0
LINE
  8
CSLAYER1
  6
CONTINUOUS
 62
     7
 10
671.712676
 20
2048.541642
 11
671.703457
 21
2048.889846
  0
LINE
  8
CSLAYER1
  6
CONTINUOUS
 62
     7
 10
671.703457
 20
2048.889846
 11
671.667695
 21
2049.245024
  0
LINE
  8
CSLAYER1
  6
CONTINUOUS
 62
     7
 10
671.667695
 20
2049.245024
 11
671.605663
 21
2049.604471
  0
LINE
  8
CSLAYER1
  6
CONTINUOUS
 62
     7
 10
671.605663
 20
2049.604471
 11
671.517831
 21
2049.965452
  0
LINE
  8
CSLAYER1
  6
CONTINUOUS
 62
     7
 10
671.517831
 20
2049.965452
 11
671.404870
 21
2050.325221
  0
LINE
  8
CSLAYER1
  6
CONTINUOUS
 62
     7
 10
671.404870
 20
2050.325221
 11
671.267638
 21
2050.681038
  0
LINE
  8
CSLAYER1
  6
CONTINUOUS
 62
     7
 10
671.267638
 20
2050.681038
 11
671.107179
 21
2051.030196
  0
LINE
  8
CSLAYER1
  6
CONTINUOUS
 62
     7
 10
671.107179
 20
2051.030196
 11
670.924716
 21
2051.370037
  0
LINE
  8
CSLAYER1
  6
CONTINUOUS
 62
     7
 10
670.924716
 20
2051.370037
 11
670.721636
 21
2051.697976
  0
LINE
  8
CSLAYER1
  6
CONTINUOUS
 62
     7
 10
670.721636
 20
2051.697976
 11
670.499486
 21
2052.011516
  0
LINE
  8
CSLAYER1
  6
CONTINUOUS
 62
     7
 10
670.499486
 20
2052.011516
 11
670.259955
 21
2052.308271
  0
LINE
  8
CSLAYER1
  6
CONTINUOUS
 62
     7
 10
670.259955
 20
2052.308271
 11
670.004867
 21
2052.585983
  0
LINE
  8
CSLAYER1
  6
CONTINUOUS
 62
     7
 10
670.004867
 20
2052.585983
 11
669.736164
 21
2052.842538
  0
LINE
  8
CSLAYER1
  6
CONTINUOUS
 62
     7
 10
669.736164
 20
2052.842538
 11
669.455890
 21
2053.075983
  0
LINE
  8
CSLAYER1
  6
CONTINUOUS
 62
     7
 10
669.455890
 20
2053.075983
 11
669.166178
 21
2053.284542
  0
LINE
  8
CSLAYER1
  6
CONTINUOUS
 62
     7
 10
669.166178
 20
2053.284542
 11
668.869233
 21
2053.466628
  0
LINE
  8
CSLAYER1
  6
CONTINUOUS
 62
     7
 10
668.869233
 20
2053.466628
 11
668.567316
 21
2053.620855
  0
LINE
  8
CSLAYER1
  6
CONTINUOUS
 62
     7
 10
668.567316
 20
2053.620855
 11
668.262723
 21
2053.746049
  0
LINE
  8
CSLAYER1
  6
CONTINUOUS
 62
     7
 10
668.262723
 20
2053.746049
 11
667.957773
 21
2053.841257
  0
LINE
  8
CSLAYER1
  6
CONTINUOUS
 62
     7
 10
667.957773
 20
2053.841257
 11
667.654787
 21
2053.905754
  0
LINE
  8
CSLAYER1
  6
CONTINUOUS
 62
     7
 10
667.654787
 20
2053.905754
 11
667.356071
 21
2053.939051
  0
LINE
  8
CSLAYER1
  6
CONTINUOUS
 62
     7
 10
667.356071
 20
2053.939051
 11
667.063899
 21
2053.940893
  0
LINE
  8
CSLAYER1
  6
CONTINUOUS
 62
     7
 10
667.063899
 20
2053.940893
 11
666.780493
 21
2053.911266
  0
LINE
  8
CSLAYER1
  6
CONTINUOUS
 62
     7
 10
666.780493
 20
2053.911266
 11
666.508010
 21
2053.850396
  0
LINE
  8
CSLAYER1
  6
CONTINUOUS
 62
     7
 10
666.508010
 20
2053.850396
 11
666.248525
 21
2053.758746
  0
LINE
  8
CSLAYER1
  6
CONTINUOUS
 62
     7
 10
666.248525
 20
2053.758746
 11
666.004013
 21
2053.637014
  0
ENDBLK
  8
0
  0
BLOCK
  8
CSLAYER1
  2
BLKF0005
 70
   64
 10
0.0
 20
0.0
 30
0.0
  0
LINE
  8
CSLAYER1
  6
CONTINUOUS
 62
     7
 10
674.630098
 20
2046.157175
 11
674.915832
 21
2046.401619
  0
LINE
  8
CSLAYER1
  6
CONTINUOUS
 62
     7
 10
674.915832
 20
2046.401619
 11
675.174022
 21
2046.682472
  0
LINE
  8
CSLAYER1
  6
CONTINUOUS
 62
     7
 10
675.174022
 20
2046.682472
 11
675.402705
 21
2046.997597
  0
LINE
  8
CSLAYER1
  6
CONTINUOUS
 62
     7
 10
675.402705
 20
2046.997597
 11
675.600138
 21
2047.344596
  0
LINE
  8
CSLAYER1
  6
CONTINUOUS
 62
     7
 10
675.600138
 20
2047.344596
 11
675.764821
 21
2047.720827
  0
LINE
  8
CSLAYER1
  6
CONTINUOUS
 62
     7
 10
675.764821
 20
2047.720827
 11
675.895498
 21
2048.123428
  0
LINE
  8
CSLAYER1
  6
CONTINUOUS
 62
     7
 10
675.895498
 20
2048.123428
 11
675.991177
 21
2048.549334
  0
LINE
  8
CSLAYER1
  6
CONTINUOUS
 62
     7
 10
675.991177
 20
2048.549334
 11
676.051129
 21
2048.995304
  0
LINE
  8
CSLAYER1
  6
CONTINUOUS
 62
     7
 10
676.051129
 20
2048.995304
 11
676.074897
 21
2049.457943
  0
LINE
  8
CSLAYER1
  6
CONTINUOUS
 62
     7
 10
676.074897
 20
2049.457943
 11
676.062300
 21
2049.933732
  0
LINE
  8
CSLAYER1
  6
CONTINUOUS
 62
     7
 10
676.062300
 20
2049.933732
 11
676.013436
 21
2050.419048
  0
LINE
  8
CSLAYER1
  6
CONTINUOUS
 62
     7
 10
676.013436
 20
2050.419048
 11
675.928674
 21
2050.910198
  0
LINE
  8
CSLAYER1
  6
CONTINUOUS
 62
     7
 10
675.928674
 20
2050.910198
 11
675.808661
 21
2051.403445
  0
LINE
  8
CSLAYER1
  6
CONTINUOUS
 62
     7
 10
675.808661
 20
2051.403445
 11
675.654310
 21
2051.895035
  0
LINE
  8
CSLAYER1
  6
CONTINUOUS
 62
     7
 10
675.654310
 20
2051.895035
 11
675.466795
 21
2052.381225
  0
LINE
  8
CSLAYER1
  6
CONTINUOUS
 62
     7
 10
675.466795
 20
2052.381225
 11
675.247544
 21
2052.858316
  0
LINE
  8
CSLAYER1
  6
CONTINUOUS
 62
     7
 10
675.247544
 20
2052.858316
 11
674.998225
 21
2053.322677
  0
LINE
  8
CSLAYER1
  6
CONTINUOUS
 62
     7
 10
674.998225
 20
2053.322677
 11
674.720736
 21
2053.770774
  0
LINE
  8
CSLAYER1
  6
CONTINUOUS
 62
     7
 10
674.720736
 20
2053.770774
 11
674.417188
 21
2054.199197
  0
LINE
  8
CSLAYER1
  6
CONTINUOUS
 62
     7
 10
674.417188
 20
2054.199197
 11
674.089892
 21
2054.604685
  0
LINE
  8
CSLAYER1
  6
CONTINUOUS
 62
     7
 10
674.089892
 20
2054.604685
 11
673.741339
 21
2054.984152
  0
LINE
  8
CSLAYER1
  6
CONTINUOUS
 62
     7
 10
673.741339
 20
2054.984152
 11
673.374181
 21
2055.334709
  0
LINE
  8
CSLAYER1
  6
CONTINUOUS
 62
     7
 10
673.374181
 20
2055.334709
 11
672.991213
 21
2055.653690
  0
LINE
  8
CSLAYER1
  6
CONTINUOUS
 62
     7
 10
672.991213
 20
2055.653690
 11
672.595350
 21
2055.938667
  0
LINE
  8
CSLAYER1
  6
CONTINUOUS
 62
     7
 10
672.595350
 20
2055.938667
 11
672.189603
 21
2056.187470
  0
LINE
  8
CSLAYER1
  6
CONTINUOUS
 62
     7
 10
672.189603
 20
2056.187470
 11
671.777061
 21
2056.398206
  0
LINE
  8
CSLAYER1
  6
CONTINUOUS
 62
     7
 10
671.777061
 20
2056.398206
 11
671.360864
 21
2056.569271
  0
LINE
  8
CSLAYER1
  6
CONTINUOUS
 62
     7
 10
671.360864
 20
2056.569271
 11
670.944179
 21
2056.699364
  0
LINE
  8
CSLAYER1
  6
CONTINUOUS
 62
     7
 10
670.944179
 20
2056.699364
 11
670.530178
 21
2056.787494
  0
LINE
  8
CSLAYER1
  6
CONTINUOUS
 62
     7
 10
670.530178
 20
2056.787494
 11
670.122011
 21
2056.832990
  0
LINE
  8
CSLAYER1
  6
CONTINUOUS
 62
     7
 10
670.122011
 20
2056.832990
 11
669.722785
 21
2056.835507
  0
LINE
  8
CSLAYER1
  6
CONTINUOUS
 62
     7
 10
669.722785
 20
2056.835507
 11
669.335537
 21
2056.795025
  0
LINE
  8
CSLAYER1
  6
CONTINUOUS
 62
     7
 10
669.335537
 20
2056.795025
 11
668.963216
 21
2056.711852
  0
LINE
  8
CSLAYER1
  6
CONTINUOUS
 62
     7
 10
668.963216
 20
2056.711852
 11
668.608655
 21
2056.586621
  0
LINE
  8
CSLAYER1
  6
CONTINUOUS
 62
     7
 10
668.608655
 20
2056.586621
 11
668.274552
 21
2056.420286
  0
LINE
  8
CSLAYER1
  6
CONTINUOUS
 62
     7
 10
668.274552
 20
2056.420286
 11
667.963449
 21
2056.214112
  0
LINE
  8
CSLAYER1
  6
CONTINUOUS
 62
     7
 10
667.963449
 20
2056.214112
 11
667.677716
 21
2055.969668
  0
LINE
  8
CSLAYER1
  6
CONTINUOUS
 62
     7
 10
667.677716
 20
2055.969668
 11
667.419525
 21
2055.688815
  0
LINE
  8
CSLAYER1
  6
CONTINUOUS
 62
     7
 10
667.419525
 20
2055.688815
 11
667.190843
 21
2055.373690
  0
LINE
  8
CSLAYER1
  6
CONTINUOUS
 62
     7
 10
667.190843
 20
2055.373690
 11
666.993409
 21
2055.026691
  0
LINE
  8
CSLAYER1
  6
CONTINUOUS
 62
     7
 10
666.993409
 20
2055.026691
 11
666.828727
 21
2054.650460
  0
LINE
  8
CSLAYER1
  6
CONTINUOUS
 62
     7
 10
666.828727
 20
2054.650460
 11
666.698049
 21
2054.247859
  0
LINE
  8
CSLAYER1
  6
CONTINUOUS
 62
     7
 10
666.698049
 20
2054.247859
 11
666.643805
 21
2054.006399
  0
LINE
  8
CSLAYER1
  6
CONTINUOUS
 62
     7
 10
670.595173
 20
2046.086133
 11
670.816486
 21
2045.973081
  0
LINE
  8
CSLAYER1
  6
CONTINUOUS
 62
     7
 10
670.816486
 20
2045.973081
 11
671.232683
 21
2045.802016
  0
LINE
  8
CSLAYER1
  6
CONTINUOUS
 62
     7
 10
671.232683
 20
2045.802016
 11
671.649368
 21
2045.671923
  0
LINE
  8
CSLAYER1
  6
CONTINUOUS
 62
     7
 10
671.649368
 20
2045.671923
 11
672.063369
 21
2045.583793
  0
LINE
  8
CSLAYER1
  6
CONTINUOUS
 62
     7
 10
672.063369
 20
2045.583793
 11
672.471536
 21
2045.538297
  0
LINE
  8
CSLAYER1
  6
CONTINUOUS
 62
     7
 10
672.471536
 20
2045.538297
 11
672.870763
 21
2045.535780
  0
LINE
  8
CSLAYER1
  6
CONTINUOUS
 62
     7
 10
672.870763
 20
2045.535780
 11
673.258010
 21
2045.576262
  0
LINE
  8
CSLAYER1
  6
CONTINUOUS
 62
     7
 10
673.258010
 20
2045.576262
 11
673.630331
 21
2045.659435
  0
LINE
  8
CSLAYER1
  6
CONTINUOUS
 62
     7
 10
673.630331
 20
2045.659435
 11
673.961219
 21
2045.776304
  0
ENDBLK
  8
0
  0
BLOCK
  8
CSLAYER1
  2
BLKF0006
 70
   64
 10
0.0
 20
0.0
 30
0.0
  0
LINE
  8
CSLAYER1
  6
CONTINUOUS
 62
     7
 10
676.061934
 20
2046.953872
 11
676.455433
 21
2047.290508
  0
LINE
  8
CSLAYER1
  6
CONTINUOUS
 62
     7
 10
676.455433
 20
2047.290508
 11
676.713623
 21
2047.571361
  0
LINE
  8
CSLAYER1
  6
CONTINUOUS
 62
     7
 10
676.713623
 20
2047.571361
 11
676.942305
 21
2047.886486
  0
LINE
  8
CSLAYER1
  6
CONTINUOUS
 62
     7
 10
676.942305
 20
2047.886486
 11
677.139739
 21
2048.233485
  0
LINE
  8
CSLAYER1
  6
CONTINUOUS
 62
     7
 10
677.139739
 20
2048.233485
 11
677.304421
 21
2048.609716
  0
LINE
  8
CSLAYER1
  6
CONTINUOUS
 62
     7
 10
677.304421
 20
2048.609716
 11
677.435099
 21
2049.012317
  0
LINE
  8
CSLAYER1
  6
CONTINUOUS
 62
     7
 10
677.435099
 20
2049.012317
 11
677.530778
 21
2049.438223
  0
LINE
  8
CSLAYER1
  6
CONTINUOUS
 62
     7
 10
677.530778
 20
2049.438223
 11
677.590730
 21
2049.884192
  0
LINE
  8
CSLAYER1
  6
CONTINUOUS
 62
     7
 10
677.590730
 20
2049.884192
 11
677.614498
 21
2050.346832
  0
LINE
  8
CSLAYER1
  6
CONTINUOUS
 62
     7
 10
677.614498
 20
2050.346832
 11
677.601901
 21
2050.822621
  0
LINE
  8
CSLAYER1
  6
CONTINUOUS
 62
     7
 10
677.601901
 20
2050.822621
 11
677.553036
 21
2051.307937
  0
LINE
  8
CSLAYER1
  6
CONTINUOUS
 62
     7
 10
677.553036
 20
2051.307937
 11
677.468275
 21
2051.799087
  0
LINE
  8
CSLAYER1
  6
CONTINUOUS
 62
     7
 10
677.468275
 20
2051.799087
 11
677.348262
 21
2052.292334
  0
LINE
  8
CSLAYER1
  6
CONTINUOUS
 62
     7
 10
677.348262
 20
2052.292334
 11
677.193910
 21
2052.783923
  0
LINE
  8
CSLAYER1
  6
CONTINUOUS
 62
     7
 10
677.193910
 20
2052.783923
 11
677.006396
 21
2053.270114
  0
LINE
  8
CSLAYER1
  6
CONTINUOUS
 62
     7
 10
677.006396
 20
2053.270114
 11
676.787145
 21
2053.747205
  0
LINE
  8
CSLAYER1
  6
CONTINUOUS
 62
     7
 10
676.787145
 20
2053.747205
 11
676.537826
 21
2054.211566
  0
LINE
  8
CSLAYER1
  6
CONTINUOUS
 62
     7
 10
676.537826
 20
2054.211566
 11
676.260336
 21
2054.659663
  0
LINE
  8
CSLAYER1
  6
CONTINUOUS
 62
     7
 10
676.260336
 20
2054.659663
 11
675.956789
 21
2055.088086
  0
LINE
  8
CSLAYER1
  6
CONTINUOUS
 62
     7
 10
675.956789
 20
2055.088086
 11
675.629493
 21
2055.493574
  0
LINE
  8
CSLAYER1
  6
CONTINUOUS
 62
     7
 10
675.629493
 20
2055.493574
 11
675.280940
 21
2055.873041
  0
LINE
  8
CSLAYER1
  6
CONTINUOUS
 62
     7
 10
675.280940
 20
2055.873041
 11
674.913782
 21
2056.223598
  0
LINE
  8
CSLAYER1
  6
CONTINUOUS
 62
     7
 10
674.913782
 20
2056.223598
 11
674.530814
 21
2056.542579
  0
LINE
  8
CSLAYER1
  6
CONTINUOUS
 62
     7
 10
674.530814
 20
2056.542579
 11
674.134950
 21
2056.827556
  0
LINE
  8
CSLAYER1
  6
CONTINUOUS
 62
     7
 10
674.134950
 20
2056.827556
 11
673.729204
 21
2057.076359
  0
LINE
  8
CSLAYER1
  6
CONTINUOUS
 62
     7
 10
673.729204
 20
2057.076359
 11
673.316662
 21
2057.287095
  0
LINE
  8
CSLAYER1
  6
CONTINUOUS
 62
     7
 10
673.316662
 20
2057.287095
 11
672.900465
 21
2057.458160
  0
LINE
  8
CSLAYER1
  6
CONTINUOUS
 62
     7
 10
672.900465
 20
2057.458160
 11
672.483780
 21
2057.588253
  0
LINE
  8
CSLAYER1
  6
CONTINUOUS
 62
     7
 10
672.483780
 20
2057.588253
 11
672.069779
 21
2057.676383
  0
LINE
  8
CSLAYER1
  6
CONTINUOUS
 62
     7
 10
672.069779
 20
2057.676383
 11
671.661612
 21
2057.721879
  0
LINE
  8
CSLAYER1
  6
CONTINUOUS
 62
     7
 10
671.661612
 20
2057.721879
 11
671.262385
 21
2057.724396
  0
LINE
  8
CSLAYER1
  6
CONTINUOUS
 62
     7
 10
671.262385
 20
2057.724396
 11
670.875138
 21
2057.683914
  0
LINE
  8
CSLAYER1
  6
CONTINUOUS
 62
     7
 10
670.875138
 20
2057.683914
 11
670.502817
 21
2057.600741
  0
LINE
  8
CSLAYER1
  6
CONTINUOUS
 62
     7
 10
670.502817
 20
2057.600741
 11
670.148255
 21
2057.475510
  0
ENDBLK
  8
0
  0
BLOCK
  8
CSLAYER1
  2
BLKF0007
 70
   64
 10
0.0
 20
0.0
 30
0.0
  0
LINE
  8
CSLAYER1
  6
CONTINUOUS
 62
     7
 10
689.992535
 20
2059.501163
 11
689.976046
 21
2059.768219
  0
LINE
  8
CSLAYER1
  6
CONTINUOUS
 62
     7
 10
689.976046
 20
2059.768219
 11
689.926702
 21
2060.033243
  0
LINE
  8
CSLAYER1
  6
CONTINUOUS
 62
     7
 10
689.926702
 20
2060.033243
 11
689.844881
 21
2060.294218
  0
LINE
  8
CSLAYER1
  6
CONTINUOUS
 62
     7
 10
689.844881
 20
2060.294218
 11
689.731204
 21
2060.549157
  0
LINE
  8
CSLAYER1
  6
CONTINUOUS
 62
     7
 10
689.731204
 20
2060.549157
 11
689.586536
 21
2060.796120
  0
LINE
  8
CSLAYER1
  6
CONTINUOUS
 62
     7
 10
689.586536
 20
2060.796120
 11
689.411979
 21
2061.033227
  0
LINE
  8
CSLAYER1
  6
CONTINUOUS
 62
     7
 10
689.411979
 20
2061.033227
 11
689.208861
 21
2061.258675
  0
LINE
  8
CSLAYER1
  6
CONTINUOUS
 62
     7
 10
689.208861
 20
2061.258675
 11
688.978728
 21
2061.470747
  0
LINE
  8
CSLAYER1
  6
CONTINUOUS
 62
     7
 10
688.978728
 20
2061.470747
 11
688.723332
 21
2061.667829
  0
LINE
  8
CSLAYER1
  6
CONTINUOUS
 62
     7
 10
688.723332
 20
2061.667829
 11
688.444615
 21
2061.848422
  0
LINE
  8
CSLAYER1
  6
CONTINUOUS
 62
     7
 10
688.444615
 20
2061.848422
 11
688.144700
 21
2062.011150
  0
LINE
  8
CSLAYER1
  6
CONTINUOUS
 62
     7
 10
688.144700
 20
2062.011150
 11
687.825869
 21
2062.154777
  0
LINE
  8
CSLAYER1
  6
CONTINUOUS
 62
     7
 10
687.825869
 20
2062.154777
 11
687.490548
 21
2062.278207
  0
LINE
  8
CSLAYER1
  6
CONTINUOUS
 62
     7
 10
687.490548
 20
2062.278207
 11
687.141289
 21
2062.380502
  0
LINE
  8
CSLAYER1
  6
CONTINUOUS
 62
     7
 10
687.141289
 20
2062.380502
 11
686.780751
 21
2062.460884
  0
LINE
  8
CSLAYER1
  6
CONTINUOUS
 62
     7
 10
686.780751
 20
2062.460884
 11
686.411678
 21
2062.518741
  0
LINE
  8
CSLAYER1
  6
CONTINUOUS
 62
     7
 10
686.411678
 20
2062.518741
 11
686.036877
 21
2062.553632
  0
LINE
  8
CSLAYER1
  6
CONTINUOUS
 62
     7
 10
686.036877
 20
2062.553632
 11
685.659202
 21
2062.565292
  0
LINE
  8
CSLAYER1
  6
CONTINUOUS
 62
     7
 10
685.659202
 20
2062.565292
 11
685.281527
 21
2062.553632
  0
LINE
  8
CSLAYER1
  6
CONTINUOUS
 62
     7
 10
685.281527
 20
2062.553632
 11
684.906727
 21
2062.518741
  0
LINE
  8
CSLAYER1
  6
CONTINUOUS
 62
     7
 10
684.906727
 20
2062.518741
 11
684.537653
 21
2062.460884
  0
LINE
  8
CSLAYER1
  6
CONTINUOUS
 62
     7
 10
684.537653
 20
2062.460884
 11
684.177115
 21
2062.380502
  0
LINE
  8
CSLAYER1
  6
CONTINUOUS
 62
     7
 10
684.177115
 20
2062.380502
 11
683.827856
 21
2062.278207
  0
LINE
  8
CSLAYER1
  6
CONTINUOUS
 62
     7
 10
683.827856
 20
2062.278207
 11
683.492535
 21
2062.154777
  0
LINE
  8
CSLAYER1
  6
CONTINUOUS
 62
     7
 10
683.492535
 20
2062.154777
 11
683.173704
 21
2062.011150
  0
LINE
  8
CSLAYER1
  6
CONTINUOUS
 62
     7
 10
683.173704
 20
2062.011150
 11
682.873789
 21
2061.848422
  0
LINE
  8
CSLAYER1
  6
CONTINUOUS
 62
     7
 10
682.873789
 20
2061.848422
 11
682.595073
 21
2061.667829
  0
LINE
  8
CSLAYER1
  6
CONTINUOUS
 62
     7
 10
682.595073
 20
2061.667829
 11
682.339676
 21
2061.470747
  0
LINE
  8
CSLAYER1
  6
CONTINUOUS
 62
     7
 10
682.339676
 20
2061.470747
 11
682.109543
 21
2061.258675
  0
LINE
  8
CSLAYER1
  6
CONTINUOUS
 62
     7
 10
682.109543
 20
2061.258675
 11
681.906425
 21
2061.033227
  0
LINE
  8
CSLAYER1
  6
CONTINUOUS
 62
     7
 10
681.906425
 20
2061.033227
 11
681.731868
 21
2060.796120
  0
LINE
  8
CSLAYER1
  6
CONTINUOUS
 62
     7
 10
681.731868
 20
2060.796120
 11
681.587201
 21
2060.549157
  0
LINE
  8
CSLAYER1
  6
CONTINUOUS
 62
     7
 10
681.587201
 20
2060.549157
 11
681.473524
 21
2060.294218
  0
LINE
  8
CSLAYER1
  6
CONTINUOUS
 62
     7
 10
681.473524
 20
2060.294218
 11
681.391702
 21
2060.033243
  0
LINE
  8
CSLAYER1
  6
CONTINUOUS
 62
     7
 10
681.391702
 20
2060.033243
 11
681.342358
 21
2059.768219
  0
LINE
  8
CSLAYER1
  6
CONTINUOUS
 62
     7
 10
681.342358
 20
2059.768219
 11
681.325869
 21
2059.501163
  0
LINE
  8
CSLAYER1
  6
CONTINUOUS
 62
     7
 10
681.325869
 20
2059.501163
 11
681.342358
 21
2059.234106
  0
LINE
  8
CSLAYER1
  6
CONTINUOUS
 62
     7
 10
681.342358
 20
2059.234106
 11
681.391702
 21
2058.969082
  0
LINE
  8
CSLAYER1
  6
CONTINUOUS
 62
     7
 10
681.391702
 20
2058.969082
 11
681.473524
 21
2058.708108
  0
LINE
  8
CSLAYER1
  6
CONTINUOUS
 62
     7
 10
681.473524
 20
2058.708108
 11
681.587201
 21
2058.453169
  0
LINE
  8
CSLAYER1
  6
CONTINUOUS
 62
     7
 10
681.587201
 20
2058.453169
 11
681.731868
 21
2058.206206
  0
LINE
  8
CSLAYER1
  6
CONTINUOUS
 62
     7
 10
681.731868
 20
2058.206206
 11
681.906425
 21
2057.969098
  0
LINE
  8
CSLAYER1
  6
CONTINUOUS
 62
     7
 10
681.906425
 20
2057.969098
 11
682.109543
 21
2057.743650
  0
LINE
  8
CSLAYER1
  6
CONTINUOUS
 62
     7
 10
682.109543
 20
2057.743650
 11
682.339676
 21
2057.531578
  0
LINE
  8
CSLAYER1
  6
CONTINUOUS
 62
     7
 10
682.339676
 20
2057.531578
 11
682.595073
 21
2057.334496
  0
LINE
  8
CSLAYER1
  6
CONTINUOUS
 62
     7
 10
682.595073
 20
2057.334496
 11
682.873789
 21
2057.153903
  0
LINE
  8
CSLAYER1
  6
CONTINUOUS
 62
     7
 10
682.873789
 20
2057.153903
 11
683.173704
 21
2056.991175
  0
LINE
  8
CSLAYER1
  6
CONTINUOUS
 62
     7
 10
683.173704
 20
2056.991175
 11
683.492535
 21
2056.847549
  0
LINE
  8
CSLAYER1
  6
CONTINUOUS
 62
     7
 10
683.492535
 20
2056.847549
 11
683.827856
 21
2056.724118
  0
LINE
  8
CSLAYER1
  6
CONTINUOUS
 62
     7
 10
683.827856
 20
2056.724118
 11
684.177115
 21
2056.621823
  0
LINE
  8
CSLAYER1
  6
CONTINUOUS
 62
     7
 10
684.177115
 20
2056.621823
 11
684.537653
 21
2056.541441
  0
LINE
  8
CSLAYER1
  6
CONTINUOUS
 62
     7
 10
684.537653
 20
2056.541441
 11
684.906727
 21
2056.483584
  0
LINE
  8
CSLAYER1
  6
CONTINUOUS
 62
     7
 10
684.906727
 20
2056.483584
 11
685.281527
 21
2056.448693
  0
LINE
  8
CSLAYER1
  6
CONTINUOUS
 62
     7
 10
685.281527
 20
2056.448693
 11
685.659202
 21
2056.437033
  0
LINE
  8
CSLAYER1
  6
CONTINUOUS
 62
     7
 10
685.659202
 20
2056.437033
 11
686.036877
 21
2056.448693
  0
LINE
  8
CSLAYER1
  6
CONTINUOUS
 62
     7
 10
686.036877
 20
2056.448693
 11
686.411678
 21
2056.483584
  0
LINE
  8
CSLAYER1
  6
CONTINUOUS
 62
     7
 10
686.411678
 20
2056.483584
 11
686.780751
 21
2056.541441
  0
LINE
  8
CSLAYER1
  6
CONTINUOUS
 62
     7
 10
686.780751
 20
2056.541441
 11
687.141289
 21
2056.621823
  0
LINE
  8
CSLAYER1
  6
CONTINUOUS
 62
     7
 10
687.141289
 20
2056.621823
 11
687.490548
 21
2056.724118
  0
LINE
  8
CSLAYER1
  6
CONTINUOUS
 62
     7
 10
687.490548
 20
2056.724118
 11
687.825869
 21
2056.847549
  0
LINE
  8
CSLAYER1
  6
CONTINUOUS
 62
     7
 10
687.825869
 20
2056.847549
 11
688.144700
 21
2056.991175
  0
LINE
  8
CSLAYER1
  6
CONTINUOUS
 62
     7
 10
688.144700
 20
2056.991175
 11
688.444615
 21
2057.153903
  0
LINE
  8
CSLAYER1
  6
CONTINUOUS
 62
     7
 10
688.444615
 20
2057.153903
 11
688.723332
 21
2057.334496
  0
LINE
  8
CSLAYER1
  6
CONTINUOUS
 62
     7
 10
688.723332
 20
2057.334496
 11
688.978728
 21
2057.531578
  0
LINE
  8
CSLAYER1
  6
CONTINUOUS
 62
     7
 10
688.978728
 20
2057.531578
 11
689.208861
 21
2057.743650
  0
LINE
  8
CSLAYER1
  6
CONTINUOUS
 62
     7
 10
689.208861
 20
2057.743650
 11
689.411979
 21
2057.969098
  0
LINE
  8
CSLAYER1
  6
CONTINUOUS
 62
     7
 10
689.411979
 20
2057.969098
 11
689.586536
 21
2058.206206
  0
LINE
  8
CSLAYER1
  6
CONTINUOUS
 62
     7
 10
689.586536
 20
2058.206206
 11
689.731204
 21
2058.453169
  0
LINE
  8
CSLAYER1
  6
CONTINUOUS
 62
     7
 10
689.731204
 20
2058.453169
 11
689.844881
 21
2058.708108
  0
LINE
  8
CSLAYER1
  6
CONTINUOUS
 62
     7
 10
689.844881
 20
2058.708108
 11
689.926702
 21
2058.969082
  0
LINE
  8
CSLAYER1
  6
CONTINUOUS
 62
     7
 10
689.926702
 20
2058.969082
 11
689.976046
 21
2059.234106
  0
LINE
  8
CSLAYER1
  6
CONTINUOUS
 62
     7
 10
689.976046
 20
2059.234106
 11
689.992535
 21
2059.501163
  0
ENDBLK
  8
0
  0
BLOCK
  8
CSLAYER1
  2
BLKF0008
 70
   64
 10
0.0
 20
0.0
 30
0.0
  0
LINE
  8
CSLAYER1
  6
CONTINUOUS
 62
     7
 10
624.202391
 20
2056.989735
 11
625.309226
 21
2057.681363
  0
LINE
  8
CSLAYER1
  6
CONTINUOUS
 62
     7
 10
625.714194
 20
2067.771664
 11
652.281635
 21
2084.372844
  0
LINE
  8
CSLAYER1
  6
CONTINUOUS
 62
     7
 10
623.748967
 20
2064.674687
 11
623.748967
 21
2059.856645
  0
LINE
  8
CSLAYER1
  6
CONTINUOUS
 62
     7
 10
623.748967
 20
2064.674687
 11
623.780932
 21
2065.094607
  0
LINE
  8
CSLAYER1
  6
CONTINUOUS
 62
     7
 10
623.780932
 20
2065.094607
 11
623.876582
 21
2065.511331
  0
LINE
  8
CSLAYER1
  6
CONTINUOUS
 62
     7
 10
623.876582
 20
2065.511331
 11
624.035191
 21
2065.921688
  0
LINE
  8
CSLAYER1
  6
CONTINUOUS
 62
     7
 10
624.035191
 20
2065.921688
 11
624.255549
 21
2066.322554
  0
LINE
  8
CSLAYER1
  6
CONTINUOUS
 62
     7
 10
624.255549
 20
2066.322554
 11
624.535982
 21
2066.710879
  0
LINE
  8
CSLAYER1
  6
CONTINUOUS
 62
     7
 10
624.535982
 20
2066.710879
 11
624.874354
 21
2067.083708
  0
LINE
  8
CSLAYER1
  6
CONTINUOUS
 62
     7
 10
624.874354
 20
2067.083708
 11
625.268090
 21
2067.438202
  0
LINE
  8
CSLAYER1
  6
CONTINUOUS
 62
     7
 10
625.268090
 20
2067.438202
 11
625.714194
 21
2067.771664
  0
LINE
  8
CSLAYER1
  6
CONTINUOUS
 62
     7
 10
638.088664
 20
2061.267816
 11
637.548383
 21
2060.983852
  0
LINE
  8
CSLAYER1
  6
CONTINUOUS
 62
     7
 10
637.548383
 20
2060.983852
 11
636.967010
 21
2060.727978
  0
LINE
  8
CSLAYER1
  6
CONTINUOUS
 62
     7
 10
636.967010
 20
2060.727978
 11
636.348967
 21
2060.502140
  0
LINE
  8
CSLAYER1
  6
CONTINUOUS
 62
     7
 10
636.348967
 20
2060.502140
 11
635.698961
 21
2060.308058
  0
LINE
  8
CSLAYER1
  6
CONTINUOUS
 62
     7
 10
635.698961
 20
2060.308058
 11
635.021937
 21
2060.147208
  0
LINE
  8
CSLAYER1
  6
CONTINUOUS
 62
     7
 10
635.021937
 20
2060.147208
 11
634.323047
 21
2060.020815
  0
LINE
  8
CSLAYER1
  6
CONTINUOUS
 62
     7
 10
634.323047
 20
2060.020815
 11
633.607612
 21
2059.929842
  0
LINE
  8
CSLAYER1
  6
CONTINUOUS
 62
     7
 10
633.607612
 20
2059.929842
 11
632.881076
 21
2059.874979
  0
LINE
  8
CSLAYER1
  6
CONTINUOUS
 62
     7
 10
632.881076
 20
2059.874979
 11
632.148967
 21
2059.856645
  0
LINE
  8
CSLAYER1
  6
CONTINUOUS
 62
     7
 10
632.148967
 20
2059.856645
 11
631.416859
 21
2059.874979
  0
LINE
  8
CSLAYER1
  6
CONTINUOUS
 62
     7
 10
631.416859
 20
2059.874979
 11
630.690323
 21
2059.929842
  0
LINE
  8
CSLAYER1
  6
CONTINUOUS
 62
     7
 10
630.690323
 20
2059.929842
 11
629.974888
 21
2060.020815
  0
LINE
  8
CSLAYER1
  6
CONTINUOUS
 62
     7
 10
629.974888
 20
2060.020815
 11
629.275998
 21
2060.147208
  0
LINE
  8
CSLAYER1
  6
CONTINUOUS
 62
     7
 10
629.275998
 20
2060.147208
 11
628.598974
 21
2060.308058
  0
LINE
  8
CSLAYER1
  6
CONTINUOUS
 62
     7
 10
628.598974
 20
2060.308058
 11
627.948967
 21
2060.502140
  0
LINE
  8
CSLAYER1
  6
CONTINUOUS
 62
     7
 10
627.948967
 20
2060.502140
 11
627.330925
 21
2060.727978
  0
LINE
  8
CSLAYER1
  6
CONTINUOUS
 62
     7
 10
627.330925
 20
2060.727978
 11
626.749552
 21
2060.983852
  0
LINE
  8
CSLAYER1
  6
CONTINUOUS
 62
     7
 10
626.749552
 20
2060.983852
 11
626.209271
 21
2061.267816
  0
LINE
  8
CSLAYER1
  6
CONTINUOUS
 62
     7
 10
626.209271
 20
2061.267816
 11
625.714194
 21
2061.577709
  0
LINE
  8
CSLAYER1
  6
CONTINUOUS
 62
     7
 10
625.714194
 20
2061.577709
 11
625.268090
 21
2061.911171
  0
LINE
  8
CSLAYER1
  6
CONTINUOUS
 62
     7
 10
625.268090
 20
2061.911171
 11
624.874354
 21
2062.265666
  0
LINE
  8
CSLAYER1
  6
CONTINUOUS
 62
     7
 10
624.874354
 20
2062.265666
 11
624.535982
 21
2062.638494
  0
LINE
  8
CSLAYER1
  6
CONTINUOUS
 62
     7
 10
624.535982
 20
2062.638494
 11
624.255549
 21
2063.026819
  0
LINE
  8
CSLAYER1
  6
CONTINUOUS
 62
     7
 10
624.255549
 20
2063.026819
 11
624.035191
 21
2063.427686
  0
LINE
  8
CSLAYER1
  6
CONTINUOUS
 62
     7
 10
624.035191
 20
2063.427686
 11
623.876582
 21
2063.838042
  0
LINE
  8
CSLAYER1
  6
CONTINUOUS
 62
     7
 10
623.876582
 20
2063.838042
 11
623.780932
 21
2064.254767
  0
LINE
  8
CSLAYER1
  6
CONTINUOUS
 62
     7
 10
623.780932
 20
2064.254767
 11
623.748967
 21
2064.674687
  0
LINE
  8
CSLAYER1
  6
CONTINUOUS
 62
     7
 10
638.583741
 20
2056.759667
 11
638.088664
 21
2056.449774
  0
LINE
  8
CSLAYER1
  6
CONTINUOUS
 62
     7
 10
638.088664
 20
2056.449774
 11
637.548383
 21
2056.165810
  0
LINE
  8
CSLAYER1
  6
CONTINUOUS
 62
     7
 10
637.548383
 20
2056.165810
 11
636.967010
 21
2055.909936
  0
LINE
  8
CSLAYER1
  6
CONTINUOUS
 62
     7
 10
636.967010
 20
2055.909936
 11
636.348967
 21
2055.684098
  0
LINE
  8
CSLAYER1
  6
CONTINUOUS
 62
     7
 10
636.348967
 20
2055.684098
 11
635.698961
 21
2055.490016
  0
LINE
  8
CSLAYER1
  6
CONTINUOUS
 62
     7
 10
635.698961
 20
2055.490016
 11
635.021937
 21
2055.329166
  0
LINE
  8
CSLAYER1
  6
CONTINUOUS
 62
     7
 10
635.021937
 20
2055.329166
 11
634.323047
 21
2055.202773
  0
LINE
  8
CSLAYER1
  6
CONTINUOUS
 62
     7
 10
634.323047
 20
2055.202773
 11
633.607612
 21
2055.111799
  0
LINE
  8
CSLAYER1
  6
CONTINUOUS
 62
     7
 10
633.607612
 20
2055.111799
 11
632.881076
 21
2055.056937
  0
LINE
  8
CSLAYER1
  6
CONTINUOUS
 62
     7
 10
632.881076
 20
2055.056937
 11
632.148967
 21
2055.038603
  0
LINE
  8
CSLAYER1
  6
CONTINUOUS
 62
     7
 10
632.148967
 20
2055.038603
 11
631.416859
 21
2055.056937
  0
LINE
  8
CSLAYER1
  6
CONTINUOUS
 62
     7
 10
631.416859
 20
2055.056937
 11
630.690323
 21
2055.111799
  0
LINE
  8
CSLAYER1
  6
CONTINUOUS
 62
     7
 10
630.690323
 20
2055.111799
 11
629.974888
 21
2055.202773
  0
LINE
  8
CSLAYER1
  6
CONTINUOUS
 62
     7
 10
629.974888
 20
2055.202773
 11
629.275998
 21
2055.329166
  0
LINE
  8
CSLAYER1
  6
CONTINUOUS
 62
     7
 10
629.275998
 20
2055.329166
 11
628.598974
 21
2055.490016
  0
LINE
  8
CSLAYER1
  6
CONTINUOUS
 62
     7
 10
628.598974
 20
2055.490016
 11
627.948967
 21
2055.684098
  0
LINE
  8
CSLAYER1
  6
CONTINUOUS
 62
     7
 10
627.948967
 20
2055.684098
 11
627.330925
 21
2055.909936
  0
LINE
  8
CSLAYER1
  6
CONTINUOUS
 62
     7
 10
627.330925
 20
2055.909936
 11
626.749552
 21
2056.165810
  0
LINE
  8
CSLAYER1
  6
CONTINUOUS
 62
     7
 10
626.749552
 20
2056.165810
 11
626.209271
 21
2056.449774
  0
LINE
  8
CSLAYER1
  6
CONTINUOUS
 62
     7
 10
626.209271
 20
2056.449774
 11
625.714194
 21
2056.759667
  0
LINE
  8
CSLAYER1
  6
CONTINUOUS
 62
     7
 10
625.714194
 20
2056.759667
 11
625.268090
 21
2057.093129
  0
LINE
  8
CSLAYER1
  6
CONTINUOUS
 62
     7
 10
625.268090
 20
2057.093129
 11
624.874354
 21
2057.447624
  0
LINE
  8
CSLAYER1
  6
CONTINUOUS
 62
     7
 10
624.874354
 20
2057.447624
 11
624.535982
 21
2057.820452
  0
LINE
  8
CSLAYER1
  6
CONTINUOUS
 62
     7
 10
624.535982
 20
2057.820452
 11
624.255549
 21
2058.208777
  0
LINE
  8
CSLAYER1
  6
CONTINUOUS
 62
     7
 10
624.255549
 20
2058.208777
 11
624.035191
 21
2058.609644
  0
LINE
  8
CSLAYER1
  6
CONTINUOUS
 62
     7
 10
624.035191
 20
2058.609644
 11
623.876582
 21
2059.020000
  0
LINE
  8
CSLAYER1
  6
CONTINUOUS
 62
     7
 10
623.876582
 20
2059.020000
 11
623.780932
 21
2059.436725
  0
LINE
  8
CSLAYER1
  6
CONTINUOUS
 62
     7
 10
623.780932
 20
2059.436725
 11
623.748967
 21
2059.856645
  0
LINE
  8
CSLAYER1
  6
CONTINUOUS
 62
     7
 10
625.581004
 20
2064.327206
 11
655.680803
 21
2083.135648
  0
LINE
  8
CSLAYER1
  6
CONTINUOUS
 62
     7
 10
628.133388
 20
2062.560881
 11
659.079971
 21
2081.898452
  0
LINE
  8
CSLAYER1
  6
CONTINUOUS
 62
     7
 10
638.088664
 20
2056.449774
 11
666.785387
 21
2074.381477
  0
LINE
  8
CSLAYER1
  6
CONTINUOUS
 62
     7
 10
638.088664
 20
2061.267816
 11
666.678587
 21
2079.132783
  0
LINE
  8
CSLAYER1
  6
CONTINUOUS
 62
     7
 10
639.476073
 20
2062.926113
 11
665.878307
 21
2079.424060
  0
LINE
  8
CSLAYER1
  6
CONTINUOUS
 62
     7
 10
632.329249
 20
2061.821514
 11
662.479139
 21
2080.661256
  0
LINE
  8
CSLAYER1
  6
CONTINUOUS
 62
     7
 10
658.818490
 20
2087.819725
 11
658.842783
 21
2088.138864
  0
LINE
  8
CSLAYER1
  6
CONTINUOUS
 62
     7
 10
658.842783
 20
2088.138864
 11
658.915477
 21
2088.455574
  0
LINE
  8
CSLAYER1
  6
CONTINUOUS
 62
     7
 10
658.915477
 20
2088.455574
 11
659.036020
 21
2088.767446
  0
LINE
  8
CSLAYER1
  6
CONTINUOUS
 62
     7
 10
659.036020
 20
2088.767446
 11
659.203492
 21
2089.072104
  0
LINE
  8
CSLAYER1
  6
CONTINUOUS
 62
     7
 10
659.203492
 20
2089.072104
 11
659.416621
 21
2089.367231
  0
LINE
  8
CSLAYER1
  6
CONTINUOUS
 62
     7
 10
659.416621
 20
2089.367231
 11
659.673784
 21
2089.650581
  0
LINE
  8
CSLAYER1
  6
CONTINUOUS
 62
     7
 10
659.673784
 20
2089.650581
 11
659.973023
 21
2089.919997
  0
LINE
  8
CSLAYER1
  6
CONTINUOUS
 62
     7
 10
659.973023
 20
2089.919997
 11
660.312062
 21
2090.173428
  0
LINE
  8
CSLAYER1
  6
CONTINUOUS
 62
     7
 10
660.312062
 20
2090.173428
 11
660.688320
 21
2090.408946
  0
LINE
  8
CSLAYER1
  6
CONTINUOUS
 62
     7
 10
660.688320
 20
2090.408946
 11
661.098934
 21
2090.624759
  0
LINE
  8
CSLAYER1
  6
CONTINUOUS
 62
     7
 10
661.098934
 20
2090.624759
 11
661.540778
 21
2090.819224
  0
LINE
  8
CSLAYER1
  6
CONTINUOUS
 62
     7
 10
661.540778
 20
2090.819224
 11
662.010490
 21
2090.990860
  0
LINE
  8
CSLAYER1
  6
CONTINUOUS
 62
     7
 10
662.010490
 20
2090.990860
 11
662.504495
 21
2091.138363
  0
LINE
  8
CSLAYER1
  6
CONTINUOUS
 62
     7
 10
662.504495
 20
2091.138363
 11
663.019034
 21
2091.260609
  0
LINE
  8
CSLAYER1
  6
CONTINUOUS
 62
     7
 10
663.019034
 20
2091.260609
 11
663.550189
 21
2091.356667
  0
LINE
  8
CSLAYER1
  6
CONTINUOUS
 62
     7
 10
663.550189
 20
2091.356667
 11
664.093920
 21
2091.425807
  0
LINE
  8
CSLAYER1
  6
CONTINUOUS
 62
     7
 10
664.093920
 20
2091.425807
 11
664.646088
 21
2091.467503
  0
LINE
  8
CSLAYER1
  6
CONTINUOUS
 62
     7
 10
664.646088
 20
2091.467503
 11
665.202490
 21
2091.481437
  0
LINE
  8
CSLAYER1
  6
CONTINUOUS
 62
     7
 10
665.202490
 20
2091.481437
 11
665.758892
 21
2091.467503
  0
LINE
  8
CSLAYER1
  6
CONTINUOUS
 62
     7
 10
665.758892
 20
2091.467503
 11
666.311060
 21
2091.425807
  0
LINE
  8
CSLAYER1
  6
CONTINUOUS
 62
     7
 10
666.311060
 20
2091.425807
 11
666.854791
 21
2091.356667
  0
LINE
  8
CSLAYER1
  6
CONTINUOUS
 62
     7
 10
666.854791
 20
2091.356667
 11
667.385947
 21
2091.260609
  0
LINE
  8
CSLAYER1
  6
CONTINUOUS
 62
     7
 10
667.385947
 20
2091.260609
 11
667.900485
 21
2091.138363
  0
LINE
  8
CSLAYER1
  6
CONTINUOUS
 62
     7
 10
667.900485
 20
2091.138363
 11
668.394490
 21
2090.990860
  0
LINE
  8
CSLAYER1
  6
CONTINUOUS
 62
     7
 10
668.394490
 20
2090.990860
 11
668.864202
 21
2090.819224
  0
LINE
  8
CSLAYER1
  6
CONTINUOUS
 62
     7
 10
668.864202
 20
2090.819224
 11
669.306046
 21
2090.624759
  0
LINE
  8
CSLAYER1
  6
CONTINUOUS
 62
     7
 10
669.306046
 20
2090.624759
 11
669.716660
 21
2090.408946
  0
LINE
  8
CSLAYER1
  6
CONTINUOUS
 62
     7
 10
669.716660
 20
2090.408946
 11
670.092918
 21
2090.173428
  0
LINE
  8
CSLAYER1
  6
CONTINUOUS
 62
     7
 10
670.092918
 20
2090.173428
 11
670.431957
 21
2089.919997
  0
LINE
  8
CSLAYER1
  6
CONTINUOUS
 62
     7
 10
670.431957
 20
2089.919997
 11
670.731196
 21
2089.650581
  0
LINE
  8
CSLAYER1
  6
CONTINUOUS
 62
     7
 10
670.731196
 20
2089.650581
 11
670.988359
 21
2089.367231
  0
LINE
  8
CSLAYER1
  6
CONTINUOUS
 62
     7
 10
670.988359
 20
2089.367231
 11
671.201488
 21
2089.072104
  0
LINE
  8
CSLAYER1
  6
CONTINUOUS
 62
     7
 10
671.201488
 20
2089.072104
 11
671.368961
 21
2088.767446
  0
LINE
  8
CSLAYER1
  6
CONTINUOUS
 62
     7
 10
671.368961
 20
2088.767446
 11
671.489503
 21
2088.455574
  0
LINE
  8
CSLAYER1
  6
CONTINUOUS
 62
     7
 10
671.489503
 20
2088.455574
 11
671.562197
 21
2088.138864
  0
LINE
  8
CSLAYER1
  6
CONTINUOUS
 62
     7
 10
671.562197
 20
2088.138864
 11
671.586490
 21
2087.819725
  0
LINE
  8
CSLAYER1
  6
CONTINUOUS
 62
     7
 10
671.586490
 20
2087.819725
 11
671.562197
 21
2087.500586
  0
LINE
  8
CSLAYER1
  6
CONTINUOUS
 62
     7
 10
671.562197
 20
2087.500586
 11
671.489503
 21
2087.183875
  0
LINE
  8
CSLAYER1
  6
CONTINUOUS
 62
     7
 10
671.489503
 20
2087.183875
 11
671.368961
 21
2086.872004
  0
LINE
  8
CSLAYER1
  6
CONTINUOUS
 62
     7
 10
671.368961
 20
2086.872004
 11
671.201488
 21
2086.567346
  0
LINE
  8
CSLAYER1
  6
CONTINUOUS
 62
     7
 10
671.201488
 20
2086.567346
 11
670.988359
 21
2086.272219
  0
LINE
  8
CSLAYER1
  6
CONTINUOUS
 62
     7
 10
670.988359
 20
2086.272219
 11
670.731196
 21
2085.988869
  0
LINE
  8
CSLAYER1
  6
CONTINUOUS
 62
     7
 10
670.731196
 20
2085.988869
 11
670.431957
 21
2085.719453
  0
LINE
  8
CSLAYER1
  6
CONTINUOUS
 62
     7
 10
670.431957
 20
2085.719453
 11
670.092918
 21
2085.466022
  0
LINE
  8
CSLAYER1
  6
CONTINUOUS
 62
     7
 10
670.092918
 20
2085.466022
 11
669.716660
 21
2085.230503
  0
LINE
  8
CSLAYER1
  6
CONTINUOUS
 62
     7
 10
669.716660
 20
2085.230503
 11
669.306046
 21
2085.014691
  0
LINE
  8
CSLAYER1
  6
CONTINUOUS
 62
     7
 10
669.306046
 20
2085.014691
 11
668.864202
 21
2084.820226
  0
LINE
  8
CSLAYER1
  6
CONTINUOUS
 62
     7
 10
668.864202
 20
2084.820226
 11
668.394490
 21
2084.648589
  0
LINE
  8
CSLAYER1
  6
CONTINUOUS
 62
     7
 10
668.394490
 20
2084.648589
 11
667.900485
 21
2084.501087
  0
LINE
  8
CSLAYER1
  6
CONTINUOUS
 62
     7
 10
667.900485
 20
2084.501087
 11
667.385947
 21
2084.378841
  0
LINE
  8
CSLAYER1
  6
CONTINUOUS
 62
     7
 10
667.385947
 20
2084.378841
 11
666.854791
 21
2084.282783
  0
LINE
  8
CSLAYER1
  6
CONTINUOUS
 62
     7
 10
666.854791
 20
2084.282783
 11
666.311060
 21
2084.213643
  0
LINE
  8
CSLAYER1
  6
CONTINUOUS
 62
     7
 10
666.311060
 20
2084.213643
 11
665.758892
 21
2084.171947
  0
LINE
  8
CSLAYER1
  6
CONTINUOUS
 62
     7
 10
665.758892
 20
2084.171947
 11
665.202490
 21
2084.158013
  0
LINE
  8
CSLAYER1
  6
CONTINUOUS
 62
     7
 10
665.202490
 20
2084.158013
 11
664.646088
 21
2084.171947
  0
LINE
  8
CSLAYER1
  6
CONTINUOUS
 62
     7
 10
664.646088
 20
2084.171947
 11
664.093920
 21
2084.213643
  0
LINE
  8
CSLAYER1
  6
CONTINUOUS
 62
     7
 10
664.093920
 20
2084.213643
 11
663.550189
 21
2084.282783
  0
LINE
  8
CSLAYER1
  6
CONTINUOUS
 62
     7
 10
663.550189
 20
2084.282783
 11
663.019034
 21
2084.378841
  0
LINE
  8
CSLAYER1
  6
CONTINUOUS
 62
     7
 10
663.019034
 20
2084.378841
 11
662.504495
 21
2084.501087
  0
LINE
  8
CSLAYER1
  6
CONTINUOUS
 62
     7
 10
662.504495
 20
2084.501087
 11
662.010490
 21
2084.648589
  0
LINE
  8
CSLAYER1
  6
CONTINUOUS
 62
     7
 10
662.010490
 20
2084.648589
 11
661.540778
 21
2084.820226
  0
LINE
  8
CSLAYER1
  6
CONTINUOUS
 62
     7
 10
661.540778
 20
2084.820226
 11
661.098934
 21
2085.014691
  0
LINE
  8
CSLAYER1
  6
CONTINUOUS
 62
     7
 10
661.098934
 20
2085.014691
 11
660.688320
 21
2085.230503
  0
LINE
  8
CSLAYER1
  6
CONTINUOUS
 62
     7
 10
660.688320
 20
2085.230503
 11
660.312062
 21
2085.466022
  0
LINE
  8
CSLAYER1
  6
CONTINUOUS
 62
     7
 10
660.312062
 20
2085.466022
 11
659.973023
 21
2085.719453
  0
LINE
  8
CSLAYER1
  6
CONTINUOUS
 62
     7
 10
659.973023
 20
2085.719453
 11
659.673784
 21
2085.988869
  0
LINE
  8
CSLAYER1
  6
CONTINUOUS
 62
     7
 10
659.673784
 20
2085.988869
 11
659.416621
 21
2086.272219
  0
LINE
  8
CSLAYER1
  6
CONTINUOUS
 62
     7
 10
659.416621
 20
2086.272219
 11
659.203492
 21
2086.567346
  0
LINE
  8
CSLAYER1
  6
CONTINUOUS
 62
     7
 10
659.203492
 20
2086.567346
 11
659.036020
 21
2086.872004
  0
LINE
  8
CSLAYER1
  6
CONTINUOUS
 62
     7
 10
659.036020
 20
2086.872004
 11
658.915477
 21
2087.183875
  0
LINE
  8
CSLAYER1
  6
CONTINUOUS
 62
     7
 10
658.915477
 20
2087.183875
 11
658.842783
 21
2087.500586
  0
LINE
  8
CSLAYER1
  6
CONTINUOUS
 62
     7
 10
658.842783
 20
2087.500586
 11
658.818490
 21
2087.819725
  0
LINE
  8
CSLAYER1
  6
CONTINUOUS
 62
     7
 10
661.842490
 20
2087.819725
 11
661.855276
 21
2087.987693
  0
LINE
  8
CSLAYER1
  6
CONTINUOUS
 62
     7
 10
661.855276
 20
2087.987693
 11
661.893536
 21
2088.154383
  0
LINE
  8
CSLAYER1
  6
CONTINUOUS
 62
     7
 10
661.893536
 20
2088.154383
 11
661.956979
 21
2088.318525
  0
LINE
  8
CSLAYER1
  6
CONTINUOUS
 62
     7
 10
661.956979
 20
2088.318525
 11
662.045123
 21
2088.478872
  0
LINE
  8
CSLAYER1
  6
CONTINUOUS
 62
     7
 10
662.045123
 20
2088.478872
 11
662.157296
 21
2088.634202
  0
LINE
  8
CSLAYER1
  6
CONTINUOUS
 62
     7
 10
662.157296
 20
2088.634202
 11
662.292645
 21
2088.783333
  0
LINE
  8
CSLAYER1
  6
CONTINUOUS
 62
     7
 10
662.292645
 20
2088.783333
 11
662.450139
 21
2088.925131
  0
LINE
  8
CSLAYER1
  6
CONTINUOUS
 62
     7
 10
662.450139
 20
2088.925131
 11
662.628581
 21
2089.058516
  0
LINE
  8
CSLAYER1
  6
CONTINUOUS
 62
     7
 10
662.628581
 20
2089.058516
 11
662.826611
 21
2089.182473
  0
LINE
  8
CSLAYER1
  6
CONTINUOUS
 62
     7
 10
662.826611
 20
2089.182473
 11
663.042724
 21
2089.296059
  0
LINE
  8
CSLAYER1
  6
CONTINUOUS
 62
     7
 10
663.042724
 20
2089.296059
 11
663.275273
 21
2089.398408
  0
LINE
  8
CSLAYER1
  6
CONTINUOUS
 62
     7
 10
663.275273
 20
2089.398408
 11
663.522490
 21
2089.488744
  0
LINE
  8
CSLAYER1
  6
CONTINUOUS
 62
     7
 10
663.522490
 20
2089.488744
 11
663.782493
 21
2089.566376
  0
LINE
  8
CSLAYER1
  6
CONTINUOUS
 62
     7
 10
663.782493
 20
2089.566376
 11
664.053302
 21
2089.630716
  0
LINE
  8
CSLAYER1
  6
CONTINUOUS
 62
     7
 10
664.053302
 20
2089.630716
 11
664.332858
 21
2089.681273
  0
LINE
  8
CSLAYER1
  6
CONTINUOUS
 62
     7
 10
664.332858
 20
2089.681273
 11
664.619032
 21
2089.717663
  0
LINE
  8
CSLAYER1
  6
CONTINUOUS
 62
     7
 10
664.619032
 20
2089.717663
 11
664.909647
 21
2089.739608
  0
LINE
  8
CSLAYER1
  6
CONTINUOUS
 62
     7
 10
664.909647
 20
2089.739608
 11
665.202490
 21
2089.746942
  0
LINE
  8
CSLAYER1
  6
CONTINUOUS
 62
     7
 10
665.202490
 20
2089.746942
 11
665.495333
 21
2089.739608
  0
LINE
  8
CSLAYER1
  6
CONTINUOUS
 62
     7
 10
665.495333
 20
2089.739608
 11
665.785948
 21
2089.717663
  0
LINE
  8
CSLAYER1
  6
CONTINUOUS
 62
     7
 10
665.785948
 20
2089.717663
 11
666.072122
 21
2089.681273
  0
LINE
  8
CSLAYER1
  6
CONTINUOUS
 62
     7
 10
666.072122
 20
2089.681273
 11
666.351678
 21
2089.630716
  0
LINE
  8
CSLAYER1
  6
CONTINUOUS
 62
     7
 10
666.351678
 20
2089.630716
 11
666.622487
 21
2089.566376
  0
LINE
  8
CSLAYER1
  6
CONTINUOUS
 62
     7
 10
666.622487
 20
2089.566376
 11
666.882490
 21
2089.488744
  0
LINE
  8
CSLAYER1
  6
CONTINUOUS
 62
     7
 10
666.882490
 20
2089.488744
 11
667.129707
 21
2089.398408
  0
LINE
  8
CSLAYER1
  6
CONTINUOUS
 62
     7
 10
667.129707
 20
2089.398408
 11
667.362256
 21
2089.296059
  0
LINE
  8
CSLAYER1
  6
CONTINUOUS
 62
     7
 10
667.362256
 20
2089.296059
 11
667.578369
 21
2089.182473
  0
LINE
  8
CSLAYER1
  6
CONTINUOUS
 62
     7
 10
667.578369
 20
2089.182473
 11
667.776399
 21
2089.058516
  0
LINE
  8
CSLAYER1
  6
CONTINUOUS
 62
     7
 10
667.776399
 20
2089.058516
 11
667.954841
 21
2088.925131
  0
LINE
  8
CSLAYER1
  6
CONTINUOUS
 62
     7
 10
667.954841
 20
2088.925131
 11
668.112335
 21
2088.783333
  0
LINE
  8
CSLAYER1
  6
CONTINUOUS
 62
     7
 10
668.112335
 20
2088.783333
 11
668.247684
 21
2088.634202
  0
LINE
  8
CSLAYER1
  6
CONTINUOUS
 62
     7
 10
668.247684
 20
2088.634202
 11
668.359857
 21
2088.478872
  0
LINE
  8
CSLAYER1
  6
CONTINUOUS
 62
     7
 10
668.359857
 20
2088.478872
 11
668.448001
 21
2088.318525
  0
LINE
  8
CSLAYER1
  6
CONTINUOUS
 62
     7
 10
668.448001
 20
2088.318525
 11
668.511444
 21
2088.154383
  0
LINE
  8
CSLAYER1
  6
CONTINUOUS
 62
     7
 10
668.511444
 20
2088.154383
 11
668.549704
 21
2087.987693
  0
LINE
  8
CSLAYER1
  6
CONTINUOUS
 62
     7
 10
668.549704
 20
2087.987693
 11
668.562490
 21
2087.819725
  0
LINE
  8
CSLAYER1
  6
CONTINUOUS
 62
     7
 10
668.562490
 20
2087.819725
 11
668.549704
 21
2087.651757
  0
LINE
  8
CSLAYER1
  6
CONTINUOUS
 62
     7
 10
668.549704
 20
2087.651757
 11
668.511444
 21
2087.485067
  0
LINE
  8
CSLAYER1
  6
CONTINUOUS
 62
     7
 10
668.511444
 20
2087.485067
 11
668.448001
 21
2087.320924
  0
LINE
  8
CSLAYER1
  6
CONTINUOUS
 62
     7
 10
668.448001
 20
2087.320924
 11
668.359857
 21
2087.160578
  0
LINE
  8
CSLAYER1
  6
CONTINUOUS
 62
     7
 10
668.359857
 20
2087.160578
 11
668.247684
 21
2087.005248
  0
LINE
  8
CSLAYER1
  6
CONTINUOUS
 62
     7
 10
668.247684
 20
2087.005248
 11
668.112335
 21
2086.856116
  0
LINE
  8
CSLAYER1
  6
CONTINUOUS
 62
     7
 10
668.112335
 20
2086.856116
 11
667.954841
 21
2086.714319
  0
LINE
  8
CSLAYER1
  6
CONTINUOUS
 62
     7
 10
667.954841
 20
2086.714319
 11
667.776399
 21
2086.580934
  0
LINE
  8
CSLAYER1
  6
CONTINUOUS
 62
     7
 10
667.776399
 20
2086.580934
 11
667.578369
 21
2086.456977
  0
LINE
  8
CSLAYER1
  6
CONTINUOUS
 62
     7
 10
667.578369
 20
2086.456977
 11
667.362256
 21
2086.343391
  0
LINE
  8
CSLAYER1
  6
CONTINUOUS
 62
     7
 10
667.362256
 20
2086.343391
 11
667.129707
 21
2086.241041
  0
LINE
  8
CSLAYER1
  6
CONTINUOUS
 62
     7
 10
667.129707
 20
2086.241041
 11
666.882490
 21
2086.150706
  0
LINE
  8
CSLAYER1
  6
CONTINUOUS
 62
     7
 10
666.882490
 20
2086.150706
 11
666.622487
 21
2086.073073
  0
LINE
  8
CSLAYER1
  6
CONTINUOUS
 62
     7
 10
666.622487
 20
2086.073073
 11
666.351678
 21
2086.008733
  0
LINE
  8
CSLAYER1
  6
CONTINUOUS
 62
     7
 10
666.351678
 20
2086.008733
 11
666.072122
 21
2085.958176
  0
LINE
  8
CSLAYER1
  6
CONTINUOUS
 62
     7
 10
666.072122
 20
2085.958176
 11
665.785948
 21
2085.921787
  0
LINE
  8
CSLAYER1
  6
CONTINUOUS
 62
     7
 10
665.785948
 20
2085.921787
 11
665.495333
 21
2085.899842
  0
LINE
  8
CSLAYER1
  6
CONTINUOUS
 62
     7
 10
665.495333
 20
2085.899842
 11
665.202490
 21
2085.892508
  0
LINE
  8
CSLAYER1
  6
CONTINUOUS
 62
     7
 10
665.202490
 20
2085.892508
 11
664.909647
 21
2085.899842
  0
LINE
  8
CSLAYER1
  6
CONTINUOUS
 62
     7
 10
664.909647
 20
2085.899842
 11
664.619032
 21
2085.921787
  0
LINE
  8
CSLAYER1
  6
CONTINUOUS
 62
     7
 10
664.619032
 20
2085.921787
 11
664.332858
 21
2085.958176
  0
LINE
  8
CSLAYER1
  6
CONTINUOUS
 62
     7
 10
664.332858
 20
2085.958176
 11
664.053302
 21
2086.008733
  0
LINE
  8
CSLAYER1
  6
CONTINUOUS
 62
     7
 10
664.053302
 20
2086.008733
 11
663.782493
 21
2086.073073
  0
LINE
  8
CSLAYER1
  6
CONTINUOUS
 62
     7
 10
663.782493
 20
2086.073073
 11
663.522490
 21
2086.150706
  0
LINE
  8
CSLAYER1
  6
CONTINUOUS
 62
     7
 10
663.522490
 20
2086.150706
 11
663.275273
 21
2086.241041
  0
LINE
  8
CSLAYER1
  6
CONTINUOUS
 62
     7
 10
663.275273
 20
2086.241041
 11
663.042724
 21
2086.343391
  0
LINE
  8
CSLAYER1
  6
CONTINUOUS
 62
     7
 10
663.042724
 20
2086.343391
 11
662.826611
 21
2086.456977
  0
LINE
  8
CSLAYER1
  6
CONTINUOUS
 62
     7
 10
662.826611
 20
2086.456977
 11
662.628581
 21
2086.580934
  0
LINE
  8
CSLAYER1
  6
CONTINUOUS
 62
     7
 10
662.628581
 20
2086.580934
 11
662.450139
 21
2086.714319
  0
LINE
  8
CSLAYER1
  6
CONTINUOUS
 62
     7
 10
662.450139
 20
2086.714319
 11
662.292645
 21
2086.856116
  0
LINE
  8
CSLAYER1
  6
CONTINUOUS
 62
     7
 10
662.292645
 20
2086.856116
 11
662.157296
 21
2087.005248
  0
LINE
  8
CSLAYER1
  6
CONTINUOUS
 62
     7
 10
662.157296
 20
2087.005248
 11
662.045123
 21
2087.160578
  0
LINE
  8
CSLAYER1
  6
CONTINUOUS
 62
     7
 10
662.045123
 20
2087.160578
 11
661.956979
 21
2087.320924
  0
LINE
  8
CSLAYER1
  6
CONTINUOUS
 62
     7
 10
661.956979
 20
2087.320924
 11
661.893536
 21
2087.485067
  0
LINE
  8
CSLAYER1
  6
CONTINUOUS
 62
     7
 10
661.893536
 20
2087.485067
 11
661.855276
 21
2087.651757
  0
LINE
  8
CSLAYER1
  6
CONTINUOUS
 62
     7
 10
661.855276
 20
2087.651757
 11
661.842490
 21
2087.819725
  0
LINE
  8
CSLAYER1
  6
CONTINUOUS
 62
     7
 10
671.586490
 20
2087.819725
 11
671.586490
 21
2084.190985
  0
LINE
  8
CSLAYER1
  6
CONTINUOUS
 62
     7
 10
658.818490
 20
2087.819725
 11
658.818490
 21
2084.190985
  0
LINE
  8
CSLAYER1
  6
CONTINUOUS
 62
     7
 10
668.738376
 20
2084.774248
 11
668.738376
 21
2081.145508
  0
LINE
  8
CSLAYER1
  6
CONTINUOUS
 62
     7
 10
661.419288
 20
2084.873696
 11
661.419288
 21
2081.244957
  0
LINE
  8
CSLAYER1
  6
CONTINUOUS
 62
     7
 10
671.586490
 20
2084.190985
 11
671.562197
 21
2083.871846
  0
LINE
  8
CSLAYER1
  6
CONTINUOUS
 62
     7
 10
671.562197
 20
2083.871846
 11
671.489503
 21
2083.555136
  0
LINE
  8
CSLAYER1
  6
CONTINUOUS
 62
     7
 10
671.489503
 20
2083.555136
 11
671.368961
 21
2083.243265
  0
LINE
  8
CSLAYER1
  6
CONTINUOUS
 62
     7
 10
671.368961
 20
2083.243265
 11
671.201488
 21
2082.938606
  0
LINE
  8
CSLAYER1
  6
CONTINUOUS
 62
     7
 10
671.201488
 20
2082.938606
 11
670.988359
 21
2082.643479
  0
LINE
  8
CSLAYER1
  6
CONTINUOUS
 62
     7
 10
670.988359
 20
2082.643479
 11
670.731196
 21
2082.360129
  0
LINE
  8
CSLAYER1
  6
CONTINUOUS
 62
     7
 10
670.731196
 20
2082.360129
 11
670.431957
 21
2082.090714
  0
LINE
  8
CSLAYER1
  6
CONTINUOUS
 62
     7
 10
670.431957
 20
2082.090714
 11
670.092918
 21
2081.837282
  0
LINE
  8
CSLAYER1
  6
CONTINUOUS
 62
     7
 10
670.092918
 20
2081.837282
 11
669.716660
 21
2081.601764
  0
LINE
  8
CSLAYER1
  6
CONTINUOUS
 62
     7
 10
669.716660
 20
2081.601764
 11
669.306046
 21
2081.385951
  0
LINE
  8
CSLAYER1
  6
CONTINUOUS
 62
     7
 10
669.306046
 20
2081.385951
 11
668.864202
 21
2081.191486
  0
LINE
  8
CSLAYER1
  6
CONTINUOUS
 62
     7
 10
668.864202
 20
2081.191486
 11
668.394490
 21
2081.019850
  0
LINE
  8
CSLAYER1
  6
CONTINUOUS
 62
     7
 10
668.394490
 20
2081.019850
 11
667.900485
 21
2080.872347
  0
LINE
  8
CSLAYER1
  6
CONTINUOUS
 62
     7
 10
667.900485
 20
2080.872347
 11
667.385947
 21
2080.750102
  0
LINE
  8
CSLAYER1
  6
CONTINUOUS
 62
     7
 10
667.385947
 20
2080.750102
 11
666.854791
 21
2080.654043
  0
LINE
  8
CSLAYER1
  6
CONTINUOUS
 62
     7
 10
666.854791
 20
2080.654043
 11
666.311060
 21
2080.584903
  0
LINE
  8
CSLAYER1
  6
CONTINUOUS
 62
     7
 10
666.311060
 20
2080.584903
 11
665.758892
 21
2080.543207
  0
LINE
  8
CSLAYER1
  6
CONTINUOUS
 62
     7
 10
665.758892
 20
2080.543207
 11
665.202490
 21
2080.529273
  0
LINE
  8
CSLAYER1
  6
CONTINUOUS
 62
     7
 10
665.202490
 20
2080.529273
 11
664.646088
 21
2080.543207
  0
LINE
  8
CSLAYER1
  6
CONTINUOUS
 62
     7
 10
664.646088
 20
2080.543207
 11
664.093920
 21
2080.584903
  0
LINE
  8
CSLAYER1
  6
CONTINUOUS
 62
     7
 10
664.093920
 20
2080.584903
 11
663.550189
 21
2080.654043
  0
LINE
  8
CSLAYER1
  6
CONTINUOUS
 62
     7
 10
663.550189
 20
2080.654043
 11
663.019034
 21
2080.750102
  0
LINE
  8
CSLAYER1
  6
CONTINUOUS
 62
     7
 10
663.019034
 20
2080.750102
 11
662.504495
 21
2080.872347
  0
LINE
  8
CSLAYER1
  6
CONTINUOUS
 62
     7
 10
662.504495
 20
2080.872347
 11
662.010490
 21
2081.019850
  0
LINE
  8
CSLAYER1
  6
CONTINUOUS
 62
     7
 10
662.010490
 20
2081.019850
 11
661.540778
 21
2081.191486
  0
LINE
  8
CSLAYER1
  6
CONTINUOUS
 62
     7
 10
661.540778
 20
2081.191486
 11
661.098934
 21
2081.385951
  0
LINE
  8
CSLAYER1
  6
CONTINUOUS
 62
     7
 10
661.098934
 20
2081.385951
 11
660.688320
 21
2081.601764
  0
LINE
  8
CSLAYER1
  6
CONTINUOUS
 62
     7
 10
660.688320
 20
2081.601764
 11
660.312062
 21
2081.837282
  0
LINE
  8
CSLAYER1
  6
CONTINUOUS
 62
     7
 10
660.312062
 20
2081.837282
 11
659.973023
 21
2082.090714
  0
LINE
  8
CSLAYER1
  6
CONTINUOUS
 62
     7
 10
659.973023
 20
2082.090714
 11
659.673784
 21
2082.360129
  0
LINE
  8
CSLAYER1
  6
CONTINUOUS
 62
     7
 10
659.673784
 20
2082.360129
 11
659.416621
 21
2082.643479
  0
LINE
  8
CSLAYER1
  6
CONTINUOUS
 62
     7
 10
659.416621
 20
2082.643479
 11
659.203492
 21
2082.938606
  0
LINE
  8
CSLAYER1
  6
CONTINUOUS
 62
     7
 10
659.203492
 20
2082.938606
 11
659.036020
 21
2083.243265
  0
LINE
  8
CSLAYER1
  6
CONTINUOUS
 62
     7
 10
659.036020
 20
2083.243265
 11
658.915477
 21
2083.555136
  0
LINE
  8
CSLAYER1
  6
CONTINUOUS
 62
     7
 10
658.915477
 20
2083.555136
 11
658.842783
 21
2083.871846
  0
LINE
  8
CSLAYER1
  6
CONTINUOUS
 62
     7
 10
658.842783
 20
2083.871846
 11
658.818490
 21
2084.190985
  0
LINE
  8
CSLAYER1
  6
CONTINUOUS
 62
     7
 10
661.419288
 20
2071.028366
 11
661.419288
 21
2070.479317
  0
LINE
  8
CSLAYER1
  6
CONTINUOUS
 62
     7
 10
671.586490
 20
2073.425346
 11
671.562197
 21
2073.106206
  0
LINE
  8
CSLAYER1
  6
CONTINUOUS
 62
     7
 10
671.562197
 20
2073.106206
 11
671.489503
 21
2072.789496
  0
LINE
  8
CSLAYER1
  6
CONTINUOUS
 62
     7
 10
671.489503
 20
2072.789496
 11
671.368961
 21
2072.477625
  0
LINE
  8
CSLAYER1
  6
CONTINUOUS
 62
     7
 10
671.368961
 20
2072.477625
 11
671.201488
 21
2072.172966
  0
LINE
  8
CSLAYER1
  6
CONTINUOUS
 62
     7
 10
671.201488
 20
2072.172966
 11
670.988359
 21
2071.877839
  0
LINE
  8
CSLAYER1
  6
CONTINUOUS
 62
     7
 10
670.988359
 20
2071.877839
 11
670.731196
 21
2071.594490
  0
LINE
  8
CSLAYER1
  6
CONTINUOUS
 62
     7
 10
670.731196
 20
2071.594490
 11
670.431957
 21
2071.325074
  0
LINE
  8
CSLAYER1
  6
CONTINUOUS
 62
     7
 10
670.431957
 20
2071.325074
 11
670.092918
 21
2071.071642
  0
LINE
  8
CSLAYER1
  6
CONTINUOUS
 62
     7
 10
670.092918
 20
2071.071642
 11
669.716660
 21
2070.836124
  0
LINE
  8
CSLAYER1
  6
CONTINUOUS
 62
     7
 10
669.716660
 20
2070.836124
 11
669.306046
 21
2070.620311
  0
LINE
  8
CSLAYER1
  6
CONTINUOUS
 62
     7
 10
669.306046
 20
2070.620311
 11
668.864202
 21
2070.425847
  0
LINE
  8
CSLAYER1
  6
CONTINUOUS
 62
     7
 10
668.864202
 20
2070.425847
 11
668.394490
 21
2070.254210
  0
LINE
  8
CSLAYER1
  6
CONTINUOUS
 62
     7
 10
668.394490
 20
2070.254210
 11
667.900485
 21
2070.106707
  0
LINE
  8
CSLAYER1
  6
CONTINUOUS
 62
     7
 10
667.900485
 20
2070.106707
 11
667.385947
 21
2069.984462
  0
LINE
  8
CSLAYER1
  6
CONTINUOUS
 62
     7
 10
667.385947
 20
2069.984462
 11
666.854791
 21
2069.888403
  0
LINE
  8
CSLAYER1
  6
CONTINUOUS
 62
     7
 10
666.854791
 20
2069.888403
 11
666.311060
 21
2069.819263
  0
LINE
  8
CSLAYER1
  6
CONTINUOUS
 62
     7
 10
666.311060
 20
2069.819263
 11
665.758892
 21
2069.777567
  0
LINE
  8
CSLAYER1
  6
CONTINUOUS
 62
     7
 10
665.758892
 20
2069.777567
 11
665.202490
 21
2069.763634
  0
LINE
  8
CSLAYER1
  6
CONTINUOUS
 62
     7
 10
665.202490
 20
2069.763634
 11
664.646088
 21
2069.777567
  0
LINE
  8
CSLAYER1
  6
CONTINUOUS
 62
     7
 10
664.646088
 20
2069.777567
 11
664.093920
 21
2069.819263
  0
LINE
  8
CSLAYER1
  6
CONTINUOUS
 62
     7
 10
664.093920
 20
2069.819263
 11
663.550189
 21
2069.888403
  0
LINE
  8
CSLAYER1
  6
CONTINUOUS
 62
     7
 10
663.550189
 20
2069.888403
 11
663.019034
 21
2069.984462
  0
LINE
  8
CSLAYER1
  6
CONTINUOUS
 62
     7
 10
663.019034
 20
2069.984462
 11
662.504495
 21
2070.106707
  0
LINE
  8
CSLAYER1
  6
CONTINUOUS
 62
     7
 10
662.504495
 20
2070.106707
 11
662.010490
 21
2070.254210
  0
LINE
  8
CSLAYER1
  6
CONTINUOUS
 62
     7
 10
662.010490
 20
2070.254210
 11
661.540778
 21
2070.425847
  0
LINE
  8
CSLAYER1
  6
CONTINUOUS
 62
     7
 10
661.540778
 20
2070.425847
 11
661.098934
 21
2070.620311
  0
LINE
  8
CSLAYER1
  6
CONTINUOUS
 62
     7
 10
661.098934
 20
2070.620311
 11
660.918244
 21
2070.715279
  0
LINE
  8
CSLAYER1
  6
CONTINUOUS
 62
     7
 10
671.586490
 20
2078.472225
 11
671.586490
 21
2073.425346
  0
LINE
  8
CSLAYER1
  6
CONTINUOUS
 62
     7
 10
668.562490
 20
2065.840820
 11
668.562490
 21
2070.315599
  0
LINE
  8
CSLAYER1
  6
CONTINUOUS
 62
     7
 10
661.842490
 20
2065.840820
 11
661.842490
 21
2070.315599
  0
LINE
  8
CSLAYER1
  6
CONTINUOUS
 62
     7
 10
668.562490
 20
2065.840820
 11
668.549704
 21
2065.672852
  0
LINE
  8
CSLAYER1
  6
CONTINUOUS
 62
     7
 10
668.549704
 20
2065.672852
 11
668.511444
 21
2065.506162
  0
LINE
  8
CSLAYER1
  6
CONTINUOUS
 62
     7
 10
668.511444
 20
2065.506162
 11
668.448001
 21
2065.342020
  0
LINE
  8
CSLAYER1
  6
CONTINUOUS
 62
     7
 10
668.448001
 20
2065.342020
 11
668.359857
 21
2065.181673
  0
LINE
  8
CSLAYER1
  6
CONTINUOUS
 62
     7
 10
668.359857
 20
2065.181673
 11
668.247684
 21
2065.026343
  0
LINE
  8
CSLAYER1
  6
CONTINUOUS
 62
     7
 10
668.247684
 20
2065.026343
 11
668.112335
 21
2064.877212
  0
LINE
  8
CSLAYER1
  6
CONTINUOUS
 62
     7
 10
668.112335
 20
2064.877212
 11
667.954841
 21
2064.735414
  0
LINE
  8
CSLAYER1
  6
CONTINUOUS
 62
     7
 10
667.954841
 20
2064.735414
 11
667.776399
 21
2064.602029
  0
LINE
  8
CSLAYER1
  6
CONTINUOUS
 62
     7
 10
667.776399
 20
2064.602029
 11
667.578369
 21
2064.478072
  0
LINE
  8
CSLAYER1
  6
CONTINUOUS
 62
     7
 10
667.578369
 20
2064.478072
 11
667.362256
 21
2064.364486
  0
LINE
  8
CSLAYER1
  6
CONTINUOUS
 62
     7
 10
667.362256
 20
2064.364486
 11
667.129707
 21
2064.262136
  0
LINE
  8
CSLAYER1
  6
CONTINUOUS
 62
     7
 10
667.129707
 20
2064.262136
 11
666.882490
 21
2064.171801
  0
LINE
  8
CSLAYER1
  6
CONTINUOUS
 62
     7
 10
666.882490
 20
2064.171801
 11
666.622487
 21
2064.094168
  0
LINE
  8
CSLAYER1
  6
CONTINUOUS
 62
     7
 10
666.622487
 20
2064.094168
 11
666.351678
 21
2064.029829
  0
LINE
  8
CSLAYER1
  6
CONTINUOUS
 62
     7
 10
666.351678
 20
2064.029829
 11
666.072122
 21
2063.979271
  0
LINE
  8
CSLAYER1
  6
CONTINUOUS
 62
     7
 10
666.072122
 20
2063.979271
 11
665.785948
 21
2063.942882
  0
LINE
  8
CSLAYER1
  6
CONTINUOUS
 62
     7
 10
665.785948
 20
2063.942882
 11
665.495333
 21
2063.920937
  0
LINE
  8
CSLAYER1
  6
CONTINUOUS
 62
     7
 10
665.495333
 20
2063.920937
 11
665.202490
 21
2063.913603
  0
LINE
  8
CSLAYER1
  6
CONTINUOUS
 62
     7
 10
665.202490
 20
2063.913603
 11
664.909647
 21
2063.920937
  0
LINE
  8
CSLAYER1
  6
CONTINUOUS
 62
     7
 10
664.909647
 20
2063.920937
 11
664.619032
 21
2063.942882
  0
LINE
  8
CSLAYER1
  6
CONTINUOUS
 62
     7
 10
664.619032
 20
2063.942882
 11
664.332858
 21
2063.979271
  0
LINE
  8
CSLAYER1
  6
CONTINUOUS
 62
     7
 10
664.332858
 20
2063.979271
 11
664.053302
 21
2064.029829
  0
LINE
  8
CSLAYER1
  6
CONTINUOUS
 62
     7
 10
664.053302
 20
2064.029829
 11
663.782493
 21
2064.094168
  0
LINE
  8
CSLAYER1
  6
CONTINUOUS
 62
     7
 10
663.782493
 20
2064.094168
 11
663.522490
 21
2064.171801
  0
LINE
  8
CSLAYER1
  6
CONTINUOUS
 62
     7
 10
663.522490
 20
2064.171801
 11
663.275273
 21
2064.262136
  0
LINE
  8
CSLAYER1
  6
CONTINUOUS
 62
     7
 10
663.275273
 20
2064.262136
 11
663.042724
 21
2064.364486
  0
LINE
  8
CSLAYER1
  6
CONTINUOUS
 62
     7
 10
663.042724
 20
2064.364486
 11
662.826611
 21
2064.478072
  0
LINE
  8
CSLAYER1
  6
CONTINUOUS
 62
     7
 10
662.826611
 20
2064.478072
 11
662.628581
 21
2064.602029
  0
LINE
  8
CSLAYER1
  6
CONTINUOUS
 62
     7
 10
662.628581
 20
2064.602029
 11
662.450139
 21
2064.735414
  0
LINE
  8
CSLAYER1
  6
CONTINUOUS
 62
     7
 10
662.450139
 20
2064.735414
 11
662.292645
 21
2064.877212
  0
LINE
  8
CSLAYER1
  6
CONTINUOUS
 62
     7
 10
662.292645
 20
2064.877212
 11
662.157296
 21
2065.026343
  0
LINE
  8
CSLAYER1
  6
CONTINUOUS
 62
     7
 10
662.157296
 20
2065.026343
 11
662.045123
 21
2065.181673
  0
LINE
  8
CSLAYER1
  6
CONTINUOUS
 62
     7
 10
662.045123
 20
2065.181673
 11
661.956979
 21
2065.342020
  0
LINE
  8
CSLAYER1
  6
CONTINUOUS
 62
     7
 10
661.956979
 20
2065.342020
 11
661.893536
 21
2065.506162
  0
LINE
  8
CSLAYER1
  6
CONTINUOUS
 62
     7
 10
661.893536
 20
2065.506162
 11
661.855276
 21
2065.672852
  0
LINE
  8
CSLAYER1
  6
CONTINUOUS
 62
     7
 10
661.855276
 20
2065.672852
 11
661.842490
 21
2065.840820
  0
LINE
  8
CSLAYER1
  6
CONTINUOUS
 62
     7
 10
666.785387
 20
2079.093910
 11
652.281635
 21
2084.372844
  0
LINE
  8
CSLAYER1
  6
CONTINUOUS
 62
     7
 10
666.785387
 20
2079.093910
 11
666.785387
 21
2074.381477
  0
LINE
  8
CSLAYER1
  6
CONTINUOUS
 62
     7
 10
654.071240
 20
2083.721481
 11
658.818490
 21
2086.687893
  0
LINE
  8
CSLAYER1
  6
CONTINUOUS
 62
     7
 10
666.785387
 20
2077.893972
 11
674.018296
 21
2082.413595
  0
LINE
  8
CSLAYER1
  6
CONTINUOUS
 62
     7
 10
666.785387
 20
2075.472163
 11
673.354557
 21
2079.577036
  0
ARC
  8
CSLAYER1
  6
CONTINUOUS
 62
     7
 10
667.607176
 20
2078.883757
 40
7.403380
 50
30.339165
 51
57.486408
  0
ARC
  8
CSLAYER1
  6
CONTINUOUS
 62
     7
 10
669.266497
 20
2082.029554
 40
4.767292
 50
-30.960488
 51
7.154948
  0
ENDBLK
  8
0
  0
BLOCK
  8
CSLAYER1
  2
BLKF0009
 70
   64
 10
0.0
 20
0.0
 30
0.0
  0
CIRCLE
  8
CSLAYER1
  6
CONTINUOUS
 62
     3
 10
1756.680666
 20
1130.529842
 40
8.500000
  0
LINE
  8
CSLAYER1
  6
CONTINUOUS
 62
     3
 10
1761.588144
 20
1139.029842
 11
1751.773189
 21
1139.029842
  0
LINE
  8
CSLAYER1
  6
CONTINUOUS
 62
     3
 10
1751.773189
 20
1139.029842
 11
1746.865712
 21
1130.529842
  0
LINE
  8
CSLAYER1
  6
CONTINUOUS
 62
     3
 10
1746.865712
 20
1130.529842
 11
1751.773189
 21
1122.029842
  0
LINE
  8
CSLAYER1
  6
CONTINUOUS
 62
     3
 10
1751.773189
 20
1122.029842
 11
1761.588144
 21
1122.029842
  0
LINE
  8
CSLAYER1
  6
CONTINUOUS
 62
     3
 10
1761.588144
 20
1122.029842
 11
1766.495621
 21
1130.529842
  0
LINE
  8
CSLAYER1
  6
CONTINUOUS
 62
     3
 10
1766.495621
 20
1130.529842
 11
1761.588144
 21
1139.029842
  0
CIRCLE
  8
CSLAYER1
  6
CONTINUOUS
 62
     4
 10
1756.680666
 20
1130.529842
 40
5.000000
  0
CIRCLE
  8
CSLAYER1
  6
CONTINUOUS
 62
     3
 10
1756.680666
 20
1130.529842
 40
4.300000
  0
POINT
  8
CSLAYER1
 62
     3
 10
1756.680666
 20
1130.529842
  0
ENDBLK
  8
0
  0
BLOCK
  8
CSLAYER1
  2
BLKF0010
 70
   64
 10
0.0
 20
0.0
 30
0.0
  0
POINT
  8
CSLAYER1
 62
     3
 10
1566.128582
 20
867.252606
  0
CIRCLE
  8
CSLAYER1
  6
CONTINUOUS
 62
     3
 10
1566.128582
 20
867.252606
 40
9.500000
  0
LINE
  8
CSLAYER1
  6
CONTINUOUS
 62
     3
 10
1575.628582
 20
872.737433
 11
1566.128582
 21
878.222261
  0
LINE
  8
CSLAYER1
  6
CONTINUOUS
 62
     3
 10
1566.128582
 20
878.222261
 11
1556.628582
 21
872.737433
  0
LINE
  8
CSLAYER1
  6
CONTINUOUS
 62
     3
 10
1556.628582
 20
872.737433
 11
1556.628582
 21
861.767778
  0
LINE
  8
CSLAYER1
  6
CONTINUOUS
 62
     3
 10
1556.628582
 20
861.767778
 11
1566.128582
 21
856.282950
  0
LINE
  8
CSLAYER1
  6
CONTINUOUS
 62
     3
 10
1566.128582
 20
856.282950
 11
1575.628582
 21
861.767778
  0
LINE
  8
CSLAYER1
  6
CONTINUOUS
 62
     3
 10
1575.628582
 20
861.767778
 11
1575.628582
 21
872.737433
  0
POINT
  8
CSLAYER1
 62
     3
 10
1566.128582
 20
867.252606
  0
ENDBLK
  8
0
  0
BLOCK
  8
CSLAYER1
  2
BLKF0011
 70
   64
 10
0.0
 20
0.0
 30
0.0
  0
LINE
  8
CSLAYER1
  6
CONTINUOUS
 62
     3
 10
1585.128582
 20
855.752606
 11
1585.128582
 21
889.752606
  0
LINE
  8
CSLAYER1
  6
CONTINUOUS
 62
     3
 10
1541.128582
 20
855.752606
 11
1591.128582
 21
855.752606
  0
LINE
  8
CSLAYER1
  6
CONTINUOUS
 62
     3
 10
1591.128582
 20
849.752606
 11
1591.128582
 21
855.752606
  0
ENDBLK
  8
0
  0
BLOCK
  8
CSLAYER1
  2
BLKF0012
 70
   64
 10
0.0
 20
0.0
 30
0.0
  0
TEXT
  8
CSLAYER1
 62
     7
 10
1330.632813
 20
1347.442749
 40
40.000000
 41
0.787500
  1
テーブルのズレ
 50
0.000000
 51
0.000000
  7
EASYDRAW_FONT
 72
     5
 11
1540.632813
 21
1347.442749
  0
DIMENSION
  8
CSLAYER1
 62
     3
  2
*D0005
 10
1566.105886
 20
1282.209851
 11
1458.138428
 21
1299.925415
 13
1543.828582
 23
914.552606
 14
1566.105886
 24
1429.730716
  0
INSERT
  8
CSLAYER1
  2
EASYDRAWDIM0006
 10
0.0
 20
0.0
 30
0.0
  0
LINE
  8
CSLAYER1
  6
CONTINUOUS
 62
     5
 10
1653.040848
 20
1073.184360
 11
1495.889273
 21
1165.306114
  0
LINE
  8
CSLAYER1
  6
CONTINUOUS
 62
     5
 10
1653.040848
 20
1073.184360
 11
1624.115026
 21
1081.140289
  0
LINE
  8
CSLAYER1
  6
CONTINUOUS
 62
     5
 10
1653.040848
 20
1073.184360
 11
1631.968316
 21
1094.537307
  0
ENDBLK
  8
0
  0
ENDSEC
  0
SECTION
  2
ENTITIES
  0
LINE
  8
CSLAYER1
  6
CONTINUOUS
 62
     3
 10
215.127777
 20
2448.992104
 11
215.127777
 21
100.445174
  0
LINE
  8
CSLAYER1
  6
CONTINUOUS
 62
     3
 10
3537.701087
 20
2448.992104
 11
215.127777
 21
2448.992104
  0
LINE
  8
CSLAYER1
  6
CONTINUOUS
 62
     3
 10
3537.701087
 20
2448.992104
 11
3537.701087
 21
100.445174
  0
LINE
  8
CSLAYER1
  6
CONTINUOUS
 62
     3
 10
3537.701087
 20
100.445174
 11
215.127777
 21
100.445174
  0
LINE
  8
CSLAYER1
  6
CONTINUOUS
 62
     5
 10
165.127777
 20
1260.445174
 11
115.127777
 21
1260.445174
  0
LINE
  8
CSLAYER1
  6
CONTINUOUS
 62
     5
 10
2737.701087
 20
540.445174
 11
3537.701087
 21
540.445174
  0
LINE
  8
CSLAYER1
  6
CONTINUOUS
 62
     5
 10
2737.701087
 20
180.445174
 11
3537.701087
 21
180.445174
  0
LINE
  8
CSLAYER1
  6
CONTINUOUS
 62
     5
 10
2737.701087
 20
340.445174
 11
3537.701087
 21
340.445174
  0
LINE
  8
CSLAYER1
  6
CONTINUOUS
 62
     5
 10
2737.701087
 20
400.445174
 11
3537.701087
 21
400.445174
  0
LINE
  8
CSLAYER1
  6
CONTINUOUS
 62
     5
 10
2737.701087
 20
460.445174
 11
3537.701087
 21
460.445174
  0
LINE
  8
CSLAYER1
  6
CONTINUOUS
 62
     5
 10
2737.701087
 20
620.445174
 11
3537.701087
 21
620.445174
  0
LINE
  8
CSLAYER1
  6
CONTINUOUS
 62
     5
 10
2737.701087
 20
700.445174
 11
2737.701087
 21
100.445174
  0
LINE
  8
CSLAYER1
  6
CONTINUOUS
 62
     5
 10
2937.701087
 20
700.445174
 11
2937.701087
 21
460.445174
  0
LINE
  8
CSLAYER1
  6
CONTINUOUS
 62
     5
 10
2737.701087
 20
700.445174
 11
3537.701087
 21
700.445174
  0
LINE
  8
CSLAYER1
  6
CONTINUOUS
 62
     5
 10
3237.701087
 20
460.445174
 11
3237.701087
 21
180.445174
  0
TEXT
  8
CSLAYER1
 62
     3
 10
2957.392147
 20
109.007893
 40
59.380363
 41
1.003345
  1
東正車輌株式会社
 50
0.000000
 51
0.000000
  7
EASYDRAW_FONT
 72
     5
 11
3414.164494
 21
109.007893
  0
LINE
  8
CSLAYER1
  6
CONTINUOUS
 62
     5
 10
2987.701087
 20
400.445174
 11
2987.701087
 21
180.445174
  0
TEXT
  8
CSLAYER1
 62
     5
 10
2767.700928
 20
635.445129
 40
50.000000
 41
1.050000
  1
品　名
 50
0.000000
 51
0.000000
  7
EASYDRAW_FONT
 72
     5
 11
2907.700928
 21
635.445129
  0
TEXT
  8
CSLAYER1
 62
     5
 10
2767.700928
 20
555.445129
 40
50.000000
 41
1.050000
  1
型　式
 50
0.000000
 51
0.000000
  7
EASYDRAW_FONT
 72
     5
 11
2907.700928
 21
555.445129
  0
TEXT
  8
CSLAYER1
 62
     5
 10
2742.700928
 20
475.445190
 40
50.000000
 41
1.036364
  1
図面番号
 50
0.000000
 51
0.000000
  7
EASYDRAW_FONT
 72
     5
 11
2932.700928
 21
475.445190
  0
TEXT
  8
CSLAYER1
 62
     5
 10
2767.700928
 20
405.445190
 40
50.000000
 41
0.825000
  1
平成26年01月10日
 50
0.000000
 51
0.000000
  7
EASYDRAW_FONT
 72
     5
 11
3207.700928
 21
405.445190
  0
TEXT
  8
CSLAYER1
 62
     5
 10
3317.700928
 20
405.445190
 40
50.000000
 41
1.050000
  1
Ｂ－４
 50
0.000000
 51
0.000000
  7
EASYDRAW_FONT
 72
     5
 11
3457.700928
 21
405.445190
  0
TEXT
  8
CSLAYER1
 62
     5
 10
2792.700928
 20
345.445190
 40
50.000000
 41
1.050000
  1
検　図
 50
0.000000
 51
0.000000
  7
EASYDRAW_FONT
 72
     5
 11
2932.700928
 21
345.445190
  0
TEXT
  8
CSLAYER1
 62
     5
 10
3042.700928
 20
345.445190
 40
50.000000
 41
1.050000
  1
作　図
 50
0.000000
 51
0.000000
  7
EASYDRAW_FONT
 72
     5
 11
3182.700928
 21
345.445190
  0
TEXT
  8
CSLAYER1
 62
     5
 10
3317.700928
 20
345.445190
 40
50.000000
 41
1.050000
  1
尺　度
 50
0.000000
 51
0.000000
  7
EASYDRAW_FONT
 72
     5
 11
3457.700928
 21
345.445190
  0
TEXT
  8
CSLAYER1
 62
     5
 10
3418.439697
 20
194.930435
 40
50.000000
 41
1.080000
  1
１０
 50
0.000000
 51
0.000000
  7
EASYDRAW_FONT
 72
     5
 11
3508.439697
 21
194.930435
  0
TEXT
  8
CSLAYER1
 62
     5
 10
3398.120117
 20
242.635132
 40
50.000000
 41
1.200000
  1
／
 50
0.000000
 51
0.000000
  7
EASYDRAW_FONT
 72
     5
 11
3438.120117
 21
242.635132
  0
TEXT
  8
CSLAYER1
 62
     5
 10
3367.907227
 20
277.618591
 40
50.000000
 41
1.200000
  1
１
 50
0.000000
 51
0.000000
  7
EASYDRAW_FONT
 72
     5
 11
3407.907227
 21
277.618591
  0
TEXT
  8
CSLAYER1
 62
     3
 10
3077.700928
 20
635.445129
 40
50.000000
 41
0.834783
  1
ゴールドリフター
 50
0.000000
 51
0.000000
  7
EASYDRAW_FONT
 72
     5
 11
3397.700928
 21
635.445129
  0
TEXT
  8
CSLAYER1
 62
     3
 10
2977.700928
 20
555.445129
 40
50.000000
 41
0.821053
  1
GLSH-150-2507
 50
0.000000
 51
0.000000
  7
EASYDRAW_FONT
 72
     5
 11
3497.700928
 21
555.445129
  0
INSERT
  8
CSLAYER1
  2
BLKF0000
 10
0.0
 20
0.0
 30
0.0
  0
LINE
  8
CSLAYER1
  6
CONTINUOUS
 62
     5
 10
3513.701087
 20
2358.992104
 11
2633.701087
 21
2358.992104
  0
LINE
  8
CSLAYER1
  6
CONTINUOUS
 62
     5
 10
3513.701087
 20
2305.658771
 11
2633.701087
 21
2305.658771
  0
LINE
  8
CSLAYER1
  6
CONTINUOUS
 62
     5
 10
3513.701087
 20
2252.325437
 11
2633.701087
 21
2252.325437
  0
LINE
  8
CSLAYER1
  6
CONTINUOUS
 62
     5
 10
3513.701087
 20
2145.658771
 11
2633.701087
 21
2145.658771
  0
LINE
  8
CSLAYER1
  6
CONTINUOUS
 62
     5
 10
3513.701087
 20
2038.992104
 11
2633.701087
 21
2038.992104
  0
LINE
  8
CSLAYER1
  6
CONTINUOUS
 62
     5
 10
3513.701087
 20
1825.658771
 11
2633.701087
 21
1825.658771
  0
LINE
  8
CSLAYER1
  6
CONTINUOUS
 62
     5
 10
3513.701087
 20
1825.658767
 11
2633.701087
 21
1825.658767
  0
LINE
  8
CSLAYER1
  6
CONTINUOUS
 62
     5
 10
3513.701087
 20
1772.325434
 11
2633.701087
 21
1772.325434
  0
TEXT
  8
CSLAYER1
 62
     3
 10
2647.034180
 20
2365.658691
 40
40.000000
 41
0.838235
  1
仕    様
 50
0.000000
 51
0.000000
  7
EASYDRAW_FONT
 72
     5
 11
2837.034180
 21
2365.658691
  0
TEXT
  8
CSLAYER1
 62
     3
 10
2647.034180
 20
2312.325439
 40
40.000000
 41
0.838235
  1
型    式
 50
0.000000
 51
0.000000
  7
EASYDRAW_FONT
 72
     5
 11
2837.034180
 21
2312.325439
  0
TEXT
  8
CSLAYER1
 62
     3
 10
3012.034180
 20
2312.325439
 40
40.000000
 41
0.817105
  1
GLSH-150-2507
 50
0.000000
 51
0.000000
  7
EASYDRAW_FONT
 72
     5
 11
3426.034180
 21
2312.325439
  0
TEXT
  8
CSLAYER1
 62
     3
 10
2647.034180
 20
2258.992188
 40
40.000000
 41
0.859091
  1
均等荷重
 50
0.000000
 51
0.000000
  7
EASYDRAW_FONT
 72
     5
 11
2773.034180
 21
2258.992188
  0
TEXT
  8
CSLAYER1
 62
     3
 10
3438.367432
 20
2258.992188
 40
40.000000
 41
0.930000
  1
ｋｇ
 50
0.000000
 51
0.000000
  7
EASYDRAW_FONT
 72
     5
 11
3500.367432
 21
2258.992188
  0
TEXT
  8
CSLAYER1
 62
     3
 10
2647.034180
 20
2152.325195
 40
40.000000
 41
0.838235
  1
テーブル高サ
 50
0.000000
 51
0.000000
  7
EASYDRAW_FONT
 72
     5
 11
2837.034180
 21
2152.325195
  0
TEXT
  8
CSLAYER1
 62
     3
 10
3438.367432
 20
2152.325195
 40
40.000000
 41
0.930000
  1
ｍｍ
 50
0.000000
 51
0.000000
  7
EASYDRAW_FONT
 72
     5
 11
3500.367432
 21
2152.325195
  0
TEXT
  8
CSLAYER1
 62
     3
 10
2647.034180
 20
2045.658447
 40
40.000000
 41
0.838235
  1
全    長
 50
0.000000
 51
0.000000
  7
EASYDRAW_FONT
 72
     5
 11
2837.034180
 21
2045.658447
  0
TEXT
  8
CSLAYER1
 62
     3
 10
3172.034180
 20
2045.658447
 40
40.000000
 41
0.881250
  1
703
 50
0.000000
 51
0.000000
  7
EASYDRAW_FONT
 72
     5
 11
3266.034180
 21
2045.658447
  0
TEXT
  8
CSLAYER1
 62
     3
 10
3156.034180
 20
1832.325073
 40
40.000000
 41
0.859091
  1
約 28
 50
0.000000
 51
0.000000
  7
EASYDRAW_FONT
 72
     5
 11
3282.034180
 21
1832.325073
  0
TEXT
  8
CSLAYER1
 62
     3
 10
2647.034180
 20
1832.325073
 40
40.000000
 41
0.846429
  1
ポンプ回数
 50
0.000000
 51
0.000000
  7
EASYDRAW_FONT
 72
     5
 11
2805.034180
 21
1832.325073
  0
TEXT
  8
CSLAYER1
 62
     3
 10
2647.034180
 20
1778.991821
 40
40.000000
 41
0.832500
  1
自     重
 50
0.000000
 51
0.000000
  7
EASYDRAW_FONT
 72
     5
 11
2869.034180
 21
1778.991821
  0
TEXT
  8
CSLAYER1
 62
     3
 10
2647.034180
 20
1725.658569
 40
40.000000
 41
0.832500
  1
塗  装  色
 50
0.000000
 51
0.000000
  7
EASYDRAW_FONT
 72
     5
 11
2869.034180
 21
1725.658569
  0
TEXT
  8
CSLAYER1
 62
     3
 10
3172.034180
 20
2258.992188
 40
40.000000
 41
0.881250
  1
150
 50
0.000000
 51
0.000000
  7
EASYDRAW_FONT
 72
     5
 11
3266.034180
 21
2258.992188
  0
TEXT
  8
CSLAYER1
 62
     3
 10
3124.034180
 20
2152.325195
 40
40.000000
 41
0.838235
  1
65～570
 50
0.000000
 51
0.000000
  7
EASYDRAW_FONT
 72
     5
 11
3314.034180
 21
2152.325195
  0
TEXT
  8
CSLAYER1
 62
     3
 10
3438.367432
 20
2045.658447
 40
40.000000
 41
0.930000
  1
ｍｍ
 50
0.000000
 51
0.000000
  7
EASYDRAW_FONT
 72
     5
 11
3500.367432
 21
2045.658447
  0
LINE
  8
CSLAYER1
  6
CONTINUOUS
 62
     5
 10
3513.701087
 20
1985.658771
 11
2633.701087
 21
1985.658771
  0
TEXT
  8
CSLAYER1
 62
     3
 10
2647.034180
 20
1992.325073
 40
40.000000
 41
0.838235
  1
全    幅
 50
0.000000
 51
0.000000
  7
EASYDRAW_FONT
 72
     5
 11
2837.034180
 21
1992.325073
  0
TEXT
  8
CSLAYER1
 62
     3
 10
3172.034180
 20
1992.325073
 40
40.000000
 41
0.881250
  1
300
 50
0.000000
 51
0.000000
  7
EASYDRAW_FONT
 72
     5
 11
3266.034180
 21
1992.325073
  0
TEXT
  8
CSLAYER1
 62
     3
 10
3438.367432
 20
1992.325073
 40
40.000000
 41
0.930000
  1
ｍｍ
 50
0.000000
 51
0.000000
  7
EASYDRAW_FONT
 72
     5
 11
3500.367432
 21
1992.325073
  0
TEXT
  8
CSLAYER1
 62
     3
 10
3438.367432
 20
1778.991821
 40
40.000000
 41
0.930000
  1
ｋｇ
 50
0.000000
 51
0.000000
  7
EASYDRAW_FONT
 72
     5
 11
3500.367432
 21
1778.991821
  0
LINE
  8
CSLAYER1
  6
CONTINUOUS
 62
     5
 10
3513.701087
 20
2198.992104
 11
2633.701087
 21
2198.992104
  0
TEXT
  8
CSLAYER1
 62
     3
 10
2647.034180
 20
2205.658936
 40
40.000000
 41
0.838235
  1
テーブル寸法
 50
0.000000
 51
0.000000
  7
EASYDRAW_FONT
 72
     5
 11
2837.034180
 21
2205.658936
  0
TEXT
  8
CSLAYER1
 62
     3
 10
3438.367432
 20
2205.658936
 40
40.000000
 41
0.930000
  1
ｍｍ
 50
0.000000
 51
0.000000
  7
EASYDRAW_FONT
 72
     5
 11
3500.367432
 21
2205.658936
  0
TEXT
  8
CSLAYER1
 62
     3
 10
3076.034180
 20
2205.658936
 40
40.000000
 41
0.825000
  1
700L×250W
 50
0.000000
 51
0.000000
  7
EASYDRAW_FONT
 72
     5
 11
3362.034180
 21
2205.658936
  0
LINE
  8
CSLAYER1
  6
CONTINUOUS
 62
     5
 10
3513.701087
 20
2092.325437
 11
2633.701087
 21
2092.325437
  0
TEXT
  8
CSLAYER1
 62
     3
 10
3438.367432
 20
2098.992188
 40
40.000000
 41
0.930000
  1
ｍｍ
 50
0.000000
 51
0.000000
  7
EASYDRAW_FONT
 72
     5
 11
3500.367432
 21
2098.992188
  0
TEXT
  8
CSLAYER1
 62
     3
 10
3172.034180
 20
2098.992188
 40
40.000000
 41
0.881250
  1
505
 50
0.000000
 51
0.000000
  7
EASYDRAW_FONT
 72
     5
 11
3266.034180
 21
2098.992188
  0
TEXT
  8
CSLAYER1
 62
     3
 10
2648.866699
 20
2098.992188
 40
40.000000
 41
0.846429
  1
ストローク
 50
0.000000
 51
0.000000
  7
EASYDRAW_FONT
 72
     5
 11
2806.866699
 21
2098.992188
  0
LINE
  8
CSLAYER1
  6
CONTINUOUS
 62
     5
 10
3513.701087
 20
1932.325437
 11
2633.701087
 21
1932.325437
  0
TEXT
  8
CSLAYER1
 62
     3
 10
2647.034180
 20
1938.991821
 40
40.000000
 41
0.838235
  1
全    高
 50
0.000000
 51
0.000000
  7
EASYDRAW_FONT
 72
     5
 11
2837.034180
 21
1938.991821
  0
TEXT
  8
CSLAYER1
 62
     3
 10
3172.034180
 20
1938.991821
 40
40.000000
 41
0.881250
  1
 65
 50
0.000000
 51
0.000000
  7
EASYDRAW_FONT
 72
     5
 11
3266.034180
 21
1938.991821
  0
TEXT
  8
CSLAYER1
 62
     3
 10
3438.367432
 20
1938.991821
 40
40.000000
 41
0.930000
  1
ｍｍ
 50
0.000000
 51
0.000000
  7
EASYDRAW_FONT
 72
     5
 11
3500.367432
 21
1938.991821
  0
LINE
  8
CSLAYER1
  6
CONTINUOUS
 62
     5
 10
3513.701087
 20
1878.992104
 11
2633.701087
 21
1878.992104
  0
TEXT
  8
CSLAYER1
 62
     3
 10
2647.034180
 20
1885.658447
 40
40.000000
 41
0.846429
  1
リフト方式
 50
0.000000
 51
0.000000
  7
EASYDRAW_FONT
 72
     5
 11
2805.034180
 21
1885.658447
  0
TEXT
  8
CSLAYER1
 62
     3
 10
3140.034180
 20
1885.658447
 40
40.000000
 41
0.846429
  1
足踏油圧式
 50
0.000000
 51
0.000000
  7
EASYDRAW_FONT
 72
     5
 11
3298.034180
 21
1885.658447
  0
LINE
  8
CSLAYER1
  6
CONTINUOUS
 62
     5
 10
2937.701087
 20
1718.992101
 11
2937.701087
 21
2358.992104
  0
TEXT
  8
CSLAYER1
 62
     3
 10
3470.367432
 20
1832.325195
 40
40.000000
 41
1.125000
  1
回
 50
0.000000
 51
0.000000
  7
EASYDRAW_FONT
 72
     5
 11
3500.367432
 21
1832.325195
  0
LINE
  8
CSLAYER2
  6
CONTINUOUS
 62
     5
 10
265.127777
 20
1694.882515
 11
265.127777
 21
2398.992104
  0
LINE
  8
CSLAYER2
  6
CONTINUOUS
 62
     5
 10
1066.421908
 20
2398.992104
 11
265.127777
 21
2398.992104
  0
INSERT
  8
CSLAYER1
  2
BLKF0001
 10
0.0
 20
0.0
 30
0.0
  0
INSERT
  8
CSLAYER1
  2
BLKF0002
 10
0.0
 20
0.0
 30
0.0
  0
LINE
  8
CSLAYER1
  6
CONTINUOUS
 62
     7
 10
694.274879
 20
1837.409893
 11
821.801176
 21
1979.430654
  0
LINE
  8
CSLAYER1
  6
CONTINUOUS
 62
     7
 10
471.098987
 20
1925.227912
 11
656.470758
 21
1994.266891
  0
LINE
  8
CSLAYER1
  6
CONTINUOUS
 62
     7
 10
476.164569
 20
1911.273179
 11
695.627226
 21
1993.008805
  0
LINE
  8
CSLAYER1
  6
CONTINUOUS
 62
     7
 10
682.668113
 20
1847.301781
 11
774.429997
 21
1949.493196
  0
LINE
  8
CSLAYER1
  6
CONTINUOUS
 62
     7
 10
804.945128
 20
2126.544175
 11
804.945128
 21
2021.147918
  0
LINE
  8
CSLAYER1
  6
CONTINUOUS
 62
     7
 10
804.945128
 20
2126.544175
 11
684.965174
 21
2170.213307
  0
LINE
  8
CSLAYER1
  6
CONTINUOUS
 62
     7
 10
776.450712
 20
1942.853483
 11
804.945128
 21
1960.658771
  0
LINE
  8
CSLAYER1
  6
CONTINUOUS
 62
     7
 10
776.450712
 20
2108.738888
 11
776.450712
 21
1942.853483
  0
LINE
  8
CSLAYER1
  6
CONTINUOUS
 62
     7
 10
776.450712
 20
2108.738888
 11
804.945128
 21
2126.544175
  0
LINE
  8
CSLAYER1
  6
CONTINUOUS
 62
     7
 10
685.359319
 20
2166.463270
 11
685.359319
 21
2131.637232
  0
LINE
  8
CSLAYER1
  6
CONTINUOUS
 62
     7
 10
656.470758
 20
2152.408020
 11
684.965174
 21
2170.213307
  0
LINE
  8
CSLAYER1
  6
CONTINUOUS
 62
     7
 10
776.450712
 20
1942.853483
 11
774.429997
 21
1943.588963
  0
LINE
  8
CSLAYER1
  6
CONTINUOUS
 62
     7
 10
774.429997
 20
1967.792531
 11
705.018699
 21
1993.056177
  0
LINE
  8
CSLAYER1
  6
CONTINUOUS
 62
     7
 10
801.100771
 20
2126.140117
 11
685.162247
 21
2168.338289
  0
LINE
  8
CSLAYER1
  6
CONTINUOUS
 62
     7
 10
734.293643
 20
2084.394391
 11
801.100771
 21
2126.140117
  0
LINE
  8
CSLAYER1
  6
CONTINUOUS
 62
     7
 10
776.450712
 20
2108.738888
 11
774.429997
 21
2109.474368
  0
LINE
  8
CSLAYER1
  6
CONTINUOUS
 62
     7
 10
774.429997
 20
2109.474368
 11
774.429997
 21
1967.792531
  0
LINE
  8
CSLAYER1
  6
CONTINUOUS
 62
     7
 10
656.470758
 20
2152.408020
 11
656.470758
 21
2150.409857
  0
LINE
  8
CSLAYER1
  6
CONTINUOUS
 62
     7
 10
656.470758
 20
2152.408020
 11
684.965174
 21
2170.213307
  0
LINE
  8
CSLAYER1
  6
CONTINUOUS
 62
     7
 10
658.491473
 20
2151.672540
 11
685.162247
 21
2168.338289
  0
LINE
  8
CSLAYER1
  6
CONTINUOUS
 62
     7
 10
658.491473
 20
2151.672540
 11
656.470758
 21
2152.408020
  0
LINE
  8
CSLAYER1
  6
CONTINUOUS
 62
     7
 10
658.491473
 20
1983.617586
 11
674.944680
 21
1993.898690
  0
LINE
  8
CSLAYER1
  6
CONTINUOUS
 62
     7
 10
732.272928
 20
2085.129871
 11
797.256413
 21
2125.736059
  0
LINE
  8
CSLAYER1
  6
CONTINUOUS
 62
     7
 10
730.693457
 20
2082.280429
 11
730.693457
 21
2015.194673
  0
LINE
  8
CSLAYER1
  6
CONTINUOUS
 62
     7
 10
732.714172
 20
2081.544949
 11
732.714172
 21
2015.549028
  0
LINE
  8
CSLAYER1
  6
CONTINUOUS
 62
     7
 10
797.256413
 20
2125.736059
 11
780.332925
 21
2131.895705
  0
LINE
  8
CSLAYER1
  6
CONTINUOUS
 62
     7
 10
730.693457
 20
2083.600548
 11
621.645805
 21
2123.290648
  0
LINE
  8
CSLAYER1
  6
CONTINUOUS
 62
     7
 10
730.693457
 20
2016.400548
 11
697.213244
 21
2028.586349
  0
LINE
  8
CSLAYER1
  6
CONTINUOUS
 62
     7
 10
621.955306
 20
2126.844046
 11
685.359319
 21
2166.463270
  0
LINE
  8
CSLAYER1
  6
CONTINUOUS
 62
     7
 10
619.934591
 20
2127.579526
 11
656.470758
 21
2150.409857
  0
LINE
  8
CSLAYER1
  6
CONTINUOUS
 62
     7
 10
616.775648
 20
2121.880642
 11
616.775648
 21
2056.025561
  0
LINE
  8
CSLAYER1
  6
CONTINUOUS
 62
     7
 10
618.796363
 20
2121.145162
 11
618.796363
 21
2057.011720
  0
LINE
  8
CSLAYER1
  6
CONTINUOUS
 62
     7
 10
621.645805
 20
2123.290648
 11
621.645805
 21
2056.090648
  0
LINE
  8
CSLAYER1
  6
CONTINUOUS
 62
     7
 10
621.645805
 20
2123.290648
 11
653.538143
 21
2143.219193
  0
LINE
  8
CSLAYER1
  6
CONTINUOUS
 62
     7
 10
762.037315
 20
2103.728724
 11
653.538143
 21
2143.219193
  0
LINE
  8
CSLAYER1
  6
CONTINUOUS
 62
     7
 10
737.854701
 20
2012.699586
 11
774.429997
 21
2035.554368
  0
LINE
  8
CSLAYER1
  6
CONTINUOUS
 62
     7
 10
734.696181
 20
2012.485536
 11
731.640755
 21
2013.597620
  0
LINE
  8
CSLAYER1
  6
CONTINUOUS
 62
     7
 10
680.712258
 20
1991.799464
 11
657.753284
 21
2000.155847
  0
LINE
  8
CSLAYER1
  6
CONTINUOUS
 62
     7
 10
680.712258
 20
1991.799464
 11
684.608937
 21
1994.234379
  0
LINE
  8
CSLAYER1
  6
CONTINUOUS
 62
     7
 10
664.814167
 20
2038.432279
 11
666.099319
 21
2039.235331
  0
LINE
  8
CSLAYER1
  6
CONTINUOUS
 62
     7
 10
672.656283
 20
2025.614336
 11
674.061843
 21
2026.492628
  0
LINE
  8
CSLAYER1
  6
CONTINUOUS
 62
     7
 10
666.099319
 20
2039.235331
 11
666.432976
 21
2039.410111
  0
LINE
  8
CSLAYER1
  6
CONTINUOUS
 62
     7
 10
666.432976
 20
2039.410111
 11
666.794393
 21
2039.535071
  0
LINE
  8
CSLAYER1
  6
CONTINUOUS
 62
     7
 10
666.794393
 20
2039.535071
 11
667.180820
 21
2039.609260
  0
LINE
  8
CSLAYER1
  6
CONTINUOUS
 62
     7
 10
667.180820
 20
2039.609260
 11
667.589316
 21
2039.632114
  0
LINE
  8
CSLAYER1
  6
CONTINUOUS
 62
     7
 10
667.589316
 20
2039.632114
 11
668.016773
 21
2039.603458
  0
LINE
  8
CSLAYER1
  6
CONTINUOUS
 62
     7
 10
668.016773
 20
2039.603458
 11
668.459935
 21
2039.523510
  0
LINE
  8
CSLAYER1
  6
CONTINUOUS
 62
     7
 10
668.459935
 20
2039.523510
 11
668.915433
 21
2039.392880
  0
LINE
  8
CSLAYER1
  6
CONTINUOUS
 62
     7
 10
668.915433
 20
2039.392880
 11
669.379797
 21
2039.212560
  0
LINE
  8
CSLAYER1
  6
CONTINUOUS
 62
     7
 10
669.379797
 20
2039.212560
 11
669.849495
 21
2038.983924
  0
LINE
  8
CSLAYER1
  6
CONTINUOUS
 62
     7
 10
669.849495
 20
2038.983924
 11
670.320952
 21
2038.708712
  0
LINE
  8
CSLAYER1
  6
CONTINUOUS
 62
     7
 10
670.320952
 20
2038.708712
 11
670.790579
 21
2038.389018
  0
LINE
  8
CSLAYER1
  6
CONTINUOUS
 62
     7
 10
670.790579
 20
2038.389018
 11
671.254803
 21
2038.027274
  0
LINE
  8
CSLAYER1
  6
CONTINUOUS
 62
     7
 10
671.254803
 20
2038.027274
 11
671.710090
 21
2037.626235
  0
LINE
  8
CSLAYER1
  6
CONTINUOUS
 62
     7
 10
671.710090
 20
2037.626235
 11
672.152976
 21
2037.188952
  0
LINE
  8
CSLAYER1
  6
CONTINUOUS
 62
     7
 10
672.152976
 20
2037.188952
 11
672.580089
 21
2036.718754
  0
LINE
  8
CSLAYER1
  6
CONTINUOUS
 62
     7
 10
672.580089
 20
2036.718754
 11
672.988180
 21
2036.219219
  0
LINE
  8
CSLAYER1
  6
CONTINUOUS
 62
     7
 10
672.988180
 20
2036.219219
 11
673.374142
 21
2035.694148
  0
LINE
  8
CSLAYER1
  6
CONTINUOUS
 62
     7
 10
673.374142
 20
2035.694148
 11
673.735038
 21
2035.147537
  0
LINE
  8
CSLAYER1
  6
CONTINUOUS
 62
     7
 10
673.735038
 20
2035.147537
 11
674.068122
 21
2034.583548
  0
LINE
  8
CSLAYER1
  6
CONTINUOUS
 62
     7
 10
674.068122
 20
2034.583548
 11
674.370858
 21
2034.006471
  0
LINE
  8
CSLAYER1
  6
CONTINUOUS
 62
     7
 10
674.370858
 20
2034.006471
 11
674.640942
 21
2033.420700
  0
LINE
  8
CSLAYER1
  6
CONTINUOUS
 62
     7
 10
674.640942
 20
2033.420700
 11
674.876319
 21
2032.830691
  0
LINE
  8
CSLAYER1
  6
CONTINUOUS
 62
     7
 10
674.876319
 20
2032.830691
 11
675.075198
 21
2032.240936
  0
LINE
  8
CSLAYER1
  6
CONTINUOUS
 62
     7
 10
675.075198
 20
2032.240936
 11
675.236065
 21
2031.655923
  0
LINE
  8
CSLAYER1
  6
CONTINUOUS
 62
     7
 10
675.236065
 20
2031.655923
 11
675.357695
 21
2031.080103
  0
LINE
  8
CSLAYER1
  6
CONTINUOUS
 62
     7
 10
675.357695
 20
2031.080103
 11
675.439164
 21
2030.517860
  0
LINE
  8
CSLAYER1
  6
CONTINUOUS
 62
     7
 10
675.439164
 20
2030.517860
 11
675.479850
 21
2029.973473
  0
LINE
  8
CSLAYER1
  6
CONTINUOUS
 62
     7
 10
675.479850
 20
2029.973473
 11
675.479445
 21
2029.451084
  0
LINE
  8
CSLAYER1
  6
CONTINUOUS
 62
     7
 10
675.479445
 20
2029.451084
 11
675.437951
 21
2028.954669
  0
LINE
  8
CSLAYER1
  6
CONTINUOUS
 62
     7
 10
675.437951
 20
2028.954669
 11
675.355684
 21
2028.488006
  0
LINE
  8
CSLAYER1
  6
CONTINUOUS
 62
     7
 10
675.355684
 20
2028.488006
 11
675.233270
 21
2028.054647
  0
LINE
  8
CSLAYER1
  6
CONTINUOUS
 62
     7
 10
675.233270
 20
2028.054647
 11
675.071642
 21
2027.657890
  0
LINE
  8
CSLAYER1
  6
CONTINUOUS
 62
     7
 10
675.071642
 20
2027.657890
 11
674.872028
 21
2027.300755
  0
LINE
  8
CSLAYER1
  6
CONTINUOUS
 62
     7
 10
674.872028
 20
2027.300755
 11
674.635949
 21
2026.985959
  0
LINE
  8
CSLAYER1
  6
CONTINUOUS
 62
     7
 10
674.635949
 20
2026.985959
 11
674.365200
 21
2026.715898
  0
LINE
  8
CSLAYER1
  6
CONTINUOUS
 62
     7
 10
674.365200
 20
2026.715898
 11
674.061843
 21
2026.492628
  0
LINE
  8
CSLAYER1
  6
CONTINUOUS
 62
     7
 10
664.830062
 20
2038.428439
 11
665.027415
 21
2038.531819
  0
LINE
  8
CSLAYER1
  6
CONTINUOUS
 62
     7
 10
665.027415
 20
2038.531819
 11
665.388833
 21
2038.656780
  0
LINE
  8
CSLAYER1
  6
CONTINUOUS
 62
     7
 10
665.388833
 20
2038.656780
 11
665.775260
 21
2038.730969
  0
LINE
  8
CSLAYER1
  6
CONTINUOUS
 62
     7
 10
665.775260
 20
2038.730969
 11
666.183756
 21
2038.753822
  0
LINE
  8
CSLAYER1
  6
CONTINUOUS
 62
     7
 10
666.183756
 20
2038.753822
 11
666.611212
 21
2038.725166
  0
LINE
  8
CSLAYER1
  6
CONTINUOUS
 62
     7
 10
666.611212
 20
2038.725166
 11
667.054375
 21
2038.645219
  0
LINE
  8
CSLAYER1
  6
CONTINUOUS
 62
     7
 10
667.054375
 20
2038.645219
 11
667.509872
 21
2038.514588
  0
LINE
  8
CSLAYER1
  6
CONTINUOUS
 62
     7
 10
667.509872
 20
2038.514588
 11
667.974237
 21
2038.334269
  0
LINE
  8
CSLAYER1
  6
CONTINUOUS
 62
     7
 10
667.974237
 20
2038.334269
 11
668.443935
 21
2038.105633
  0
LINE
  8
CSLAYER1
  6
CONTINUOUS
 62
     7
 10
668.443935
 20
2038.105633
 11
668.915391
 21
2037.830420
  0
LINE
  8
CSLAYER1
  6
CONTINUOUS
 62
     7
 10
668.915391
 20
2037.830420
 11
669.385019
 21
2037.510726
  0
LINE
  8
CSLAYER1
  6
CONTINUOUS
 62
     7
 10
669.385019
 20
2037.510726
 11
669.849242
 21
2037.148983
  0
LINE
  8
CSLAYER1
  6
CONTINUOUS
 62
     7
 10
674.033603
 20
2029.639569
 11
674.074290
 21
2029.095181
  0
LINE
  8
CSLAYER1
  6
CONTINUOUS
 62
     7
 10
674.074290
 20
2029.095181
 11
674.073884
 21
2028.572792
  0
LINE
  8
CSLAYER1
  6
CONTINUOUS
 62
     7
 10
674.073884
 20
2028.572792
 11
674.032390
 21
2028.076377
  0
LINE
  8
CSLAYER1
  6
CONTINUOUS
 62
     7
 10
674.032390
 20
2028.076377
 11
673.950124
 21
2027.609714
  0
LINE
  8
CSLAYER1
  6
CONTINUOUS
 62
     7
 10
673.950124
 20
2027.609714
 11
673.827710
 21
2027.176355
  0
LINE
  8
CSLAYER1
  6
CONTINUOUS
 62
     7
 10
673.827710
 20
2027.176355
 11
673.666081
 21
2026.779598
  0
LINE
  8
CSLAYER1
  6
CONTINUOUS
 62
     7
 10
673.666081
 20
2026.779598
 11
673.466468
 21
2026.422463
  0
LINE
  8
CSLAYER1
  6
CONTINUOUS
 62
     7
 10
673.466468
 20
2026.422463
 11
673.230389
 21
2026.107667
  0
LINE
  8
CSLAYER1
  6
CONTINUOUS
 62
     7
 10
673.230389
 20
2026.107667
 11
672.959640
 21
2025.837606
  0
LINE
  8
CSLAYER1
  6
CONTINUOUS
 62
     7
 10
672.959640
 20
2025.837606
 11
672.656283
 21
2025.614336
  0
LINE
  8
CSLAYER1
  6
CONTINUOUS
 62
     7
 10
658.491473
 20
1983.617586
 11
656.470758
 21
1984.353066
  0
LINE
  8
CSLAYER1
  6
CONTINUOUS
 62
     7
 10
658.491473
 20
1999.887168
 11
658.491473
 21
1983.617586
  0
LINE
  8
CSLAYER1
  6
CONTINUOUS
 62
     7
 10
656.470758
 20
1994.849303
 11
656.470758
 21
1994.266891
  0
LINE
  8
CSLAYER1
  6
CONTINUOUS
 62
     7
 10
638.097268
 20
2109.657828
 11
638.306177
 21
2109.767261
  0
LINE
  8
CSLAYER1
  6
CONTINUOUS
 62
     7
 10
638.306177
 20
2109.767261
 11
638.532466
 21
2109.845501
  0
LINE
  8
CSLAYER1
  6
CONTINUOUS
 62
     7
 10
638.532466
 20
2109.845501
 11
638.774416
 21
2109.891952
  0
LINE
  8
CSLAYER1
  6
CONTINUOUS
 62
     7
 10
638.774416
 20
2109.891952
 11
639.030182
 21
2109.906261
  0
LINE
  8
CSLAYER1
  6
CONTINUOUS
 62
     7
 10
639.030182
 20
2109.906261
 11
639.297820
 21
2109.888319
  0
LINE
  8
CSLAYER1
  6
CONTINUOUS
 62
     7
 10
639.297820
 20
2109.888319
 11
639.575293
 21
2109.838263
  0
LINE
  8
CSLAYER1
  6
CONTINUOUS
 62
     7
 10
639.575293
 20
2109.838263
 11
639.860488
 21
2109.756473
  0
LINE
  8
CSLAYER1
  6
CONTINUOUS
 62
     7
 10
639.860488
 20
2109.756473
 11
640.151235
 21
2109.643571
  0
LINE
  8
CSLAYER1
  6
CONTINUOUS
 62
     7
 10
640.151235
 20
2109.643571
 11
640.445321
 21
2109.500418
  0
LINE
  8
CSLAYER1
  6
CONTINUOUS
 62
     7
 10
640.445321
 20
2109.500418
 11
640.740509
 21
2109.328103
  0
LINE
  8
CSLAYER1
  6
CONTINUOUS
 62
     7
 10
640.740509
 20
2109.328103
 11
641.034551
 21
2109.127936
  0
LINE
  8
CSLAYER1
  6
CONTINUOUS
 62
     7
 10
641.034551
 20
2109.127936
 11
641.325210
 21
2108.901442
  0
LINE
  8
CSLAYER1
  6
CONTINUOUS
 62
     7
 10
641.325210
 20
2108.901442
 11
641.610273
 21
2108.650344
  0
LINE
  8
CSLAYER1
  6
CONTINUOUS
 62
     7
 10
641.610273
 20
2108.650344
 11
641.887572
 21
2108.376554
  0
LINE
  8
CSLAYER1
  6
CONTINUOUS
 62
     7
 10
641.887572
 20
2108.376554
 11
642.154995
 21
2108.082154
  0
LINE
  8
CSLAYER1
  6
CONTINUOUS
 62
     7
 10
642.154995
 20
2108.082154
 11
642.410508
 21
2107.769386
  0
LINE
  8
CSLAYER1
  6
CONTINUOUS
 62
     7
 10
642.410508
 20
2107.769386
 11
642.652166
 21
2107.440629
  0
LINE
  8
CSLAYER1
  6
CONTINUOUS
 62
     7
 10
642.652166
 20
2107.440629
 11
642.878130
 21
2107.098387
  0
LINE
  8
CSLAYER1
  6
CONTINUOUS
 62
     7
 10
642.878130
 20
2107.098387
 11
643.086679
 21
2106.745263
  0
LINE
  8
CSLAYER1
  6
CONTINUOUS
 62
     7
 10
643.086679
 20
2106.745263
 11
643.276228
 21
2106.383945
  0
LINE
  8
CSLAYER1
  6
CONTINUOUS
 62
     7
 10
643.276228
 20
2106.383945
 11
643.445333
 21
2106.017183
  0
LINE
  8
CSLAYER1
  6
CONTINUOUS
 62
     7
 10
643.445333
 20
2106.017183
 11
643.592707
 21
2105.647768
  0
LINE
  8
CSLAYER1
  6
CONTINUOUS
 62
     7
 10
643.592707
 20
2105.647768
 11
643.717228
 21
2105.278511
  0
LINE
  8
CSLAYER1
  6
CONTINUOUS
 62
     7
 10
643.717228
 20
2105.278511
 11
643.817950
 21
2104.912224
  0
LINE
  8
CSLAYER1
  6
CONTINUOUS
 62
     7
 10
643.817950
 20
2104.912224
 11
643.894105
 21
2104.551693
  0
LINE
  8
CSLAYER1
  6
CONTINUOUS
 62
     7
 10
643.894105
 20
2104.551693
 11
643.945114
 21
2104.199663
  0
LINE
  8
CSLAYER1
  6
CONTINUOUS
 62
     7
 10
643.945114
 20
2104.199663
 11
643.970588
 21
2103.858812
  0
LINE
  8
CSLAYER1
  6
CONTINUOUS
 62
     7
 10
643.970588
 20
2103.858812
 11
643.970334
 21
2103.531734
  0
LINE
  8
CSLAYER1
  6
CONTINUOUS
 62
     7
 10
643.970334
 20
2103.531734
 11
643.944354
 21
2103.220920
  0
LINE
  8
CSLAYER1
  6
CONTINUOUS
 62
     7
 10
643.944354
 20
2103.220920
 11
643.892845
 21
2102.928734
  0
LINE
  8
CSLAYER1
  6
CONTINUOUS
 62
     7
 10
643.892845
 20
2102.928734
 11
643.816200
 21
2102.657400
  0
LINE
  8
CSLAYER1
  6
CONTINUOUS
 62
     7
 10
643.816200
 20
2102.657400
 11
643.715001
 21
2102.408983
  0
LINE
  8
CSLAYER1
  6
CONTINUOUS
 62
     7
 10
643.715001
 20
2102.408983
 11
643.590020
 21
2102.185374
  0
LINE
  8
CSLAYER1
  6
CONTINUOUS
 62
     7
 10
643.590020
 20
2102.185374
 11
643.442206
 21
2101.988275
  0
LINE
  8
CSLAYER1
  6
CONTINUOUS
 62
     7
 10
643.442206
 20
2101.988275
 11
643.272686
 21
2101.819185
  0
LINE
  8
CSLAYER1
  6
CONTINUOUS
 62
     7
 10
643.272686
 20
2101.819185
 11
643.082748
 21
2101.679392
  0
LINE
  8
CSLAYER1
  6
CONTINUOUS
 62
     7
 10
643.082748
 20
2101.679392
 11
642.873840
 21
2101.569959
  0
LINE
  8
CSLAYER1
  6
CONTINUOUS
 62
     7
 10
642.873840
 20
2101.569959
 11
642.647550
 21
2101.491719
  0
LINE
  8
CSLAYER1
  6
CONTINUOUS
 62
     7
 10
642.647550
 20
2101.491719
 11
642.405601
 21
2101.445267
  0
LINE
  8
CSLAYER1
  6
CONTINUOUS
 62
     7
 10
642.405601
 20
2101.445267
 11
642.149834
 21
2101.430958
  0
LINE
  8
CSLAYER1
  6
CONTINUOUS
 62
     7
 10
642.149834
 20
2101.430958
 11
641.882196
 21
2101.448900
  0
LINE
  8
CSLAYER1
  6
CONTINUOUS
 62
     7
 10
641.882196
 20
2101.448900
 11
641.604724
 21
2101.498957
  0
LINE
  8
CSLAYER1
  6
CONTINUOUS
 62
     7
 10
641.604724
 20
2101.498957
 11
641.319529
 21
2101.580747
  0
LINE
  8
CSLAYER1
  6
CONTINUOUS
 62
     7
 10
641.319529
 20
2101.580747
 11
641.028782
 21
2101.693648
  0
LINE
  8
CSLAYER1
  6
CONTINUOUS
 62
     7
 10
641.028782
 20
2101.693648
 11
640.734695
 21
2101.836802
  0
LINE
  8
CSLAYER1
  6
CONTINUOUS
 62
     7
 10
640.734695
 20
2101.836802
 11
640.439508
 21
2102.009117
  0
LINE
  8
CSLAYER1
  6
CONTINUOUS
 62
     7
 10
640.439508
 20
2102.009117
 11
640.145466
 21
2102.209283
  0
LINE
  8
CSLAYER1
  6
CONTINUOUS
 62
     7
 10
640.145466
 20
2102.209283
 11
639.854807
 21
2102.435777
  0
LINE
  8
CSLAYER1
  6
CONTINUOUS
 62
     7
 10
639.854807
 20
2102.435777
 11
639.569743
 21
2102.686875
  0
LINE
  8
CSLAYER1
  6
CONTINUOUS
 62
     7
 10
639.569743
 20
2102.686875
 11
639.292445
 21
2102.960666
  0
LINE
  8
CSLAYER1
  6
CONTINUOUS
 62
     7
 10
639.292445
 20
2102.960666
 11
639.025021
 21
2103.255066
  0
LINE
  8
CSLAYER1
  6
CONTINUOUS
 62
     7
 10
639.025021
 20
2103.255066
 11
638.769508
 21
2103.567834
  0
LINE
  8
CSLAYER1
  6
CONTINUOUS
 62
     7
 10
638.769508
 20
2103.567834
 11
638.527850
 21
2103.896590
  0
LINE
  8
CSLAYER1
  6
CONTINUOUS
 62
     7
 10
638.527850
 20
2103.896590
 11
638.301887
 21
2104.238833
  0
LINE
  8
CSLAYER1
  6
CONTINUOUS
 62
     7
 10
638.301887
 20
2104.238833
 11
638.093337
 21
2104.591957
  0
LINE
  8
CSLAYER1
  6
CONTINUOUS
 62
     7
 10
638.093337
 20
2104.591957
 11
637.903789
 21
2104.953275
  0
LINE
  8
CSLAYER1
  6
CONTINUOUS
 62
     7
 10
637.903789
 20
2104.953275
 11
637.734684
 21
2105.320037
  0
LINE
  8
CSLAYER1
  6
CONTINUOUS
 62
     7
 10
637.734684
 20
2105.320037
 11
637.587310
 21
2105.689452
  0
LINE
  8
CSLAYER1
  6
CONTINUOUS
 62
     7
 10
637.587310
 20
2105.689452
 11
637.462788
 21
2106.058708
  0
LINE
  8
CSLAYER1
  6
CONTINUOUS
 62
     7
 10
637.462788
 20
2106.058708
 11
637.362067
 21
2106.424996
  0
LINE
  8
CSLAYER1
  6
CONTINUOUS
 62
     7
 10
637.362067
 20
2106.424996
 11
637.285912
 21
2106.785527
  0
LINE
  8
CSLAYER1
  6
CONTINUOUS
 62
     7
 10
637.285912
 20
2106.785527
 11
637.234903
 21
2107.137557
  0
LINE
  8
CSLAYER1
  6
CONTINUOUS
 62
     7
 10
637.234903
 20
2107.137557
 11
637.209428
 21
2107.478408
  0
LINE
  8
CSLAYER1
  6
CONTINUOUS
 62
     7
 10
637.209428
 20
2107.478408
 11
637.209682
 21
2107.805485
  0
LINE
  8
CSLAYER1
  6
CONTINUOUS
 62
     7
 10
637.209682
 20
2107.805485
 11
637.235662
 21
2108.116300
  0
LINE
  8
CSLAYER1
  6
CONTINUOUS
 62
     7
 10
637.235662
 20
2108.116300
 11
637.287171
 21
2108.408486
  0
LINE
  8
CSLAYER1
  6
CONTINUOUS
 62
     7
 10
637.287171
 20
2108.408486
 11
637.363816
 21
2108.679820
  0
LINE
  8
CSLAYER1
  6
CONTINUOUS
 62
     7
 10
637.363816
 20
2108.679820
 11
637.465015
 21
2108.928236
  0
LINE
  8
CSLAYER1
  6
CONTINUOUS
 62
     7
 10
637.465015
 20
2108.928236
 11
637.589997
 21
2109.151845
  0
LINE
  8
CSLAYER1
  6
CONTINUOUS
 62
     7
 10
637.589997
 20
2109.151845
 11
637.737810
 21
2109.348945
  0
LINE
  8
CSLAYER1
  6
CONTINUOUS
 62
     7
 10
637.737810
 20
2109.348945
 11
637.907331
 21
2109.518035
  0
LINE
  8
CSLAYER1
  6
CONTINUOUS
 62
     7
 10
637.907331
 20
2109.518035
 11
638.097268
 21
2109.657828
  0
LINE
  8
CSLAYER1
  6
CONTINUOUS
 62
     7
 10
704.106450
 20
2161.443163
 11
704.106450
 21
2124.813834
  0
LINE
  8
CSLAYER1
  6
CONTINUOUS
 62
     7
 10
702.282807
 20
2160.303624
 11
704.106450
 21
2161.443163
  0
LINE
  8
CSLAYER1
  6
CONTINUOUS
 62
     7
 10
702.282807
 20
2160.303624
 11
702.282807
 21
2125.477586
  0
LINE
  8
CSLAYER1
  6
CONTINUOUS
 62
     7
 10
702.282807
 20
2160.303624
 11
685.359319
 21
2166.463270
  0
LINE
  8
CSLAYER1
  6
CONTINUOUS
 62
     7
 10
780.332925
 20
2131.895705
 11
782.156567
 21
2133.035243
  0
LINE
  8
CSLAYER1
  6
CONTINUOUS
 62
     7
 10
780.332925
 20
2131.895705
 11
780.332925
 21
2115.161090
  0
LINE
  8
CSLAYER1
  6
CONTINUOUS
 62
     7
 10
690.845721
 20
2155.264258
 11
691.069552
 21
2155.381508
  0
LINE
  8
CSLAYER1
  6
CONTINUOUS
 62
     7
 10
691.069552
 20
2155.381508
 11
691.312005
 21
2155.465336
  0
LINE
  8
CSLAYER1
  6
CONTINUOUS
 62
     7
 10
691.312005
 20
2155.465336
 11
691.571236
 21
2155.515105
  0
LINE
  8
CSLAYER1
  6
CONTINUOUS
 62
     7
 10
691.571236
 20
2155.515105
 11
691.845272
 21
2155.530437
  0
LINE
  8
CSLAYER1
  6
CONTINUOUS
 62
     7
 10
691.845272
 20
2155.530437
 11
692.132027
 21
2155.511213
  0
LINE
  8
CSLAYER1
  6
CONTINUOUS
 62
     7
 10
692.132027
 20
2155.511213
 11
692.429319
 21
2155.457581
  0
LINE
  8
CSLAYER1
  6
CONTINUOUS
 62
     7
 10
692.429319
 20
2155.457581
 11
692.734885
 21
2155.369949
  0
LINE
  8
CSLAYER1
  6
CONTINUOUS
 62
     7
 10
692.734885
 20
2155.369949
 11
693.046400
 21
2155.248983
  0
LINE
  8
CSLAYER1
  6
CONTINUOUS
 62
     7
 10
693.046400
 20
2155.248983
 11
693.361492
 21
2155.095605
  0
LINE
  8
CSLAYER1
  6
CONTINUOUS
 62
     7
 10
693.361492
 20
2155.095605
 11
693.677765
 21
2154.910981
  0
LINE
  8
CSLAYER1
  6
CONTINUOUS
 62
     7
 10
693.677765
 20
2154.910981
 11
693.992810
 21
2154.696517
  0
LINE
  8
CSLAYER1
  6
CONTINUOUS
 62
     7
 10
693.992810
 20
2154.696517
 11
694.304230
 21
2154.453845
  0
LINE
  8
CSLAYER1
  6
CONTINUOUS
 62
     7
 10
694.304230
 20
2154.453845
 11
694.609655
 21
2154.184811
  0
LINE
  8
CSLAYER1
  6
CONTINUOUS
 62
     7
 10
694.609655
 20
2154.184811
 11
694.906761
 21
2153.891464
  0
LINE
  8
CSLAYER1
  6
CONTINUOUS
 62
     7
 10
694.906761
 20
2153.891464
 11
695.193286
 21
2153.576036
  0
LINE
  8
CSLAYER1
  6
CONTINUOUS
 62
     7
 10
695.193286
 20
2153.576036
 11
695.467050
 21
2153.240927
  0
LINE
  8
CSLAYER1
  6
CONTINUOUS
 62
     7
 10
695.467050
 20
2153.240927
 11
695.725969
 21
2152.888688
  0
LINE
  8
CSLAYER1
  6
CONTINUOUS
 62
     7
 10
695.725969
 20
2152.888688
 11
695.968073
 21
2152.522000
  0
LINE
  8
CSLAYER1
  6
CONTINUOUS
 62
     7
 10
695.968073
 20
2152.522000
 11
696.191519
 21
2152.143652
  0
LINE
  8
CSLAYER1
  6
CONTINUOUS
 62
     7
 10
696.191519
 20
2152.143652
 11
696.394607
 21
2151.756526
  0
LINE
  8
CSLAYER1
  6
CONTINUOUS
 62
     7
 10
696.394607
 20
2151.756526
 11
696.575790
 21
2151.363567
  0
LINE
  8
CSLAYER1
  6
CONTINUOUS
 62
     7
 10
696.575790
 20
2151.363567
 11
696.733691
 21
2150.967765
  0
LINE
  8
CSLAYER1
  6
CONTINUOUS
 62
     7
 10
696.733691
 20
2150.967765
 11
696.867107
 21
2150.572133
  0
LINE
  8
CSLAYER1
  6
CONTINUOUS
 62
     7
 10
696.867107
 20
2150.572133
 11
696.975023
 21
2150.179682
  0
LINE
  8
CSLAYER1
  6
CONTINUOUS
 62
     7
 10
696.975023
 20
2150.179682
 11
697.056618
 21
2149.793399
  0
LINE
  8
CSLAYER1
  6
CONTINUOUS
 62
     7
 10
697.056618
 20
2149.793399
 11
697.111270
 21
2149.416224
  0
LINE
  8
CSLAYER1
  6
CONTINUOUS
 62
     7
 10
697.111270
 20
2149.416224
 11
697.138564
 21
2149.051026
  0
LINE
  8
CSLAYER1
  6
CONTINUOUS
 62
     7
 10
697.138564
 20
2149.051026
 11
697.138292
 21
2148.700586
  0
LINE
  8
CSLAYER1
  6
CONTINUOUS
 62
     7
 10
697.138292
 20
2148.700586
 11
697.110456
 21
2148.367571
  0
LINE
  8
CSLAYER1
  6
CONTINUOUS
 62
     7
 10
697.110456
 20
2148.367571
 11
697.055268
 21
2148.054514
  0
LINE
  8
CSLAYER1
  6
CONTINUOUS
 62
     7
 10
697.055268
 20
2148.054514
 11
696.973148
 21
2147.763800
  0
LINE
  8
CSLAYER1
  6
CONTINUOUS
 62
     7
 10
696.973148
 20
2147.763800
 11
696.864721
 21
2147.497639
  0
LINE
  8
CSLAYER1
  6
CONTINUOUS
 62
     7
 10
696.864721
 20
2147.497639
 11
696.730812
 21
2147.258058
  0
LINE
  8
CSLAYER1
  6
CONTINUOUS
 62
     7
 10
696.730812
 20
2147.258058
 11
696.572441
 21
2147.046880
  0
LINE
  8
CSLAYER1
  6
CONTINUOUS
 62
     7
 10
696.572441
 20
2147.046880
 11
696.390812
 21
2146.865712
  0
LINE
  8
CSLAYER1
  6
CONTINUOUS
 62
     7
 10
696.390812
 20
2146.865712
 11
696.187307
 21
2146.715933
  0
LINE
  8
CSLAYER1
  6
CONTINUOUS
 62
     7
 10
696.187307
 20
2146.715933
 11
695.963477
 21
2146.598683
  0
LINE
  8
CSLAYER1
  6
CONTINUOUS
 62
     7
 10
695.963477
 20
2146.598683
 11
695.721023
 21
2146.514855
  0
LINE
  8
CSLAYER1
  6
CONTINUOUS
 62
     7
 10
695.721023
 20
2146.514855
 11
695.461792
 21
2146.465086
  0
LINE
  8
CSLAYER1
  6
CONTINUOUS
 62
     7
 10
695.461792
 20
2146.465086
 11
695.187756
 21
2146.449755
  0
LINE
  8
CSLAYER1
  6
CONTINUOUS
 62
     7
 10
695.187756
 20
2146.449755
 11
694.901001
 21
2146.468978
  0
LINE
  8
CSLAYER1
  6
CONTINUOUS
 62
     7
 10
694.901001
 20
2146.468978
 11
694.603709
 21
2146.522610
  0
LINE
  8
CSLAYER1
  6
CONTINUOUS
 62
     7
 10
694.603709
 20
2146.522610
 11
694.298143
 21
2146.610243
  0
LINE
  8
CSLAYER1
  6
CONTINUOUS
 62
     7
 10
694.298143
 20
2146.610243
 11
693.986629
 21
2146.731208
  0
LINE
  8
CSLAYER1
  6
CONTINUOUS
 62
     7
 10
693.986629
 20
2146.731208
 11
693.671536
 21
2146.884587
  0
LINE
  8
CSLAYER1
  6
CONTINUOUS
 62
     7
 10
693.671536
 20
2146.884587
 11
693.355264
 21
2147.069210
  0
LINE
  8
CSLAYER1
  6
CONTINUOUS
 62
     7
 10
693.355264
 20
2147.069210
 11
693.040219
 21
2147.283675
  0
LINE
  8
CSLAYER1
  6
CONTINUOUS
 62
     7
 10
693.040219
 20
2147.283675
 11
692.728799
 21
2147.526347
  0
LINE
  8
CSLAYER1
  6
CONTINUOUS
 62
     7
 10
692.728799
 20
2147.526347
 11
692.423373
 21
2147.795380
  0
LINE
  8
CSLAYER1
  6
CONTINUOUS
 62
     7
 10
692.423373
 20
2147.795380
 11
692.126267
 21
2148.088727
  0
LINE
  8
CSLAYER1
  6
CONTINUOUS
 62
     7
 10
692.126267
 20
2148.088727
 11
691.839742
 21
2148.404155
  0
LINE
  8
CSLAYER1
  6
CONTINUOUS
 62
     7
 10
691.839742
 20
2148.404155
 11
691.565978
 21
2148.739264
  0
LINE
  8
CSLAYER1
  6
CONTINUOUS
 62
     7
 10
691.565978
 20
2148.739264
 11
691.307059
 21
2149.091503
  0
LINE
  8
CSLAYER1
  6
CONTINUOUS
 62
     7
 10
691.307059
 20
2149.091503
 11
691.064955
 21
2149.458192
  0
LINE
  8
CSLAYER1
  6
CONTINUOUS
 62
     7
 10
691.064955
 20
2149.458192
 11
690.841509
 21
2149.836539
  0
LINE
  8
CSLAYER1
  6
CONTINUOUS
 62
     7
 10
690.841509
 20
2149.836539
 11
690.638422
 21
2150.223665
  0
LINE
  8
CSLAYER1
  6
CONTINUOUS
 62
     7
 10
690.638422
 20
2150.223665
 11
690.457238
 21
2150.616625
  0
LINE
  8
CSLAYER1
  6
CONTINUOUS
 62
     7
 10
690.457238
 20
2150.616625
 11
690.299337
 21
2151.012426
  0
LINE
  8
CSLAYER1
  6
CONTINUOUS
 62
     7
 10
690.299337
 20
2151.012426
 11
690.165921
 21
2151.408058
  0
LINE
  8
CSLAYER1
  6
CONTINUOUS
 62
     7
 10
690.165921
 20
2151.408058
 11
690.058005
 21
2151.800509
  0
LINE
  8
CSLAYER1
  6
CONTINUOUS
 62
     7
 10
690.058005
 20
2151.800509
 11
689.976411
 21
2152.186792
  0
LINE
  8
CSLAYER1
  6
CONTINUOUS
 62
     7
 10
689.976411
 20
2152.186792
 11
689.921758
 21
2152.563968
  0
LINE
  8
CSLAYER1
  6
CONTINUOUS
 62
     7
 10
689.921758
 20
2152.563968
 11
689.894464
 21
2152.929165
  0
LINE
  8
CSLAYER1
  6
CONTINUOUS
 62
     7
 10
689.894464
 20
2152.929165
 11
689.894736
 21
2153.279605
  0
LINE
  8
CSLAYER1
  6
CONTINUOUS
 62
     7
 10
689.894736
 20
2153.279605
 11
689.922572
 21
2153.612620
  0
LINE
  8
CSLAYER1
  6
CONTINUOUS
 62
     7
 10
689.922572
 20
2153.612620
 11
689.977760
 21
2153.925677
  0
LINE
  8
CSLAYER1
  6
CONTINUOUS
 62
     7
 10
689.977760
 20
2153.925677
 11
690.059880
 21
2154.216392
  0
LINE
  8
CSLAYER1
  6
CONTINUOUS
 62
     7
 10
690.059880
 20
2154.216392
 11
690.168307
 21
2154.482552
  0
LINE
  8
CSLAYER1
  6
CONTINUOUS
 62
     7
 10
690.168307
 20
2154.482552
 11
690.302216
 21
2154.722134
  0
LINE
  8
CSLAYER1
  6
CONTINUOUS
 62
     7
 10
690.302216
 20
2154.722134
 11
690.460588
 21
2154.933312
  0
LINE
  8
CSLAYER1
  6
CONTINUOUS
 62
     7
 10
690.460588
 20
2154.933312
 11
690.642217
 21
2155.114479
  0
LINE
  8
CSLAYER1
  6
CONTINUOUS
 62
     7
 10
690.642217
 20
2155.114479
 11
690.845721
 21
2155.264258
  0
LINE
  8
CSLAYER1
  6
CONTINUOUS
 62
     7
 10
690.845721
 20
2155.264258
 11
693.297280
 21
2156.796162
  0
LINE
  8
CSLAYER1
  6
CONTINUOUS
 62
     7
 10
696.187307
 20
2146.715933
 11
698.638866
 21
2148.247837
  0
LINE
  8
CSLAYER1
  6
CONTINUOUS
 62
     7
 10
694.304230
 20
2154.453845
 11
696.755789
 21
2155.985749
  0
LINE
  8
CSLAYER1
  6
CONTINUOUS
 62
     7
 10
696.847534
 20
2150.630176
 11
699.299093
 21
2152.162080
  0
LINE
  8
CSLAYER1
  6
CONTINUOUS
 62
     7
 10
693.297280
 20
2156.796162
 11
693.521111
 21
2156.913412
  0
LINE
  8
CSLAYER1
  6
CONTINUOUS
 62
     7
 10
693.521111
 20
2156.913412
 11
693.763564
 21
2156.997240
  0
LINE
  8
CSLAYER1
  6
CONTINUOUS
 62
     7
 10
693.763564
 20
2156.997240
 11
694.022795
 21
2157.047009
  0
LINE
  8
CSLAYER1
  6
CONTINUOUS
 62
     7
 10
694.022795
 20
2157.047009
 11
694.296831
 21
2157.062341
  0
LINE
  8
CSLAYER1
  6
CONTINUOUS
 62
     7
 10
694.296831
 20
2157.062341
 11
694.583586
 21
2157.043117
  0
LINE
  8
CSLAYER1
  6
CONTINUOUS
 62
     7
 10
694.583586
 20
2157.043117
 11
694.880878
 21
2156.989485
  0
LINE
  8
CSLAYER1
  6
CONTINUOUS
 62
     7
 10
694.880878
 20
2156.989485
 11
695.186444
 21
2156.901853
  0
LINE
  8
CSLAYER1
  6
CONTINUOUS
 62
     7
 10
695.186444
 20
2156.901853
 11
695.497958
 21
2156.780887
  0
LINE
  8
CSLAYER1
  6
CONTINUOUS
 62
     7
 10
695.497958
 20
2156.780887
 11
695.813051
 21
2156.627509
  0
LINE
  8
CSLAYER1
  6
CONTINUOUS
 62
     7
 10
695.813051
 20
2156.627509
 11
696.129323
 21
2156.442885
  0
LINE
  8
CSLAYER1
  6
CONTINUOUS
 62
     7
 10
696.129323
 20
2156.442885
 11
696.444368
 21
2156.228421
  0
LINE
  8
CSLAYER1
  6
CONTINUOUS
 62
     7
 10
696.444368
 20
2156.228421
 11
696.755789
 21
2155.985749
  0
LINE
  8
CSLAYER1
  6
CONTINUOUS
 62
     7
 10
696.755789
 20
2155.985749
 11
697.061214
 21
2155.716715
  0
LINE
  8
CSLAYER1
  6
CONTINUOUS
 62
     7
 10
697.061214
 20
2155.716715
 11
697.358320
 21
2155.423368
  0
LINE
  8
CSLAYER1
  6
CONTINUOUS
 62
     7
 10
697.358320
 20
2155.423368
 11
697.644845
 21
2155.107940
  0
LINE
  8
CSLAYER1
  6
CONTINUOUS
 62
     7
 10
697.644845
 20
2155.107940
 11
697.918609
 21
2154.772831
  0
LINE
  8
CSLAYER1
  6
CONTINUOUS
 62
     7
 10
697.918609
 20
2154.772831
 11
698.177528
 21
2154.420592
  0
LINE
  8
CSLAYER1
  6
CONTINUOUS
 62
     7
 10
698.177528
 20
2154.420592
 11
698.419632
 21
2154.053904
  0
LINE
  8
CSLAYER1
  6
CONTINUOUS
 62
     7
 10
698.419632
 20
2154.053904
 11
698.643078
 21
2153.675556
  0
LINE
  8
CSLAYER1
  6
CONTINUOUS
 62
     7
 10
698.643078
 20
2153.675556
 11
698.846166
 21
2153.288430
  0
LINE
  8
CSLAYER1
  6
CONTINUOUS
 62
     7
 10
698.846166
 20
2153.288430
 11
699.027349
 21
2152.895471
  0
LINE
  8
CSLAYER1
  6
CONTINUOUS
 62
     7
 10
699.027349
 20
2152.895471
 11
699.185250
 21
2152.499669
  0
LINE
  8
CSLAYER1
  6
CONTINUOUS
 62
     7
 10
699.185250
 20
2152.499669
 11
699.318666
 21
2152.104037
  0
LINE
  8
CSLAYER1
  6
CONTINUOUS
 62
     7
 10
699.318666
 20
2152.104037
 11
699.426582
 21
2151.711586
  0
LINE
  8
CSLAYER1
  6
CONTINUOUS
 62
     7
 10
699.426582
 20
2151.711586
 11
699.508176
 21
2151.325303
  0
LINE
  8
CSLAYER1
  6
CONTINUOUS
 62
     7
 10
699.508176
 20
2151.325303
 11
699.562829
 21
2150.948128
  0
LINE
  8
CSLAYER1
  6
CONTINUOUS
 62
     7
 10
699.562829
 20
2150.948128
 11
699.590123
 21
2150.582930
  0
LINE
  8
CSLAYER1
  6
CONTINUOUS
 62
     7
 10
699.590123
 20
2150.582930
 11
699.589851
 21
2150.232490
  0
LINE
  8
CSLAYER1
  6
CONTINUOUS
 62
     7
 10
699.589851
 20
2150.232490
 11
699.562015
 21
2149.899475
  0
LINE
  8
CSLAYER1
  6
CONTINUOUS
 62
     7
 10
699.562015
 20
2149.899475
 11
699.506827
 21
2149.586418
  0
LINE
  8
CSLAYER1
  6
CONTINUOUS
 62
     7
 10
699.506827
 20
2149.586418
 11
699.424707
 21
2149.295704
  0
LINE
  8
CSLAYER1
  6
CONTINUOUS
 62
     7
 10
699.424707
 20
2149.295704
 11
699.316280
 21
2149.029543
  0
LINE
  8
CSLAYER1
  6
CONTINUOUS
 62
     7
 10
699.316280
 20
2149.029543
 11
699.182371
 21
2148.789962
  0
LINE
  8
CSLAYER1
  6
CONTINUOUS
 62
     7
 10
699.182371
 20
2148.789962
 11
699.024000
 21
2148.578784
  0
LINE
  8
CSLAYER1
  6
CONTINUOUS
 62
     7
 10
699.024000
 20
2148.578784
 11
698.842370
 21
2148.397616
  0
LINE
  8
CSLAYER1
  6
CONTINUOUS
 62
     7
 10
698.842370
 20
2148.397616
 11
698.638866
 21
2148.247837
  0
LINE
  8
CSLAYER1
  6
CONTINUOUS
 62
     7
 10
781.525307
 20
2122.259588
 11
783.976866
 21
2123.791492
  0
LINE
  8
CSLAYER1
  6
CONTINUOUS
 62
     7
 10
784.983816
 20
2121.449174
 11
787.435375
 21
2122.981078
  0
LINE
  8
CSLAYER1
  6
CONTINUOUS
 62
     7
 10
787.527120
 20
2117.625505
 11
789.978679
 21
2119.157409
  0
LINE
  8
CSLAYER1
  6
CONTINUOUS
 62
     7
 10
783.976866
 20
2123.791492
 11
784.200697
 21
2123.908742
  0
LINE
  8
CSLAYER1
  6
CONTINUOUS
 62
     7
 10
784.200697
 20
2123.908742
 11
784.443150
 21
2123.992570
  0
LINE
  8
CSLAYER1
  6
CONTINUOUS
 62
     7
 10
784.443150
 20
2123.992570
 11
784.702381
 21
2124.042339
  0
LINE
  8
CSLAYER1
  6
CONTINUOUS
 62
     7
 10
784.702381
 20
2124.042339
 11
784.976417
 21
2124.057670
  0
LINE
  8
CSLAYER1
  6
CONTINUOUS
 62
     7
 10
784.976417
 20
2124.057670
 11
785.263172
 21
2124.038447
  0
LINE
  8
CSLAYER1
  6
CONTINUOUS
 62
     7
 10
785.263172
 20
2124.038447
 11
785.560464
 21
2123.984815
  0
LINE
  8
CSLAYER1
  6
CONTINUOUS
 62
     7
 10
785.560464
 20
2123.984815
 11
785.866030
 21
2123.897182
  0
LINE
  8
CSLAYER1
  6
CONTINUOUS
 62
     7
 10
785.866030
 20
2123.897182
 11
786.177545
 21
2123.776217
  0
LINE
  8
CSLAYER1
  6
CONTINUOUS
 62
     7
 10
786.177545
 20
2123.776217
 11
786.492637
 21
2123.622838
  0
LINE
  8
CSLAYER1
  6
CONTINUOUS
 62
     7
 10
786.492637
 20
2123.622838
 11
786.808910
 21
2123.438215
  0
LINE
  8
CSLAYER1
  6
CONTINUOUS
 62
     7
 10
786.808910
 20
2123.438215
 11
787.123955
 21
2123.223751
  0
LINE
  8
CSLAYER1
  6
CONTINUOUS
 62
     7
 10
787.123955
 20
2123.223751
 11
787.435375
 21
2122.981078
  0
LINE
  8
CSLAYER1
  6
CONTINUOUS
 62
     7
 10
787.435375
 20
2122.981078
 11
787.740800
 21
2122.712045
  0
LINE
  8
CSLAYER1
  6
CONTINUOUS
 62
     7
 10
787.740800
 20
2122.712045
 11
788.037906
 21
2122.418698
  0
LINE
  8
CSLAYER1
  6
CONTINUOUS
 62
     7
 10
788.037906
 20
2122.418698
 11
788.324431
 21
2122.103270
  0
LINE
  8
CSLAYER1
  6
CONTINUOUS
 62
     7
 10
788.324431
 20
2122.103270
 11
788.598195
 21
2121.768161
  0
LINE
  8
CSLAYER1
  6
CONTINUOUS
 62
     7
 10
788.598195
 20
2121.768161
 11
788.857114
 21
2121.415922
  0
LINE
  8
CSLAYER1
  6
CONTINUOUS
 62
     7
 10
788.857114
 20
2121.415922
 11
789.099218
 21
2121.049233
  0
LINE
  8
CSLAYER1
  6
CONTINUOUS
 62
     7
 10
789.099218
 20
2121.049233
 11
789.276240
 21
2120.749493
  0
LINE
  8
CSLAYER1
  6
CONTINUOUS
 62
     7
 10
781.525307
 20
2122.259588
 11
781.749138
 21
2122.376838
  0
LINE
  8
CSLAYER1
  6
CONTINUOUS
 62
     7
 10
781.749138
 20
2122.376838
 11
781.991591
 21
2122.460666
  0
LINE
  8
CSLAYER1
  6
CONTINUOUS
 62
     7
 10
781.991591
 20
2122.460666
 11
782.250822
 21
2122.510435
  0
LINE
  8
CSLAYER1
  6
CONTINUOUS
 62
     7
 10
782.250822
 20
2122.510435
 11
782.524858
 21
2122.525766
  0
LINE
  8
CSLAYER1
  6
CONTINUOUS
 62
     7
 10
782.524858
 20
2122.525766
 11
782.811613
 21
2122.506543
  0
LINE
  8
CSLAYER1
  6
CONTINUOUS
 62
     7
 10
782.811613
 20
2122.506543
 11
783.108905
 21
2122.452911
  0
LINE
  8
CSLAYER1
  6
CONTINUOUS
 62
     7
 10
783.108905
 20
2122.452911
 11
783.414471
 21
2122.365278
  0
LINE
  8
CSLAYER1
  6
CONTINUOUS
 62
     7
 10
783.414471
 20
2122.365278
 11
783.725986
 21
2122.244313
  0
LINE
  8
CSLAYER1
  6
CONTINUOUS
 62
     7
 10
783.725986
 20
2122.244313
 11
784.041078
 21
2122.090934
  0
LINE
  8
CSLAYER1
  6
CONTINUOUS
 62
     7
 10
784.041078
 20
2122.090934
 11
784.357351
 21
2121.906311
  0
LINE
  8
CSLAYER1
  6
CONTINUOUS
 62
     7
 10
784.357351
 20
2121.906311
 11
784.672396
 21
2121.691847
  0
LINE
  8
CSLAYER1
  6
CONTINUOUS
 62
     7
 10
784.672396
 20
2121.691847
 11
784.983816
 21
2121.449174
  0
LINE
  8
CSLAYER1
  6
CONTINUOUS
 62
     7
 10
784.983816
 20
2121.449174
 11
785.289241
 21
2121.180141
  0
LINE
  8
CSLAYER1
  6
CONTINUOUS
 62
     7
 10
785.289241
 20
2121.180141
 11
785.586347
 21
2120.886794
  0
LINE
  8
CSLAYER1
  6
CONTINUOUS
 62
     7
 10
785.586347
 20
2120.886794
 11
785.872872
 21
2120.571366
  0
LINE
  8
CSLAYER1
  6
CONTINUOUS
 62
     7
 10
785.872872
 20
2120.571366
 11
786.146636
 21
2120.236257
  0
LINE
  8
CSLAYER1
  6
CONTINUOUS
 62
     7
 10
786.146636
 20
2120.236257
 11
786.405555
 21
2119.884018
  0
LINE
  8
CSLAYER1
  6
CONTINUOUS
 62
     7
 10
786.405555
 20
2119.884018
 11
786.647659
 21
2119.517329
  0
LINE
  8
CSLAYER1
  6
CONTINUOUS
 62
     7
 10
786.647659
 20
2119.517329
 11
786.824681
 21
2119.217589
  0
LINE
  8
CSLAYER1
  6
CONTINUOUS
 62
     7
 10
781.936345
 20
2116.163018
 11
781.744542
 21
2116.453521
  0
LINE
  8
CSLAYER1
  6
CONTINUOUS
 62
     7
 10
781.744542
 20
2116.453521
 11
781.521095
 21
2116.831869
  0
LINE
  8
CSLAYER1
  6
CONTINUOUS
 62
     7
 10
781.521095
 20
2116.831869
 11
781.318008
 21
2117.218995
  0
LINE
  8
CSLAYER1
  6
CONTINUOUS
 62
     7
 10
781.318008
 20
2117.218995
 11
781.136824
 21
2117.611954
  0
LINE
  8
CSLAYER1
  6
CONTINUOUS
 62
     7
 10
781.136824
 20
2117.611954
 11
780.978924
 21
2118.007756
  0
LINE
  8
CSLAYER1
  6
CONTINUOUS
 62
     7
 10
780.978924
 20
2118.007756
 11
780.845508
 21
2118.403388
  0
LINE
  8
CSLAYER1
  6
CONTINUOUS
 62
     7
 10
780.845508
 20
2118.403388
 11
780.737592
 21
2118.795839
  0
LINE
  8
CSLAYER1
  6
CONTINUOUS
 62
     7
 10
780.737592
 20
2118.795839
 11
780.655997
 21
2119.182122
  0
LINE
  8
CSLAYER1
  6
CONTINUOUS
 62
     7
 10
780.655997
 20
2119.182122
 11
780.601345
 21
2119.559298
  0
LINE
  8
CSLAYER1
  6
CONTINUOUS
 62
     7
 10
780.601345
 20
2119.559298
 11
780.574051
 21
2119.924495
  0
LINE
  8
CSLAYER1
  6
CONTINUOUS
 62
     7
 10
780.574051
 20
2119.924495
 11
780.574322
 21
2120.274935
  0
LINE
  8
CSLAYER1
  6
CONTINUOUS
 62
     7
 10
780.574322
 20
2120.274935
 11
780.602158
 21
2120.607950
  0
LINE
  8
CSLAYER1
  6
CONTINUOUS
 62
     7
 10
780.602158
 20
2120.607950
 11
780.657346
 21
2120.921007
  0
LINE
  8
CSLAYER1
  6
CONTINUOUS
 62
     7
 10
780.657346
 20
2120.921007
 11
780.739466
 21
2121.211722
  0
LINE
  8
CSLAYER1
  6
CONTINUOUS
 62
     7
 10
780.739466
 20
2121.211722
 11
780.847893
 21
2121.477882
  0
LINE
  8
CSLAYER1
  6
CONTINUOUS
 62
     7
 10
780.847893
 20
2121.477882
 11
780.981802
 21
2121.717463
  0
LINE
  8
CSLAYER1
  6
CONTINUOUS
 62
     7
 10
780.981802
 20
2121.717463
 11
781.140174
 21
2121.928641
  0
LINE
  8
CSLAYER1
  6
CONTINUOUS
 62
     7
 10
781.140174
 20
2121.928641
 11
781.321803
 21
2122.109809
  0
LINE
  8
CSLAYER1
  6
CONTINUOUS
 62
     7
 10
781.321803
 20
2122.109809
 11
781.525307
 21
2122.259588
  0
ARC
  8
CSLAYER1
  6
CONTINUOUS
 62
     7
 10
625.516363
 20
2121.145162
 40
6.720000
 50
122.000000
 51
180.000000
  0
ARC
  8
CSLAYER1
  6
CONTINUOUS
 62
     7
 10
623.495648
 20
2121.880642
 40
6.720000
 50
122.000000
 51
180.000000
  0
ARC
  8
CSLAYER1
  6
CONTINUOUS
 62
     7
 10
622.156363
 20
2057.011720
 40
3.360000
 50
256.943959
 51
302.000000
  0
ARC
  8
CSLAYER1
  6
CONTINUOUS
 62
     7
 10
619.887625
 20
2057.292527
 40
3.360000
 50
202.152506
 51
217.167534
  0
LINE
  8
CSLAYER1
  6
CONTINUOUS
 62
     7
 10
621.397326
 20
2053.738577
 11
617.210134
 21
2055.262590
  0
ARC
  8
CSLAYER1
  6
CONTINUOUS
 62
     7
 10
736.074172
 20
2081.544949
 40
3.360000
 50
122.000000
 51
180.000000
  0
ARC
  8
CSLAYER1
  6
CONTINUOUS
 62
     7
 10
734.053457
 20
2082.280429
 40
3.360000
 50
122.000000
 51
180.000000
  0
ARC
  8
CSLAYER1
  6
CONTINUOUS
 62
     7
 10
736.074172
 20
2015.549028
 40
3.360000
 50
180.000000
 51
302.000000
  0
ARC
  8
CSLAYER1
  6
CONTINUOUS
 62
     7
 10
733.944460
 20
2016.043545
 40
3.360000
 50
194.633804
 51
226.715114
  0
LINE
  8
CSLAYER1
  6
CONTINUOUS
 62
     7
 10
656.470758
 20
2150.409857
 11
685.162247
 21
2168.338289
  0
LINE
  8
CSLAYER1
  6
CONTINUOUS
 62
     7
 10
625.043727
 20
2054.853905
 11
621.645805
 21
2056.090648
  0
ARC
  8
CSLAYER1
  6
CONTINUOUS
 62
     7
 10
622.156363
 20
2057.011720
 40
3.360000
 50
180.000000
 51
256.943959
  0
LINE
  8
CSLAYER1
  6
CONTINUOUS
 62
     7
 10
656.470758
 20
2000.622648
 11
656.470758
 21
1984.353066
  0
LINE
  8
CSLAYER1
  6
CONTINUOUS
 62
     7
 10
412.199831
 20
1905.084474
 11
412.637801
 21
1905.207145
  0
LINE
  8
CSLAYER1
  6
CONTINUOUS
 62
     7
 10
412.637801
 20
1905.207145
 11
413.096053
 21
1905.264003
  0
LINE
  8
CSLAYER1
  6
CONTINUOUS
 62
     7
 10
413.096053
 20
1905.264003
 11
413.571098
 21
1905.254615
  0
LINE
  8
CSLAYER1
  6
CONTINUOUS
 62
     7
 10
413.571098
 20
1905.254615
 11
414.059321
 21
1905.179052
  0
LINE
  8
CSLAYER1
  6
CONTINUOUS
 62
     7
 10
414.059321
 20
1905.179052
 11
414.557006
 21
1905.037890
  0
LINE
  8
CSLAYER1
  6
CONTINUOUS
 62
     7
 10
414.557006
 20
1905.037890
 11
415.060367
 21
1904.832204
  0
LINE
  8
CSLAYER1
  6
CONTINUOUS
 62
     7
 10
415.060367
 20
1904.832204
 11
415.565571
 21
1904.563557
  0
LINE
  8
CSLAYER1
  6
CONTINUOUS
 62
     7
 10
415.565571
 20
1904.563557
 11
416.068773
 21
1904.233995
  0
LINE
  8
CSLAYER1
  6
CONTINUOUS
 62
     7
 10
416.068773
 20
1904.233995
 11
416.566146
 21
1903.846027
  0
LINE
  8
CSLAYER1
  6
CONTINUOUS
 62
     7
 10
416.566146
 20
1903.846027
 11
417.053902
 21
1903.402604
  0
LINE
  8
CSLAYER1
  6
CONTINUOUS
 62
     7
 10
417.053902
 20
1903.402604
 11
417.528330
 21
1902.907102
  0
LINE
  8
CSLAYER1
  6
CONTINUOUS
 62
     7
 10
417.528330
 20
1902.907102
 11
417.985819
 21
1902.363291
  0
LINE
  8
CSLAYER1
  6
CONTINUOUS
 62
     7
 10
417.985819
 20
1902.363291
 11
418.422887
 21
1901.775310
  0
LINE
  8
CSLAYER1
  6
CONTINUOUS
 62
     7
 10
418.422887
 20
1901.775310
 11
418.836208
 21
1901.147635
  0
LINE
  8
CSLAYER1
  6
CONTINUOUS
 62
     7
 10
418.836208
 20
1901.147635
 11
419.222637
 21
1900.485042
  0
LINE
  8
CSLAYER1
  6
CONTINUOUS
 62
     7
 10
419.222637
 20
1900.485042
 11
419.579233
 21
1899.792574
  0
LINE
  8
CSLAYER1
  6
CONTINUOUS
 62
     7
 10
419.579233
 20
1899.792574
 11
419.903280
 21
1899.075500
  0
LINE
  8
CSLAYER1
  6
CONTINUOUS
 62
     7
 10
419.903280
 20
1899.075500
 11
420.192314
 21
1898.339279
  0
LINE
  8
CSLAYER1
  6
CONTINUOUS
 62
     7
 10
420.192314
 20
1898.339279
 11
420.444135
 21
1897.589514
  0
LINE
  8
CSLAYER1
  6
CONTINUOUS
 62
     7
 10
420.444135
 20
1897.589514
 11
420.656826
 21
1896.831910
  0
LINE
  8
CSLAYER1
  6
CONTINUOUS
 62
     7
 10
420.656826
 20
1896.831910
 11
420.828768
 21
1896.072233
  0
LINE
  8
CSLAYER1
  6
CONTINUOUS
 62
     7
 10
420.828768
 20
1896.072233
 11
420.958653
 21
1895.316266
  0
LINE
  8
CSLAYER1
  6
CONTINUOUS
 62
     7
 10
420.958653
 20
1895.316266
 11
421.045493
 21
1894.569761
  0
LINE
  8
CSLAYER1
  6
CONTINUOUS
 62
     7
 10
421.045493
 20
1894.569761
 11
421.088625
 21
1893.838399
  0
LINE
  8
CSLAYER1
  6
CONTINUOUS
 62
     7
 10
421.088625
 20
1893.838399
 11
421.087723
 21
1893.127748
  0
LINE
  8
CSLAYER1
  6
CONTINUOUS
 62
     7
 10
421.087723
 20
1893.127748
 11
421.042793
 21
1892.443215
  0
LINE
  8
CSLAYER1
  6
CONTINUOUS
 62
     7
 10
421.042793
 20
1892.443215
 11
420.954177
 21
1891.790010
  0
LINE
  8
CSLAYER1
  6
CONTINUOUS
 62
     7
 10
420.954177
 20
1891.790010
 11
420.822549
 21
1891.173104
  0
LINE
  8
CSLAYER1
  6
CONTINUOUS
 62
     7
 10
420.822549
 20
1891.173104
 11
420.648911
 21
1890.597192
  0
LINE
  8
CSLAYER1
  6
CONTINUOUS
 62
     7
 10
420.648911
 20
1890.597192
 11
420.434585
 21
1890.066658
  0
LINE
  8
CSLAYER1
  6
CONTINUOUS
 62
     7
 10
420.434585
 20
1890.066658
 11
420.181202
 21
1889.585539
  0
LINE
  8
CSLAYER1
  6
CONTINUOUS
 62
     7
 10
420.181202
 20
1889.585539
 11
419.890690
 21
1889.157497
  0
LINE
  8
CSLAYER1
  6
CONTINUOUS
 62
     7
 10
419.890690
 20
1889.157497
 11
419.565260
 21
1888.785789
  0
LINE
  8
CSLAYER1
  6
CONTINUOUS
 62
     7
 10
419.565260
 20
1888.785789
 11
419.207389
 21
1888.473244
  0
LINE
  8
CSLAYER1
  6
CONTINUOUS
 62
     7
 10
419.207389
 20
1888.473244
 11
418.819801
 21
1888.222242
  0
LINE
  8
CSLAYER1
  6
CONTINUOUS
 62
     7
 10
418.819801
 20
1888.222242
 11
418.405444
 21
1888.034691
  0
LINE
  8
CSLAYER1
  6
CONTINUOUS
 62
     7
 10
418.405444
 20
1888.034691
 11
417.967474
 21
1887.912020
  0
LINE
  8
CSLAYER1
  6
CONTINUOUS
 62
     7
 10
417.967474
 20
1887.912020
 11
417.509222
 21
1887.855162
  0
LINE
  8
CSLAYER1
  6
CONTINUOUS
 62
     7
 10
417.509222
 20
1887.855162
 11
417.034177
 21
1887.864550
  0
LINE
  8
CSLAYER1
  6
CONTINUOUS
 62
     7
 10
417.034177
 20
1887.864550
 11
416.545954
 21
1887.940113
  0
LINE
  8
CSLAYER1
  6
CONTINUOUS
 62
     7
 10
416.545954
 20
1887.940113
 11
416.048269
 21
1888.081275
  0
LINE
  8
CSLAYER1
  6
CONTINUOUS
 62
     7
 10
416.048269
 20
1888.081275
 11
415.544909
 21
1888.286962
  0
LINE
  8
CSLAYER1
  6
CONTINUOUS
 62
     7
 10
415.544909
 20
1888.286962
 11
415.039705
 21
1888.555608
  0
LINE
  8
CSLAYER1
  6
CONTINUOUS
 62
     7
 10
415.039705
 20
1888.555608
 11
414.536502
 21
1888.885170
  0
LINE
  8
CSLAYER1
  6
CONTINUOUS
 62
     7
 10
414.536502
 20
1888.885170
 11
414.039130
 21
1889.273138
  0
LINE
  8
CSLAYER1
  6
CONTINUOUS
 62
     7
 10
414.039130
 20
1889.273138
 11
413.551374
 21
1889.716561
  0
LINE
  8
CSLAYER1
  6
CONTINUOUS
 62
     7
 10
413.551374
 20
1889.716561
 11
413.076946
 21
1890.212063
  0
LINE
  8
CSLAYER1
  6
CONTINUOUS
 62
     7
 10
413.076946
 20
1890.212063
 11
412.619457
 21
1890.755874
  0
LINE
  8
CSLAYER1
  6
CONTINUOUS
 62
     7
 10
412.619457
 20
1890.755874
 11
412.182388
 21
1891.343855
  0
LINE
  8
CSLAYER1
  6
CONTINUOUS
 62
     7
 10
412.182388
 20
1891.343855
 11
411.769067
 21
1891.971530
  0
LINE
  8
CSLAYER1
  6
CONTINUOUS
 62
     7
 10
411.769067
 20
1891.971530
 11
411.382638
 21
1892.634123
  0
LINE
  8
CSLAYER1
  6
CONTINUOUS
 62
     7
 10
411.382638
 20
1892.634123
 11
411.026043
 21
1893.326591
  0
LINE
  8
CSLAYER1
  6
CONTINUOUS
 62
     7
 10
411.026043
 20
1893.326591
 11
410.701995
 21
1894.043665
  0
LINE
  8
CSLAYER1
  6
CONTINUOUS
 62
     7
 10
410.701995
 20
1894.043665
 11
410.412961
 21
1894.779886
  0
LINE
  8
CSLAYER1
  6
CONTINUOUS
 62
     7
 10
410.412961
 20
1894.779886
 11
410.161140
 21
1895.529651
  0
LINE
  8
CSLAYER1
  6
CONTINUOUS
 62
     7
 10
410.161140
 20
1895.529651
 11
409.948449
 21
1896.287255
  0
LINE
  8
CSLAYER1
  6
CONTINUOUS
 62
     7
 10
409.948449
 20
1896.287255
 11
409.776507
 21
1897.046932
  0
LINE
  8
CSLAYER1
  6
CONTINUOUS
 62
     7
 10
409.776507
 20
1897.046932
 11
409.646622
 21
1897.802899
  0
LINE
  8
CSLAYER1
  6
CONTINUOUS
 62
     7
 10
409.646622
 20
1897.802899
 11
409.559783
 21
1898.549404
  0
LINE
  8
CSLAYER1
  6
CONTINUOUS
 62
     7
 10
409.559783
 20
1898.549404
 11
409.516650
 21
1899.280766
  0
LINE
  8
CSLAYER1
  6
CONTINUOUS
 62
     7
 10
409.516650
 20
1899.280766
 11
409.517552
 21
1899.991417
  0
LINE
  8
CSLAYER1
  6
CONTINUOUS
 62
     7
 10
409.517552
 20
1899.991417
 11
409.562482
 21
1900.675950
  0
LINE
  8
CSLAYER1
  6
CONTINUOUS
 62
     7
 10
409.562482
 20
1900.675950
 11
409.651098
 21
1901.329155
  0
LINE
  8
CSLAYER1
  6
CONTINUOUS
 62
     7
 10
409.651098
 20
1901.329155
 11
409.782726
 21
1901.946061
  0
LINE
  8
CSLAYER1
  6
CONTINUOUS
 62
     7
 10
409.782726
 20
1901.946061
 11
409.956364
 21
1902.521973
  0
LINE
  8
CSLAYER1
  6
CONTINUOUS
 62
     7
 10
409.956364
 20
1902.521973
 11
410.170690
 21
1903.052507
  0
LINE
  8
CSLAYER1
  6
CONTINUOUS
 62
     7
 10
410.170690
 20
1903.052507
 11
410.424073
 21
1903.533626
  0
LINE
  8
CSLAYER1
  6
CONTINUOUS
 62
     7
 10
410.424073
 20
1903.533626
 11
410.714585
 21
1903.961668
  0
LINE
  8
CSLAYER1
  6
CONTINUOUS
 62
     7
 10
410.714585
 20
1903.961668
 11
411.040015
 21
1904.333376
  0
LINE
  8
CSLAYER1
  6
CONTINUOUS
 62
     7
 10
411.040015
 20
1904.333376
 11
411.397886
 21
1904.645921
  0
LINE
  8
CSLAYER1
  6
CONTINUOUS
 62
     7
 10
411.397886
 20
1904.645921
 11
411.785475
 21
1904.896923
  0
LINE
  8
CSLAYER1
  6
CONTINUOUS
 62
     7
 10
411.785475
 20
1904.896923
 11
412.199831
 21
1905.084474
  0
LINE
  8
CSLAYER1
  6
CONTINUOUS
 62
     7
 10
412.199831
 20
1905.084474
 11
467.715488
 21
1925.760461
  0
LINE
  8
CSLAYER1
  6
CONTINUOUS
 62
     7
 10
418.405444
 20
1888.034691
 11
473.921101
 21
1908.710678
  0
LINE
  8
CSLAYER1
  6
CONTINUOUS
 62
     7
 10
467.715488
 20
1925.760461
 11
468.153459
 21
1925.883132
  0
LINE
  8
CSLAYER1
  6
CONTINUOUS
 62
     7
 10
468.153459
 20
1925.883132
 11
468.611710
 21
1925.939990
  0
LINE
  8
CSLAYER1
  6
CONTINUOUS
 62
     7
 10
468.611710
 20
1925.939990
 11
469.086755
 21
1925.930601
  0
LINE
  8
CSLAYER1
  6
CONTINUOUS
 62
     7
 10
469.086755
 20
1925.930601
 11
469.574978
 21
1925.855039
  0
LINE
  8
CSLAYER1
  6
CONTINUOUS
 62
     7
 10
469.574978
 20
1925.855039
 11
470.072664
 21
1925.713877
  0
LINE
  8
CSLAYER1
  6
CONTINUOUS
 62
     7
 10
470.072664
 20
1925.713877
 11
470.576024
 21
1925.508190
  0
LINE
  8
CSLAYER1
  6
CONTINUOUS
 62
     7
 10
470.576024
 20
1925.508190
 11
471.081228
 21
1925.239544
  0
LINE
  8
CSLAYER1
  6
CONTINUOUS
 62
     7
 10
471.081228
 20
1925.239544
 11
471.584431
 21
1924.909982
  0
LINE
  8
CSLAYER1
  6
CONTINUOUS
 62
     7
 10
471.584431
 20
1924.909982
 11
472.081803
 21
1924.522013
  0
LINE
  8
CSLAYER1
  6
CONTINUOUS
 62
     7
 10
472.081803
 20
1924.522013
 11
472.569559
 21
1924.078591
  0
LINE
  8
CSLAYER1
  6
CONTINUOUS
 62
     7
 10
472.569559
 20
1924.078591
 11
473.043987
 21
1923.583088
  0
LINE
  8
CSLAYER1
  6
CONTINUOUS
 62
     7
 10
473.043987
 20
1923.583088
 11
473.501476
 21
1923.039278
  0
LINE
  8
CSLAYER1
  6
CONTINUOUS
 62
     7
 10
473.501476
 20
1923.039278
 11
473.938544
 21
1922.451297
  0
LINE
  8
CSLAYER1
  6
CONTINUOUS
 62
     7
 10
473.938544
 20
1922.451297
 11
474.351866
 21
1921.823622
  0
LINE
  8
CSLAYER1
  6
CONTINUOUS
 62
     7
 10
474.351866
 20
1921.823622
 11
474.738294
 21
1921.161029
  0
LINE
  8
CSLAYER1
  6
CONTINUOUS
 62
     7
 10
474.738294
 20
1921.161029
 11
475.094890
 21
1920.468560
  0
LINE
  8
CSLAYER1
  6
CONTINUOUS
 62
     7
 10
475.094890
 20
1920.468560
 11
475.418937
 21
1919.751487
  0
LINE
  8
CSLAYER1
  6
CONTINUOUS
 62
     7
 10
475.418937
 20
1919.751487
 11
475.707972
 21
1919.015266
  0
LINE
  8
CSLAYER1
  6
CONTINUOUS
 62
     7
 10
475.707972
 20
1919.015266
 11
475.959792
 21
1918.265501
  0
LINE
  8
CSLAYER1
  6
CONTINUOUS
 62
     7
 10
475.959792
 20
1918.265501
 11
476.172483
 21
1917.507897
  0
LINE
  8
CSLAYER1
  6
CONTINUOUS
 62
     7
 10
476.172483
 20
1917.507897
 11
476.344425
 21
1916.748220
  0
LINE
  8
CSLAYER1
  6
CONTINUOUS
 62
     7
 10
476.344425
 20
1916.748220
 11
476.474310
 21
1915.992253
  0
LINE
  8
CSLAYER1
  6
CONTINUOUS
 62
     7
 10
476.474310
 20
1915.992253
 11
476.561150
 21
1915.245747
  0
LINE
  8
CSLAYER1
  6
CONTINUOUS
 62
     7
 10
476.561150
 20
1915.245747
 11
476.604282
 21
1914.514386
  0
LINE
  8
CSLAYER1
  6
CONTINUOUS
 62
     7
 10
476.604282
 20
1914.514386
 11
476.603380
 21
1913.803735
  0
LINE
  8
CSLAYER1
  6
CONTINUOUS
 62
     7
 10
476.603380
 20
1913.803735
 11
476.558450
 21
1913.119201
  0
LINE
  8
CSLAYER1
  6
CONTINUOUS
 62
     7
 10
476.558450
 20
1913.119201
 11
476.469834
 21
1912.465996
  0
LINE
  8
CSLAYER1
  6
CONTINUOUS
 62
     7
 10
476.469834
 20
1912.465996
 11
476.338206
 21
1911.849091
  0
LINE
  8
CSLAYER1
  6
CONTINUOUS
 62
     7
 10
476.338206
 20
1911.849091
 11
476.164569
 21
1911.273179
  0
LINE
  8
CSLAYER1
  6
CONTINUOUS
 62
     7
 10
476.164569
 20
1911.273179
 11
475.950243
 21
1910.742645
  0
LINE
  8
CSLAYER1
  6
CONTINUOUS
 62
     7
 10
475.950243
 20
1910.742645
 11
475.696859
 21
1910.261526
  0
LINE
  8
CSLAYER1
  6
CONTINUOUS
 62
     7
 10
475.696859
 20
1910.261526
 11
475.406347
 21
1909.833484
  0
LINE
  8
CSLAYER1
  6
CONTINUOUS
 62
     7
 10
475.406347
 20
1909.833484
 11
475.080917
 21
1909.461776
  0
LINE
  8
CSLAYER1
  6
CONTINUOUS
 62
     7
 10
475.080917
 20
1909.461776
 11
474.723046
 21
1909.149231
  0
LINE
  8
CSLAYER1
  6
CONTINUOUS
 62
     7
 10
474.723046
 20
1909.149231
 11
474.335458
 21
1908.898228
  0
LINE
  8
CSLAYER1
  6
CONTINUOUS
 62
     7
 10
474.335458
 20
1908.898228
 11
473.921101
 21
1908.710678
  0
LINE
  8
CSLAYER1
  6
CONTINUOUS
 62
     7
 10
650.036906
 20
1812.786224
 11
650.366021
 21
1813.100151
  0
LINE
  8
CSLAYER1
  6
CONTINUOUS
 62
     7
 10
650.366021
 20
1813.100151
 11
650.743940
 21
1813.365490
  0
LINE
  8
CSLAYER1
  6
CONTINUOUS
 62
     7
 10
650.743940
 20
1813.365490
 11
651.167787
 21
1813.580221
  0
LINE
  8
CSLAYER1
  6
CONTINUOUS
 62
     7
 10
651.167787
 20
1813.580221
 11
651.634337
 21
1813.742710
  0
LINE
  8
CSLAYER1
  6
CONTINUOUS
 62
     7
 10
651.634337
 20
1813.742710
 11
652.140039
 21
1813.851720
  0
LINE
  8
CSLAYER1
  6
CONTINUOUS
 62
     7
 10
652.140039
 20
1813.851720
 11
652.681043
 21
1813.906423
  0
LINE
  8
CSLAYER1
  6
CONTINUOUS
 62
     7
 10
652.681043
 20
1813.906423
 11
653.253234
 21
1813.906401
  0
LINE
  8
CSLAYER1
  6
CONTINUOUS
 62
     7
 10
653.253234
 20
1813.906401
 11
653.852255
 21
1813.851655
  0
LINE
  8
CSLAYER1
  6
CONTINUOUS
 62
     7
 10
653.852255
 20
1813.851655
 11
654.473549
 21
1813.742601
  0
LINE
  8
CSLAYER1
  6
CONTINUOUS
 62
     7
 10
654.473549
 20
1813.742601
 11
655.112387
 21
1813.580069
  0
LINE
  8
CSLAYER1
  6
CONTINUOUS
 62
     7
 10
655.112387
 20
1813.580069
 11
655.763906
 21
1813.365297
  0
LINE
  8
CSLAYER1
  6
CONTINUOUS
 62
     7
 10
655.763906
 20
1813.365297
 11
656.423148
 21
1813.099919
  0
LINE
  8
CSLAYER1
  6
CONTINUOUS
 62
     7
 10
656.423148
 20
1813.099919
 11
657.085097
 21
1812.785954
  0
LINE
  8
CSLAYER1
  6
CONTINUOUS
 62
     7
 10
657.085097
 20
1812.785954
 11
657.744714
 21
1812.425792
  0
LINE
  8
CSLAYER1
  6
CONTINUOUS
 62
     7
 10
657.744714
 20
1812.425792
 11
658.396979
 21
1812.022175
  0
LINE
  8
CSLAYER1
  6
CONTINUOUS
 62
     7
 10
658.396979
 20
1812.022175
 11
659.036928
 21
1811.578173
  0
LINE
  8
CSLAYER1
  6
CONTINUOUS
 62
     7
 10
659.036928
 20
1811.578173
 11
659.659691
 21
1811.097166
  0
LINE
  8
CSLAYER1
  6
CONTINUOUS
 62
     7
 10
659.659691
 20
1811.097166
 11
660.260528
 21
1810.582815
  0
LINE
  8
CSLAYER1
  6
CONTINUOUS
 62
     7
 10
660.260528
 20
1810.582815
 11
660.834866
 21
1810.039034
  0
LINE
  8
CSLAYER1
  6
CONTINUOUS
 62
     7
 10
660.834866
 20
1810.039034
 11
661.378334
 21
1809.469961
  0
LINE
  8
CSLAYER1
  6
CONTINUOUS
 62
     7
 10
661.378334
 20
1809.469961
 11
661.886797
 21
1808.879929
  0
LINE
  8
CSLAYER1
  6
CONTINUOUS
 62
     7
 10
661.886797
 20
1808.879929
 11
662.356383
 21
1808.273426
  0
LINE
  8
CSLAYER1
  6
CONTINUOUS
 62
     7
 10
662.356383
 20
1808.273426
 11
662.783521
 21
1807.655070
  0
LINE
  8
CSLAYER1
  6
CONTINUOUS
 62
     7
 10
662.783521
 20
1807.655070
 11
663.164958
 21
1807.029566
  0
LINE
  8
CSLAYER1
  6
CONTINUOUS
 62
     7
 10
663.164958
 20
1807.029566
 11
663.497792
 21
1806.401674
  0
LINE
  8
CSLAYER1
  6
CONTINUOUS
 62
     7
 10
663.497792
 20
1806.401674
 11
663.779490
 21
1805.776174
  0
LINE
  8
CSLAYER1
  6
CONTINUOUS
 62
     7
 10
663.779490
 20
1805.776174
 11
664.007908
 21
1805.157825
  0
LINE
  8
CSLAYER1
  6
CONTINUOUS
 62
     7
 10
664.007908
 20
1805.157825
 11
664.181307
 21
1804.551335
  0
LINE
  8
CSLAYER1
  6
CONTINUOUS
 62
     7
 10
664.181307
 20
1804.551335
 11
664.298369
 21
1803.961317
  0
LINE
  8
CSLAYER1
  6
CONTINUOUS
 62
     7
 10
664.298369
 20
1803.961317
 11
664.358201
 21
1803.392263
  0
LINE
  8
CSLAYER1
  6
CONTINUOUS
 62
     7
 10
664.358201
 20
1803.392263
 11
664.360348
 21
1802.848504
  0
LINE
  8
CSLAYER1
  6
CONTINUOUS
 62
     7
 10
664.360348
 20
1802.848504
 11
664.304795
 21
1802.334178
  0
LINE
  8
CSLAYER1
  6
CONTINUOUS
 62
     7
 10
664.304795
 20
1802.334178
 11
664.191964
 21
1801.853199
  0
LINE
  8
CSLAYER1
  6
CONTINUOUS
 62
     7
 10
664.191964
 20
1801.853199
 11
664.022713
 21
1801.409228
  0
LINE
  8
CSLAYER1
  6
CONTINUOUS
 62
     7
 10
664.022713
 20
1801.409228
 11
663.798331
 21
1801.005644
  0
LINE
  8
CSLAYER1
  6
CONTINUOUS
 62
     7
 10
663.798331
 20
1801.005644
 11
663.520526
 21
1800.645518
  0
LINE
  8
CSLAYER1
  6
CONTINUOUS
 62
     7
 10
663.520526
 20
1800.645518
 11
663.191412
 21
1800.331592
  0
LINE
  8
CSLAYER1
  6
CONTINUOUS
 62
     7
 10
663.191412
 20
1800.331592
 11
662.813493
 21
1800.066253
  0
LINE
  8
CSLAYER1
  6
CONTINUOUS
 62
     7
 10
662.813493
 20
1800.066253
 11
662.389645
 21
1799.851522
  0
LINE
  8
CSLAYER1
  6
CONTINUOUS
 62
     7
 10
662.389645
 20
1799.851522
 11
661.923096
 21
1799.689033
  0
LINE
  8
CSLAYER1
  6
CONTINUOUS
 62
     7
 10
661.923096
 20
1799.689033
 11
661.417394
 21
1799.580022
  0
LINE
  8
CSLAYER1
  6
CONTINUOUS
 62
     7
 10
661.417394
 20
1799.580022
 11
660.876389
 21
1799.525320
  0
LINE
  8
CSLAYER1
  6
CONTINUOUS
 62
     7
 10
660.876389
 20
1799.525320
 11
660.304199
 21
1799.525342
  0
LINE
  8
CSLAYER1
  6
CONTINUOUS
 62
     7
 10
660.304199
 20
1799.525342
 11
659.705177
 21
1799.580088
  0
LINE
  8
CSLAYER1
  6
CONTINUOUS
 62
     7
 10
659.705177
 20
1799.580088
 11
659.083883
 21
1799.689142
  0
LINE
  8
CSLAYER1
  6
CONTINUOUS
 62
     7
 10
659.083883
 20
1799.689142
 11
658.445046
 21
1799.851673
  0
LINE
  8
CSLAYER1
  6
CONTINUOUS
 62
     7
 10
658.445046
 20
1799.851673
 11
657.793527
 21
1800.066446
  0
LINE
  8
CSLAYER1
  6
CONTINUOUS
 62
     7
 10
657.793527
 20
1800.066446
 11
657.134284
 21
1800.331824
  0
LINE
  8
CSLAYER1
  6
CONTINUOUS
 62
     7
 10
657.134284
 20
1800.331824
 11
656.472335
 21
1800.645789
  0
LINE
  8
CSLAYER1
  6
CONTINUOUS
 62
     7
 10
656.472335
 20
1800.645789
 11
655.812719
 21
1801.005950
  0
LINE
  8
CSLAYER1
  6
CONTINUOUS
 62
     7
 10
655.812719
 20
1801.005950
 11
655.160454
 21
1801.409568
  0
LINE
  8
CSLAYER1
  6
CONTINUOUS
 62
     7
 10
655.160454
 20
1801.409568
 11
654.520504
 21
1801.853570
  0
LINE
  8
CSLAYER1
  6
CONTINUOUS
 62
     7
 10
654.520504
 20
1801.853570
 11
653.897742
 21
1802.334577
  0
LINE
  8
CSLAYER1
  6
CONTINUOUS
 62
     7
 10
653.897742
 20
1802.334577
 11
653.296905
 21
1802.848928
  0
LINE
  8
CSLAYER1
  6
CONTINUOUS
 62
     7
 10
653.296905
 20
1802.848928
 11
652.722567
 21
1803.392709
  0
LINE
  8
CSLAYER1
  6
CONTINUOUS
 62
     7
 10
652.722567
 20
1803.392709
 11
652.179098
 21
1803.961781
  0
LINE
  8
CSLAYER1
  6
CONTINUOUS
 62
     7
 10
652.179098
 20
1803.961781
 11
651.670636
 21
1804.551814
  0
LINE
  8
CSLAYER1
  6
CONTINUOUS
 62
     7
 10
651.670636
 20
1804.551814
 11
651.201049
 21
1805.158316
  0
LINE
  8
CSLAYER1
  6
CONTINUOUS
 62
     7
 10
651.201049
 20
1805.158316
 11
650.773912
 21
1805.776673
  0
LINE
  8
CSLAYER1
  6
CONTINUOUS
 62
     7
 10
650.773912
 20
1805.776673
 11
650.392474
 21
1806.402177
  0
LINE
  8
CSLAYER1
  6
CONTINUOUS
 62
     7
 10
650.392474
 20
1806.402177
 11
650.059640
 21
1807.030068
  0
LINE
  8
CSLAYER1
  6
CONTINUOUS
 62
     7
 10
650.059640
 20
1807.030068
 11
649.777942
 21
1807.655569
  0
LINE
  8
CSLAYER1
  6
CONTINUOUS
 62
     7
 10
649.777942
 20
1807.655569
 11
649.549524
 21
1808.273917
  0
LINE
  8
CSLAYER1
  6
CONTINUOUS
 62
     7
 10
649.549524
 20
1808.273917
 11
649.376125
 21
1808.880408
  0
LINE
  8
CSLAYER1
  6
CONTINUOUS
 62
     7
 10
649.376125
 20
1808.880408
 11
649.259064
 21
1809.470426
  0
LINE
  8
CSLAYER1
  6
CONTINUOUS
 62
     7
 10
649.259064
 20
1809.470426
 11
649.199232
 21
1810.039480
  0
LINE
  8
CSLAYER1
  6
CONTINUOUS
 62
     7
 10
649.199232
 20
1810.039480
 11
649.197084
 21
1810.583239
  0
LINE
  8
CSLAYER1
  6
CONTINUOUS
 62
     7
 10
649.197084
 20
1810.583239
 11
649.252638
 21
1811.097565
  0
LINE
  8
CSLAYER1
  6
CONTINUOUS
 62
     7
 10
649.252638
 20
1811.097565
 11
649.365469
 21
1811.578543
  0
LINE
  8
CSLAYER1
  6
CONTINUOUS
 62
     7
 10
649.365469
 20
1811.578543
 11
649.534719
 21
1812.022514
  0
LINE
  8
CSLAYER1
  6
CONTINUOUS
 62
     7
 10
649.534719
 20
1812.022514
 11
649.759101
 21
1812.426098
  0
LINE
  8
CSLAYER1
  6
CONTINUOUS
 62
     7
 10
649.759101
 20
1812.426098
 11
650.036906
 21
1812.786224
  0
LINE
  8
CSLAYER1
  6
CONTINUOUS
 62
     7
 10
663.520526
 20
1800.645518
 11
693.507595
 21
1834.040877
  0
LINE
  8
CSLAYER1
  6
CONTINUOUS
 62
     7
 10
650.036906
 20
1812.786224
 11
680.023976
 21
1846.181583
  0
LINE
  8
CSLAYER1
  6
CONTINUOUS
 62
     7
 10
680.023976
 20
1846.181583
 11
680.353090
 21
1846.495509
  0
LINE
  8
CSLAYER1
  6
CONTINUOUS
 62
     7
 10
680.353090
 20
1846.495509
 11
680.731009
 21
1846.760848
  0
LINE
  8
CSLAYER1
  6
CONTINUOUS
 62
     7
 10
680.731009
 20
1846.760848
 11
681.154856
 21
1846.975579
  0
LINE
  8
CSLAYER1
  6
CONTINUOUS
 62
     7
 10
681.154856
 20
1846.975579
 11
681.621406
 21
1847.138068
  0
LINE
  8
CSLAYER1
  6
CONTINUOUS
 62
     7
 10
681.621406
 20
1847.138068
 11
682.127108
 21
1847.247079
  0
LINE
  8
CSLAYER1
  6
CONTINUOUS
 62
     7
 10
682.127108
 20
1847.247079
 11
682.668113
 21
1847.301781
  0
LINE
  8
CSLAYER1
  6
CONTINUOUS
 62
     7
 10
682.668113
 20
1847.301781
 11
683.240303
 21
1847.301759
  0
LINE
  8
CSLAYER1
  6
CONTINUOUS
 62
     7
 10
683.240303
 20
1847.301759
 11
683.839325
 21
1847.247013
  0
LINE
  8
CSLAYER1
  6
CONTINUOUS
 62
     7
 10
683.839325
 20
1847.247013
 11
684.460618
 21
1847.137959
  0
LINE
  8
CSLAYER1
  6
CONTINUOUS
 62
     7
 10
684.460618
 20
1847.137959
 11
685.099456
 21
1846.975428
  0
LINE
  8
CSLAYER1
  6
CONTINUOUS
 62
     7
 10
685.099456
 20
1846.975428
 11
685.750975
 21
1846.760656
  0
LINE
  8
CSLAYER1
  6
CONTINUOUS
 62
     7
 10
685.750975
 20
1846.760656
 11
686.410218
 21
1846.495277
  0
LINE
  8
CSLAYER1
  6
CONTINUOUS
 62
     7
 10
686.410218
 20
1846.495277
 11
687.072166
 21
1846.181313
  0
LINE
  8
CSLAYER1
  6
CONTINUOUS
 62
     7
 10
687.072166
 20
1846.181313
 11
687.731783
 21
1845.821151
  0
LINE
  8
CSLAYER1
  6
CONTINUOUS
 62
     7
 10
687.731783
 20
1845.821151
 11
688.384048
 21
1845.417533
  0
LINE
  8
CSLAYER1
  6
CONTINUOUS
 62
     7
 10
688.384048
 20
1845.417533
 11
689.023997
 21
1844.973531
  0
LINE
  8
CSLAYER1
  6
CONTINUOUS
 62
     7
 10
689.023997
 20
1844.973531
 11
689.646760
 21
1844.492524
  0
LINE
  8
CSLAYER1
  6
CONTINUOUS
 62
     7
 10
689.646760
 20
1844.492524
 11
690.247597
 21
1843.978173
  0
LINE
  8
CSLAYER1
  6
CONTINUOUS
 62
     7
 10
690.247597
 20
1843.978173
 11
690.821935
 21
1843.434392
  0
LINE
  8
CSLAYER1
  6
CONTINUOUS
 62
     7
 10
690.821935
 20
1843.434392
 11
691.365403
 21
1842.865320
  0
LINE
  8
CSLAYER1
  6
CONTINUOUS
 62
     7
 10
691.365403
 20
1842.865320
 11
691.873866
 21
1842.275287
  0
LINE
  8
CSLAYER1
  6
CONTINUOUS
 62
     7
 10
691.873866
 20
1842.275287
 11
692.343453
 21
1841.668785
  0
LINE
  8
CSLAYER1
  6
CONTINUOUS
 62
     7
 10
692.343453
 20
1841.668785
 11
692.770590
 21
1841.050429
  0
LINE
  8
CSLAYER1
  6
CONTINUOUS
 62
     7
 10
692.770590
 20
1841.050429
 11
693.152028
 21
1840.424924
  0
LINE
  8
CSLAYER1
  6
CONTINUOUS
 62
     7
 10
693.152028
 20
1840.424924
 11
693.484862
 21
1839.797033
  0
LINE
  8
CSLAYER1
  6
CONTINUOUS
 62
     7
 10
693.484862
 20
1839.797033
 11
693.766560
 21
1839.171533
  0
LINE
  8
CSLAYER1
  6
CONTINUOUS
 62
     7
 10
693.766560
 20
1839.171533
 11
693.994977
 21
1838.553184
  0
LINE
  8
CSLAYER1
  6
CONTINUOUS
 62
     7
 10
693.994977
 20
1838.553184
 11
694.168377
 21
1837.946693
  0
LINE
  8
CSLAYER1
  6
CONTINUOUS
 62
     7
 10
694.168377
 20
1837.946693
 11
694.285438
 21
1837.356675
  0
LINE
  8
CSLAYER1
  6
CONTINUOUS
 62
     7
 10
694.285438
 20
1837.356675
 11
694.345270
 21
1836.787622
  0
LINE
  8
CSLAYER1
  6
CONTINUOUS
 62
     7
 10
694.345270
 20
1836.787622
 11
694.347417
 21
1836.243863
  0
LINE
  8
CSLAYER1
  6
CONTINUOUS
 62
     7
 10
694.347417
 20
1836.243863
 11
694.291864
 21
1835.729536
  0
LINE
  8
CSLAYER1
  6
CONTINUOUS
 62
     7
 10
694.291864
 20
1835.729536
 11
694.179033
 21
1835.248558
  0
LINE
  8
CSLAYER1
  6
CONTINUOUS
 62
     7
 10
694.179033
 20
1835.248558
 11
694.009782
 21
1834.804587
  0
LINE
  8
CSLAYER1
  6
CONTINUOUS
 62
     7
 10
694.009782
 20
1834.804587
 11
693.785401
 21
1834.401003
  0
LINE
  8
CSLAYER1
  6
CONTINUOUS
 62
     7
 10
693.785401
 20
1834.401003
 11
693.507595
 21
1834.040877
  0
LINE
  8
CSLAYER1
  6
CONTINUOUS
 62
     7
 10
774.429997
 20
1967.792531
 11
774.429997
 21
1949.493196
  0
LINE
  8
CSLAYER1
  6
CONTINUOUS
 62
     7
 10
774.429997
 20
1949.493196
 11
774.429997
 21
1943.588963
  0
LINE
  8
CSLAYER1
  6
CONTINUOUS
 62
     7
 10
804.945128
 20
2021.147918
 11
804.945128
 21
2000.796716
  0
LINE
  8
CSLAYER1
  6
CONTINUOUS
 62
     7
 10
804.945128
 20
1983.260527
 11
804.945128
 21
1960.658771
  0
LINE
  8
CSLAYER1
  6
CONTINUOUS
 62
     7
 10
816.529997
 20
2013.988551
 11
819.364897
 21
2011.436191
  0
LINE
  8
CSLAYER1
  6
CONTINUOUS
 62
     7
 10
819.364897
 20
2011.436191
 11
821.801176
 21
2008.751826
  0
LINE
  8
CSLAYER1
  6
CONTINUOUS
 62
     7
 10
821.801176
 20
2008.751826
 11
823.820291
 21
2005.955886
  0
LINE
  8
CSLAYER1
  6
CONTINUOUS
 62
     7
 10
823.820291
 20
2005.955886
 11
825.406875
 21
2003.069648
  0
LINE
  8
CSLAYER1
  6
CONTINUOUS
 62
     7
 10
825.406875
 20
2003.069648
 11
826.548854
 21
2000.115078
  0
LINE
  8
CSLAYER1
  6
CONTINUOUS
 62
     7
 10
826.548854
 20
2000.115078
 11
827.237536
 21
1997.114664
  0
LINE
  8
CSLAYER1
  6
CONTINUOUS
 62
     7
 10
827.237536
 20
1997.114664
 11
827.467681
 21
1994.091240
  0
LINE
  8
CSLAYER1
  6
CONTINUOUS
 62
     7
 10
827.467681
 20
1994.091240
 11
827.237536
 21
1991.067816
  0
LINE
  8
CSLAYER1
  6
CONTINUOUS
 62
     7
 10
827.237536
 20
1991.067816
 11
826.548854
 21
1988.067402
  0
LINE
  8
CSLAYER1
  6
CONTINUOUS
 62
     7
 10
826.548854
 20
1988.067402
 11
825.406875
 21
1985.112832
  0
LINE
  8
CSLAYER1
  6
CONTINUOUS
 62
     7
 10
825.406875
 20
1985.112832
 11
823.820291
 21
1982.226594
  0
LINE
  8
CSLAYER1
  6
CONTINUOUS
 62
     7
 10
823.820291
 20
1982.226594
 11
821.801176
 21
1979.430654
  0
LINE
  8
CSLAYER1
  6
CONTINUOUS
 62
     7
 10
821.801176
 20
1979.430654
 11
819.364897
 21
1976.746289
  0
LINE
  8
CSLAYER1
  6
CONTINUOUS
 62
     7
 10
804.945128
 20
2021.147918
 11
809.753499
 21
2018.620706
  0
LINE
  8
CSLAYER1
  6
CONTINUOUS
 62
     7
 10
809.753499
 20
2018.620706
 11
813.318049
 21
2016.389480
  0
LINE
  8
CSLAYER1
  6
CONTINUOUS
 62
     7
 10
813.318049
 20
2016.389480
 11
816.529997
 21
2013.988551
  0
LINE
  8
CSLAYER1
  6
CONTINUOUS
 62
     7
 10
808.164089
 20
1996.848022
 11
808.417786
 21
1995.742729
  0
LINE
  8
CSLAYER1
  6
CONTINUOUS
 62
     7
 10
808.417786
 20
1995.742729
 11
808.591673
 21
1993.458364
  0
LINE
  8
CSLAYER1
  6
CONTINUOUS
 62
     7
 10
808.591673
 20
1993.458364
 11
808.417786
 21
1991.173999
  0
LINE
  8
CSLAYER1
  6
CONTINUOUS
 62
     7
 10
808.417786
 20
1991.173999
 11
807.897448
 21
1988.907019
  0
LINE
  8
CSLAYER1
  6
CONTINUOUS
 62
     7
 10
807.897448
 20
1988.907019
 11
807.034620
 21
1986.674678
  0
LINE
  8
CSLAYER1
  6
CONTINUOUS
 62
     7
 10
807.034620
 20
1986.674678
 11
805.835867
 21
1984.493965
  0
LINE
  8
CSLAYER1
  6
CONTINUOUS
 62
     7
 10
805.835867
 20
1984.493965
 11
804.945128
 21
1983.260527
  0
LINE
  8
CSLAYER1
  6
CONTINUOUS
 62
     7
 10
804.945128
 20
2000.805290
 11
804.902572
 21
2000.843605
  0
LINE
  8
CSLAYER1
  6
CONTINUOUS
 62
     7
 10
804.902572
 20
2000.843605
 11
806.743316
 21
1998.815418
  0
LINE
  8
CSLAYER1
  6
CONTINUOUS
 62
     7
 10
806.743316
 20
1998.815418
 11
808.268870
 21
1996.702929
  0
LINE
  8
CSLAYER1
  6
CONTINUOUS
 62
     7
 10
804.945128
 20
2000.796716
 11
804.945128
 21
1983.260527
  0
LINE
  8
CSLAYER1
  6
CONTINUOUS
 62
     7
 10
623.313762
 20
2021.016811
 11
566.481152
 21
2041.702189
  0
LINE
  8
CSLAYER1
  6
CONTINUOUS
 62
     7
 10
632.192234
 20
2032.087860
 11
575.359624
 21
2052.773239
  0
LINE
  8
CSLAYER1
  6
CONTINUOUS
 62
     7
 10
629.136330
 20
2031.769864
 11
572.346325
 21
2052.439735
  0
LINE
  8
CSLAYER1
  6
CONTINUOUS
 62
     7
 10
627.800113
 20
2030.825952
 11
570.967503
 21
2051.511330
  0
LINE
  8
CSLAYER1
  6
CONTINUOUS
 62
     7
 10
626.751684
 20
2029.777294
 11
569.919074
 21
2050.462672
  0
LINE
  8
CSLAYER1
  6
CONTINUOUS
 62
     7
 10
625.891174
 20
2028.660239
 11
569.058564
 21
2049.345617
  0
LINE
  8
CSLAYER1
  6
CONTINUOUS
 62
     7
 10
625.171271
 20
2027.492007
 11
568.338863
 21
2048.177312
  0
LINE
  8
CSLAYER1
  6
CONTINUOUS
 62
     7
 10
624.578535
 20
2026.277491
 11
567.745925
 21
2046.962869
  0
LINE
  8
CSLAYER1
  6
CONTINUOUS
 62
     7
 10
624.092739
 20
2025.024051
 11
567.260129
 21
2045.709429
  0
LINE
  8
CSLAYER1
  6
CONTINUOUS
 62
     7
 10
623.706869
 20
2023.734241
 11
566.879339
 21
2044.417771
  0
LINE
  8
CSLAYER1
  6
CONTINUOUS
 62
     7
 10
569.154011
 20
2035.723456
 11
568.739655
 21
2035.911006
  0
LINE
  8
CSLAYER1
  6
CONTINUOUS
 62
     7
 10
568.739655
 20
2035.911006
 11
568.352066
 21
2036.162009
  0
LINE
  8
CSLAYER1
  6
CONTINUOUS
 62
     7
 10
568.352066
 20
2036.162009
 11
567.994195
 21
2036.474554
  0
LINE
  8
CSLAYER1
  6
CONTINUOUS
 62
     7
 10
567.994195
 20
2036.474554
 11
567.668765
 21
2036.846262
  0
LINE
  8
CSLAYER1
  6
CONTINUOUS
 62
     7
 10
567.668765
 20
2036.846262
 11
567.378253
 21
2037.274304
  0
LINE
  8
CSLAYER1
  6
CONTINUOUS
 62
     7
 10
567.378253
 20
2037.274304
 11
567.124870
 21
2037.755423
  0
LINE
  8
CSLAYER1
  6
CONTINUOUS
 62
     7
 10
567.124870
 20
2037.755423
 11
566.910544
 21
2038.285957
  0
LINE
  8
CSLAYER1
  6
CONTINUOUS
 62
     7
 10
566.910544
 20
2038.285957
 11
566.736906
 21
2038.861869
  0
LINE
  8
CSLAYER1
  6
CONTINUOUS
 62
     7
 10
566.736906
 20
2038.861869
 11
566.605278
 21
2039.478774
  0
LINE
  8
CSLAYER1
  6
CONTINUOUS
 62
     7
 10
566.605278
 20
2039.478774
 11
566.516662
 21
2040.131979
  0
LINE
  8
CSLAYER1
  6
CONTINUOUS
 62
     7
 10
566.516662
 20
2040.131979
 11
566.471732
 21
2040.816513
  0
LINE
  8
CSLAYER1
  6
CONTINUOUS
 62
     7
 10
566.471732
 20
2040.816513
 11
566.470830
 21
2041.527164
  0
LINE
  8
CSLAYER1
  6
CONTINUOUS
 62
     7
 10
566.470830
 20
2041.527164
 11
566.513963
 21
2042.258526
  0
LINE
  8
CSLAYER1
  6
CONTINUOUS
 62
     7
 10
566.513963
 20
2042.258526
 11
566.600802
 21
2043.005031
  0
LINE
  8
CSLAYER1
  6
CONTINUOUS
 62
     7
 10
566.600802
 20
2043.005031
 11
566.730687
 21
2043.760998
  0
LINE
  8
CSLAYER1
  6
CONTINUOUS
 62
     7
 10
566.730687
 20
2043.760998
 11
566.902629
 21
2044.520675
  0
LINE
  8
CSLAYER1
  6
CONTINUOUS
 62
     7
 10
566.902629
 20
2044.520675
 11
567.115320
 21
2045.278279
  0
LINE
  8
CSLAYER1
  6
CONTINUOUS
 62
     7
 10
567.115320
 20
2045.278279
 11
567.367141
 21
2046.028044
  0
LINE
  8
CSLAYER1
  6
CONTINUOUS
 62
     7
 10
567.367141
 20
2046.028044
 11
567.656175
 21
2046.764265
  0
LINE
  8
CSLAYER1
  6
CONTINUOUS
 62
     7
 10
567.656175
 20
2046.764265
 11
567.980223
 21
2047.481338
  0
LINE
  8
CSLAYER1
  6
CONTINUOUS
 62
     7
 10
567.980223
 20
2047.481338
 11
568.336818
 21
2048.173807
  0
LINE
  8
CSLAYER1
  6
CONTINUOUS
 62
     7
 10
568.336818
 20
2048.173807
 11
568.723247
 21
2048.836400
  0
LINE
  8
CSLAYER1
  6
CONTINUOUS
 62
     7
 10
568.723247
 20
2048.836400
 11
569.136568
 21
2049.464075
  0
LINE
  8
CSLAYER1
  6
CONTINUOUS
 62
     7
 10
569.136568
 20
2049.464075
 11
569.573637
 21
2050.052056
  0
LINE
  8
CSLAYER1
  6
CONTINUOUS
 62
     7
 10
569.573637
 20
2050.052056
 11
570.031126
 21
2050.595866
  0
LINE
  8
CSLAYER1
  6
CONTINUOUS
 62
     7
 10
570.031126
 20
2050.595866
 11
570.505554
 21
2051.091369
  0
LINE
  8
CSLAYER1
  6
CONTINUOUS
 62
     7
 10
570.505554
 20
2051.091369
 11
570.993310
 21
2051.534791
  0
LINE
  8
CSLAYER1
  6
CONTINUOUS
 62
     7
 10
570.993310
 20
2051.534791
 11
571.490682
 21
2051.922760
  0
LINE
  8
CSLAYER1
  6
CONTINUOUS
 62
     7
 10
571.490682
 20
2051.922760
 11
571.993885
 21
2052.252322
  0
LINE
  8
CSLAYER1
  6
CONTINUOUS
 62
     7
 10
571.993885
 20
2052.252322
 11
572.499089
 21
2052.520968
  0
LINE
  8
CSLAYER1
  6
CONTINUOUS
 62
     7
 10
572.499089
 20
2052.520968
 11
573.002449
 21
2052.726655
  0
LINE
  8
CSLAYER1
  6
CONTINUOUS
 62
     7
 10
573.002449
 20
2052.726655
 11
573.500134
 21
2052.867817
  0
LINE
  8
CSLAYER1
  6
CONTINUOUS
 62
     7
 10
573.500134
 20
2052.867817
 11
573.988357
 21
2052.943379
  0
LINE
  8
CSLAYER1
  6
CONTINUOUS
 62
     7
 10
573.988357
 20
2052.943379
 11
574.463402
 21
2052.952768
  0
LINE
  8
CSLAYER1
  6
CONTINUOUS
 62
     7
 10
574.463402
 20
2052.952768
 11
574.921654
 21
2052.895910
  0
LINE
  8
CSLAYER1
  6
CONTINUOUS
 62
     7
 10
574.921654
 20
2052.895910
 11
575.359624
 21
2052.773239
  0
LINE
  8
CSLAYER1
  6
CONTINUOUS
 62
     7
 10
623.446973
 20
2022.398581
 11
566.610162
 21
2043.085488
  0
LINE
  8
CSLAYER1
  6
CONTINUOUS
 62
     7
 10
623.340730
 20
2019.576740
 11
566.508120
 21
2040.262118
  0
LINE
  8
CSLAYER1
  6
CONTINUOUS
 62
     7
 10
623.595720
 20
2018.053676
 11
566.775269
 21
2038.734629
  0
LINE
  8
CSLAYER1
  6
CONTINUOUS
 62
     7
 10
624.334264
 20
2016.354613
 11
567.548969
 21
2037.022771
  0
LINE
  8
CSLAYER1
  6
CONTINUOUS
 62
     7
 10
625.986621
 20
2015.038077
 11
569.154011
 21
2035.723456
  0
LINE
  8
CSLAYER1
  6
CONTINUOUS
 62
     7
 10
699.724294
 20
1992.553084
 11
682.564002
 21
1994.461839
  0
LINE
  8
CSLAYER1
  6
CONTINUOUS
 62
     7
 10
632.192234
 20
2032.087860
 11
632.606590
 21
2031.900310
  0
LINE
  8
CSLAYER1
  6
CONTINUOUS
 62
     7
 10
632.606590
 20
2031.900310
 11
632.994179
 21
2031.649307
  0
LINE
  8
CSLAYER1
  6
CONTINUOUS
 62
     7
 10
632.994179
 20
2031.649307
 11
633.352050
 21
2031.336762
  0
LINE
  8
CSLAYER1
  6
CONTINUOUS
 62
     7
 10
633.352050
 20
2031.336762
 11
633.677480
 21
2030.965054
  0
LINE
  8
CSLAYER1
  6
CONTINUOUS
 62
     7
 10
633.677480
 20
2030.965054
 11
633.967992
 21
2030.537012
  0
LINE
  8
CSLAYER1
  6
CONTINUOUS
 62
     7
 10
633.967992
 20
2030.537012
 11
634.221375
 21
2030.055893
  0
LINE
  8
CSLAYER1
  6
CONTINUOUS
 62
     7
 10
634.221375
 20
2030.055893
 11
634.435701
 21
2029.525359
  0
LINE
  8
CSLAYER1
  6
CONTINUOUS
 62
     7
 10
634.435701
 20
2029.525359
 11
634.609339
 21
2028.949448
  0
LINE
  8
CSLAYER1
  6
CONTINUOUS
 62
     7
 10
634.609339
 20
2028.949448
 11
634.717508
 21
2028.442489
  0
LINE
  8
CSLAYER1
  6
CONTINUOUS
 62
     7
 10
629.617698
 20
2015.732772
 11
629.352360
 21
2015.558995
  0
LINE
  8
CSLAYER1
  6
CONTINUOUS
 62
     7
 10
629.352360
 20
2015.558995
 11
628.847156
 21
2015.290348
  0
LINE
  8
CSLAYER1
  6
CONTINUOUS
 62
     7
 10
628.847156
 20
2015.290348
 11
628.343796
 21
2015.084661
  0
LINE
  8
CSLAYER1
  6
CONTINUOUS
 62
     7
 10
628.343796
 20
2015.084661
 11
627.846111
 21
2014.943499
  0
LINE
  8
CSLAYER1
  6
CONTINUOUS
 62
     7
 10
627.846111
 20
2014.943499
 11
627.357888
 21
2014.867937
  0
LINE
  8
CSLAYER1
  6
CONTINUOUS
 62
     7
 10
627.357888
 20
2014.867937
 11
626.882843
 21
2014.858549
  0
LINE
  8
CSLAYER1
  6
CONTINUOUS
 62
     7
 10
626.882843
 20
2014.858549
 11
626.424591
 21
2014.915406
  0
LINE
  8
CSLAYER1
  6
CONTINUOUS
 62
     7
 10
626.424591
 20
2014.915406
 11
625.986621
 21
2015.038077
  0
LINE
  8
CSLAYER1
  6
CONTINUOUS
 62
     7
 10
625.986621
 20
2015.038077
 11
625.572264
 21
2015.225628
  0
LINE
  8
CSLAYER1
  6
CONTINUOUS
 62
     7
 10
625.572264
 20
2015.225628
 11
625.184676
 21
2015.476631
  0
LINE
  8
CSLAYER1
  6
CONTINUOUS
 62
     7
 10
625.184676
 20
2015.476631
 11
624.826805
 21
2015.789176
  0
LINE
  8
CSLAYER1
  6
CONTINUOUS
 62
     7
 10
624.826805
 20
2015.789176
 11
624.501375
 21
2016.160884
  0
LINE
  8
CSLAYER1
  6
CONTINUOUS
 62
     7
 10
624.501375
 20
2016.160884
 11
624.210863
 21
2016.588926
  0
LINE
  8
CSLAYER1
  6
CONTINUOUS
 62
     7
 10
624.210863
 20
2016.588926
 11
623.957480
 21
2017.070045
  0
LINE
  8
CSLAYER1
  6
CONTINUOUS
 62
     7
 10
623.957480
 20
2017.070045
 11
623.743154
 21
2017.600579
  0
LINE
  8
CSLAYER1
  6
CONTINUOUS
 62
     7
 10
623.743154
 20
2017.600579
 11
623.569516
 21
2018.176490
  0
LINE
  8
CSLAYER1
  6
CONTINUOUS
 62
     7
 10
623.569516
 20
2018.176490
 11
623.437888
 21
2018.793396
  0
LINE
  8
CSLAYER1
  6
CONTINUOUS
 62
     7
 10
623.437888
 20
2018.793396
 11
623.349272
 21
2019.446601
  0
LINE
  8
CSLAYER1
  6
CONTINUOUS
 62
     7
 10
623.349272
 20
2019.446601
 11
623.304342
 21
2020.131134
  0
LINE
  8
CSLAYER1
  6
CONTINUOUS
 62
     7
 10
623.304342
 20
2020.131134
 11
623.303440
 21
2020.841786
  0
LINE
  8
CSLAYER1
  6
CONTINUOUS
 62
     7
 10
623.303440
 20
2020.841786
 11
623.346572
 21
2021.573147
  0
LINE
  8
CSLAYER1
  6
CONTINUOUS
 62
     7
 10
623.346572
 20
2021.573147
 11
623.433412
 21
2022.319652
  0
LINE
  8
CSLAYER1
  6
CONTINUOUS
 62
     7
 10
623.433412
 20
2022.319652
 11
623.563297
 21
2023.075620
  0
LINE
  8
CSLAYER1
  6
CONTINUOUS
 62
     7
 10
623.563297
 20
2023.075620
 11
623.735239
 21
2023.835296
  0
LINE
  8
CSLAYER1
  6
CONTINUOUS
 62
     7
 10
623.735239
 20
2023.835296
 11
623.947930
 21
2024.592900
  0
LINE
  8
CSLAYER1
  6
CONTINUOUS
 62
     7
 10
623.947930
 20
2024.592900
 11
624.199751
 21
2025.342666
  0
LINE
  8
CSLAYER1
  6
CONTINUOUS
 62
     7
 10
624.199751
 20
2025.342666
 11
624.488785
 21
2026.078887
  0
LINE
  8
CSLAYER1
  6
CONTINUOUS
 62
     7
 10
624.488785
 20
2026.078887
 11
624.812832
 21
2026.795960
  0
LINE
  8
CSLAYER1
  6
CONTINUOUS
 62
     7
 10
624.812832
 20
2026.795960
 11
625.169428
 21
2027.488428
  0
LINE
  8
CSLAYER1
  6
CONTINUOUS
 62
     7
 10
625.169428
 20
2027.488428
 11
625.555857
 21
2028.151022
  0
LINE
  8
CSLAYER1
  6
CONTINUOUS
 62
     7
 10
625.555857
 20
2028.151022
 11
625.969178
 21
2028.778697
  0
LINE
  8
CSLAYER1
  6
CONTINUOUS
 62
     7
 10
625.969178
 20
2028.778697
 11
626.406246
 21
2029.366677
  0
LINE
  8
CSLAYER1
  6
CONTINUOUS
 62
     7
 10
626.406246
 20
2029.366677
 11
626.863735
 21
2029.910488
  0
LINE
  8
CSLAYER1
  6
CONTINUOUS
 62
     7
 10
626.863735
 20
2029.910488
 11
627.338163
 21
2030.405990
  0
LINE
  8
CSLAYER1
  6
CONTINUOUS
 62
     7
 10
627.338163
 20
2030.405990
 11
627.825919
 21
2030.849413
  0
LINE
  8
CSLAYER1
  6
CONTINUOUS
 62
     7
 10
627.825919
 20
2030.849413
 11
628.323292
 21
2031.237382
  0
LINE
  8
CSLAYER1
  6
CONTINUOUS
 62
     7
 10
628.323292
 20
2031.237382
 11
628.826494
 21
2031.566943
  0
LINE
  8
CSLAYER1
  6
CONTINUOUS
 62
     7
 10
628.826494
 20
2031.566943
 11
629.331698
 21
2031.835590
  0
LINE
  8
CSLAYER1
  6
CONTINUOUS
 62
     7
 10
629.331698
 20
2031.835590
 11
629.835059
 21
2032.041277
  0
LINE
  8
CSLAYER1
  6
CONTINUOUS
 62
     7
 10
629.835059
 20
2032.041277
 11
630.332744
 21
2032.182439
  0
LINE
  8
CSLAYER1
  6
CONTINUOUS
 62
     7
 10
630.332744
 20
2032.182439
 11
630.820967
 21
2032.258001
  0
LINE
  8
CSLAYER1
  6
CONTINUOUS
 62
     7
 10
630.820967
 20
2032.258001
 11
631.296012
 21
2032.267389
  0
LINE
  8
CSLAYER1
  6
CONTINUOUS
 62
     7
 10
631.296012
 20
2032.267389
 11
631.754264
 21
2032.210531
  0
LINE
  8
CSLAYER1
  6
CONTINUOUS
 62
     7
 10
631.754264
 20
2032.210531
 11
632.192234
 21
2032.087860
  0
LINE
  8
CSLAYER1
  6
CONTINUOUS
 62
     7
 10
701.235322
 20
2006.137686
 11
684.019670
 21
2008.052598
  0
LINE
  8
CSLAYER1
  6
CONTINUOUS
 62
     7
 10
625.672219
 20
2024.763031
 11
625.890728
 21
2025.319614
  0
LINE
  8
CSLAYER1
  6
CONTINUOUS
 62
     7
 10
625.890728
 20
2025.319614
 11
626.135709
 21
2025.861722
  0
LINE
  8
CSLAYER1
  6
CONTINUOUS
 62
     7
 10
626.135709
 20
2025.861722
 11
626.405295
 21
2026.385228
  0
LINE
  8
CSLAYER1
  6
CONTINUOUS
 62
     7
 10
626.405295
 20
2026.385228
 11
626.697435
 21
2026.886148
  0
LINE
  8
CSLAYER1
  6
CONTINUOUS
 62
     7
 10
626.697435
 20
2026.886148
 11
627.009906
 21
2027.360671
  0
LINE
  8
CSLAYER1
  6
CONTINUOUS
 62
     7
 10
627.009906
 20
2027.360671
 11
627.340329
 21
2027.805184
  0
LINE
  8
CSLAYER1
  6
CONTINUOUS
 62
     7
 10
627.340329
 20
2027.805184
 11
627.686191
 21
2028.216305
  0
LINE
  8
CSLAYER1
  6
CONTINUOUS
 62
     7
 10
627.686191
 20
2028.216305
 11
628.044859
 21
2028.590905
  0
LINE
  8
CSLAYER1
  6
CONTINUOUS
 62
     7
 10
628.044859
 20
2028.590905
 11
628.413602
 21
2028.926132
  0
LINE
  8
CSLAYER1
  6
CONTINUOUS
 62
     7
 10
628.413602
 20
2028.926132
 11
628.789616
 21
2029.219436
  0
LINE
  8
CSLAYER1
  6
CONTINUOUS
 62
     7
 10
628.789616
 20
2029.219436
 11
629.170037
 21
2029.468585
  0
LINE
  8
CSLAYER1
  6
CONTINUOUS
 62
     7
 10
629.170037
 20
2029.468585
 11
629.551971
 21
2029.671682
  0
LINE
  8
CSLAYER1
  6
CONTINUOUS
 62
     7
 10
629.551971
 20
2029.671682
 11
629.932511
 21
2029.827181
  0
LINE
  8
CSLAYER1
  6
CONTINUOUS
 62
     7
 10
629.932511
 20
2029.827181
 11
630.308762
 21
2029.933899
  0
LINE
  8
CSLAYER1
  6
CONTINUOUS
 62
     7
 10
630.308762
 20
2029.933899
 11
630.677858
 21
2029.991025
  0
LINE
  8
CSLAYER1
  6
CONTINUOUS
 62
     7
 10
630.677858
 20
2029.991025
 11
631.036992
 21
2029.998122
  0
LINE
  8
CSLAYER1
  6
CONTINUOUS
 62
     7
 10
631.036992
 20
2029.998122
 11
631.383430
 21
2029.955138
  0
LINE
  8
CSLAYER1
  6
CONTINUOUS
 62
     7
 10
631.383430
 20
2029.955138
 11
631.750753
 21
2029.852254
  0
LINE
  8
CSLAYER1
  6
CONTINUOUS
 62
     7
 10
626.709839
 20
2017.114551
 11
626.416822
 21
2017.304309
  0
LINE
  8
CSLAYER1
  6
CONTINUOUS
 62
     7
 10
626.416822
 20
2017.304309
 11
626.146272
 21
2017.540593
  0
LINE
  8
CSLAYER1
  6
CONTINUOUS
 62
     7
 10
626.146272
 20
2017.540593
 11
625.900247
 21
2017.821604
  0
LINE
  8
CSLAYER1
  6
CONTINUOUS
 62
     7
 10
625.900247
 20
2017.821604
 11
625.680619
 21
2018.145204
  0
LINE
  8
CSLAYER1
  6
CONTINUOUS
 62
     7
 10
625.680619
 20
2018.145204
 11
625.489062
 21
2018.508930
  0
LINE
  8
CSLAYER1
  6
CONTINUOUS
 62
     7
 10
625.489062
 20
2018.508930
 11
625.327031
 21
2018.910013
  0
LINE
  8
CSLAYER1
  6
CONTINUOUS
 62
     7
 10
625.327031
 20
2018.910013
 11
625.195761
 21
2019.345402
  0
LINE
  8
CSLAYER1
  6
CONTINUOUS
 62
     7
 10
625.195761
 20
2019.345402
 11
625.096251
 21
2019.811783
  0
LINE
  8
CSLAYER1
  6
CONTINUOUS
 62
     7
 10
625.096251
 20
2019.811783
 11
625.029257
 21
2020.305606
  0
LINE
  8
CSLAYER1
  6
CONTINUOUS
 62
     7
 10
625.029257
 20
2020.305606
 11
624.995290
 21
2020.823113
  0
LINE
  8
CSLAYER1
  6
CONTINUOUS
 62
     7
 10
624.995290
 20
2020.823113
 11
624.994608
 21
2021.360366
  0
LINE
  8
CSLAYER1
  6
CONTINUOUS
 62
     7
 10
624.994608
 20
2021.360366
 11
625.027216
 21
2021.913275
  0
LINE
  8
CSLAYER1
  6
CONTINUOUS
 62
     7
 10
625.027216
 20
2021.913275
 11
625.092866
 21
2022.477633
  0
LINE
  8
CSLAYER1
  6
CONTINUOUS
 62
     7
 10
625.092866
 20
2022.477633
 11
625.191060
 21
2023.049144
  0
LINE
  8
CSLAYER1
  6
CONTINUOUS
 62
     7
 10
625.191060
 20
2023.049144
 11
625.321048
 21
2023.623460
  0
LINE
  8
CSLAYER1
  6
CONTINUOUS
 62
     7
 10
625.321048
 20
2023.623460
 11
625.481842
 21
2024.196208
  0
LINE
  8
CSLAYER1
  6
CONTINUOUS
 62
     7
 10
625.481842
 20
2024.196208
 11
625.672219
 21
2024.763031
  0
ARC
  8
CSLAYER1
  6
CONTINUOUS
 62
     7
 10
701.668583
 20
2000.201888
 40
7.892050
 50
255.737756
 51
348.379625
  0
LINE
  8
CSLAYER1
  6
CONTINUOUS
 62
     7
 10
701.235322
 20
2006.137686
 11
722.456911
 21
2019.398406
  0
INSERT
  8
CSLAYER1
  2
EASYDRAWDIM0000
 10
0.0
 20
0.0
 30
0.0
  0
INSERT
  8
CSLAYER1
  2
EASYDRAWDIM0001
 10
0.0
 20
0.0
 30
0.0
  0
TEXT
  8
CSLAYER1
 62
     3
 10
497.833496
 20
2325.916992
 40
40.000000
 41
0.771429
  1
足踏式油圧ポンプユニット
 50
0.000000
 51
0.000000
  7
EASYDRAW_FONT
 72
     5
 11
857.833496
 21
2325.916992
  0
TEXT
  8
CSLAYER1
 62
     3
 10
407.857910
 20
1720.965698
 40
40.000000
 41
0.763393
  1
外形寸法 400W×500D×280H
 50
0.000000
 51
0.000000
  7
EASYDRAW_FONT
 72
     5
 11
977.857910
 21
1720.965698
  0
LINE
  8
CSLAYER1
  6
CONTINUOUS
 62
     5
 10
1066.421908
 20
2398.992104
 11
1066.421908
 21
1694.882515
  0
LINE
  8
CSLAYER1
  6
CONTINUOUS
 62
     5
 10
1066.421908
 20
1694.882515
 11
265.127777
 21
1694.882515
  0
INSERT
  8
CSLAYER1
  2
EASYDRAWDIM0002
 10
0.0
 20
0.0
 30
0.0
  0
LINE
  8
CSLAYER1
  6
CONTINUOUS
 62
     7
 10
482.924682
 20
2371.363247
 11
872.935928
 21
2371.363247
  0
LINE
  8
CSLAYER1
  6
CONTINUOUS
 62
     7
 10
872.935928
 20
2371.363247
 11
872.935928
 21
2321.218944
  0
LINE
  8
CSLAYER1
  6
CONTINUOUS
 62
     7
 10
872.935928
 20
2321.218944
 11
482.924682
 21
2321.218944
  0
LINE
  8
CSLAYER1
  6
CONTINUOUS
 62
     7
 10
482.924682
 20
2321.218944
 11
482.924682
 21
2371.363247
  0
INSERT
  8
CSLAYER1
  2
BLKF0003
 10
0.0
 20
0.0
 30
0.0
  0
INSERT
  8
CSLAYER1
  2
BLKF0004
 10
0.0
 20
0.0
 30
0.0
  0
LINE
  8
CSLAYER1
  6
CONTINUOUS
 62
     7
 10
668.950905
 20
2055.338403
 11
666.004013
 21
2053.637014
  0
LINE
  8
CSLAYER1
  6
CONTINUOUS
 62
     7
 10
673.374516
 20
2047.676484
 11
670.427624
 21
2045.975095
  0
LINE
  8
CSLAYER1
  6
CONTINUOUS
 62
     7
 10
666.854707
 20
2052.163568
 11
669.243756
 21
2051.586494
  0
LINE
  8
CSLAYER1
  6
CONTINUOUS
 62
     7
 10
669.243756
 20
2051.586494
 11
670.271693
 21
2049.806055
  0
LINE
  8
CSLAYER1
  6
CONTINUOUS
 62
     7
 10
670.271693
 20
2049.806055
 11
669.576930
 21
2047.448541
  0
LINE
  8
CSLAYER1
  6
CONTINUOUS
 62
     7
 10
669.576930
 20
2047.448541
 11
667.187881
 21
2048.025615
  0
LINE
  8
CSLAYER1
  6
CONTINUOUS
 62
     7
 10
667.187881
 20
2048.025615
 11
666.159944
 21
2049.806055
  0
LINE
  8
CSLAYER1
  6
CONTINUOUS
 62
     7
 10
666.159944
 20
2049.806055
 11
666.854707
 21
2052.163568
  0
INSERT
  8
CSLAYER1
  2
BLKF0005
 10
0.0
 20
0.0
 30
0.0
  0
LINE
  8
CSLAYER1
  6
CONTINUOUS
 62
     7
 10
670.148255
 20
2057.475510
 11
667.963449
 21
2056.214112
  0
LINE
  8
CSLAYER1
  6
CONTINUOUS
 62
     7
 10
676.061934
 20
2046.953872
 11
673.961219
 21
2045.776304
  0
INSERT
  8
CSLAYER1
  2
BLKF0006
 10
0.0
 20
0.0
 30
0.0
  0
LINE
  8
CSLAYER1
  6
CONTINUOUS
 62
     7
 10
697.213244
 20
2059.888175
 11
676.168969
 21
2067.547664
  0
LINE
  8
CSLAYER1
  6
CONTINUOUS
 62
     7
 10
697.213244
 20
2059.888175
 11
697.213244
 21
2026.079841
  0
LINE
  8
CSLAYER1
  6
CONTINUOUS
 62
     7
 10
687.018151
 20
2053.517573
 11
687.018151
 21
2007.719075
  0
LINE
  8
CSLAYER1
  6
CONTINUOUS
 62
     7
 10
671.865230
 20
2029.945497
 11
669.731306
 21
2022.954563
  0
LINE
  8
CSLAYER1
  6
CONTINUOUS
 62
     7
 10
669.731306
 20
2022.954563
 11
662.610017
 21
2024.601997
  0
LINE
  8
CSLAYER1
  6
CONTINUOUS
 62
     7
 10
662.610017
 20
2024.601997
 11
659.524947
 21
2029.945497
  0
LINE
  8
CSLAYER1
  6
CONTINUOUS
 62
     7
 10
659.524947
 20
2029.945497
 11
661.610088
 21
2037.020924
  0
LINE
  8
CSLAYER1
  6
CONTINUOUS
 62
     7
 10
661.610088
 20
2037.020924
 11
668.780159
 21
2035.288996
  0
LINE
  8
CSLAYER1
  6
CONTINUOUS
 62
     7
 10
668.780159
 20
2035.288996
 11
671.865230
 21
2029.945497
  0
LINE
  8
CSLAYER1
  6
CONTINUOUS
 62
     7
 10
674.533808
 20
2031.486201
 11
672.399884
 21
2024.495267
  0
LINE
  8
CSLAYER1
  6
CONTINUOUS
 62
     7
 10
671.448738
 20
2036.829700
 11
674.533808
 21
2031.486201
  0
LINE
  8
CSLAYER1
  6
CONTINUOUS
 62
     7
 10
664.278667
 20
2038.561629
 11
671.448738
 21
2036.829700
  0
LINE
  8
CSLAYER1
  6
CONTINUOUS
 62
     7
 10
672.399884
 20
2024.495267
 11
669.731306
 21
2022.954563
  0
LINE
  8
CSLAYER1
  6
CONTINUOUS
 62
     7
 10
674.533808
 20
2031.486201
 11
671.865230
 21
2029.945497
  0
LINE
  8
CSLAYER1
  6
CONTINUOUS
 62
     7
 10
671.448738
 20
2036.829700
 11
668.780159
 21
2035.288996
  0
LINE
  8
CSLAYER1
  6
CONTINUOUS
 62
     7
 10
664.278667
 20
2038.561629
 11
661.610088
 21
2037.020924
  0
INSERT
  8
CSLAYER1
  2
BLKF0007
 10
0.0
 20
0.0
 30
0.0
  0
LINE
  8
CSLAYER1
  6
CONTINUOUS
 62
     7
 10
688.325869
 20
2059.501163
 11
686.666161
 21
2057.757058
  0
LINE
  8
CSLAYER1
  6
CONTINUOUS
 62
     7
 10
686.666161
 20
2057.757058
 11
684.652243
 21
2057.757058
  0
LINE
  8
CSLAYER1
  6
CONTINUOUS
 62
     7
 10
684.652243
 20
2057.757058
 11
682.992535
 21
2059.501163
  0
LINE
  8
CSLAYER1
  6
CONTINUOUS
 62
     7
 10
682.992535
 20
2059.501163
 11
684.652243
 21
2061.245267
  0
LINE
  8
CSLAYER1
  6
CONTINUOUS
 62
     7
 10
684.652243
 20
2061.245267
 11
686.666161
 21
2061.245267
  0
LINE
  8
CSLAYER1
  6
CONTINUOUS
 62
     7
 10
686.666161
 20
2061.245267
 11
688.325869
 21
2059.501163
  0
INSERT
  8
CSLAYER1
  2
BLKF0008
 10
0.0
 20
0.0
 30
0.0
  0
LINE
  8
CSLAYER1
  6
CONTINUOUS
 62
     7
 10
687.018151
 20
2053.517573
 11
665.973876
 21
2061.177063
  0
LINE
  8
CSLAYER1
  6
CONTINUOUS
 62
     7
 10
687.018151
 20
2053.517573
 11
697.213244
 21
2059.888175
  0
LINE
  8
CSLAYER1
  6
CONTINUOUS
 62
     7
 10
652.445265
 20
2064.784527
 11
652.445265
 21
2020.018477
  0
LINE
  8
CSLAYER1
  6
CONTINUOUS
 62
     7
 10
665.973876
 20
2061.177063
 11
676.168969
 21
2067.547664
  0
LINE
  8
CSLAYER1
  6
CONTINUOUS
 62
     7
 10
665.973876
 20
2059.860516
 11
652.445265
 21
2064.784527
  0
LINE
  8
CSLAYER1
  6
CONTINUOUS
 62
     7
 10
665.973876
 20
2061.177063
 11
665.973876
 21
2059.860516
  0
LINE
  8
CSLAYER1
  6
CONTINUOUS
 62
     7
 10
661.899401
 20
2060.164258
 11
655.261055
 21
2062.580419
  0
LINE
  8
CSLAYER1
  6
CONTINUOUS
 62
     7
 10
654.867077
 20
2063.903060
 11
655.261055
 21
2062.580419
  0
LINE
  8
CSLAYER1
  6
CONTINUOUS
 62
     7
 10
661.899401
 20
2060.164258
 11
664.113905
 21
2060.537489
  0
LINE
  8
CSLAYER1
  6
CONTINUOUS
 62
     7
 10
674.837562
 20
2066.715709
 11
668.562490
 21
2068.999649
  0
LINE
  8
CSLAYER1
  6
CONTINUOUS
 62
     7
 10
652.445265
 20
2064.784527
 11
661.501164
 21
2070.443281
  0
LINE
  8
CSLAYER1
  6
CONTINUOUS
 62
     7
 10
661.899401
 20
2060.164258
 11
661.899401
 21
2046.410804
  0
LINE
  8
CSLAYER1
  6
CONTINUOUS
 62
     7
 10
664.113905
 20
2060.537489
 11
664.113905
 21
2047.883469
  0
LINE
  8
CSLAYER1
  6
CONTINUOUS
 62
     7
 10
655.261055
 20
2062.580419
 11
655.261055
 21
2048.826964
  0
LINE
  8
CSLAYER1
  6
CONTINUOUS
 62
     7
 10
655.261055
 20
2048.826964
 11
656.985983
 21
2043.710917
  0
LINE
  8
CSLAYER1
  6
CONTINUOUS
 62
     7
 10
661.899401
 20
2046.410804
 11
659.522240
 21
2042.647326
  0
LINE
  8
CSLAYER1
  6
CONTINUOUS
 62
     7
 10
656.985983
 20
2043.710917
 11
656.985983
 21
2018.225625
  0
LINE
  8
CSLAYER1
  6
CONTINUOUS
 62
     7
 10
659.522240
 20
2042.647326
 11
659.522240
 21
2016.507516
  0
LINE
  8
CSLAYER1
  6
CONTINUOUS
 62
     7
 10
661.899401
 20
2046.410804
 11
664.021149
 21
2047.736619
  0
LINE
  8
CSLAYER1
  6
CONTINUOUS
 62
     7
 10
659.522240
 20
2042.647326
 11
661.643988
 21
2043.973141
  0
LINE
  8
CSLAYER1
  6
CONTINUOUS
 62
     7
 10
664.113905
 20
2047.883469
 11
661.736745
 21
2044.119991
  0
LINE
  8
CSLAYER1
  6
CONTINUOUS
 62
     7
 10
661.736745
 20
2044.119991
 11
661.736745
 21
2037.094049
  0
LINE
  8
CSLAYER1
  6
CONTINUOUS
 62
     7
 10
661.736745
 20
2026.114550
 11
661.736745
 21
2015.607554
  0
LINE
  8
CSLAYER1
  6
CONTINUOUS
 62
     7
 10
697.213244
 20
2026.079841
 11
699.748042
 21
2027.663758
  0
LINE
  8
CSLAYER1
  6
CONTINUOUS
 62
     7
 10
668.087371
 20
2012.585542
 11
631.750753
 21
2029.852254
  0
LINE
  8
CSLAYER1
  6
CONTINUOUS
 62
     7
 10
662.170659
 20
2000.264006
 11
626.709839
 21
2017.114551
  0
LINE
  8
CSLAYER1
  6
CONTINUOUS
 62
     7
 10
712.378277
 20
2013.100577
 11
709.398875
 21
1998.612221
  0
ARC
  8
CSLAYER1
  6
CONTINUOUS
 62
     7
 10
689.547126
 20
2057.746131
 40
50.000000
 50
244.583509
 51
263.653028
  0
ARC
  8
CSLAYER1
  6
CONTINUOUS
 62
     7
 10
689.639146
 20
2058.069561
 40
64.000000
 50
244.583509
 51
263.653028
  0
LINE
  8
CSLAYER1
  6
CONTINUOUS
 62
     7
 10
680.712258
 20
1994.695192
 11
680.712258
 21
1991.799464
  0
LINE
  8
CSLAYER1
  6
CONTINUOUS
 62
     7
 10
657.753284
 20
2000.155847
 11
654.946342
 21
2003.696912
  0
LINE
  8
CSLAYER1
  6
CONTINUOUS
 62
     3
 10
1541.128582
 20
849.752606
 11
1541.128582
 21
889.752606
  0
LINE
  8
CSLAYER1
  6
CENTER
 62
     5
 10
1501.128582
 20
1984.611268
 11
2283.828582
 21
1984.611268
  0
LINE
  8
CSLAYER1
  6
CONTINUOUS
 62
     3
 10
1541.128582
 20
1844.611268
 11
1541.128582
 21
2010.461268
  0
LINE
  8
CSLAYER1
  6
CONTINUOUS
 62
     3
 10
1591.128582
 20
1844.611268
 11
1591.128582
 21
1859.611268
  0
LINE
  8
CSLAYER1
  6
CONTINUOUS
 62
     4
 10
1543.828582
 20
2109.611268
 11
1543.828582
 21
1859.611268
  0
LINE
  8
CSLAYER1
  6
CONTINUOUS
 62
     4
 10
2243.828582
 20
2109.611268
 11
2243.828582
 21
1859.611268
  0
LINE
  8
CSLAYER1
  6
CONTINUOUS
 62
     3
 10
1551.128582
 20
1834.611268
 11
1581.128582
 21
1834.611268
  0
ARC
  8
CSLAYER1
  6
CONTINUOUS
 62
     3
 10
1551.128582
 20
1844.611268
 40
10.000000
 50
180.000000
 51
270.000000
  0
ARC
  8
CSLAYER1
  6
CONTINUOUS
 62
     3
 10
1581.128582
 20
1844.611268
 40
10.000000
 50
270.000000
 51
360.000000
  0
INSERT
  8
CSLAYER1
  2
BLKF0009
 10
0.0
 20
0.0
 30
0.0
  0
LINE
  8
CSLAYER1
  6
CENTER
 62
     5
 10
1611.467322
 20
941.834095
 11
1745.161150
 21
1182.262817
  0
LINE
  8
CSLAYER1
  6
CENTER
 62
     5
 10
930.900271
 20
1469.730716
 11
930.900271
 21
809.752606
  0
LINE
  8
CSLAYER1
  6
CENTER
 62
     5
 10
1055.900271
 20
840.823245
 11
1055.900271
 21
865.033206
  0
LINE
  8
CSLAYER1
  6
CENTER
 62
     5
 10
805.900271
 20
840.823245
 11
805.900271
 21
865.033206
  0
LINE
  8
CSLAYER1
  6
CENTER
 62
     5
 10
900.900271
 20
853.063042
 11
900.900271
 21
886.326361
  0
LINE
  8
CSLAYER1
  6
CENTER
 62
     5
 10
883.026325
 20
869.752606
 11
920.023282
 21
869.752606
  0
LINE
  8
CSLAYER1
  6
CENTER
 62
     5
 10
856.400271
 20
1409.930716
 11
1005.400271
 21
1409.930716
  0
LINE
  8
CSLAYER1
  6
CENTER
 62
     5
 10
851.400271
 20
1130.529842
 11
1010.400271
 21
1130.529842
  0
ARC
  8
CSLAYER1
  6
CONTINUOUS
 62
     3
 10
1588.405886
 20
1409.930716
 40
9.500000
 50
-190.922071
 51
10.922071
  0
LINE
  8
CSLAYER1
  6
CONTINUOUS
 62
     3
 10
1578.905886
 20
1411.730716
 11
1578.905886
 21
1404.445888
  0
LINE
  8
CSLAYER1
  6
CONTINUOUS
 62
     3
 10
1578.905886
 20
1404.445888
 11
1588.405886
 21
1398.961061
  0
LINE
  8
CSLAYER1
  6
CONTINUOUS
 62
     3
 10
1588.405886
 20
1398.961061
 11
1597.905886
 21
1404.445888
  0
LINE
  8
CSLAYER1
  6
CONTINUOUS
 62
     3
 10
1597.905886
 20
1404.445888
 11
1597.905886
 21
1411.730716
  0
POINT
  8
CSLAYER1
 62
     3
 10
1588.405886
 20
1409.930716
  0
LINE
  8
CSLAYER1
  6
CONTINUOUS
 62
     3
 10
1566.105886
 20
1429.730716
 11
1566.105886
 21
1411.730716
  0
LINE
  8
CSLAYER1
  6
CONTINUOUS
 62
     3
 10
2266.105886
 20
1429.730716
 11
2266.105886
 21
1411.730716
  0
LINE
  8
CSLAYER1
  6
CONTINUOUS
 62
     3
 10
1618.405886
 20
1397.430716
 11
2248.405886
 21
1397.430716
  0
LINE
  8
CSLAYER1
  6
CONTINUOUS
 62
     3
 10
1566.105886
 20
1429.730716
 11
2266.105886
 21
1429.730716
  0
LINE
  8
CSLAYER1
  6
CONTINUOUS
 62
     3
 10
1568.405886
 20
1411.730716
 11
1568.405886
 21
1404.430716
  0
LINE
  8
CSLAYER1
  6
CONTINUOUS
 62
     3
 10
1566.105886
 20
1411.730716
 11
2266.105886
 21
1411.730716
  0
LINE
  8
CSLAYER1
  6
CONTINUOUS
 62
     3
 10
1573.405886
 20
1399.430716
 11
1587.592420
 21
1399.430716
  0
ARC
  8
CSLAYER1
  6
CONTINUOUS
 62
     3
 10
1573.405886
 20
1404.430716
 40
5.000000
 50
180.000000
 51
270.000000
  0
LINE
  8
CSLAYER1
  6
CONTINUOUS
 62
     3
 10
2248.405886
 20
1411.730716
 11
2248.405886
 21
1397.430716
  0
LINE
  8
CSLAYER1
  6
CONTINUOUS
 62
     3
 10
1618.405886
 20
1408.430716
 11
1593.405886
 21
1399.430716
  0
LINE
  8
CSLAYER1
  6
CONTINUOUS
 62
     3
 10
1618.405886
 20
1411.730716
 11
1618.405886
 21
1397.430716
  0
LINE
  8
CSLAYER1
  6
CONTINUOUS
 62
     4
 10
1806.633576
 20
1180.786253
 11
1798.552671
 21
1161.946163
  0
LINE
  8
CSLAYER1
  6
CONTINUOUS
 62
     4
 10
1598.461122
 20
889.752606
 11
1611.838518
 21
908.235550
  0
LINE
  8
CSLAYER1
  6
CONTINUOUS
 62
     4
 10
1611.838518
 20
908.235550
 11
1617.381612
 21
911.630268
  0
LINE
  8
CSLAYER1
  6
CONTINUOUS
 62
     4
 10
1575.982343
 20
946.531565
 11
1902.329483
 21
1397.430716
  0
LINE
  8
CSLAYER1
  6
CONTINUOUS
 62
     4
 10
1617.381612
 20
911.630268
 11
1798.552671
 21
1161.946163
  0
ARC
  8
CSLAYER1
  6
DASHED
 62
     5
 10
1924.955446
 20
1409.930716
 40
13.000000
 50
-74.057631
 51
254.057631
  0
POINT
  8
CSLAYER1
 62
     4
 10
1924.955446
 20
1409.930716
  0
POINT
  8
CSLAYER1
 62
     4
 10
1756.680666
 20
1130.529842
  0
LINE
  8
CSLAYER1
  6
CONTINUOUS
 62
     4
 10
1806.633576
 20
1180.786253
 11
1926.827967
 21
1346.853433
  0
LINE
  8
CSLAYER1
  6
CONTINUOUS
 62
     4
 10
1926.827967
 20
1346.853433
 11
1934.240890
 21
1397.430716
  0
LINE
  8
CSLAYER1
  6
CONTINUOUS
 62
     4
 10
1597.908385
 20
939.303241
 11
1610.869726
 21
929.922216
  0
LINE
  8
CSLAYER1
  6
CONTINUOUS
 62
     4
 10
1618.429379
 20
967.656174
 11
1631.390720
 21
958.275149
  0
LINE
  8
CSLAYER1
  6
CONTINUOUS
 62
     4
 10
1615.058920
 20
930.593525
 11
1632.062029
 21
954.085955
  0
LINE
  8
CSLAYER1
  6
CONTINUOUS
 62
     4
 10
1597.237076
 20
943.492435
 11
1614.240185
 21
966.984865
  0
ARC
  8
CSLAYER1
  6
CONTINUOUS
 62
     4
 10
1599.667327
 20
941.733493
 40
3.000000
 50
144.104120
 51
234.104120
  0
ARC
  8
CSLAYER1
  6
CONTINUOUS
 62
     4
 10
1616.670437
 20
965.225923
 40
3.000000
 50
54.104120
 51
144.104120
  0
ARC
  8
CSLAYER1
  6
CONTINUOUS
 62
     4
 10
1612.628668
 20
932.352467
 40
3.000000
 50
234.104120
 51
324.104120
  0
ARC
  8
CSLAYER1
  6
CONTINUOUS
 62
     4
 10
1629.631777
 20
955.844897
 40
3.000000
 50
-35.895880
 51
54.104120
  0
LINE
  8
CSLAYER1
  6
CONTINUOUS
 62
     4
 10
1575.982343
 20
946.531565
 11
1557.912134
 21
885.332415
  0
POINT
  8
CSLAYER1
 62
     7
 10
1745.161150
 20
1182.262817
  0
LINE
  8
CSLAYER1
  6
CONTINUOUS
 62
     7
 10
1788.811732
 20
1067.374520
 11
1917.369091
 21
889.752606
  0
CIRCLE
  8
CSLAYER1
  6
DASHED
 62
     5
 10
1947.232751
 20
867.252606
 40
13.000000
  0
POINT
  8
CSLAYER1
 62
     7
 10
1947.232751
 20
867.252606
  0
POINT
  8
CSLAYER1
 62
     7
 10
1756.680666
 20
1130.529842
  0
LINE
  8
CSLAYER1
  6
CONTINUOUS
 62
     7
 10
1949.105272
 20
930.329889
 11
1955.052532
 21
889.752606
  0
LINE
  8
CSLAYER1
  6
CONTINUOUS
 62
     7
 10
1606.240231
 20
1404.051080
 11
1756.680666
 21
1196.194303
  0
LINE
  8
CSLAYER1
  6
CONTINUOUS
 62
     7
 10
1608.906904
 20
1341.301862
 11
1579.174671
 21
1399.430716
  0
ARC
  8
CSLAYER1
  6
CONTINUOUS
 62
     7
 10
1600.003918
 20
1336.748088
 40
10.000000
 50
-0.046232
 51
27.089216
  0
LINE
  8
CSLAYER1
  6
CONTINUOUS
 62
     7
 10
1610.003915
 20
1336.740019
 11
1609.988547
 21
1317.693692
  0
ARC
  8
CSLAYER1
  6
CONTINUOUS
 62
     7
 10
1619.988543
 20
1317.685623
 40
10.000000
 50
179.953768
 51
215.895880
  0
LINE
  8
CSLAYER1
  6
CONTINUOUS
 62
     7
 10
1714.808662
 20
1161.946163
 11
1723.350781
 21
1150.143902
  0
LINE
  8
CSLAYER1
  6
CONTINUOUS
 62
     7
 10
1788.811732
 20
1067.374520
 11
1773.440073
 21
1080.937783
  0
LINE
  8
CSLAYER1
  6
CONTINUOUS
 62
     7
 10
1706.727757
 20
1180.786253
 11
1714.808662
 21
1161.946163
  0
LINE
  8
CSLAYER1
  6
CONTINUOUS
 62
     7
 10
1706.727757
 20
1180.786253
 11
1611.887705
 21
1311.822482
  0
POINT
  8
CSLAYER1
 62
     7
 10
1588.405886
 20
1409.930716
  0
CIRCLE
  8
CSLAYER1
  6
CONTINUOUS
 62
     7
 10
1756.680666
 20
1130.529842
 40
7.500000
  0
POINT
  8
CSLAYER1
 62
     5
 10
1745.161150
 20
1182.262817
  0
LINE
  8
CSLAYER1
  6
CONTINUOUS
 62
     4
 10
1631.638996
 20
953.501469
 11
1612.274710
 21
964.269257
  0
LINE
  8
CSLAYER1
  6
CONTINUOUS
 62
     4
 10
1666.693359
 20
1088.476807
 11
1675.267312
 21
1083.709138
  0
LINE
  8
CSLAYER1
  6
CONTINUOUS
 62
     4
 10
1636.905424
 20
1042.109481
 11
1642.790300
 21
1038.837112
  0
LINE
  8
CSLAYER1
  6
CONTINUOUS
 62
     4
 10
1636.517438
 20
1043.469432
 11
1653.040848
 21
1073.184360
  0
LINE
  8
CSLAYER1
  6
CONTINUOUS
 62
     4
 10
1653.040848
 20
1073.184360
 11
1666.693359
 21
1088.476807
  0
LINE
  8
CSLAYER1
  6
CONTINUOUS
 62
     4
 10
1636.517438
 20
1043.469432
 11
1636.905424
 21
1042.109481
  0
LINE
  8
CSLAYER1
  6
CONTINUOUS
 62
     4
 10
1620.403487
 20
1007.906260
 11
1638.828154
 21
1041.040319
  0
POINT
  8
CSLAYER1
 62
     5
 10
1611.467322
 20
941.834095
  0
LINE
  8
CSLAYER1
  6
CONTINUOUS
 62
     4
 10
1617.967926
 20
912.440352
 11
1618.372968
 21
912.147195
  0
CIRCLE
  8
CSLAYER1
  6
CONTINUOUS
 62
     4
 10
1611.467322
 20
941.834095
 40
8.000000
  0
LINE
  8
CSLAYER1
  6
CONTINUOUS
 62
     4
 10
1620.848348
 20
954.795436
 11
1628.544144
 21
949.225452
  0
ARC
  8
CSLAYER1
  6
CONTINUOUS
 62
     4
 10
1611.467322
 20
941.834095
 40
16.000000
 50
54.104120
 51
105.479287
  0
POINT
  8
CSLAYER1
 62
     2
 10
1611.467322
 20
941.834095
  0
LINE
  8
CSLAYER1
  6
CONTINUOUS
 62
     4
 10
1618.372968
 20
912.147195
 11
1602.164443
 21
889.752606
  0
LINE
  8
CSLAYER1
  6
CENTER
 62
     5
 10
1549.071034
 20
869.752606
 11
1401.333926
 21
869.752606
  0
LINE
  8
CSLAYER1
  6
CONTINUOUS
 62
     1
 10
1541.128582
 20
887.752606
 11
1541.128582
 21
849.752606
  0
LINE
  8
CSLAYER1
  6
CONTINUOUS
 62
     4
 10
1541.128582
 20
889.752606
 11
1541.128582
 21
849.752606
  0
LINE
  8
CSLAYER1
  6
CONTINUOUS
 62
     4
 10
1541.128582
 20
889.752606
 11
1554.672143
 21
889.752606
  0
LINE
  8
CSLAYER1
  6
CONTINUOUS
 62
     3
 10
2244.128582
 20
889.752606
 11
2244.128582
 21
849.752606
  0
LINE
  8
CSLAYER1
  6
CONTINUOUS
 62
     3
 10
1541.128582
 20
889.752606
 11
1554.672143
 21
889.752606
  0
LINE
  8
CSLAYER1
  6
CONTINUOUS
 62
     4
 10
1577.585021
 20
889.752606
 11
1594.128582
 21
889.752606
  0
LINE
  8
CSLAYER1
  6
CONTINUOUS
 62
     5
 10
479.096618
 20
849.752606
 11
780.900271
 21
849.752606
  0
LINE
  8
CSLAYER1
  6
CONTINUOUS
 62
     3
 10
1589.219353
 20
1399.430716
 11
1593.405886
 21
1399.430716
  0
ARC
  8
CSLAYER1
  6
CONTINUOUS
 62
     4
 10
1924.955446
 20
1409.930716
 40
13.000000
 50
254.057631
 51
285.942369
  0
ARC
  8
CSLAYER1
  6
CONTINUOUS
 62
     4
 10
1745.161150
 20
1182.262817
 40
8.000000
 50
45.741168
 51
242.467072
  0
POINT
  8
CSLAYER1
 62
     4
 10
1745.161150
 20
1182.262817
  0
LINE
  8
CSLAYER1
  6
CONTINUOUS
 62
     4
 10
1671.063201
 20
1086.046894
 11
1714.137799
 21
1163.510234
  0
LINE
  8
CSLAYER1
  6
CONTINUOUS
 62
     7
 10
1756.680666
 20
1104.093500
 11
1773.440073
 21
1080.937783
  0
LINE
  8
CSLAYER1
  6
CONTINUOUS
 62
     7
 10
1790.010551
 20
1150.143902
 11
1949.105272
 21
930.329889
  0
LINE
  8
CSLAYER1
  6
CONTINUOUS
 62
     4
 10
1653.040848
 20
1073.184360
 11
1663.457490
 21
1067.392037
  0
ARC
  8
CSLAYER1
  6
CONTINUOUS
 62
     3
 10
1566.128582
 20
894.752606
 40
12.500000
 50
203.578178
 51
336.421822
  0
LINE
  8
CSLAYER1
  6
CONTINUOUS
 62
     3
 10
1577.585021
 20
889.752606
 11
2244.128582
 21
889.752606
  0
INSERT
  8
CSLAYER1
  2
BLKF0010
 10
0.0
 20
0.0
 30
0.0
  0
LINE
  8
CSLAYER1
  6
CENTER
 62
     5
 10
1575.717006
 20
1409.930716
 11
1601.451300
 21
1409.930716
  0
LINE
  8
CSLAYER1
  6
CENTER
 62
     5
 10
1588.405886
 20
1420.775504
 11
1588.405886
 21
1395.041210
  0
LINE
  8
CSLAYER1
  6
CENTER
 62
     5
 10
1924.955446
 20
1425.970058
 11
1924.955446
 21
1391.021738
  0
LINE
  8
CSLAYER1
  6
CENTER
 62
     5
 10
1908.610807
 20
1409.930716
 11
1942.231976
 21
1409.930716
  0
LINE
  8
CSLAYER1
  6
CENTER
 62
     5
 10
1743.221480
 20
1130.529842
 11
1769.778332
 21
1130.529842
  0
LINE
  8
CSLAYER1
  6
CENTER
 62
     5
 10
1756.680666
 20
1141.517281
 11
1756.680666
 21
1118.485675
  0
LINE
  8
CSLAYER1
  6
CENTER
 62
     5
 10
1745.161150
 20
1191.340755
 11
1745.161150
 21
1173.189195
  0
LINE
  8
CSLAYER1
  6
CENTER
 62
     5
 10
1735.303502
 20
1182.262817
 11
1752.376751
 21
1182.262817
  0
LINE
  8
CSLAYER1
  6
CENTER
 62
     5
 10
1930.346306
 20
867.252606
 11
1964.271643
 21
867.252606
  0
LINE
  8
CSLAYER1
  6
CENTER
 62
     5
 10
1947.232751
 20
883.567729
 11
1947.232751
 21
850.538533
  0
LINE
  8
CSLAYER1
  6
CENTER
 62
     5
 10
1611.467322
 20
951.935090
 11
1611.467322
 21
931.253648
  0
LINE
  8
CSLAYER1
  6
CENTER
 62
     5
 10
1600.175991
 20
941.834095
 11
1621.631604
 21
941.834095
  0
LINE
  8
CSLAYER1
  6
CENTER
 62
     5
 10
1553.628921
 20
867.252606
 11
1578.720377
 21
867.252606
  0
LINE
  8
CSLAYER1
  6
CENTER
 62
     5
 10
1566.128582
 20
882.252606
 11
1566.128582
 21
846.709183
  0
LINE
  8
CSLAYER1
  6
PHANTOM
 62
     5
 10
1816.128582
 20
912.252606
 11
1816.128582
 21
907.752606
  0
LINE
  8
CSLAYER1
  6
PHANTOM
 62
     5
 10
1741.128582
 20
912.252606
 11
1741.128582
 21
907.752606
  0
POINT
  8
CSLAYER1
 62
     5
 10
1566.128582
 20
894.752606
  0
LINE
  8
CSLAYER1
  6
PHANTOM
 62
     5
 10
1543.828582
 20
914.552606
 11
1543.828582
 21
896.552606
  0
LINE
  8
CSLAYER1
  6
PHANTOM
 62
     5
 10
2243.828582
 20
914.552606
 11
2243.828582
 21
896.552606
  0
LINE
  8
CSLAYER1
  6
PHANTOM
 62
     5
 10
1543.828582
 20
914.552606
 11
2243.828582
 21
914.552606
  0
LINE
  8
CSLAYER1
  6
PHANTOM
 62
     5
 10
2243.828582
 20
896.552606
 11
1543.828582
 21
896.552606
  0
LINE
  8
CSLAYER1
  6
PHANTOM
 62
     5
 10
1546.128582
 20
896.552606
 11
1546.128582
 21
889.252606
  0
LINE
  8
CSLAYER1
  6
PHANTOM
 62
     5
 10
2226.128582
 20
896.552606
 11
2226.128582
 21
889.752606
  0
LINE
  8
CSLAYER1
  6
PHANTOM
 62
     5
 10
1596.128582
 20
893.252606
 11
1586.406360
 21
889.752606
  0
LINE
  8
CSLAYER1
  6
PHANTOM
 62
     5
 10
1596.128582
 20
896.552606
 11
1596.128582
 21
889.752606
  0
LINE
  8
CSLAYER1
  6
CENTER
 62
     5
 10
1566.128582
 20
904.482002
 11
1566.128582
 21
885.727487
  0
LINE
  8
CSLAYER1
  6
CENTER
 62
     5
 10
1553.448593
 20
894.752606
 11
1577.317976
 21
894.752606
  0
LINE
  8
CSLAYER1
  6
CENTER
 62
     5
 10
1566.128582
 20
1870.874070
 11
1566.128582
 21
1848.348467
  0
LINE
  8
CSLAYER1
  6
CENTER
 62
     5
 10
1554.865780
 20
1859.611268
 11
1577.391383
 21
1859.611268
  0
ARC
  8
CSLAYER1
  6
CONTINUOUS
 62
     3
 10
1566.128582
 20
1859.611268
 40
6.500000
 50
180.000000
 51
360.000000
  0
LINE
  8
CSLAYER1
  6
CONTINUOUS
 62
     3
 10
1591.128582
 20
2124.611268
 11
1591.128582
 21
2109.611268
  0
LINE
  8
CSLAYER1
  6
CONTINUOUS
 62
     3
 10
1551.128582
 20
2134.611268
 11
1581.128582
 21
2134.611268
  0
ARC
  8
CSLAYER1
  6
CONTINUOUS
 62
     3
 10
1551.128582
 20
2124.611268
 40
10.000000
 50
90.000000
 51
180.000000
  0
ARC
  8
CSLAYER1
  6
CONTINUOUS
 62
     3
 10
1581.128582
 20
2124.611268
 40
10.000000
 50
0.000000
 51
90.000000
  0
LINE
  8
CSLAYER1
  6
CENTER
 62
     5
 10
1566.128582
 20
2098.348467
 11
1566.128582
 21
2120.874070
  0
LINE
  8
CSLAYER1
  6
CENTER
 62
     5
 10
1554.865780
 20
2109.611268
 11
1577.391383
 21
2109.611268
  0
ARC
  8
CSLAYER1
  6
CONTINUOUS
 62
     3
 10
1566.128582
 20
2109.611268
 40
6.500000
 50
0.000000
 51
180.000000
  0
LINE
  8
CSLAYER1
  6
CONTINUOUS
 62
     3
 10
830.900271
 20
889.752606
 11
1030.900271
 21
889.752606
  0
LINE
  8
CSLAYER1
  6
CONTINUOUS
 62
     3
 10
830.900271
 20
889.752606
 11
830.900271
 21
855.752606
  0
LINE
  8
CSLAYER1
  6
CONTINUOUS
 62
     3
 10
1030.900271
 20
889.752606
 11
1030.900271
 21
855.752606
  0
LINE
  8
CSLAYER1
  6
CONTINUOUS
 62
     3
 10
1080.900271
 20
849.752606
 11
1080.900271
 21
855.752606
  0
LINE
  8
CSLAYER1
  6
CONTINUOUS
 62
     3
 10
1005.400271
 20
849.752606
 11
1005.400271
 21
889.752606
  0
LINE
  8
CSLAYER1
  6
CONTINUOUS
 62
     3
 10
1080.900271
 20
855.752606
 11
1005.400271
 21
855.752606
  0
LINE
  8
CSLAYER1
  6
CONTINUOUS
 62
     3
 10
1008.400271
 20
878.222261
 11
1008.400271
 21
856.282950
  0
LINE
  8
CSLAYER1
  6
CONTINUOUS
 62
     3
 10
1005.400271
 20
856.502606
 11
1008.400271
 21
856.502606
  0
LINE
  8
CSLAYER1
  6
CONTINUOUS
 62
     3
 10
1005.400271
 20
878.002606
 11
1008.400271
 21
878.002606
  0
LINE
  8
CSLAYER1
  6
CONTINUOUS
 62
     3
 10
1005.400271
 20
868.764802
 11
1008.400271
 21
865.264802
  0
LINE
  8
CSLAYER1
  6
CONTINUOUS
 62
     3
 10
1016.400271
 20
858.252606
 11
1016.400271
 21
876.252606
  0
LINE
  8
CSLAYER1
  6
CONTINUOUS
 62
     3
 10
1008.400271
 20
861.767778
 11
1015.263090
 21
861.767778
  0
LINE
  8
CSLAYER1
  6
CONTINUOUS
 62
     3
 10
1008.400271
 20
856.282950
 11
1015.263090
 21
856.282950
  0
LINE
  8
CSLAYER1
  6
CONTINUOUS
 62
     3
 10
1016.400271
 20
858.252606
 11
1015.263090
 21
856.282950
  0
ARC
  8
CSLAYER1
  6
CONTINUOUS
 62
     3
 10
1012.620227
 20
859.025364
 40
3.808617
 50
5.661633
 51
46.059028
  0
ARC
  8
CSLAYER1
  6
CONTINUOUS
 62
     3
 10
1002.604527
 20
867.252606
 40
13.795744
 50
-23.426598
 51
23.426598
  0
LINE
  8
CSLAYER1
  6
CONTINUOUS
 62
     3
 10
1008.400271
 20
872.737433
 11
1015.263090
 21
872.737433
  0
LINE
  8
CSLAYER1
  6
CONTINUOUS
 62
     3
 10
1008.400271
 20
878.222261
 11
1015.263090
 21
878.222261
  0
LINE
  8
CSLAYER1
  6
CONTINUOUS
 62
     3
 10
1016.400271
 20
876.252606
 11
1015.263090
 21
878.222261
  0
ARC
  8
CSLAYER1
  6
CONTINUOUS
 62
     3
 10
1012.620227
 20
875.479847
 40
3.808617
 50
313.940972
 51
354.338367
  0
LINE
  8
CSLAYER1
  6
CENTER
 62
     5
 10
1005.400271
 20
867.252606
 11
1016.400271
 21
867.252606
  0
LINE
  8
CSLAYER1
  6
CONTINUOUS
 62
     3
 10
780.900271
 20
849.752606
 11
780.900271
 21
855.752606
  0
LINE
  8
CSLAYER1
  6
CONTINUOUS
 62
     3
 10
780.900271
 20
855.752606
 11
856.400271
 21
855.752606
  0
LINE
  8
CSLAYER1
  6
CONTINUOUS
 62
     3
 10
853.400271
 20
878.222261
 11
853.400271
 21
856.282950
  0
LINE
  8
CSLAYER1
  6
CONTINUOUS
 62
     3
 10
856.400271
 20
856.502606
 11
853.400271
 21
856.502606
  0
LINE
  8
CSLAYER1
  6
CONTINUOUS
 62
     3
 10
856.400271
 20
878.002606
 11
853.400271
 21
878.002606
  0
LINE
  8
CSLAYER1
  6
CONTINUOUS
 62
     3
 10
856.400271
 20
868.764802
 11
853.400271
 21
865.264802
  0
LINE
  8
CSLAYER1
  6
CONTINUOUS
 62
     3
 10
845.400271
 20
858.252606
 11
845.400271
 21
876.252606
  0
LINE
  8
CSLAYER1
  6
CONTINUOUS
 62
     3
 10
853.400271
 20
861.767778
 11
846.537452
 21
861.767778
  0
LINE
  8
CSLAYER1
  6
CONTINUOUS
 62
     3
 10
853.400271
 20
856.282950
 11
846.537452
 21
856.282950
  0
LINE
  8
CSLAYER1
  6
CONTINUOUS
 62
     3
 10
845.400271
 20
858.252606
 11
846.537452
 21
856.282950
  0
ARC
  8
CSLAYER1
  6
CONTINUOUS
 62
     3
 10
849.180316
 20
859.025364
 40
3.808617
 50
133.940972
 51
174.338367
  0
ARC
  8
CSLAYER1
  6
CONTINUOUS
 62
     3
 10
859.196015
 20
867.252606
 40
13.795744
 50
156.573402
 51
203.426598
  0
LINE
  8
CSLAYER1
  6
CONTINUOUS
 62
     3
 10
853.400271
 20
872.737433
 11
846.537452
 21
872.737433
  0
LINE
  8
CSLAYER1
  6
CONTINUOUS
 62
     3
 10
853.400271
 20
878.222261
 11
846.537452
 21
878.222261
  0
LINE
  8
CSLAYER1
  6
CONTINUOUS
 62
     3
 10
845.400271
 20
876.252606
 11
846.537452
 21
878.222261
  0
ARC
  8
CSLAYER1
  6
CONTINUOUS
 62
     3
 10
849.180316
 20
875.479847
 40
3.808617
 50
185.661633
 51
226.059028
  0
LINE
  8
CSLAYER1
  6
CENTER
 62
     5
 10
856.400271
 20
867.252606
 11
845.400271
 21
867.252606
  0
LINE
  8
CSLAYER1
  6
CONTINUOUS
 62
     3
 10
856.400271
 20
849.752606
 11
856.400271
 21
889.752606
  0
CIRCLE
  8
CSLAYER1
  6
CONTINUOUS
 62
     3
 10
900.900271
 20
869.752606
 40
12.500000
  0
LINE
  8
CSLAYER1
  6
CONTINUOUS
 62
     3
 10
1055.900271
 20
1429.730716
 11
805.900271
 21
1429.730716
  0
LINE
  8
CSLAYER1
  6
CONTINUOUS
 62
     3
 10
976.900271
 20
889.752606
 11
976.900271
 21
1411.730716
  0
LINE
  8
CSLAYER1
  6
CONTINUOUS
 62
     3
 10
985.900271
 20
889.752606
 11
985.900271
 21
1411.730716
  0
LINE
  8
CSLAYER1
  6
CONTINUOUS
 62
     3
 10
988.900271
 20
889.752606
 11
988.900271
 21
1399.430716
  0
LINE
  8
CSLAYER1
  6
CONTINUOUS
 62
     3
 10
997.900271
 20
889.752606
 11
997.900271
 21
1398.961061
  0
LINE
  8
CSLAYER1
  6
CONTINUOUS
 62
     3
 10
1055.900271
 20
1411.730716
 11
805.900271
 21
1411.730716
  0
LINE
  8
CSLAYER1
  6
CONTINUOUS
 62
     3
 10
986.900271
 20
1401.280716
 11
985.900271
 21
1401.280716
  0
LINE
  8
CSLAYER1
  6
CONTINUOUS
 62
     3
 10
987.900271
 20
1411.730716
 11
987.900271
 21
1402.280716
  0
LINE
  8
CSLAYER1
  6
CONTINUOUS
 62
     3
 10
987.900271
 20
1402.280716
 11
986.900271
 21
1401.280716
  0
LINE
  8
CSLAYER1
  6
CONTINUOUS
 62
     3
 10
986.900271
 20
1411.730716
 11
986.900271
 21
1401.280716
  0
LINE
  8
CSLAYER1
  6
CONTINUOUS
 62
     3
 10
988.400271
 20
1399.430716
 11
994.400271
 21
1399.430716
  0
LINE
  8
CSLAYER1
  6
CONTINUOUS
 62
     3
 10
994.400271
 20
1411.730716
 11
994.400271
 21
1399.430716
  0
LINE
  8
CSLAYER1
  6
CONTINUOUS
 62
     3
 10
988.400271
 20
1411.730716
 11
988.400271
 21
1399.430716
  0
LINE
  8
CSLAYER1
  6
CONTINUOUS
 62
     3
 10
976.900271
 20
1401.280716
 11
884.900271
 21
1401.280716
  0
LINE
  8
CSLAYER1
  6
CONTINUOUS
 62
     3
 10
997.400271
 20
1398.961061
 11
997.400271
 21
1411.730716
  0
LINE
  8
CSLAYER1
  6
CONTINUOUS
 62
     3
 10
994.400271
 20
1399.180716
 11
997.400271
 21
1399.180716
  0
LINE
  8
CSLAYER1
  6
CONTINUOUS
 62
     3
 10
994.400271
 20
1408.418519
 11
997.239297
 21
1411.730716
  0
LINE
  8
CSLAYER1
  6
CONTINUOUS
 62
     3
 10
1005.400271
 20
1411.730716
 11
1005.400271
 21
1400.930716
  0
ARC
  8
CSLAYER1
  6
CONTINUOUS
 62
     3
 10
991.604527
 20
1409.930716
 40
13.795744
 50
-23.426598
 51
7.497043
  0
LINE
  8
CSLAYER1
  6
CONTINUOUS
 62
     3
 10
997.400271
 20
1404.445888
 11
1004.263090
 21
1404.445888
  0
LINE
  8
CSLAYER1
  6
CONTINUOUS
 62
     3
 10
997.400271
 20
1398.961061
 11
1004.263090
 21
1398.961061
  0
LINE
  8
CSLAYER1
  6
CONTINUOUS
 62
     3
 10
1005.400271
 20
1400.930716
 11
1004.263090
 21
1398.961061
  0
ARC
  8
CSLAYER1
  6
CONTINUOUS
 62
     3
 10
1001.620227
 20
1401.703475
 40
3.808617
 50
5.661633
 51
46.059028
  0
LINE
  8
CSLAYER1
  6
CENTER
 62
     5
 10
875.900271
 20
1182.262817
 11
985.900271
 21
1182.262817
  0
LINE
  8
CSLAYER1
  6
CONTINUOUS
 62
     3
 10
884.900271
 20
1155.216130
 11
905.900271
 21
1155.216130
  0
LINE
  8
CSLAYER1
  6
CONTINUOUS
 62
     3
 10
884.900271
 20
1106.616130
 11
923.400271
 21
1106.616130
  0
LINE
  8
CSLAYER1
  6
CONTINUOUS
 62
     3
 10
1009.400271
 20
1125.529842
 11
1008.900271
 21
1125.529842
  0
LINE
  8
CSLAYER1
  6
CONTINUOUS
 62
     3
 10
998.400271
 20
1141.029842
 11
998.400271
 21
1120.029842
  0
LINE
  8
CSLAYER1
  6
CONTINUOUS
 62
     3
 10
1010.400271
 20
1126.529842
 11
1010.400271
 21
1134.529842
  0
LINE
  8
CSLAYER1
  6
CONTINUOUS
 62
     3
 10
988.900271
 20
1144.529842
 11
985.900271
 21
1144.529842
  0
LINE
  8
CSLAYER1
  6
CONTINUOUS
 62
     3
 10
988.900271
 20
1116.529842
 11
985.900271
 21
1116.529842
  0
LINE
  8
CSLAYER1
  6
CONTINUOUS
 62
     3
 10
1000.400271
 20
1141.029842
 11
1000.400271
 21
1120.029842
  0
LINE
  8
CSLAYER1
  6
CONTINUOUS
 62
     3
 10
1002.900271
 20
1139.729842
 11
1002.900271
 21
1121.329842
  0
LINE
  8
CSLAYER1
  6
CONTINUOUS
 62
     3
 10
1002.900271
 20
1121.329842
 11
1000.400271
 21
1121.329842
  0
LINE
  8
CSLAYER1
  6
CONTINUOUS
 62
     3
 10
1000.400271
 20
1120.029842
 11
998.400271
 21
1120.029842
  0
LINE
  8
CSLAYER1
  6
CONTINUOUS
 62
     3
 10
1002.900271
 20
1139.729842
 11
1000.400271
 21
1139.729842
  0
LINE
  8
CSLAYER1
  6
CONTINUOUS
 62
     3
 10
1000.400271
 20
1141.029842
 11
998.400271
 21
1141.029842
  0
LINE
  8
CSLAYER1
  6
CONTINUOUS
 62
     3
 10
1008.900271
 20
1139.029842
 11
1008.900271
 21
1122.029842
  0
LINE
  8
CSLAYER1
  6
CONTINUOUS
 62
     3
 10
1009.400271
 20
1125.529842
 11
1010.400271
 21
1126.529842
  0
LINE
  8
CSLAYER1
  6
CONTINUOUS
 62
     3
 10
1010.100271
 20
1126.229842
 11
1008.900271
 21
1126.229842
  0
LINE
  8
CSLAYER1
  6
CONTINUOUS
 62
     3
 10
1009.400271
 20
1125.529842
 11
1009.400271
 21
1135.529842
  0
LINE
  8
CSLAYER1
  6
CONTINUOUS
 62
     3
 10
1008.141082
 20
1120.714887
 11
1003.659461
 21
1120.714887
  0
LINE
  8
CSLAYER1
  6
CONTINUOUS
 62
     3
 10
1008.141082
 20
1125.622364
 11
1003.659461
 21
1125.622364
  0
LINE
  8
CSLAYER1
  6
CONTINUOUS
 62
     3
 10
1008.900271
 20
1122.029842
 11
1008.141082
 21
1120.714887
  0
ARC
  8
CSLAYER1
  6
CONTINUOUS
 62
     3
 10
992.659461
 20
1130.529842
 40
16.240811
 50
-17.587954
 51
17.587954
  0
ARC
  8
CSLAYER1
  6
CONTINUOUS
 62
     3
 10
1004.559347
 20
1123.168626
 40
4.341619
 50
-27.480777
 51
34.413868
  0
LINE
  8
CSLAYER1
  6
CONTINUOUS
 62
     3
 10
1008.900271
 20
1139.029842
 11
1008.141082
 21
1140.344796
  0
ARC
  8
CSLAYER1
  6
CONTINUOUS
 62
     3
 10
1004.559347
 20
1137.891058
 40
4.341619
 50
-34.413868
 51
27.480777
  0
LINE
  8
CSLAYER1
  6
CONTINUOUS
 62
     3
 10
1002.900271
 20
1122.029842
 11
1003.659461
 21
1120.714887
  0
ARC
  8
CSLAYER1
  6
CONTINUOUS
 62
     3
 10
1019.141082
 20
1130.529842
 40
16.240811
 50
162.412046
 51
197.587954
  0
ARC
  8
CSLAYER1
  6
CONTINUOUS
 62
     3
 10
1007.241195
 20
1123.168626
 40
4.341619
 50
145.586132
 51
207.480777
  0
LINE
  8
CSLAYER1
  6
CONTINUOUS
 62
     3
 10
1002.900271
 20
1139.029842
 11
1003.659461
 21
1140.344796
  0
ARC
  8
CSLAYER1
  6
CONTINUOUS
 62
     3
 10
1007.241195
 20
1137.891058
 40
4.341619
 50
152.519223
 51
214.413868
  0
LINE
  8
CSLAYER1
  6
CONTINUOUS
 62
     3
 10
1008.141082
 20
1140.344796
 11
1003.659461
 21
1140.344796
  0
LINE
  8
CSLAYER1
  6
CONTINUOUS
 62
     3
 10
1008.141082
 20
1135.437319
 11
1003.659461
 21
1135.437319
  0
LINE
  8
CSLAYER1
  6
CONTINUOUS
 62
     3
 10
1009.400271
 20
1135.529842
 11
1008.900271
 21
1135.529842
  0
LINE
  8
CSLAYER1
  6
CONTINUOUS
 62
     3
 10
1009.400271
 20
1135.529842
 11
1010.400271
 21
1134.529842
  0
LINE
  8
CSLAYER1
  6
CONTINUOUS
 62
     3
 10
1010.100271
 20
1134.829842
 11
1008.900271
 21
1134.829842
  0
LINE
  8
CSLAYER1
  6
CONTINUOUS
 62
     3
 10
1000.400271
 20
1132.431289
 11
1002.900271
 21
1129.061724
  0
LINE
  8
CSLAYER1
  6
CONTINUOUS
 62
     3
 10
997.900271
 20
1123.029842
 11
998.400271
 21
1123.029842
  0
LINE
  8
CSLAYER1
  6
CONTINUOUS
 62
     3
 10
997.900271
 20
1138.029842
 11
998.400271
 21
1138.029842
  0
LINE
  8
CSLAYER1
  6
CENTER
 62
     5
 10
941.400271
 20
1195.862817
 11
941.400271
 21
923.287163
  0
LINE
  8
CSLAYER1
  6
CONTINUOUS
 62
     3
 10
970.400271
 20
903.035068
 11
970.400271
 21
957.898959
  0
LINE
  8
CSLAYER1
  6
CONTINUOUS
 62
     3
 10
964.400271
 20
903.035068
 11
964.400271
 21
957.898959
  0
LINE
  8
CSLAYER1
  6
CONTINUOUS
 62
     3
 10
912.400271
 20
903.035068
 11
912.400271
 21
957.898959
  0
LINE
  8
CSLAYER1
  6
CONTINUOUS
 62
     3
 10
918.400271
 20
903.035068
 11
918.400271
 21
957.898959
  0
LINE
  8
CSLAYER1
  6
CONTINUOUS
 62
     3
 10
963.900271
 20
1169.662817
 11
963.900271
 21
1194.862817
  0
LINE
  8
CSLAYER1
  6
CONTINUOUS
 62
     3
 10
918.900271
 20
1169.662817
 11
918.900271
 21
1194.862817
  0
LINE
  8
CSLAYER1
  6
CONTINUOUS
 62
     3
 10
919.900271
 20
1195.862817
 11
962.900271
 21
1195.862817
  0
LINE
  8
CSLAYER1
  6
CONTINUOUS
 62
     3
 10
918.900271
 20
1194.862817
 11
919.900271
 21
1195.862817
  0
LINE
  8
CSLAYER1
  6
CONTINUOUS
 62
     3
 10
962.900271
 20
1195.862817
 11
963.900271
 21
1194.862817
  0
POINT
  8
CSLAYER1
 62
     3
 10
941.400271
 20
1182.262817
  0
LINE
  8
CSLAYER1
  6
CONTINUOUS
 62
     3
 10
964.900271
 20
1190.262817
 11
963.900271
 21
1190.262817
  0
LINE
  8
CSLAYER1
  6
CONTINUOUS
 62
     3
 10
918.900271
 20
1190.262817
 11
917.900271
 21
1190.262817
  0
LINE
  8
CSLAYER1
  6
CENTER
 62
     5
 10
912.400271
 20
941.834095
 11
970.400271
 21
941.834095
  0
LINE
  8
CSLAYER1
  6
CONTINUOUS
 62
     3
 10
872.900271
 20
923.287163
 11
875.900271
 21
923.287163
  0
LINE
  8
CSLAYER1
  6
CONTINUOUS
 62
     3
 10
912.400271
 20
903.035068
 11
918.400271
 21
903.035068
  0
LINE
  8
CSLAYER1
  6
CONTINUOUS
 62
     3
 10
912.400271
 20
957.898959
 11
918.400271
 21
957.898959
  0
LINE
  8
CSLAYER1
  6
CONTINUOUS
 62
     3
 10
964.400271
 20
957.898959
 11
970.400271
 21
957.898959
  0
LINE
  8
CSLAYER1
  6
CONTINUOUS
 62
     3
 10
964.400271
 20
903.035068
 11
970.400271
 21
903.035068
  0
LINE
  8
CSLAYER1
  6
CONTINUOUS
 62
     3
 10
918.400271
 20
923.287163
 11
964.400271
 21
923.287163
  0
LINE
  8
CSLAYER1
  6
CONTINUOUS
 62
     3
 10
970.400271
 20
923.287163
 11
976.900271
 21
923.287163
  0
LINE
  8
CSLAYER1
  6
CONTINUOUS
 62
     3
 10
985.900271
 20
923.287163
 11
988.900271
 21
923.287163
  0
LINE
  8
CSLAYER1
  6
CONTINUOUS
 62
     3
 10
964.312749
 20
1078.271046
 11
968.795625
 21
1060.981820
  0
LINE
  8
CSLAYER1
  6
CONTINUOUS
 62
     3
 10
964.312749
 20
1078.271046
 11
964.050850
 21
1079.235491
  0
LINE
  8
CSLAYER1
  6
CONTINUOUS
 62
     3
 10
964.050850
 20
1079.235491
 11
963.616565
 21
1080.185199
  0
LINE
  8
CSLAYER1
  6
CONTINUOUS
 62
     3
 10
963.616565
 20
1080.185199
 11
963.013202
 21
1081.112943
  0
LINE
  8
CSLAYER1
  6
CONTINUOUS
 62
     3
 10
963.013202
 20
1081.112943
 11
962.245350
 21
1082.011662
  0
LINE
  8
CSLAYER1
  6
CONTINUOUS
 62
     3
 10
962.245350
 20
1082.011662
 11
961.318856
 21
1082.874516
  0
LINE
  8
CSLAYER1
  6
CONTINUOUS
 62
     3
 10
961.318856
 20
1082.874516
 11
960.240768
 21
1083.694939
  0
LINE
  8
CSLAYER1
  6
CONTINUOUS
 62
     3
 10
960.240768
 20
1083.694939
 11
959.019293
 21
1084.466687
  0
LINE
  8
CSLAYER1
  6
CONTINUOUS
 62
     3
 10
959.019293
 20
1084.466687
 11
957.663727
 21
1085.183886
  0
LINE
  8
CSLAYER1
  6
CONTINUOUS
 62
     3
 10
957.663727
 20
1085.183886
 11
956.184386
 21
1085.841077
  0
LINE
  8
CSLAYER1
  6
CONTINUOUS
 62
     3
 10
956.184386
 20
1085.841077
 11
954.592529
 21
1086.433260
  0
LINE
  8
CSLAYER1
  6
CONTINUOUS
 62
     3
 10
954.592529
 20
1086.433260
 11
952.900271
 21
1086.955927
  0
LINE
  8
CSLAYER1
  6
CONTINUOUS
 62
     3
 10
952.900271
 20
1086.955927
 11
951.120491
 21
1087.405101
  0
LINE
  8
CSLAYER1
  6
CONTINUOUS
 62
     3
 10
951.120491
 20
1087.405101
 11
949.266735
 21
1087.777362
  0
LINE
  8
CSLAYER1
  6
CONTINUOUS
 62
     3
 10
949.266735
 20
1087.777362
 11
947.353109
 21
1088.069879
  0
LINE
  8
CSLAYER1
  6
CONTINUOUS
 62
     3
 10
947.353109
 20
1088.069879
 11
945.394179
 21
1088.280424
  0
LINE
  8
CSLAYER1
  6
CONTINUOUS
 62
     3
 10
945.394179
 20
1088.280424
 11
943.404853
 21
1088.407396
  0
LINE
  8
CSLAYER1
  6
CONTINUOUS
 62
     3
 10
943.404853
 20
1088.407396
 11
941.400271
 21
1088.449827
  0
LINE
  8
CSLAYER1
  6
CONTINUOUS
 62
     3
 10
918.487793
 20
1078.271046
 11
914.004917
 21
1060.981820
  0
LINE
  8
CSLAYER1
  6
CONTINUOUS
 62
     3
 10
918.487793
 20
1078.271046
 11
918.749693
 21
1079.235491
  0
LINE
  8
CSLAYER1
  6
CONTINUOUS
 62
     3
 10
918.749693
 20
1079.235491
 11
919.183977
 21
1080.185199
  0
LINE
  8
CSLAYER1
  6
CONTINUOUS
 62
     3
 10
919.183977
 20
1080.185199
 11
919.787341
 21
1081.112943
  0
LINE
  8
CSLAYER1
  6
CONTINUOUS
 62
     3
 10
919.787341
 20
1081.112943
 11
920.555192
 21
1082.011662
  0
LINE
  8
CSLAYER1
  6
CONTINUOUS
 62
     3
 10
920.555192
 20
1082.011662
 11
921.481687
 21
1082.874516
  0
LINE
  8
CSLAYER1
  6
CONTINUOUS
 62
     3
 10
921.481687
 20
1082.874516
 11
922.559774
 21
1083.694939
  0
LINE
  8
CSLAYER1
  6
CONTINUOUS
 62
     3
 10
922.559774
 20
1083.694939
 11
923.781249
 21
1084.466687
  0
LINE
  8
CSLAYER1
  6
CONTINUOUS
 62
     3
 10
923.781249
 20
1084.466687
 11
925.136815
 21
1085.183886
  0
LINE
  8
CSLAYER1
  6
CONTINUOUS
 62
     3
 10
925.136815
 20
1085.183886
 11
926.616156
 21
1085.841077
  0
LINE
  8
CSLAYER1
  6
CONTINUOUS
 62
     3
 10
926.616156
 20
1085.841077
 11
928.208013
 21
1086.433260
  0
LINE
  8
CSLAYER1
  6
CONTINUOUS
 62
     3
 10
928.208013
 20
1086.433260
 11
929.900271
 21
1086.955927
  0
LINE
  8
CSLAYER1
  6
CONTINUOUS
 62
     3
 10
929.900271
 20
1086.955927
 11
931.680051
 21
1087.405101
  0
LINE
  8
CSLAYER1
  6
CONTINUOUS
 62
     3
 10
931.680051
 20
1087.405101
 11
933.533808
 21
1087.777362
  0
LINE
  8
CSLAYER1
  6
CONTINUOUS
 62
     3
 10
933.533808
 20
1087.777362
 11
935.447433
 21
1088.069879
  0
LINE
  8
CSLAYER1
  6
CONTINUOUS
 62
     3
 10
935.447433
 20
1088.069879
 11
937.406363
 21
1088.280424
  0
LINE
  8
CSLAYER1
  6
CONTINUOUS
 62
     3
 10
937.406363
 20
1088.280424
 11
939.395689
 21
1088.407396
  0
LINE
  8
CSLAYER1
  6
CONTINUOUS
 62
     3
 10
939.395689
 20
1088.407396
 11
941.400271
 21
1088.449827
  0
LINE
  8
CSLAYER1
  6
CONTINUOUS
 62
     3
 10
959.400271
 20
1084.225979
 11
959.400271
 21
1170.597697
  0
LINE
  8
CSLAYER1
  6
CONTINUOUS
 62
     3
 10
959.400271
 20
1170.597697
 11
959.331776
 21
1171.358268
  0
LINE
  8
CSLAYER1
  6
CONTINUOUS
 62
     3
 10
959.331776
 20
1171.358268
 11
959.126811
 21
1172.113051
  0
LINE
  8
CSLAYER1
  6
CONTINUOUS
 62
     3
 10
959.126811
 20
1172.113051
 11
958.786936
 21
1172.856300
  0
LINE
  8
CSLAYER1
  6
CONTINUOUS
 62
     3
 10
958.786936
 20
1172.856300
 11
958.314738
 21
1173.582361
  0
LINE
  8
CSLAYER1
  6
CONTINUOUS
 62
     3
 10
958.314738
 20
1173.582361
 11
957.713811
 21
1174.285706
  0
LINE
  8
CSLAYER1
  6
CONTINUOUS
 62
     3
 10
957.713811
 20
1174.285706
 11
956.988729
 21
1174.960984
  0
LINE
  8
CSLAYER1
  6
CONTINUOUS
 62
     3
 10
956.988729
 20
1174.960984
 11
956.145008
 21
1175.603054
  0
LINE
  8
CSLAYER1
  6
CONTINUOUS
 62
     3
 10
956.145008
 20
1175.603054
 11
955.189071
 21
1176.207030
  0
LINE
  8
CSLAYER1
  6
CONTINUOUS
 62
     3
 10
955.189071
 20
1176.207030
 11
954.128193
 21
1176.768316
  0
LINE
  8
CSLAYER1
  6
CONTINUOUS
 62
     3
 10
954.128193
 20
1176.768316
 11
952.970448
 21
1177.282640
  0
LINE
  8
CSLAYER1
  6
CONTINUOUS
 62
     3
 10
952.970448
 20
1177.282640
 11
951.724647
 21
1177.746087
  0
LINE
  8
CSLAYER1
  6
CONTINUOUS
 62
     3
 10
951.724647
 20
1177.746087
 11
950.400271
 21
1178.155131
  0
LINE
  8
CSLAYER1
  6
CONTINUOUS
 62
     3
 10
950.400271
 20
1178.155131
 11
949.007400
 21
1178.506658
  0
LINE
  8
CSLAYER1
  6
CONTINUOUS
 62
     3
 10
949.007400
 20
1178.506658
 11
947.556634
 21
1178.797993
  0
LINE
  8
CSLAYER1
  6
CONTINUOUS
 62
     3
 10
947.556634
 20
1178.797993
 11
946.059014
 21
1179.026919
  0
LINE
  8
CSLAYER1
  6
CONTINUOUS
 62
     3
 10
946.059014
 20
1179.026919
 11
944.525938
 21
1179.191694
  0
LINE
  8
CSLAYER1
  6
CONTINUOUS
 62
     3
 10
944.525938
 20
1179.191694
 11
942.969075
 21
1179.291063
  0
LINE
  8
CSLAYER1
  6
CONTINUOUS
 62
     3
 10
942.969075
 20
1179.291063
 11
941.400271
 21
1179.324270
  0
LINE
  8
CSLAYER1
  6
CONTINUOUS
 62
     3
 10
941.400271
 20
1179.324270
 11
939.831468
 21
1179.291063
  0
LINE
  8
CSLAYER1
  6
CONTINUOUS
 62
     3
 10
939.831468
 20
1179.291063
 11
938.274604
 21
1179.191694
  0
LINE
  8
CSLAYER1
  6
CONTINUOUS
 62
     3
 10
938.274604
 20
1179.191694
 11
936.741528
 21
1179.026919
  0
LINE
  8
CSLAYER1
  6
CONTINUOUS
 62
     3
 10
936.741528
 20
1179.026919
 11
935.243909
 21
1178.797993
  0
LINE
  8
CSLAYER1
  6
CONTINUOUS
 62
     3
 10
935.243909
 20
1178.797993
 11
933.793143
 21
1178.506658
  0
LINE
  8
CSLAYER1
  6
CONTINUOUS
 62
     3
 10
933.793143
 20
1178.506658
 11
932.400271
 21
1178.155131
  0
LINE
  8
CSLAYER1
  6
CONTINUOUS
 62
     3
 10
932.400271
 20
1178.155131
 11
931.075895
 21
1177.746087
  0
LINE
  8
CSLAYER1
  6
CONTINUOUS
 62
     3
 10
931.075895
 20
1177.746087
 11
929.830094
 21
1177.282640
  0
LINE
  8
CSLAYER1
  6
CONTINUOUS
 62
     3
 10
929.830094
 20
1177.282640
 11
928.672349
 21
1176.768316
  0
LINE
  8
CSLAYER1
  6
CONTINUOUS
 62
     3
 10
928.672349
 20
1176.768316
 11
927.611471
 21
1176.207030
  0
LINE
  8
CSLAYER1
  6
CONTINUOUS
 62
     3
 10
927.611471
 20
1176.207030
 11
926.655534
 21
1175.603054
  0
LINE
  8
CSLAYER1
  6
CONTINUOUS
 62
     3
 10
926.655534
 20
1175.603054
 11
925.811814
 21
1174.960984
  0
LINE
  8
CSLAYER1
  6
CONTINUOUS
 62
     3
 10
925.811814
 20
1174.960984
 11
925.086731
 21
1174.285706
  0
LINE
  8
CSLAYER1
  6
CONTINUOUS
 62
     3
 10
925.086731
 20
1174.285706
 11
924.485804
 21
1173.582361
  0
LINE
  8
CSLAYER1
  6
CONTINUOUS
 62
     3
 10
924.485804
 20
1173.582361
 11
924.013606
 21
1172.856300
  0
LINE
  8
CSLAYER1
  6
CONTINUOUS
 62
     3
 10
924.013606
 20
1172.856300
 11
923.673732
 21
1172.113051
  0
LINE
  8
CSLAYER1
  6
CONTINUOUS
 62
     3
 10
923.673732
 20
1172.113051
 11
923.468767
 21
1171.358268
  0
LINE
  8
CSLAYER1
  6
CONTINUOUS
 62
     3
 10
923.468767
 20
1171.358268
 11
923.400271
 21
1170.597697
  0
LINE
  8
CSLAYER1
  6
CONTINUOUS
 62
     3
 10
968.900271
 20
1059.819837
 11
968.900271
 21
1029.230941
  0
LINE
  8
CSLAYER1
  6
CONTINUOUS
 62
     3
 10
968.900271
 20
1059.819837
 11
968.795625
 21
1060.981820
  0
LINE
  8
CSLAYER1
  6
CONTINUOUS
 62
     3
 10
968.795625
 20
1060.981820
 11
968.482484
 21
1062.134960
  0
LINE
  8
CSLAYER1
  6
CONTINUOUS
 62
     3
 10
968.482484
 20
1062.134960
 11
967.963231
 21
1063.270481
  0
LINE
  8
CSLAYER1
  6
CONTINUOUS
 62
     3
 10
967.963231
 20
1063.270481
 11
967.241818
 21
1064.379740
  0
LINE
  8
CSLAYER1
  6
CONTINUOUS
 62
     3
 10
967.241818
 20
1064.379740
 11
966.323735
 21
1065.454295
  0
LINE
  8
CSLAYER1
  6
CONTINUOUS
 62
     3
 10
966.323735
 20
1065.454295
 11
965.215970
 21
1066.485969
  0
LINE
  8
CSLAYER1
  6
CONTINUOUS
 62
     3
 10
965.215970
 20
1066.485969
 11
963.926952
 21
1067.466909
  0
LINE
  8
CSLAYER1
  6
CONTINUOUS
 62
     3
 10
963.926952
 20
1067.466909
 11
962.466493
 21
1068.389651
  0
LINE
  8
CSLAYER1
  6
CONTINUOUS
 62
     3
 10
962.466493
 20
1068.389651
 11
960.845708
 21
1069.247171
  0
LINE
  8
CSLAYER1
  6
CONTINUOUS
 62
     3
 10
960.845708
 20
1069.247171
 11
959.076931
 21
1070.032944
  0
LINE
  8
CSLAYER1
  6
CONTINUOUS
 62
     3
 10
959.076931
 20
1070.032944
 11
957.173623
 21
1070.740988
  0
LINE
  8
CSLAYER1
  6
CONTINUOUS
 62
     3
 10
957.173623
 20
1070.740988
 11
955.150271
 21
1071.365917
  0
LINE
  8
CSLAYER1
  6
CONTINUOUS
 62
     3
 10
955.150271
 20
1071.365917
 11
953.022273
 21
1071.902972
  0
LINE
  8
CSLAYER1
  6
CONTINUOUS
 62
     3
 10
953.022273
 20
1071.902972
 11
950.805825
 21
1072.348067
  0
LINE
  8
CSLAYER1
  6
CONTINUOUS
 62
     3
 10
950.805825
 20
1072.348067
 11
948.517795
 21
1072.697815
  0
LINE
  8
CSLAYER1
  6
CONTINUOUS
 62
     3
 10
948.517795
 20
1072.697815
 11
946.175596
 21
1072.949554
  0
LINE
  8
CSLAYER1
  6
CONTINUOUS
 62
     3
 10
946.175596
 20
1072.949554
 11
943.797054
 21
1073.101368
  0
LINE
  8
CSLAYER1
  6
CONTINUOUS
 62
     3
 10
943.797054
 20
1073.101368
 11
941.400271
 21
1073.152101
  0
LINE
  8
CSLAYER1
  6
CONTINUOUS
 62
     3
 10
941.400271
 20
1073.152101
 11
939.003488
 21
1073.101368
  0
LINE
  8
CSLAYER1
  6
CONTINUOUS
 62
     3
 10
939.003488
 20
1073.101368
 11
936.624946
 21
1072.949554
  0
LINE
  8
CSLAYER1
  6
CONTINUOUS
 62
     3
 10
936.624946
 20
1072.949554
 11
934.282747
 21
1072.697815
  0
LINE
  8
CSLAYER1
  6
CONTINUOUS
 62
     3
 10
934.282747
 20
1072.697815
 11
931.994717
 21
1072.348067
  0
LINE
  8
CSLAYER1
  6
CONTINUOUS
 62
     3
 10
931.994717
 20
1072.348067
 11
929.778269
 21
1071.902972
  0
LINE
  8
CSLAYER1
  6
CONTINUOUS
 62
     3
 10
929.778269
 20
1071.902972
 11
927.650271
 21
1071.365917
  0
LINE
  8
CSLAYER1
  6
CONTINUOUS
 62
     3
 10
927.650271
 20
1071.365917
 11
925.626919
 21
1070.740988
  0
LINE
  8
CSLAYER1
  6
CONTINUOUS
 62
     3
 10
925.626919
 20
1070.740988
 11
923.723612
 21
1070.032944
  0
LINE
  8
CSLAYER1
  6
CONTINUOUS
 62
     3
 10
923.723612
 20
1070.032944
 11
921.954835
 21
1069.247171
  0
LINE
  8
CSLAYER1
  6
CONTINUOUS
 62
     3
 10
921.954835
 20
1069.247171
 11
920.334049
 21
1068.389651
  0
LINE
  8
CSLAYER1
  6
CONTINUOUS
 62
     3
 10
920.334049
 20
1068.389651
 11
918.873590
 21
1067.466909
  0
LINE
  8
CSLAYER1
  6
CONTINUOUS
 62
     3
 10
918.873590
 20
1067.466909
 11
917.584573
 21
1066.485969
  0
LINE
  8
CSLAYER1
  6
CONTINUOUS
 62
     3
 10
917.584573
 20
1066.485969
 11
916.476807
 21
1065.454295
  0
LINE
  8
CSLAYER1
  6
CONTINUOUS
 62
     3
 10
916.476807
 20
1065.454295
 11
915.558724
 21
1064.379740
  0
LINE
  8
CSLAYER1
  6
CONTINUOUS
 62
     3
 10
915.558724
 20
1064.379740
 11
914.837311
 21
1063.270481
  0
LINE
  8
CSLAYER1
  6
CONTINUOUS
 62
     3
 10
914.837311
 20
1063.270481
 11
914.318058
 21
1062.134960
  0
LINE
  8
CSLAYER1
  6
CONTINUOUS
 62
     3
 10
914.318058
 20
1062.134960
 11
914.004917
 21
1060.981820
  0
LINE
  8
CSLAYER1
  6
CONTINUOUS
 62
     3
 10
914.004917
 20
1060.981820
 11
913.900271
 21
1059.819837
  0
LINE
  8
CSLAYER1
  6
CONTINUOUS
 62
     3
 10
913.900271
 20
1059.819837
 11
913.900271
 21
1029.230941
  0
LINE
  8
CSLAYER1
  6
CONTINUOUS
 62
     3
 10
965.700271
 20
959.313464
 11
965.700271
 21
1029.230941
  0
LINE
  8
CSLAYER1
  6
CONTINUOUS
 62
     3
 10
968.900271
 20
1029.230941
 11
968.795625
 21
1030.392924
  0
LINE
  8
CSLAYER1
  6
CONTINUOUS
 62
     3
 10
968.795625
 20
1030.392924
 11
968.482484
 21
1031.546064
  0
LINE
  8
CSLAYER1
  6
CONTINUOUS
 62
     3
 10
968.482484
 20
1031.546064
 11
967.963231
 21
1032.681585
  0
LINE
  8
CSLAYER1
  6
CONTINUOUS
 62
     3
 10
967.963231
 20
1032.681585
 11
967.241818
 21
1033.790844
  0
LINE
  8
CSLAYER1
  6
CONTINUOUS
 62
     3
 10
967.241818
 20
1033.790844
 11
966.323735
 21
1034.865399
  0
LINE
  8
CSLAYER1
  6
CONTINUOUS
 62
     3
 10
966.323735
 20
1034.865399
 11
965.215970
 21
1035.897073
  0
LINE
  8
CSLAYER1
  6
CONTINUOUS
 62
     3
 10
965.215970
 20
1035.897073
 11
963.926952
 21
1036.878014
  0
LINE
  8
CSLAYER1
  6
CONTINUOUS
 62
     3
 10
963.926952
 20
1036.878014
 11
962.466493
 21
1037.800755
  0
LINE
  8
CSLAYER1
  6
CONTINUOUS
 62
     3
 10
962.466493
 20
1037.800755
 11
960.845708
 21
1038.658275
  0
LINE
  8
CSLAYER1
  6
CONTINUOUS
 62
     3
 10
960.845708
 20
1038.658275
 11
959.076931
 21
1039.444048
  0
LINE
  8
CSLAYER1
  6
CONTINUOUS
 62
     3
 10
959.076931
 20
1039.444048
 11
957.173623
 21
1040.152093
  0
LINE
  8
CSLAYER1
  6
CONTINUOUS
 62
     3
 10
957.173623
 20
1040.152093
 11
955.150271
 21
1040.777021
  0
LINE
  8
CSLAYER1
  6
CONTINUOUS
 62
     3
 10
955.150271
 20
1040.777021
 11
953.022273
 21
1041.314076
  0
LINE
  8
CSLAYER1
  6
CONTINUOUS
 62
     3
 10
953.022273
 20
1041.314076
 11
950.805825
 21
1041.759171
  0
LINE
  8
CSLAYER1
  6
CONTINUOUS
 62
     3
 10
950.805825
 20
1041.759171
 11
948.517795
 21
1042.108919
  0
LINE
  8
CSLAYER1
  6
CONTINUOUS
 62
     3
 10
948.517795
 20
1042.108919
 11
946.175596
 21
1042.360658
  0
LINE
  8
CSLAYER1
  6
CONTINUOUS
 62
     3
 10
946.175596
 20
1042.360658
 11
943.797054
 21
1042.512472
  0
LINE
  8
CSLAYER1
  6
CONTINUOUS
 62
     3
 10
943.797054
 20
1042.512472
 11
941.400271
 21
1042.563205
  0
LINE
  8
CSLAYER1
  6
CONTINUOUS
 62
     3
 10
941.400271
 20
1042.563205
 11
939.003488
 21
1042.512472
  0
LINE
  8
CSLAYER1
  6
CONTINUOUS
 62
     3
 10
939.003488
 20
1042.512472
 11
936.624946
 21
1042.360658
  0
LINE
  8
CSLAYER1
  6
CONTINUOUS
 62
     3
 10
936.624946
 20
1042.360658
 11
934.282747
 21
1042.108919
  0
LINE
  8
CSLAYER1
  6
CONTINUOUS
 62
     3
 10
934.282747
 20
1042.108919
 11
931.994717
 21
1041.759171
  0
LINE
  8
CSLAYER1
  6
CONTINUOUS
 62
     3
 10
931.994717
 20
1041.759171
 11
929.778269
 21
1041.314076
  0
LINE
  8
CSLAYER1
  6
CONTINUOUS
 62
     3
 10
929.778269
 20
1041.314076
 11
927.650271
 21
1040.777021
  0
LINE
  8
CSLAYER1
  6
CONTINUOUS
 62
     3
 10
927.650271
 20
1040.777021
 11
925.626919
 21
1040.152093
  0
LINE
  8
CSLAYER1
  6
CONTINUOUS
 62
     3
 10
925.626919
 20
1040.152093
 11
923.723612
 21
1039.444048
  0
LINE
  8
CSLAYER1
  6
CONTINUOUS
 62
     3
 10
923.723612
 20
1039.444048
 11
921.954835
 21
1038.658275
  0
LINE
  8
CSLAYER1
  6
CONTINUOUS
 62
     3
 10
921.954835
 20
1038.658275
 11
920.334049
 21
1037.800755
  0
LINE
  8
CSLAYER1
  6
CONTINUOUS
 62
     3
 10
920.334049
 20
1037.800755
 11
918.873590
 21
1036.878014
  0
LINE
  8
CSLAYER1
  6
CONTINUOUS
 62
     3
 10
918.873590
 20
1036.878014
 11
917.584573
 21
1035.897073
  0
LINE
  8
CSLAYER1
  6
CONTINUOUS
 62
     3
 10
917.584573
 20
1035.897073
 11
916.476807
 21
1034.865399
  0
LINE
  8
CSLAYER1
  6
CONTINUOUS
 62
     3
 10
916.476807
 20
1034.865399
 11
915.558724
 21
1033.790844
  0
LINE
  8
CSLAYER1
  6
CONTINUOUS
 62
     3
 10
915.558724
 20
1033.790844
 11
914.837311
 21
1032.681585
  0
LINE
  8
CSLAYER1
  6
CONTINUOUS
 62
     3
 10
914.837311
 20
1032.681585
 11
914.318058
 21
1031.546064
  0
LINE
  8
CSLAYER1
  6
CONTINUOUS
 62
     3
 10
914.318058
 20
1031.546064
 11
914.004917
 21
1030.392924
  0
LINE
  8
CSLAYER1
  6
CONTINUOUS
 62
     3
 10
914.004917
 20
1030.392924
 11
913.900271
 21
1029.230941
  0
LINE
  8
CSLAYER1
  6
CONTINUOUS
 62
     3
 10
913.900271
 20
1029.230941
 11
914.004917
 21
1028.068957
  0
LINE
  8
CSLAYER1
  6
CONTINUOUS
 62
     3
 10
914.004917
 20
1028.068957
 11
914.318058
 21
1026.915817
  0
LINE
  8
CSLAYER1
  6
CONTINUOUS
 62
     3
 10
914.318058
 20
1026.915817
 11
914.837311
 21
1025.780297
  0
LINE
  8
CSLAYER1
  6
CONTINUOUS
 62
     3
 10
914.837311
 20
1025.780297
 11
915.558724
 21
1024.671038
  0
LINE
  8
CSLAYER1
  6
CONTINUOUS
 62
     3
 10
915.558724
 20
1024.671038
 11
916.476807
 21
1023.596482
  0
LINE
  8
CSLAYER1
  6
CONTINUOUS
 62
     3
 10
916.476807
 20
1023.596482
 11
917.100271
 21
1023.015844
  0
LINE
  8
CSLAYER1
  6
CONTINUOUS
 62
     3
 10
965.700271
 20
1023.015844
 11
966.323735
 21
1023.596482
  0
LINE
  8
CSLAYER1
  6
CONTINUOUS
 62
     3
 10
966.323735
 20
1023.596482
 11
967.241818
 21
1024.671038
  0
LINE
  8
CSLAYER1
  6
CONTINUOUS
 62
     3
 10
967.241818
 20
1024.671038
 11
967.963231
 21
1025.780297
  0
LINE
  8
CSLAYER1
  6
CONTINUOUS
 62
     3
 10
967.963231
 20
1025.780297
 11
968.482484
 21
1026.915817
  0
LINE
  8
CSLAYER1
  6
CONTINUOUS
 62
     3
 10
968.482484
 20
1026.915817
 11
968.795625
 21
1028.068957
  0
LINE
  8
CSLAYER1
  6
CONTINUOUS
 62
     3
 10
968.795625
 20
1028.068957
 11
968.900271
 21
1029.230941
  0
LINE
  8
CSLAYER1
  6
CONTINUOUS
 62
     3
 10
965.700271
 20
1029.230941
 11
965.607802
 21
1030.257712
  0
LINE
  8
CSLAYER1
  6
CONTINUOUS
 62
     3
 10
965.607802
 20
1030.257712
 11
965.331100
 21
1031.276668
  0
LINE
  8
CSLAYER1
  6
CONTINUOUS
 62
     3
 10
965.331100
 20
1031.276668
 11
964.872269
 21
1032.280055
  0
LINE
  8
CSLAYER1
  6
CONTINUOUS
 62
     3
 10
964.872269
 20
1032.280055
 11
964.234802
 21
1033.260237
  0
LINE
  8
CSLAYER1
  6
CONTINUOUS
 62
     3
 10
964.234802
 20
1033.260237
 11
963.423550
 21
1034.209753
  0
LINE
  8
CSLAYER1
  6
CONTINUOUS
 62
     3
 10
963.423550
 20
1034.209753
 11
962.444689
 21
1035.121378
  0
LINE
  8
CSLAYER1
  6
CONTINUOUS
 62
     3
 10
962.444689
 20
1035.121378
 11
961.305666
 21
1035.988172
  0
LINE
  8
CSLAYER1
  6
CONTINUOUS
 62
     3
 10
961.305666
 20
1035.988172
 11
960.015151
 21
1036.803540
  0
LINE
  8
CSLAYER1
  6
CONTINUOUS
 62
     3
 10
960.015151
 20
1036.803540
 11
958.582966
 21
1037.561277
  0
LINE
  8
CSLAYER1
  6
CONTINUOUS
 62
     3
 10
958.582966
 20
1037.561277
 11
957.020010
 21
1038.255614
  0
LINE
  8
CSLAYER1
  6
CONTINUOUS
 62
     3
 10
957.020010
 20
1038.255614
 11
955.338179
 21
1038.881268
  0
LINE
  8
CSLAYER1
  6
CONTINUOUS
 62
     3
 10
955.338179
 20
1038.881268
 11
953.550271
 21
1039.433477
  0
LINE
  8
CSLAYER1
  6
CONTINUOUS
 62
     3
 10
953.550271
 20
1039.433477
 11
951.669895
 21
1039.908038
  0
LINE
  8
CSLAYER1
  6
CONTINUOUS
 62
     3
 10
951.669895
 20
1039.908038
 11
949.711361
 21
1040.301341
  0
LINE
  8
CSLAYER1
  6
CONTINUOUS
 62
     3
 10
949.711361
 20
1040.301341
 11
947.689574
 21
1040.610391
  0
LINE
  8
CSLAYER1
  6
CONTINUOUS
 62
     3
 10
947.689574
 20
1040.610391
 11
945.619922
 21
1040.832837
  0
LINE
  8
CSLAYER1
  6
CONTINUOUS
 62
     3
 10
945.619922
 20
1040.832837
 11
943.518156
 21
1040.966985
  0
LINE
  8
CSLAYER1
  6
CONTINUOUS
 62
     3
 10
943.518156
 20
1040.966985
 11
941.400271
 21
1041.011815
  0
LINE
  8
CSLAYER1
  6
CONTINUOUS
 62
     3
 10
941.400271
 20
1041.011815
 11
939.282387
 21
1040.966985
  0
LINE
  8
CSLAYER1
  6
CONTINUOUS
 62
     3
 10
939.282387
 20
1040.966985
 11
937.180621
 21
1040.832837
  0
LINE
  8
CSLAYER1
  6
CONTINUOUS
 62
     3
 10
937.180621
 20
1040.832837
 11
935.110968
 21
1040.610391
  0
LINE
  8
CSLAYER1
  6
CONTINUOUS
 62
     3
 10
935.110968
 20
1040.610391
 11
933.089182
 21
1040.301341
  0
LINE
  8
CSLAYER1
  6
CONTINUOUS
 62
     3
 10
933.089182
 20
1040.301341
 11
931.130647
 21
1039.908038
  0
LINE
  8
CSLAYER1
  6
CONTINUOUS
 62
     3
 10
931.130647
 20
1039.908038
 11
929.250271
 21
1039.433477
  0
LINE
  8
CSLAYER1
  6
CONTINUOUS
 62
     3
 10
929.250271
 20
1039.433477
 11
927.462364
 21
1038.881268
  0
LINE
  8
CSLAYER1
  6
CONTINUOUS
 62
     3
 10
927.462364
 20
1038.881268
 11
925.780532
 21
1038.255614
  0
LINE
  8
CSLAYER1
  6
CONTINUOUS
 62
     3
 10
925.780532
 20
1038.255614
 11
924.217576
 21
1037.561277
  0
LINE
  8
CSLAYER1
  6
CONTINUOUS
 62
     3
 10
924.217576
 20
1037.561277
 11
922.785391
 21
1036.803540
  0
LINE
  8
CSLAYER1
  6
CONTINUOUS
 62
     3
 10
922.785391
 20
1036.803540
 11
921.494877
 21
1035.988172
  0
LINE
  8
CSLAYER1
  6
CONTINUOUS
 62
     3
 10
921.494877
 20
1035.988172
 11
920.355854
 21
1035.121378
  0
LINE
  8
CSLAYER1
  6
CONTINUOUS
 62
     3
 10
920.355854
 20
1035.121378
 11
919.376992
 21
1034.209753
  0
LINE
  8
CSLAYER1
  6
CONTINUOUS
 62
     3
 10
919.376992
 20
1034.209753
 11
918.565741
 21
1033.260237
  0
LINE
  8
CSLAYER1
  6
CONTINUOUS
 62
     3
 10
918.565741
 20
1033.260237
 11
917.928274
 21
1032.280055
  0
LINE
  8
CSLAYER1
  6
CONTINUOUS
 62
     3
 10
917.928274
 20
1032.280055
 11
917.469443
 21
1031.276668
  0
LINE
  8
CSLAYER1
  6
CONTINUOUS
 62
     3
 10
917.469443
 20
1031.276668
 11
917.192740
 21
1030.257712
  0
LINE
  8
CSLAYER1
  6
CONTINUOUS
 62
     3
 10
917.192740
 20
1030.257712
 11
917.100271
 21
1029.230941
  0
LINE
  8
CSLAYER1
  6
CONTINUOUS
 62
     3
 10
917.100271
 20
959.313464
 11
917.100271
 21
1029.230941
  0
LINE
  8
CSLAYER1
  6
CONTINUOUS
 62
     3
 10
923.400271
 20
1084.225979
 11
923.400271
 21
1170.597697
  0
LINE
  8
CSLAYER1
  6
CONTINUOUS
 62
     3
 10
963.900271
 20
928.724568
 11
963.900271
 21
959.313464
  0
LINE
  8
CSLAYER1
  6
CONTINUOUS
 62
     3
 10
963.900271
 20
959.313464
 11
963.814652
 21
960.264178
  0
LINE
  8
CSLAYER1
  6
CONTINUOUS
 62
     3
 10
963.814652
 20
960.264178
 11
963.558446
 21
961.207656
  0
LINE
  8
CSLAYER1
  6
CONTINUOUS
 62
     3
 10
963.558446
 20
961.207656
 11
963.133602
 21
962.136719
  0
LINE
  8
CSLAYER1
  6
CONTINUOUS
 62
     3
 10
963.133602
 20
962.136719
 11
962.543355
 21
963.044294
  0
LINE
  8
CSLAYER1
  6
CONTINUOUS
 62
     3
 10
962.543355
 20
963.044294
 11
961.792196
 21
963.923476
  0
LINE
  8
CSLAYER1
  6
CONTINUOUS
 62
     3
 10
961.792196
 20
963.923476
 11
960.885843
 21
964.767573
  0
LINE
  8
CSLAYER1
  6
CONTINUOUS
 62
     3
 10
960.885843
 20
964.767573
 11
959.831192
 21
965.570160
  0
LINE
  8
CSLAYER1
  6
CONTINUOUS
 62
     3
 10
959.831192
 20
965.570160
 11
958.636271
 21
966.325131
  0
LINE
  8
CSLAYER1
  6
CONTINUOUS
 62
     3
 10
958.636271
 20
966.325131
 11
957.310174
 21
967.026738
  0
LINE
  8
CSLAYER1
  6
CONTINUOUS
 62
     3
 10
957.310174
 20
967.026738
 11
955.862992
 21
967.669643
  0
LINE
  8
CSLAYER1
  6
CONTINUOUS
 62
     3
 10
955.862992
 20
967.669643
 11
954.305741
 21
968.248952
  0
LINE
  8
CSLAYER1
  6
CONTINUOUS
 62
     3
 10
954.305741
 20
968.248952
 11
952.650271
 21
968.760257
  0
LINE
  8
CSLAYER1
  6
CONTINUOUS
 62
     3
 10
952.650271
 20
968.760257
 11
950.909182
 21
969.199666
  0
LINE
  8
CSLAYER1
  6
CONTINUOUS
 62
     3
 10
950.909182
 20
969.199666
 11
949.095724
 21
969.563835
  0
LINE
  8
CSLAYER1
  6
CONTINUOUS
 62
     3
 10
949.095724
 20
969.563835
 11
947.223700
 21
969.849992
  0
LINE
  8
CSLAYER1
  6
CONTINUOUS
 62
     3
 10
947.223700
 20
969.849992
 11
945.307355
 21
970.055961
  0
LINE
  8
CSLAYER1
  6
CONTINUOUS
 62
     3
 10
945.307355
 20
970.055961
 11
943.361275
 21
970.180172
  0
LINE
  8
CSLAYER1
  6
CONTINUOUS
 62
     3
 10
943.361275
 20
970.180172
 11
941.400271
 21
970.221681
  0
LINE
  8
CSLAYER1
  6
CONTINUOUS
 62
     3
 10
941.400271
 20
970.221681
 11
939.439267
 21
970.180172
  0
LINE
  8
CSLAYER1
  6
CONTINUOUS
 62
     3
 10
939.439267
 20
970.180172
 11
937.493187
 21
970.055961
  0
LINE
  8
CSLAYER1
  6
CONTINUOUS
 62
     3
 10
937.493187
 20
970.055961
 11
935.576843
 21
969.849992
  0
LINE
  8
CSLAYER1
  6
CONTINUOUS
 62
     3
 10
935.576843
 20
969.849992
 11
933.704818
 21
969.563835
  0
LINE
  8
CSLAYER1
  6
CONTINUOUS
 62
     3
 10
933.704818
 20
969.563835
 11
931.891360
 21
969.199666
  0
LINE
  8
CSLAYER1
  6
CONTINUOUS
 62
     3
 10
931.891360
 20
969.199666
 11
930.150271
 21
968.760257
  0
LINE
  8
CSLAYER1
  6
CONTINUOUS
 62
     3
 10
930.150271
 20
968.760257
 11
928.494801
 21
968.248952
  0
LINE
  8
CSLAYER1
  6
CONTINUOUS
 62
     3
 10
928.494801
 20
968.248952
 11
926.937550
 21
967.669643
  0
LINE
  8
CSLAYER1
  6
CONTINUOUS
 62
     3
 10
926.937550
 20
967.669643
 11
925.490369
 21
967.026738
  0
LINE
  8
CSLAYER1
  6
CONTINUOUS
 62
     3
 10
925.490369
 20
967.026738
 11
924.164271
 21
966.325131
  0
LINE
  8
CSLAYER1
  6
CONTINUOUS
 62
     3
 10
924.164271
 20
966.325131
 11
922.969350
 21
965.570160
  0
LINE
  8
CSLAYER1
  6
CONTINUOUS
 62
     3
 10
922.969350
 20
965.570160
 11
921.914700
 21
964.767573
  0
LINE
  8
CSLAYER1
  6
CONTINUOUS
 62
     3
 10
921.914700
 20
964.767573
 11
921.008346
 21
963.923476
  0
LINE
  8
CSLAYER1
  6
CONTINUOUS
 62
     3
 10
921.008346
 20
963.923476
 11
920.257187
 21
963.044294
  0
LINE
  8
CSLAYER1
  6
CONTINUOUS
 62
     3
 10
920.257187
 20
963.044294
 11
919.666940
 21
962.136719
  0
LINE
  8
CSLAYER1
  6
CONTINUOUS
 62
     3
 10
919.666940
 20
962.136719
 11
919.242097
 21
961.207656
  0
LINE
  8
CSLAYER1
  6
CONTINUOUS
 62
     3
 10
919.242097
 20
961.207656
 11
918.985891
 21
960.264178
  0
LINE
  8
CSLAYER1
  6
CONTINUOUS
 62
     3
 10
918.985891
 20
960.264178
 11
918.900271
 21
959.313464
  0
LINE
  8
CSLAYER1
  6
CONTINUOUS
 62
     3
 10
965.700271
 20
959.313464
 11
965.607802
 21
960.340235
  0
LINE
  8
CSLAYER1
  6
CONTINUOUS
 62
     3
 10
965.607802
 20
960.340235
 11
965.331100
 21
961.359192
  0
LINE
  8
CSLAYER1
  6
CONTINUOUS
 62
     3
 10
965.331100
 20
961.359192
 11
964.872269
 21
962.362579
  0
LINE
  8
CSLAYER1
  6
CONTINUOUS
 62
     3
 10
964.872269
 20
962.362579
 11
964.234802
 21
963.342761
  0
LINE
  8
CSLAYER1
  6
CONTINUOUS
 62
     3
 10
964.234802
 20
963.342761
 11
963.423550
 21
964.292277
  0
LINE
  8
CSLAYER1
  6
CONTINUOUS
 62
     3
 10
963.423550
 20
964.292277
 11
962.444689
 21
965.203901
  0
LINE
  8
CSLAYER1
  6
CONTINUOUS
 62
     3
 10
962.444689
 20
965.203901
 11
961.305666
 21
966.070696
  0
LINE
  8
CSLAYER1
  6
CONTINUOUS
 62
     3
 10
961.305666
 20
966.070696
 11
960.015151
 21
966.886064
  0
LINE
  8
CSLAYER1
  6
CONTINUOUS
 62
     3
 10
960.015151
 20
966.886064
 11
958.582966
 21
967.643800
  0
LINE
  8
CSLAYER1
  6
CONTINUOUS
 62
     3
 10
958.582966
 20
967.643800
 11
957.020010
 21
968.338137
  0
LINE
  8
CSLAYER1
  6
CONTINUOUS
 62
     3
 10
957.020010
 20
968.338137
 11
955.338179
 21
968.963791
  0
LINE
  8
CSLAYER1
  6
CONTINUOUS
 62
     3
 10
955.338179
 20
968.963791
 11
953.550271
 21
969.516000
  0
LINE
  8
CSLAYER1
  6
CONTINUOUS
 62
     3
 10
953.550271
 20
969.516000
 11
951.669895
 21
969.990562
  0
LINE
  8
CSLAYER1
  6
CONTINUOUS
 62
     3
 10
951.669895
 20
969.990562
 11
949.711361
 21
970.383865
  0
LINE
  8
CSLAYER1
  6
CONTINUOUS
 62
     3
 10
949.711361
 20
970.383865
 11
947.689574
 21
970.692915
  0
LINE
  8
CSLAYER1
  6
CONTINUOUS
 62
     3
 10
947.689574
 20
970.692915
 11
945.619922
 21
970.915360
  0
LINE
  8
CSLAYER1
  6
CONTINUOUS
 62
     3
 10
945.619922
 20
970.915360
 11
943.518156
 21
971.049508
  0
LINE
  8
CSLAYER1
  6
CONTINUOUS
 62
     3
 10
943.518156
 20
971.049508
 11
941.400271
 21
971.094338
  0
LINE
  8
CSLAYER1
  6
CONTINUOUS
 62
     3
 10
941.400271
 20
971.094338
 11
939.282387
 21
971.049508
  0
LINE
  8
CSLAYER1
  6
CONTINUOUS
 62
     3
 10
939.282387
 20
971.049508
 11
937.180621
 21
970.915360
  0
LINE
  8
CSLAYER1
  6
CONTINUOUS
 62
     3
 10
937.180621
 20
970.915360
 11
935.110968
 21
970.692915
  0
LINE
  8
CSLAYER1
  6
CONTINUOUS
 62
     3
 10
935.110968
 20
970.692915
 11
933.089182
 21
970.383865
  0
LINE
  8
CSLAYER1
  6
CONTINUOUS
 62
     3
 10
933.089182
 20
970.383865
 11
931.130647
 21
969.990562
  0
LINE
  8
CSLAYER1
  6
CONTINUOUS
 62
     3
 10
931.130647
 20
969.990562
 11
929.250271
 21
969.516000
  0
LINE
  8
CSLAYER1
  6
CONTINUOUS
 62
     3
 10
929.250271
 20
969.516000
 11
927.462364
 21
968.963791
  0
LINE
  8
CSLAYER1
  6
CONTINUOUS
 62
     3
 10
927.462364
 20
968.963791
 11
925.780532
 21
968.338137
  0
LINE
  8
CSLAYER1
  6
CONTINUOUS
 62
     3
 10
925.780532
 20
968.338137
 11
924.217576
 21
967.643800
  0
LINE
  8
CSLAYER1
  6
CONTINUOUS
 62
     3
 10
924.217576
 20
967.643800
 11
922.785391
 21
966.886064
  0
LINE
  8
CSLAYER1
  6
CONTINUOUS
 62
     3
 10
922.785391
 20
966.886064
 11
921.494877
 21
966.070696
  0
LINE
  8
CSLAYER1
  6
CONTINUOUS
 62
     3
 10
921.494877
 20
966.070696
 11
920.355854
 21
965.203901
  0
LINE
  8
CSLAYER1
  6
CONTINUOUS
 62
     3
 10
920.355854
 20
965.203901
 11
919.376992
 21
964.292277
  0
LINE
  8
CSLAYER1
  6
CONTINUOUS
 62
     3
 10
919.376992
 20
964.292277
 11
918.565741
 21
963.342761
  0
LINE
  8
CSLAYER1
  6
CONTINUOUS
 62
     3
 10
918.565741
 20
963.342761
 11
917.928274
 21
962.362579
  0
LINE
  8
CSLAYER1
  6
CONTINUOUS
 62
     3
 10
917.928274
 20
962.362579
 11
917.469443
 21
961.359192
  0
LINE
  8
CSLAYER1
  6
CONTINUOUS
 62
     3
 10
917.469443
 20
961.359192
 11
917.192740
 21
960.340235
  0
LINE
  8
CSLAYER1
  6
CONTINUOUS
 62
     3
 10
917.192740
 20
960.340235
 11
917.100271
 21
959.313464
  0
LINE
  8
CSLAYER1
  6
CONTINUOUS
 62
     3
 10
917.100271
 20
959.313464
 11
917.192740
 21
958.286694
  0
LINE
  8
CSLAYER1
  6
CONTINUOUS
 62
     3
 10
917.192740
 20
958.286694
 11
917.298031
 21
957.898959
  0
LINE
  8
CSLAYER1
  6
CONTINUOUS
 62
     3
 10
918.400271
 20
955.538597
 11
918.900271
 21
954.892622
  0
LINE
  8
CSLAYER1
  6
CONTINUOUS
 62
     3
 10
963.900271
 20
954.892622
 11
964.400271
 21
955.538597
  0
LINE
  8
CSLAYER1
  6
CONTINUOUS
 62
     3
 10
965.502511
 20
957.898959
 11
965.607802
 21
958.286694
  0
LINE
  8
CSLAYER1
  6
CONTINUOUS
 62
     3
 10
965.607802
 20
958.286694
 11
965.700271
 21
959.313464
  0
LINE
  8
CSLAYER1
  6
CONTINUOUS
 62
     3
 10
918.900271
 20
928.724568
 11
918.900271
 21
959.313464
  0
LINE
  8
CSLAYER1
  6
CONTINUOUS
 62
     3
 10
963.900271
 20
928.724568
 11
963.814652
 21
929.675282
  0
LINE
  8
CSLAYER1
  6
CONTINUOUS
 62
     3
 10
963.814652
 20
929.675282
 11
963.558446
 21
930.618760
  0
LINE
  8
CSLAYER1
  6
CONTINUOUS
 62
     3
 10
963.558446
 20
930.618760
 11
963.133602
 21
931.547823
  0
LINE
  8
CSLAYER1
  6
CONTINUOUS
 62
     3
 10
963.133602
 20
931.547823
 11
962.543355
 21
932.455398
  0
LINE
  8
CSLAYER1
  6
CONTINUOUS
 62
     3
 10
962.543355
 20
932.455398
 11
961.792196
 21
933.334580
  0
LINE
  8
CSLAYER1
  6
CONTINUOUS
 62
     3
 10
961.792196
 20
933.334580
 11
960.885843
 21
934.178677
  0
LINE
  8
CSLAYER1
  6
CONTINUOUS
 62
     3
 10
960.885843
 20
934.178677
 11
959.831192
 21
934.981264
  0
LINE
  8
CSLAYER1
  6
CONTINUOUS
 62
     3
 10
959.831192
 20
934.981264
 11
958.636271
 21
935.736235
  0
LINE
  8
CSLAYER1
  6
CONTINUOUS
 62
     3
 10
958.636271
 20
935.736235
 11
957.310174
 21
936.437842
  0
LINE
  8
CSLAYER1
  6
CONTINUOUS
 62
     3
 10
957.310174
 20
936.437842
 11
955.862992
 21
937.080747
  0
LINE
  8
CSLAYER1
  6
CONTINUOUS
 62
     3
 10
955.862992
 20
937.080747
 11
954.305741
 21
937.660056
  0
LINE
  8
CSLAYER1
  6
CONTINUOUS
 62
     3
 10
954.305741
 20
937.660056
 11
952.650271
 21
938.171361
  0
LINE
  8
CSLAYER1
  6
CONTINUOUS
 62
     3
 10
952.650271
 20
938.171361
 11
950.909182
 21
938.610770
  0
LINE
  8
CSLAYER1
  6
CONTINUOUS
 62
     3
 10
950.909182
 20
938.610770
 11
949.095724
 21
938.974939
  0
LINE
  8
CSLAYER1
  6
CONTINUOUS
 62
     3
 10
949.095724
 20
938.974939
 11
947.223700
 21
939.261096
  0
LINE
  8
CSLAYER1
  6
CONTINUOUS
 62
     3
 10
947.223700
 20
939.261096
 11
945.307355
 21
939.467065
  0
LINE
  8
CSLAYER1
  6
CONTINUOUS
 62
     3
 10
945.307355
 20
939.467065
 11
943.361275
 21
939.591276
  0
LINE
  8
CSLAYER1
  6
CONTINUOUS
 62
     3
 10
943.361275
 20
939.591276
 11
941.400271
 21
939.632785
  0
LINE
  8
CSLAYER1
  6
CONTINUOUS
 62
     3
 10
941.400271
 20
939.632785
 11
939.439267
 21
939.591276
  0
LINE
  8
CSLAYER1
  6
CONTINUOUS
 62
     3
 10
939.439267
 20
939.591276
 11
937.493187
 21
939.467065
  0
LINE
  8
CSLAYER1
  6
CONTINUOUS
 62
     3
 10
937.493187
 20
939.467065
 11
935.576843
 21
939.261096
  0
LINE
  8
CSLAYER1
  6
CONTINUOUS
 62
     3
 10
935.576843
 20
939.261096
 11
933.704818
 21
938.974939
  0
LINE
  8
CSLAYER1
  6
CONTINUOUS
 62
     3
 10
933.704818
 20
938.974939
 11
931.891360
 21
938.610770
  0
LINE
  8
CSLAYER1
  6
CONTINUOUS
 62
     3
 10
931.891360
 20
938.610770
 11
930.150271
 21
938.171361
  0
LINE
  8
CSLAYER1
  6
CONTINUOUS
 62
     3
 10
930.150271
 20
938.171361
 11
928.494801
 21
937.660056
  0
LINE
  8
CSLAYER1
  6
CONTINUOUS
 62
     3
 10
928.494801
 20
937.660056
 11
926.937550
 21
937.080747
  0
LINE
  8
CSLAYER1
  6
CONTINUOUS
 62
     3
 10
926.937550
 20
937.080747
 11
925.490369
 21
936.437842
  0
LINE
  8
CSLAYER1
  6
CONTINUOUS
 62
     3
 10
925.490369
 20
936.437842
 11
924.164271
 21
935.736235
  0
LINE
  8
CSLAYER1
  6
CONTINUOUS
 62
     3
 10
924.164271
 20
935.736235
 11
922.969350
 21
934.981264
  0
LINE
  8
CSLAYER1
  6
CONTINUOUS
 62
     3
 10
922.969350
 20
934.981264
 11
921.914700
 21
934.178677
  0
LINE
  8
CSLAYER1
  6
CONTINUOUS
 62
     3
 10
921.914700
 20
934.178677
 11
921.008346
 21
933.334580
  0
LINE
  8
CSLAYER1
  6
CONTINUOUS
 62
     3
 10
921.008346
 20
933.334580
 11
920.257187
 21
932.455398
  0
LINE
  8
CSLAYER1
  6
CONTINUOUS
 62
     3
 10
920.257187
 20
932.455398
 11
919.666940
 21
931.547823
  0
LINE
  8
CSLAYER1
  6
CONTINUOUS
 62
     3
 10
919.666940
 20
931.547823
 11
919.242097
 21
930.618760
  0
LINE
  8
CSLAYER1
  6
CONTINUOUS
 62
     3
 10
919.242097
 20
930.618760
 11
918.985891
 21
929.675282
  0
LINE
  8
CSLAYER1
  6
CONTINUOUS
 62
     3
 10
918.985891
 20
929.675282
 11
918.900271
 21
928.724568
  0
LINE
  8
CSLAYER1
  6
CONTINUOUS
 62
     3
 10
918.900271
 20
928.724568
 11
918.985891
 21
927.773855
  0
LINE
  8
CSLAYER1
  6
CONTINUOUS
 62
     3
 10
918.985891
 20
927.773855
 11
919.242097
 21
926.830377
  0
LINE
  8
CSLAYER1
  6
CONTINUOUS
 62
     3
 10
919.242097
 20
926.830377
 11
919.666940
 21
925.901314
  0
LINE
  8
CSLAYER1
  6
CONTINUOUS
 62
     3
 10
919.666940
 20
925.901314
 11
920.257187
 21
924.993739
  0
LINE
  8
CSLAYER1
  6
CONTINUOUS
 62
     3
 10
920.257187
 20
924.993739
 11
921.008346
 21
924.114557
  0
LINE
  8
CSLAYER1
  6
CONTINUOUS
 62
     3
 10
921.008346
 20
924.114557
 11
921.896765
 21
923.287163
  0
LINE
  8
CSLAYER1
  6
CONTINUOUS
 62
     3
 10
960.903777
 20
923.287163
 11
961.792196
 21
924.114557
  0
LINE
  8
CSLAYER1
  6
CONTINUOUS
 62
     3
 10
961.792196
 20
924.114557
 11
962.543355
 21
924.993739
  0
LINE
  8
CSLAYER1
  6
CONTINUOUS
 62
     3
 10
962.543355
 20
924.993739
 11
963.133602
 21
925.901314
  0
LINE
  8
CSLAYER1
  6
CONTINUOUS
 62
     3
 10
963.133602
 20
925.901314
 11
963.558446
 21
926.830377
  0
LINE
  8
CSLAYER1
  6
CONTINUOUS
 62
     3
 10
963.558446
 20
926.830377
 11
963.814652
 21
927.773855
  0
LINE
  8
CSLAYER1
  6
CONTINUOUS
 62
     3
 10
963.814652
 20
927.773855
 11
963.900271
 21
928.724568
  0
LINE
  8
CSLAYER1
  6
CENTER
 62
     5
 10
901.400271
 20
889.752606
 11
901.400271
 21
1031.844594
  0
LINE
  8
CSLAYER1
  6
CONTINUOUS
 62
     3
 10
908.400271
 20
1026.144594
 11
894.400271
 21
1026.144594
  0
LINE
  8
CSLAYER1
  6
CONTINUOUS
 62
     3
 10
908.400271
 20
1018.344594
 11
894.400271
 21
1018.344594
  0
LINE
  8
CSLAYER1
  6
CONTINUOUS
 62
     3
 10
907.832203
 20
1013.144594
 11
894.968339
 21
1013.144594
  0
LINE
  8
CSLAYER1
  6
CONTINUOUS
 62
     3
 10
907.400271
 20
1011.144594
 11
895.400271
 21
1011.144594
  0
LINE
  8
CSLAYER1
  6
CONTINUOUS
 62
     3
 10
907.400271
 20
1004.144594
 11
895.400271
 21
1004.144594
  0
LINE
  8
CSLAYER1
  6
CONTINUOUS
 62
     3
 10
906.283297
 20
979.144594
 11
896.517245
 21
979.144594
  0
LINE
  8
CSLAYER1
  6
CONTINUOUS
 62
     3
 10
906.900271
 20
1001.144594
 11
906.900271
 21
1004.144594
  0
LINE
  8
CSLAYER1
  6
CONTINUOUS
 62
     3
 10
909.483175
 20
1018.969809
 11
909.483175
 21
1025.519379
  0
LINE
  8
CSLAYER1
  6
CONTINUOUS
 62
     3
 10
905.441723
 20
1018.969809
 11
905.441723
 21
1025.519379
  0
ARC
  8
CSLAYER1
  6
CONTINUOUS
 62
     3
 10
878.712501
 20
1018.386815
 40
29.587800
 50
345.831727
 51
359.918240
  0
ARC
  8
CSLAYER1
  6
CONTINUOUS
 62
     3
 10
924.088042
 20
1018.386815
 40
29.587800
 50
180.081760
 51
194.168273
  0
LINE
  8
CSLAYER1
  6
CONTINUOUS
 62
     3
 10
905.747585
 20
1011.144594
 11
905.747585
 21
1013.144594
  0
LINE
  8
CSLAYER1
  6
CONTINUOUS
 62
     3
 10
903.765820
 20
1011.144594
 11
903.765820
 21
1013.144594
  0
LINE
  8
CSLAYER1
  6
CONTINUOUS
 62
     3
 10
897.052957
 20
1011.144594
 11
897.052957
 21
1013.144594
  0
LINE
  8
CSLAYER1
  6
CONTINUOUS
 62
     3
 10
899.034723
 20
1011.144594
 11
899.034723
 21
1013.144594
  0
LINE
  8
CSLAYER1
  6
CONTINUOUS
 62
     3
 10
908.400271
 20
1026.144594
 11
909.483175
 21
1025.519379
  0
ARC
  8
CSLAYER1
  6
CONTINUOUS
 62
     3
 10
907.462449
 20
1022.592965
 40
3.556295
 50
64.625569
 51
124.625569
  0
ARC
  8
CSLAYER1
  6
CONTINUOUS
 62
     3
 10
901.400271
 20
1012.769809
 40
13.374785
 50
72.412046
 51
107.587954
  0
LINE
  8
CSLAYER1
  6
CONTINUOUS
 62
     3
 10
908.400271
 20
1018.344594
 11
909.483175
 21
1018.969809
  0
ARC
  8
CSLAYER1
  6
CONTINUOUS
 62
     3
 10
907.462449
 20
1021.896223
 40
3.556295
 50
235.374431
 51
295.374431
  0
ARC
  8
CSLAYER1
  6
CONTINUOUS
 62
     3
 10
901.400271
 20
1031.719379
 40
13.374785
 50
252.412046
 51
287.587954
  0
LINE
  8
CSLAYER1
  6
CONTINUOUS
 62
     3
 10
893.317367
 20
1018.969809
 11
893.317367
 21
1025.519379
  0
LINE
  8
CSLAYER1
  6
CONTINUOUS
 62
     3
 10
897.358819
 20
1018.969809
 11
897.358819
 21
1025.519379
  0
LINE
  8
CSLAYER1
  6
CONTINUOUS
 62
     3
 10
894.400271
 20
1026.144594
 11
893.317367
 21
1025.519379
  0
ARC
  8
CSLAYER1
  6
CONTINUOUS
 62
     3
 10
895.338093
 20
1022.592965
 40
3.556295
 50
55.374431
 51
115.374431
  0
LINE
  8
CSLAYER1
  6
CONTINUOUS
 62
     3
 10
894.400271
 20
1018.344594
 11
893.317367
 21
1018.969809
  0
ARC
  8
CSLAYER1
  6
CONTINUOUS
 62
     3
 10
895.338093
 20
1021.896223
 40
3.556295
 50
244.625569
 51
304.625569
  0
LINE
  8
CSLAYER1
  6
CONTINUOUS
 62
     3
 10
908.328474
 20
1004.680492
 11
908.328474
 21
1010.408695
  0
LINE
  8
CSLAYER1
  6
CONTINUOUS
 62
     3
 10
904.864373
 20
1004.680492
 11
904.864373
 21
1010.408695
  0
LINE
  8
CSLAYER1
  6
CONTINUOUS
 62
     3
 10
907.400271
 20
1004.144594
 11
908.328474
 21
1004.680492
  0
ARC
  8
CSLAYER1
  6
CONTINUOUS
 62
     3
 10
901.400271
 20
1015.608695
 40
11.464102
 50
252.178595
 51
287.821405
  0
ARC
  8
CSLAYER1
  6
CONTINUOUS
 62
     3
 10
906.596424
 20
1007.210522
 40
3.066114
 50
236.143645
 51
295.804157
  0
LINE
  8
CSLAYER1
  6
CONTINUOUS
 62
     3
 10
907.400271
 20
1010.944594
 11
908.328474
 21
1010.408695
  0
ARC
  8
CSLAYER1
  6
CONTINUOUS
 62
     3
 10
901.400271
 20
999.480492
 40
11.464102
 50
72.178595
 51
107.821405
  0
ARC
  8
CSLAYER1
  6
CONTINUOUS
 62
     3
 10
906.596424
 20
1007.878665
 40
3.066114
 50
64.195843
 51
123.856355
  0
LINE
  8
CSLAYER1
  6
CONTINUOUS
 62
     3
 10
907.400271
 20
1010.944594
 11
895.400271
 21
1010.944594
  0
LINE
  8
CSLAYER1
  6
CONTINUOUS
 62
     3
 10
904.864373
 20
1010.944594
 11
904.864373
 21
1011.144594
  0
LINE
  8
CSLAYER1
  6
CONTINUOUS
 62
     3
 10
895.900271
 20
1001.144594
 11
895.900271
 21
1004.144594
  0
LINE
  8
CSLAYER1
  6
CONTINUOUS
 62
     3
 10
894.472068
 20
1004.680492
 11
894.472068
 21
1010.408695
  0
LINE
  8
CSLAYER1
  6
CONTINUOUS
 62
     3
 10
897.936170
 20
1004.680492
 11
897.936170
 21
1010.408695
  0
LINE
  8
CSLAYER1
  6
CONTINUOUS
 62
     3
 10
895.400271
 20
1004.144594
 11
894.472068
 21
1004.680492
  0
ARC
  8
CSLAYER1
  6
CONTINUOUS
 62
     3
 10
896.204119
 20
1007.210522
 40
3.066114
 50
244.195843
 51
303.856355
  0
LINE
  8
CSLAYER1
  6
CONTINUOUS
 62
     3
 10
895.400271
 20
1010.944594
 11
894.472068
 21
1010.408695
  0
ARC
  8
CSLAYER1
  6
CONTINUOUS
 62
     3
 10
896.204119
 20
1007.878665
 40
3.066114
 50
56.143645
 51
115.804157
  0
LINE
  8
CSLAYER1
  6
CONTINUOUS
 62
     3
 10
897.936170
 20
1010.944594
 11
897.936170
 21
1011.144594
  0
LINE
  8
CSLAYER1
  6
CONTINUOUS
 62
     3
 10
908.328474
 20
992.144594
 11
908.328474
 21
1000.608695
  0
LINE
  8
CSLAYER1
  6
CONTINUOUS
 62
     3
 10
904.864373
 20
992.144594
 11
904.864373
 21
1000.608695
  0
LINE
  8
CSLAYER1
  6
CONTINUOUS
 62
     3
 10
907.400271
 20
1001.144594
 11
908.328474
 21
1000.608695
  0
ARC
  8
CSLAYER1
  6
CONTINUOUS
 62
     3
 10
901.400271
 20
989.680492
 40
11.464102
 50
72.178595
 51
107.821405
  0
ARC
  8
CSLAYER1
  6
CONTINUOUS
 62
     3
 10
906.596424
 20
998.078665
 40
3.066114
 50
64.195843
 51
123.856355
  0
LINE
  8
CSLAYER1
  6
CONTINUOUS
 62
     3
 10
907.400271
 20
1001.144594
 11
895.400271
 21
1001.144594
  0
LINE
  8
CSLAYER1
  6
CONTINUOUS
 62
     3
 10
894.472068
 20
992.144594
 11
894.472068
 21
1000.608695
  0
LINE
  8
CSLAYER1
  6
CONTINUOUS
 62
     3
 10
897.936170
 20
992.144594
 11
897.936170
 21
1000.608695
  0
LINE
  8
CSLAYER1
  6
CONTINUOUS
 62
     3
 10
895.400271
 20
1001.144594
 11
894.472068
 21
1000.608695
  0
ARC
  8
CSLAYER1
  6
CONTINUOUS
 62
     3
 10
896.204119
 20
998.078665
 40
3.066114
 50
56.143645
 51
115.804157
  0
LINE
  8
CSLAYER1
  6
CONTINUOUS
 62
     3
 10
907.279553
 20
980.058134
 11
908.328474
 21
992.144594
  0
ARC
  8
CSLAYER1
  6
CONTINUOUS
 62
     3
 10
886.222783
 20
992.144594
 40
18.641590
 50
330.443788
 51
360.000000
  0
ARC
  8
CSLAYER1
  6
CONTINUOUS
 62
     3
 10
901.400271
 20
983.584448
 40
1.217263
 50
210.578468
 51
329.421532
  0
ARC
  8
CSLAYER1
  6
CONTINUOUS
 62
     3
 10
923.505963
 20
992.144594
 40
18.641590
 50
180.000000
 51
209.556212
  0
ARC
  8
CSLAYER1
  6
CONTINUOUS
 62
     3
 10
908.328474
 20
983.584448
 40
1.217263
 50
210.578468
 51
227.594217
  0
ARC
  8
CSLAYER1
  6
CONTINUOUS
 62
     3
 10
906.283297
 20
980.144594
 40
1.000000
 50
270.000000
 51
355.040021
  0
LINE
  8
CSLAYER1
  6
CONTINUOUS
 62
     3
 10
895.520990
 20
980.058134
 11
894.472068
 21
992.144594
  0
ARC
  8
CSLAYER1
  6
CONTINUOUS
 62
     3
 10
916.577760
 20
992.144594
 40
18.641590
 50
180.000000
 51
209.556212
  0
ARC
  8
CSLAYER1
  6
CONTINUOUS
 62
     3
 10
879.294580
 20
992.144594
 40
18.641590
 50
330.443788
 51
360.000000
  0
ARC
  8
CSLAYER1
  6
CONTINUOUS
 62
     3
 10
894.472068
 20
983.584448
 40
1.217263
 50
312.405783
 51
329.421532
  0
ARC
  8
CSLAYER1
  6
CONTINUOUS
 62
     3
 10
896.517245
 20
980.144594
 40
1.000000
 50
184.959979
 51
270.000000
  0
LINE
  8
CSLAYER1
  6
CONTINUOUS
 62
     3
 10
908.400271
 20
1045.844594
 11
895.900271
 21
1045.844594
  0
LINE
  8
CSLAYER1
  6
CENTER
 62
     5
 10
913.900271
 20
1038.844594
 11
908.400271
 21
1038.844594
  0
LINE
  8
CSLAYER1
  6
CONTINUOUS
 62
     3
 10
894.400271
 20
1031.844594
 11
894.400271
 21
1044.344594
  0
LINE
  8
CSLAYER1
  6
CONTINUOUS
 62
     3
 10
908.400271
 20
1031.844594
 11
894.400271
 21
1031.844594
  0
LINE
  8
CSLAYER1
  6
CONTINUOUS
 62
     3
 10
908.400271
 20
1031.844594
 11
908.400271
 21
1045.842149
  0
LINE
  8
CSLAYER1
  6
CONTINUOUS
 62
     3
 10
906.000271
 20
1026.144594
 11
906.000271
 21
1031.844594
  0
LINE
  8
CSLAYER1
  6
CONTINUOUS
 62
     5
 10
905.400271
 20
1026.144594
 11
905.400271
 21
1030.805363
  0
LINE
  8
CSLAYER1
  6
CONTINUOUS
 62
     5
 10
906.000271
 20
1031.844594
 11
905.400271
 21
1030.805363
  0
LINE
  8
CSLAYER1
  6
CONTINUOUS
 62
     3
 10
896.800271
 20
1026.144594
 11
896.800271
 21
1031.844594
  0
LINE
  8
CSLAYER1
  6
CONTINUOUS
 62
     5
 10
896.800271
 20
1031.844594
 11
897.400271
 21
1030.805363
  0
LINE
  8
CSLAYER1
  6
CONTINUOUS
 62
     5
 10
906.000271
 20
1030.805363
 11
896.800271
 21
1030.805363
  0
LINE
  8
CSLAYER1
  6
CONTINUOUS
 62
     3
 10
913.900271
 20
1033.992808
 11
908.400271
 21
1033.894594
  0
LINE
  8
CSLAYER1
  6
CONTINUOUS
 62
     5
 10
913.900271
 20
1034.692920
 11
908.387773
 21
1034.594482
  0
LINE
  8
CSLAYER1
  6
CONTINUOUS
 62
     3
 10
913.900271
 20
1043.696379
 11
908.400271
 21
1043.794594
  0
LINE
  8
CSLAYER1
  6
CONTINUOUS
 62
     5
 10
913.900271
 20
1042.996268
 11
908.387773
 21
1043.094705
  0
ARC
  8
CSLAYER1
  6
CONTINUOUS
 62
     3
 10
895.900271
 20
1044.344594
 40
1.500000
 50
90.000000
 51
180.000000
  0
LINE
  8
CSLAYER1
  6
CONTINUOUS
 62
     3
 10
919.900271
 20
1168.662817
 11
923.400271
 21
1168.662817
  0
LINE
  8
CSLAYER1
  6
CONTINUOUS
 62
     3
 10
918.900271
 20
1169.662817
 11
919.900271
 21
1168.662817
  0
LINE
  8
CSLAYER1
  6
CONTINUOUS
 62
     3
 10
962.900271
 20
1168.662817
 11
963.900271
 21
1169.662817
  0
LINE
  8
CSLAYER1
  6
CONTINUOUS
 62
     3
 10
964.900271
 20
1174.262817
 11
963.900271
 21
1174.262817
  0
LINE
  8
CSLAYER1
  6
CONTINUOUS
 62
     3
 10
918.900271
 20
1174.262817
 11
917.900271
 21
1174.262817
  0
LINE
  8
CSLAYER1
  6
CONTINUOUS
 62
     3
 10
905.900271
 20
1199.262817
 11
917.900271
 21
1199.262817
  0
LINE
  8
CSLAYER1
  6
CONTINUOUS
 62
     3
 10
905.900271
 20
1127.506656
 11
917.900271
 21
1127.506656
  0
LINE
  8
CSLAYER1
  6
CONTINUOUS
 62
     3
 10
964.900271
 20
1127.506656
 11
964.900271
 21
1199.262817
  0
LINE
  8
CSLAYER1
  6
CONTINUOUS
 62
     3
 10
917.900271
 20
1127.506656
 11
917.900271
 21
1199.262817
  0
LINE
  8
CSLAYER1
  6
CONTINUOUS
 62
     3
 10
905.900271
 20
1127.506656
 11
905.900271
 21
1199.262817
  0
LINE
  8
CSLAYER1
  6
CONTINUOUS
 62
     3
 10
964.900271
 20
1127.506656
 11
976.900271
 21
1127.506656
  0
LINE
  8
CSLAYER1
  6
CONTINUOUS
 62
     3
 10
959.400271
 20
1106.616130
 11
976.900271
 21
1106.616130
  0
LINE
  8
CSLAYER1
  6
CONTINUOUS
 62
     3
 10
917.900271
 20
1155.216130
 11
923.400271
 21
1155.216130
  0
LINE
  8
CSLAYER1
  6
CONTINUOUS
 62
     3
 10
959.400271
 20
1155.216130
 11
964.900271
 21
1155.216130
  0
LINE
  8
CSLAYER1
  6
CONTINUOUS
 62
     3
 10
964.900271
 20
1199.262817
 11
976.900271
 21
1199.262817
  0
LINE
  8
CSLAYER1
  6
CONTINUOUS
 62
     3
 10
884.900271
 20
1190.262817
 11
905.900271
 21
1190.262817
  0
LINE
  8
CSLAYER1
  6
CONTINUOUS
 62
     3
 10
884.900271
 20
1174.262817
 11
905.900271
 21
1174.262817
  0
LINE
  8
CSLAYER1
  6
CONTINUOUS
 62
     3
 10
976.900271
 20
1343.326035
 11
884.900271
 21
1343.326035
  0
LINE
  8
CSLAYER1
  6
CONTINUOUS
 62
     3
 10
852.400271
 20
1125.529842
 11
852.900271
 21
1125.529842
  0
LINE
  8
CSLAYER1
  6
CONTINUOUS
 62
     3
 10
863.400271
 20
1141.029842
 11
863.400271
 21
1120.029842
  0
LINE
  8
CSLAYER1
  6
CONTINUOUS
 62
     3
 10
851.400271
 20
1126.529842
 11
851.400271
 21
1134.529842
  0
LINE
  8
CSLAYER1
  6
CONTINUOUS
 62
     3
 10
872.900271
 20
1144.529842
 11
875.900271
 21
1144.529842
  0
LINE
  8
CSLAYER1
  6
CONTINUOUS
 62
     3
 10
872.900271
 20
889.752606
 11
872.900271
 21
1399.430716
  0
LINE
  8
CSLAYER1
  6
CONTINUOUS
 62
     3
 10
875.900271
 20
889.752606
 11
875.900271
 21
1411.730716
  0
LINE
  8
CSLAYER1
  6
CONTINUOUS
 62
     3
 10
872.900271
 20
1116.529842
 11
875.900271
 21
1116.529842
  0
LINE
  8
CSLAYER1
  6
CONTINUOUS
 62
     3
 10
861.400271
 20
1141.029842
 11
861.400271
 21
1120.029842
  0
LINE
  8
CSLAYER1
  6
CONTINUOUS
 62
     3
 10
858.900271
 20
1139.729842
 11
858.900271
 21
1121.329842
  0
LINE
  8
CSLAYER1
  6
CONTINUOUS
 62
     3
 10
858.900271
 20
1121.329842
 11
861.400271
 21
1121.329842
  0
LINE
  8
CSLAYER1
  6
CONTINUOUS
 62
     3
 10
861.400271
 20
1120.029842
 11
863.400271
 21
1120.029842
  0
LINE
  8
CSLAYER1
  6
CONTINUOUS
 62
     3
 10
858.900271
 20
1139.729842
 11
861.400271
 21
1139.729842
  0
LINE
  8
CSLAYER1
  6
CONTINUOUS
 62
     3
 10
861.400271
 20
1141.029842
 11
863.400271
 21
1141.029842
  0
LINE
  8
CSLAYER1
  6
CONTINUOUS
 62
     3
 10
852.900271
 20
1139.029842
 11
852.900271
 21
1122.029842
  0
LINE
  8
CSLAYER1
  6
CONTINUOUS
 62
     3
 10
852.400271
 20
1125.529842
 11
851.400271
 21
1126.529842
  0
LINE
  8
CSLAYER1
  6
CONTINUOUS
 62
     3
 10
851.700271
 20
1126.229842
 11
852.900271
 21
1126.229842
  0
LINE
  8
CSLAYER1
  6
CONTINUOUS
 62
     3
 10
852.400271
 20
1125.529842
 11
852.400271
 21
1135.529842
  0
LINE
  8
CSLAYER1
  6
CONTINUOUS
 62
     3
 10
853.659461
 20
1120.714887
 11
858.141082
 21
1120.714887
  0
LINE
  8
CSLAYER1
  6
CONTINUOUS
 62
     3
 10
853.659461
 20
1125.622364
 11
858.141082
 21
1125.622364
  0
LINE
  8
CSLAYER1
  6
CONTINUOUS
 62
     3
 10
852.900271
 20
1122.029842
 11
853.659461
 21
1120.714887
  0
ARC
  8
CSLAYER1
  6
CONTINUOUS
 62
     3
 10
869.141082
 20
1130.529842
 40
16.240811
 50
162.412046
 51
197.587954
  0
ARC
  8
CSLAYER1
  6
CONTINUOUS
 62
     3
 10
857.241195
 20
1123.168626
 40
4.341619
 50
145.586132
 51
207.480777
  0
LINE
  8
CSLAYER1
  6
CONTINUOUS
 62
     3
 10
852.900271
 20
1139.029842
 11
853.659461
 21
1140.344796
  0
ARC
  8
CSLAYER1
  6
CONTINUOUS
 62
     3
 10
857.241195
 20
1137.891058
 40
4.341619
 50
152.519223
 51
214.413868
  0
LINE
  8
CSLAYER1
  6
CONTINUOUS
 62
     3
 10
858.900271
 20
1122.029842
 11
858.141082
 21
1120.714887
  0
ARC
  8
CSLAYER1
  6
CONTINUOUS
 62
     3
 10
842.659461
 20
1130.529842
 40
16.240811
 50
-17.587954
 51
17.587954
  0
ARC
  8
CSLAYER1
  6
CONTINUOUS
 62
     3
 10
854.559347
 20
1123.168626
 40
4.341619
 50
-27.480777
 51
34.413868
  0
LINE
  8
CSLAYER1
  6
CONTINUOUS
 62
     3
 10
858.900271
 20
1139.029842
 11
858.141082
 21
1140.344796
  0
ARC
  8
CSLAYER1
  6
CONTINUOUS
 62
     3
 10
854.559347
 20
1137.891058
 40
4.341619
 50
-34.413868
 51
27.480777
  0
LINE
  8
CSLAYER1
  6
CONTINUOUS
 62
     3
 10
853.659461
 20
1140.344796
 11
858.141082
 21
1140.344796
  0
LINE
  8
CSLAYER1
  6
CONTINUOUS
 62
     3
 10
853.659461
 20
1135.437319
 11
858.141082
 21
1135.437319
  0
LINE
  8
CSLAYER1
  6
CONTINUOUS
 62
     3
 10
852.400271
 20
1135.529842
 11
852.900271
 21
1135.529842
  0
LINE
  8
CSLAYER1
  6
CONTINUOUS
 62
     3
 10
852.400271
 20
1135.529842
 11
851.400271
 21
1134.529842
  0
LINE
  8
CSLAYER1
  6
CONTINUOUS
 62
     3
 10
851.700271
 20
1134.829842
 11
852.900271
 21
1134.829842
  0
LINE
  8
CSLAYER1
  6
CONTINUOUS
 62
     3
 10
861.400271
 20
1132.431289
 11
858.900271
 21
1129.061724
  0
LINE
  8
CSLAYER1
  6
CONTINUOUS
 62
     3
 10
863.900271
 20
1123.029842
 11
863.400271
 21
1123.029842
  0
LINE
  8
CSLAYER1
  6
CONTINUOUS
 62
     3
 10
863.900271
 20
1138.029842
 11
863.400271
 21
1138.029842
  0
LINE
  8
CSLAYER1
  6
CONTINUOUS
 62
     3
 10
874.900271
 20
1401.280716
 11
875.900271
 21
1401.280716
  0
LINE
  8
CSLAYER1
  6
CONTINUOUS
 62
     3
 10
873.900271
 20
1411.730716
 11
873.900271
 21
1402.280716
  0
LINE
  8
CSLAYER1
  6
CONTINUOUS
 62
     3
 10
873.900271
 20
1402.280716
 11
874.900271
 21
1401.280716
  0
LINE
  8
CSLAYER1
  6
CONTINUOUS
 62
     3
 10
874.900271
 20
1411.730716
 11
874.900271
 21
1401.280716
  0
LINE
  8
CSLAYER1
  6
CONTINUOUS
 62
     3
 10
873.400271
 20
1399.430716
 11
867.400271
 21
1399.430716
  0
LINE
  8
CSLAYER1
  6
CONTINUOUS
 62
     3
 10
867.400271
 20
1411.730716
 11
867.400271
 21
1399.430716
  0
LINE
  8
CSLAYER1
  6
CONTINUOUS
 62
     3
 10
873.400271
 20
1411.730716
 11
873.400271
 21
1399.430716
  0
LINE
  8
CSLAYER1
  6
CONTINUOUS
 62
     3
 10
864.400271
 20
1398.961061
 11
864.400271
 21
1411.730716
  0
LINE
  8
CSLAYER1
  6
CONTINUOUS
 62
     3
 10
867.400271
 20
1399.180716
 11
864.400271
 21
1399.180716
  0
LINE
  8
CSLAYER1
  6
CONTINUOUS
 62
     3
 10
867.400271
 20
1408.418519
 11
864.561246
 21
1411.730716
  0
LINE
  8
CSLAYER1
  6
CONTINUOUS
 62
     3
 10
856.400271
 20
1411.730716
 11
856.400271
 21
1400.930716
  0
ARC
  8
CSLAYER1
  6
CONTINUOUS
 62
     3
 10
870.196015
 20
1409.930716
 40
13.795744
 50
172.502957
 51
203.426598
  0
LINE
  8
CSLAYER1
  6
CONTINUOUS
 62
     3
 10
864.400271
 20
1404.445888
 11
857.537452
 21
1404.445888
  0
LINE
  8
CSLAYER1
  6
CONTINUOUS
 62
     3
 10
864.400271
 20
1398.961061
 11
857.537452
 21
1398.961061
  0
LINE
  8
CSLAYER1
  6
CONTINUOUS
 62
     3
 10
856.400271
 20
1400.930716
 11
857.537452
 21
1398.961061
  0
ARC
  8
CSLAYER1
  6
CONTINUOUS
 62
     3
 10
860.180316
 20
1401.703475
 40
3.808617
 50
133.940972
 51
174.338367
  0
LINE
  8
CSLAYER1
  6
CONTINUOUS
 62
     3
 10
884.900271
 20
889.752606
 11
884.900271
 21
1411.730716
  0
LINE
  8
CSLAYER1
  6
CONTINUOUS
 62
     3
 10
863.900271
 20
889.752606
 11
863.900271
 21
1398.961061
  0
LINE
  8
CSLAYER1
  6
CONTINUOUS
 62
     3
 10
884.900271
 20
923.287163
 11
897.250271
 21
923.287163
  0
LINE
  8
CSLAYER1
  6
CONTINUOUS
 62
     3
 10
845.900271
 20
1397.430716
 11
845.900271
 21
1411.730716
  0
LINE
  8
CSLAYER1
  6
CONTINUOUS
 62
     3
 10
850.400271
 20
1397.430716
 11
850.400271
 21
1411.730716
  0
LINE
  8
CSLAYER1
  6
CONTINUOUS
 62
     3
 10
845.900271
 20
1397.430716
 11
850.400271
 21
1397.430716
  0
LINE
  8
CSLAYER1
  6
CONTINUOUS
 62
     3
 10
1015.900271
 20
1397.430716
 11
1015.900271
 21
1411.730716
  0
LINE
  8
CSLAYER1
  6
CONTINUOUS
 62
     3
 10
1011.400271
 20
1397.430716
 11
1011.400271
 21
1411.730716
  0
LINE
  8
CSLAYER1
  6
CONTINUOUS
 62
     3
 10
1015.900271
 20
1397.430716
 11
1011.400271
 21
1397.430716
  0
LINE
  8
CSLAYER1
  6
CONTINUOUS
 62
     3
 10
884.900271
 20
1098.350259
 11
923.400271
 21
1098.350259
  0
LINE
  8
CSLAYER1
  6
CONTINUOUS
 62
     3
 10
884.900271
 20
1100.226464
 11
923.400271
 21
1100.226464
  0
LINE
  8
CSLAYER1
  6
CONTINUOUS
 62
     3
 10
959.400271
 20
1100.226464
 11
976.900271
 21
1100.226464
  0
LINE
  8
CSLAYER1
  6
CONTINUOUS
 62
     3
 10
959.400271
 20
1098.350259
 11
976.900271
 21
1098.350259
  0
LINE
  8
CSLAYER1
  6
CONTINUOUS
 62
     3
 10
959.400271
 20
1168.662817
 11
962.900271
 21
1168.662817
  0
LINE
  8
CSLAYER1
  6
CONTINUOUS
 62
     3
 10
897.250271
 20
889.752606
 11
897.250271
 21
979.144594
  0
LINE
  8
CSLAYER1
  6
CONTINUOUS
 62
     3
 10
905.550271
 20
889.752606
 11
905.550271
 21
979.144594
  0
LINE
  8
CSLAYER1
  6
CONTINUOUS
 62
     3
 10
905.550271
 20
923.287163
 11
912.400271
 21
923.287163
  0
CIRCLE
  8
CSLAYER1
  6
CONTINUOUS
 62
     3
 10
900.900271
 20
861.402606
 40
4.150000
  0
LINE
  8
CSLAYER1
  6
CENTER
 62
     5
 10
1316.432422
 20
2014.611268
 11
1543.828582
 21
2014.611268
  0
LINE
  8
CSLAYER1
  6
CONTINUOUS
 62
     3
 10
1541.128582
 20
1910.111268
 11
1543.828582
 21
1910.111268
  0
LINE
  8
CSLAYER1
  6
CONTINUOUS
 62
     3
 10
1541.128582
 20
2059.111268
 11
1543.828582
 21
2059.111268
  0
LINE
  8
CSLAYER1
  6
CONTINUOUS
 62
     5
 10
897.400271
 20
1026.144594
 11
897.400271
 21
1030.805363
  0
LINE
  8
CSLAYER1
  6
CONTINUOUS
 62
     3
 10
1316.432422
 20
2018.761268
 11
1543.828582
 21
2018.761268
  0
LINE
  8
CSLAYER1
  6
CONTINUOUS
 62
     3
 10
1316.432422
 20
2010.461268
 11
1543.828582
 21
2010.461268
  0
LINE
  8
CSLAYER1
  6
CONTINUOUS
 62
     3
 10
1541.128582
 20
2018.761268
 11
1541.128582
 21
2124.611268
  0
DIMENSION
  8
CSLAYER1
 62
     3
  2
*D0000
 10
1455.874521
 20
2109.611268
 11
1447.622314
 21
1959.058716
 13
1554.865780
 23
1859.611268
 14
1554.865780
 24
2109.611268
 50
90.000000
 70
1
  0
INSERT
  8
CSLAYER1
  2
EASYDRAWDIM0003
 10
0.0
 20
0.0
 30
0.0
  0
DIMENSION
  8
CSLAYER1
 62
     3
  2
*D0001
 10
2266.105886
 20
1529.730716
 11
1916.105835
 21
1539.730591
 13
1566.105886
 23
1429.730716
 14
2266.105886
 24
1429.730716
 70
1
  0
DIMENSION
  8
CSLAYER1
 62
     3
  2
*D0002
 10
2244.128582
 20
639.752606
 11
1892.628540
 21
649.752747
 13
1541.128582
 23
849.752606
 14
2244.128582
 24
849.752606
 52
270.000000
 70
1
  0
DIMENSION
  8
CSLAYER1
 62
     3
  2
*D0003
 10
1147.286868
 20
855.752606
 11
1137.286865
 21
872.802185
 13
1080.900271
 23
849.752606
 14
1080.900271
 24
855.752606
 50
90.000000
 70
1
  0
LINE
  8
CSLAYER1
  6
CONTINUOUS
 62
     3
 10
1401.333926
 20
873.902606
 11
1541.128582
 21
873.902606
  0
LINE
  8
CSLAYER1
  6
CONTINUOUS
 62
     3
 10
1401.333926
 20
865.602606
 11
1541.128582
 21
865.602606
  0
INSERT
  8
CSLAYER1
  2
EASYDRAWDIM0004
 10
0.0
 20
0.0
 30
0.0
  0
LINE
  8
CSLAYER1
  6
CONTINUOUS
 62
     4
 10
1543.828582
 20
2109.611268
 11
2243.828582
 21
2109.611268
  0
LINE
  8
CSLAYER1
  6
CONTINUOUS
 62
     4
 10
1543.828582
 20
1859.611268
 11
2243.828582
 21
1859.611268
  0
INSERT
  8
CSLAYER1
  2
EASYDRAWDIM0005
 10
0.0
 20
0.0
 30
0.0
  0
DIMENSION
  8
CSLAYER1
 62
     3
  2
*D0004
 10
2386.105886
 20
2109.611268
 11
2376.105957
 21
1984.611450
 13
2243.828582
 23
1859.611268
 14
2243.828582
 24
2109.611268
 50
90.000000
 70
1
  0
LINE
  8
CSLAYER1
  6
CONTINUOUS
 62
     3
 10
805.900271
 20
1429.730716
 11
805.900271
 21
1411.730716
  0
LINE
  8
CSLAYER1
  6
CONTINUOUS
 62
     3
 10
1055.900271
 20
1429.730716
 11
1055.900271
 21
1411.730716
  0
INSERT
  8
CSLAYER1
  2
BLKF0011
 10
0.0
 20
0.0
 30
0.0
  0
INSERT
  8
CSLAYER1
  2
BLKF0012
 10
0.0
 20
0.0
 30
0.0
  0
TEXT
  8
CSLAYER1
 62
     7
 10
1547.948975
 20
2205.810547
 40
40.000000
 41
0.843750
  1
下降時
 50
0.000000
 51
0.000000
  7
EASYDRAW_FONT
 72
     5
 11
1637.948975
 21
2205.810547
  0
LINE
  8
CSLAYER1
  6
CONTINUOUS
 62
     5
 10
1534.342598
 20
2252.241020
 11
1657.300608
 21
2252.241020
  0
LINE
  8
CSLAYER1
  6
CONTINUOUS
 62
     5
 10
1657.300608
 20
2252.241020
 11
1657.300608
 21
2199.380567
  0
LINE
  8
CSLAYER1
  6
CONTINUOUS
 62
     5
 10
1657.300608
 20
2199.380567
 11
1534.342598
 21
2199.380567
  0
LINE
  8
CSLAYER1
  6
CONTINUOUS
 62
     5
 10
1534.342598
 20
2199.380567
 11
1534.342598
 21
2252.241020
  0
LINE
  8
CSLAYER1
  6
CONTINUOUS
 62
     3
 10
2638.396493
 20
849.752606
 11
2938.396493
 21
849.752606
  0
LINE
  8
CSLAYER1
  6
CENTER
 62
     5
 10
2913.396493
 20
840.823245
 11
2913.396493
 21
865.033206
  0
LINE
  8
CSLAYER1
  6
CENTER
 62
     5
 10
2663.396493
 20
840.823245
 11
2663.396493
 21
865.033206
  0
LINE
  8
CSLAYER1
  6
CONTINUOUS
 62
     3
 10
2688.396493
 20
889.752606
 11
2888.396493
 21
889.752606
  0
LINE
  8
CSLAYER1
  6
CONTINUOUS
 62
     3
 10
2688.396493
 20
889.752606
 11
2688.396493
 21
855.752606
  0
LINE
  8
CSLAYER1
  6
CONTINUOUS
 62
     3
 10
2888.396493
 20
889.752606
 11
2888.396493
 21
855.752606
  0
LINE
  8
CSLAYER1
  6
CONTINUOUS
 62
     3
 10
2938.396493
 20
849.752606
 11
2938.396493
 21
855.752606
  0
LINE
  8
CSLAYER1
  6
CONTINUOUS
 62
     3
 10
2938.396493
 20
855.752606
 11
2888.396493
 21
855.752606
  0
LINE
  8
CSLAYER1
  6
CONTINUOUS
 62
     3
 10
2638.396493
 20
849.752606
 11
2638.396493
 21
855.752606
  0
LINE
  8
CSLAYER1
  6
CONTINUOUS
 62
     3
 10
2638.396493
 20
855.752606
 11
2688.396493
 21
855.752606
  0
POINT
  8
CSLAYER1
 62
     3
 10
2788.396493
 20
914.552606
  0
POINT
  8
CSLAYER1
 62
     3
 10
2788.396493
 20
889.752606
  0
LINE
  8
CSLAYER1
  6
CENTER
 62
     5
 10
2788.396493
 20
954.552606
 11
2788.396493
 21
809.752606
  0
TEXT
  8
CSLAYER1
 62
     7
 10
2747.478516
 20
982.696899
 40
40.000000
 41
0.843750
  1
下降時
 50
0.000000
 51
0.000000
  7
EASYDRAW_FONT
 72
     5
 11
2837.478516
 21
982.696899
  0
LINE
  8
CSLAYER1
  6
CONTINUOUS
 62
     5
 10
2733.872083
 20
1029.127028
 11
2856.830093
 21
1029.127028
  0
LINE
  8
CSLAYER1
  6
CONTINUOUS
 62
     5
 10
2856.830093
 20
1029.127028
 11
2856.830093
 21
976.266575
  0
LINE
  8
CSLAYER1
  6
CONTINUOUS
 62
     5
 10
2856.830093
 20
976.266575
 11
2733.872083
 21
976.266575
  0
LINE
  8
CSLAYER1
  6
CONTINUOUS
 62
     5
 10
2733.872083
 20
976.266575
 11
2733.872083
 21
1029.127028
  0
DIMENSION
  8
CSLAYER1
 62
     3
  2
*D0006
 10
2566.105886
 20
914.552606
 11
2556.105713
 21
882.152588
 13
2606.220948
 23
849.752606
 14
2656.762101
 24
914.552606
 50
90.000000
  0
LINE
  8
CSLAYER1
  6
CENTER
 62
     5
 10
2713.524270
 20
894.752606
 11
2862.524270
 21
894.752606
  0
LINE
  8
CSLAYER1
  6
CONTINUOUS
 62
     3
 10
2913.024270
 20
914.552606
 11
2663.024270
 21
914.552606
  0
LINE
  8
CSLAYER1
  6
CONTINUOUS
 62
     3
 10
2913.024270
 20
896.552606
 11
2663.024270
 21
896.552606
  0
LINE
  8
CSLAYER1
  6
CONTINUOUS
 62
     3
 10
2845.024270
 20
896.552606
 11
2845.024270
 21
889.752606
  0
LINE
  8
CSLAYER1
  6
CONTINUOUS
 62
     3
 10
2844.024270
 20
896.552606
 11
2844.024270
 21
889.752606
  0
LINE
  8
CSLAYER1
  6
CONTINUOUS
 62
     3
 10
2851.524270
 20
896.552606
 11
2851.524270
 21
889.752606
  0
LINE
  8
CSLAYER1
  6
CONTINUOUS
 62
     3
 10
2845.524270
 20
896.552606
 11
2845.524270
 21
889.752606
  0
LINE
  8
CSLAYER1
  6
CONTINUOUS
 62
     3
 10
2854.524270
 20
889.752606
 11
2854.524270
 21
896.552606
  0
LINE
  8
CSLAYER1
  6
CONTINUOUS
 62
     3
 10
2851.524270
 20
893.240409
 11
2854.363296
 21
896.552606
  0
LINE
  8
CSLAYER1
  6
CONTINUOUS
 62
     3
 10
2862.524270
 20
896.552606
 11
2862.524270
 21
889.752606
  0
ARC
  8
CSLAYER1
  6
CONTINUOUS
 62
     3
 10
2848.728526
 20
894.752606
 40
13.795744
 50
-21.249544
 51
7.497043
  0
LINE
  8
CSLAYER1
  6
CONTINUOUS
 62
     3
 10
2731.024270
 20
896.552606
 11
2731.024270
 21
889.752606
  0
LINE
  8
CSLAYER1
  6
CONTINUOUS
 62
     3
 10
2732.024270
 20
896.552606
 11
2732.024270
 21
889.752606
  0
LINE
  8
CSLAYER1
  6
CONTINUOUS
 62
     3
 10
2724.524270
 20
896.552606
 11
2724.524270
 21
889.752606
  0
LINE
  8
CSLAYER1
  6
CONTINUOUS
 62
     3
 10
2730.524270
 20
896.552606
 11
2730.524270
 21
889.752606
  0
LINE
  8
CSLAYER1
  6
CONTINUOUS
 62
     3
 10
2721.524270
 20
889.752606
 11
2721.524270
 21
896.552606
  0
LINE
  8
CSLAYER1
  6
CONTINUOUS
 62
     3
 10
2724.524270
 20
893.240409
 11
2721.685244
 21
896.552606
  0
LINE
  8
CSLAYER1
  6
CONTINUOUS
 62
     3
 10
2713.524270
 20
896.552606
 11
2713.524270
 21
889.752606
  0
ARC
  8
CSLAYER1
  6
CONTINUOUS
 62
     3
 10
2727.320014
 20
894.752606
 40
13.795744
 50
172.502957
 51
201.249544
  0
LINE
  8
CSLAYER1
  6
CONTINUOUS
 62
     3
 10
2703.024270
 20
889.752606
 11
2703.024270
 21
896.552606
  0
LINE
  8
CSLAYER1
  6
CONTINUOUS
 62
     3
 10
2707.524270
 20
889.752606
 11
2707.524270
 21
896.552606
  0
LINE
  8
CSLAYER1
  6
CONTINUOUS
 62
     3
 10
2873.024270
 20
889.752606
 11
2873.024270
 21
896.552606
  0
LINE
  8
CSLAYER1
  6
CONTINUOUS
 62
     3
 10
2868.524270
 20
889.752606
 11
2868.524270
 21
896.552606
  0
LINE
  8
CSLAYER1
  6
CONTINUOUS
 62
     3
 10
2663.024270
 20
914.552606
 11
2663.024270
 21
896.552606
  0
LINE
  8
CSLAYER1
  6
CONTINUOUS
 62
     3
 10
2913.024270
 20
914.552606
 11
2913.024270
 21
896.552606
  0
LINE
  8
CSLAYER1
  6
CONTINUOUS
 62
     3
 10
2688.396493
 20
855.752606
 11
2688.396493
 21
849.752606
  0
LINE
  8
CSLAYER1
  6
CONTINUOUS
 62
     3
 10
2888.396493
 20
849.752606
 11
2888.396493
 21
855.752606
  0
LINE
  8
CSLAYER1
  6
CONTINUOUS
 62
     5
 10
3147.740312
 20
849.752606
 11
2938.396493
 21
849.752606
  0
TEXT
  8
CSLAYER1
 62
     5
 10
3027.141813
 20
857.272511
 40
31.844261
 41
0.920655
  1
Ｆ.Ｌ
 50
0.000000
 51
0.000000
  7
EASYDRAW_FONT
 72
     5
 11
3105.322054
 21
857.272511
  0
TEXT
  8
CSLAYER1
 62
     7
 10
881.763916
 20
558.080994
 40
40.000000
 41
0.843750
  1
上昇時
 50
0.000000
 51
0.000000
  7
EASYDRAW_FONT
 72
     5
 11
971.763916
 21
558.080994
  0
DIMENSION
  8
CSLAYER1
 62
     3
  2
*D0007
 10
1566.128582
 20
729.752606
 11
1582.219727
 21
700.477905
 13
1541.128582
 23
849.752606
 14
1566.128582
 24
849.752606
 52
270.000000
 70
1
  0
DIMENSION
  8
CSLAYER1
 62
     3
  2
*D0008
 10
1080.900271
 20
639.752606
 11
930.900146
 21
649.752625
 13
780.900271
 23
849.752606
 14
1080.900271
 24
855.752606
 52
270.000000
  0
LINE
  8
CSLAYER1
  6
CONTINUOUS
 62
     5
 10
991.115315
 20
551.650666
 11
868.157305
 21
551.650666
  0
LINE
  8
CSLAYER1
  6
CONTINUOUS
 62
     5
 10
991.115315
 20
604.511119
 11
991.115315
 21
551.650666
  0
LINE
  8
CSLAYER1
  6
CONTINUOUS
 62
     5
 10
868.157305
 20
551.650666
 11
868.157305
 21
604.511119
  0
LINE
  8
CSLAYER1
  6
CONTINUOUS
 62
     5
 10
868.157305
 20
604.511119
 11
991.115315
 21
604.511119
  0
DIMENSION
  8
CSLAYER1
 62
     3
  2
*D0009
 10
1055.900271
 20
1529.730716
 11
930.900146
 21
1539.730713
 13
805.900271
 23
1429.730716
 14
1055.900271
 24
1429.730716
 70
1
  0
LINE
  8
CSLAYER1
  6
CONTINUOUS
 62
     3
 10
780.900271
 20
849.752606
 11
1080.900271
 21
849.752606
  0
LINE
  8
CSLAYER1
  6
CONTINUOUS
 62
     5
 10
1080.900271
 20
849.752606
 11
1541.128582
 21
849.752606
  0
LINE
  8
CSLAYER1
  6
CONTINUOUS
 62
     3
 10
1541.128582
 20
849.752606
 11
2244.128582
 21
849.752606
  0
LINE
  8
CSLAYER1
  6
CONTINUOUS
 62
     5
 10
2244.128582
 20
849.752606
 11
2638.396493
 21
849.752606
  0
INSERT
  8
CSLAYER1
  2
EASYDRAWDIM0007
 10
0.0
 20
0.0
 30
0.0
  0
LINE
  8
CSLAYER1
  6
CONTINUOUS
 62
     5
 10
1158.935864
 20
688.969994
 11
1416.132983
 21
688.969994
  0
TEXT
  8
CSLAYER1
 62
     3
 10
1194.189819
 20
696.778748
 40
40.000000
 41
0.787500
  1
(アンカー穴)
 50
0.000000
 51
0.000000
  7
EASYDRAW_FONT
 72
     5
 11
1404.189819
 21
696.778748
  0
LINE
  8
CSLAYER1
  6
CONTINUOUS
 62
     5
 10
1055.900271
 20
849.752606
 11
1158.935864
 21
688.969994
  0
LINE
  8
CSLAYER1
  6
CONTINUOUS
 62
     5
 10
1055.900271
 20
849.752606
 11
1078.072736
 21
829.544147
  0
LINE
  8
CSLAYER1
  6
CONTINUOUS
 62
     5
 10
1055.900271
 20
849.752606
 11
1064.997960
 21
821.165335
  0
DIMENSION
  8
CSLAYER1
 62
     3
  2
*D0010
 10
1591.128582
 20
1624.611268
 11
1481.128540
 21
1634.611206
 13
1541.128582
 23
1844.611268
 14
1591.128582
 24
1844.611268
 52
270.000000
 70
1
  0
DIMENSION
  8
CSLAYER1
 62
     3
  2
*D0011
 10
1566.128582
 20
1714.611268
 11
1481.128540
 21
1724.611328
 13
1541.128582
 23
1844.611268
 14
1566.128582
 24
1848.348467
 52
270.000000
  0
DIMENSION
  8
CSLAYER1
 62
     3
  2
*D0012
 10
2476.105886
 20
1429.730716
 11
2466.105957
 21
1139.741699
 13
2386.105886
 23
849.752606
 14
2266.105886
 24
1429.730716
 50
90.000000
  0
DIMENSION
  8
CSLAYER1
 62
     3
  2
*D0013
 10
2386.105886
 20
1429.730716
 11
2376.105957
 21
1172.141602
 13
2243.828582
 23
914.552606
 14
2243.828582
 24
1429.730716
 50
90.000000
 70
1
  0
DIMENSION
  8
CSLAYER1
 62
     3
  2
*D0014
 10
2386.105886
 20
849.752606
 11
2376.105713
 21
882.152588
 13
2386.105886
 23
914.552606
 14
2386.105886
 24
849.752606
 50
90.000000
 70
1
  0
DIMENSION
  8
CSLAYER1
 62
     3
  2
*D0015
 10
1055.900271
 20
729.752606
 11
930.900269
 21
739.752625
 13
805.900271
 23
840.823245
 14
1055.900271
 24
840.823245
 52
270.000000
 70
1
  0
LINE
  8
CSLAYER1
  6
CONTINUOUS
 62
     5
 10
1566.128582
 20
1859.611268
 11
1651.694609
 21
1714.611268
  0
LINE
  8
CSLAYER1
  6
CONTINUOUS
 62
     5
 10
1566.128582
 20
1859.611268
 11
1587.542714
 21
1838.600916
  0
LINE
  8
CSLAYER1
  6
CONTINUOUS
 62
     5
 10
1566.128582
 20
1859.611268
 11
1574.168588
 21
1830.708703
  0
LINE
  8
CSLAYER1
  6
CONTINUOUS
 62
     5
 10
1566.128582
 20
849.752606
 11
1416.132983
 21
688.969994
  0
LINE
  8
CSLAYER1
  6
CONTINUOUS
 62
     5
 10
1566.128582
 20
849.752606
 11
1552.038851
 21
823.267148
  0
LINE
  8
CSLAYER1
  6
CONTINUOUS
 62
     5
 10
1566.128582
 20
849.752606
 11
1540.683788
 21
833.860392
  0
TEXT
  8
CSLAYER1
 62
     3
 10
3156.034180
 20
1778.991699
 40
40.000000
 41
0.859091
  1
約 42
 50
0.000000
 51
0.000000
  7
EASYDRAW_FONT
 72
     5
 11
3282.034180
 21
1778.991699
  0
ENDSEC
  0
EOF
