  0
SECTION
  2
HEADER
  9
$ACADVER
  1
AC1006
  9
$INSBASE
 10
0.000000
 20
0.000000
 30
0.0
  9
$EXTMIN
 10
0.000000
 20
0.000000
  9
$EXTMAX
 10
3640.000000
 20
2570.000000
  9
$LIMMIN
 10
0.000000
 20
0.000000
  9
$LIMMAX
 10
3640.000000
 20
2570.000000
  9
$VIEWCTR
 10
1820.000000
 20
1285.000000
  9
$VIEWSIZE
 40
2570.000000
  9
$SNAPMODE
 70
     0
  9
$SNAPUNIT
 10
1.0
 20
1.0
  9
$SNAPBASE
 10
0.0
 20
0.0
  9
$SNAPANG
 50
0.0
  9
$SNAPSTYLE
 70
     0
  9
$SNAPISOPAIR
 70
     0
  9
$GRIDMODE
 70
     0
  9
$GRIDUNIT
 10
0.0
 20
0.0
  9
$ORTHOMODE
 70
     0
  9
$REGENMODE
 70
     1
  9
$FILLMODE
 70
     1
  9
$QTEXTMODE
 70
     0
  9
$DRAGMODE
 70
     2
  9
$LTSCALE
 40
15.000000
  9
$OSMODE
 70
     0
  9
$ATTMODE
 70
     1
  9
$TEXTSIZE
 40
0.2
  9
$TRACEWID
 40
0.05
  9
$TEXTSTYLE
  7
STANDARD
  9
$CLAYER
  8
CSLAYER1
  9
$CELTYPE
  6
BYLAYER
  9
$CECOLOR
 62
   256
  9
$DIMSCALE
 40
1.0
  9
$DIMASZ
 40
0.18
  9
$DIMEXO
 40
0.0625
  9
$DIMDLI
 40
0.38
  9
$DIMRND
 40
0.0
  9
$DIMDLE
 40
0.0
  9
$DIMEXE
 40
0.18
  9
$DIMTP
 40
0.0
  9
$DIMTM
 40
0.0
  9
$DIMTXT
 40
0.18
  9
$DIMCEN
 40
0.09
  9
$DIMTSZ
 40
0.0
  9
$DIMTOL
 70
     0
  9
$DIMLIM
 70
     0
  9
$DIMTIH
 70
     1
  9
$DIMTOH
 70
     1
  9
$DIMSE1
 70
     0
  9
$DIMSE2
 70
     0
  9
$DIMTAD
 70
     0
  9
$DIMZIN
 70
     0
  9
$DIMBLK
  1

  9
$LUNITS
 70
     2
  9
$LUPREC
 70
     4
  9
$AXISMODE
 70
     0
  9
$AXISUNIT
 10
0.0
 20
0.0
  9
$SKETCHINC
 40
0.1
  9
$FILLETRAD
 40
0.0
  9
$AUNITS
 70
     0
  9
$AUPREC
 70
     0
  9
$MENU
  1
ACAD
  9
$ELEVATION
 40
0.0
  9
$THICKNESS
 40
0.0
  9
$VIEWDIR
 10
0.0
 20
0.0
 30
1.0
  9
$LIMCHECK
 70
     0
  9
$BLIPMODE
 70
     1
  9
$CHAMFERA
 40
0.0
  9
$CHAMFERB
 40
0.0
  9
$FASTZOOM
 70
     1
  9
$SKPOLY
 70
     0
  9
$TDCREATE
 40
2456676.000000
  9
$TDUPDATE
 40
2456676.000000
  9
$TDINDWG
 40
0.0
  9
$TDUSRTIMER
 40
0.0
  9
$USRTIMER
 70
     1
  9
$ANGBASE
 50
0.0
  9
$ANGDIR
 70
     0
  9
$PDMODE
 70
     0
  9
$PDSIZE
 40
0.0
  9
$PLINEWID
 40
0.0
  9
$COORDS
 70
     0
  9
$USERI1
 70
     0
  9
$USERI2
 70
     0
  9
$USERI3
 70
     0
  9
$USERI4
 70
     0
  9
$USERI5
 70
     0
  9
$USERR1
 40
0.0
  9
$USERR2
 40
0.0
  9
$USERR3
 40
0.0
  9
$USERR4
 40
0.0
  9
$USERR5
 40
0.0
  0
ENDSEC
  0
SECTION
  2
TABLES
  0
TABLE
  2
LTYPE
 70
     9
  0
LTYPE
  2
CONTINUOUS
 70
    64
  3
Solid line
 72
    65
 73
     0
 40
0.0
  0
LTYPE
  2
DASHED
 70
    64
  3
__ __ __ __ __ __ __ __ __ __ __ __ __ __ __
 72
    65
 73
     2
 40
0.75
 49
0.5
 49
-0.25
  0
LTYPE
  2
HIDDEN
 70
    64
  3
_ _ _ _ _ _ _ _ _ _ _ _ _ _ _ _ _ _ _ _ _ _ _
 72
    65
 73
     2
 40
0.375
 49
0.25
 49
-0.125
  0
LTYPE
  2
DOT
 70
    64
  3
...............................................
 72
    65
 73
     2
 40
0.25
 49
0.0
 49
-0.25
  0
LTYPE
  2
DASHDOT
 70
    64
  3
__ . __ . __ . __ . __ . __ . __ . __ . __ . __
 72
    65
 73
     4
 40
1.0
 49
0.5
 49
-0.25
 49
0.0
 49
-0.25
  0
LTYPE
  2
DIVIDE
 70
    64
  3
__ . . __ . . __ . . __ . . __ . . __ . . __
 72
    65
 73
     6
 40
1.25
 49
0.5
 49
-0.25
 49
0.0
 49
-0.25
 49
0.0
 49
-0.25
  0
LTYPE
  2
CENTER
 70
    64
  3
____ _ ____ _ ____ _ ____ _ ____ _ ____ _ ____ 
 72
    65
 73
     4
 40
2.0
 49
1.25
 49
-0.25
 49
0.25
 49
-0.25
  0
LTYPE
  2
PHANTOM
 70
    64
  3
______  __  __  ______  __  __  ______  __  __ 
 72
    65
 73
     6
 40
2.5
 49
1.25
 49
-0.25
 49
0.25
 49
-0.25
 49
0.25
 49
-0.25
  0
LTYPE
  2
BORDER
 70
    64
  3
__ __ . __ __ . __ __ . __ __ . __ __ . __ __ .
 72
    65
 73
     6
 40
1.75
 49
0.5
 49
-0.25
 49
0.5
 49
-0.25
 49
0.0
 49
-0.25
  0
ENDTAB
  0
TABLE
  2
LAYER
 70
    16
  0
LAYER
  2
CSLAYER1
 70
    64
 62
     7
  6
CONTINUOUS
  0
LAYER
  2
CSLAYER2
 70
    64
 62
     7
  6
CONTINUOUS
  0
LAYER
  2
CSLAYER3
 70
    64
 62
     7
  6
CONTINUOUS
  0
LAYER
  2
CSLAYER4
 70
    64
 62
     7
  6
CONTINUOUS
  0
LAYER
  2
CSLAYER5
 70
    64
 62
     7
  6
CONTINUOUS
  0
LAYER
  2
CSLAYER6
 70
    64
 62
     7
  6
CONTINUOUS
  0
LAYER
  2
CSLAYER7
 70
    64
 62
     7
  6
CONTINUOUS
  0
LAYER
  2
CSLAYER8
 70
    64
 62
     7
  6
CONTINUOUS
  0
LAYER
  2
CSLAYER9
 70
    64
 62
     7
  6
CONTINUOUS
  0
LAYER
  2
CSLAYER10
 70
    64
 62
     7
  6
CONTINUOUS
  0
LAYER
  2
CSLAYER11
 70
    64
 62
     7
  6
CONTINUOUS
  0
LAYER
  2
CSLAYER12
 70
    64
 62
     7
  6
CONTINUOUS
  0
LAYER
  2
CSLAYER13
 70
    64
 62
     7
  6
CONTINUOUS
  0
LAYER
  2
CSLAYER14
 70
    64
 62
     7
  6
CONTINUOUS
  0
LAYER
  2
CSLAYER15
 70
    64
 62
     7
  6
CONTINUOUS
  0
LAYER
  2
CSLAYER16
 70
    64
 62
     7
  6
CONTINUOUS
  0
ENDTAB
  0
TABLE
  2
STYLE
 70
     1
  0
STYLE
  2
EASYDRAW_FONT
 70
     0
 40
1.0
 41
1.0
 50
0.0
 71
     0
 42
1.0
  3
monotxt
  4
bigfont
  0
ENDTAB
  0
TABLE
  2
VIEW
 70
     0
  0
ENDTAB
  0
ENDSEC
  0
SECTION
  2
BLOCKS
  0
BLOCK
  8
CSLAYER1
  2
EASYDRAWDIM0000
 70
   64
 10
0.0
 20
0.0
 30
0.0
  0
TEXT
  8
CSLAYER1
 62
     3
 10
273.369812
 20
2232.394775
 40
48.000000
 41
0.787500
  1
昇降切替バルブ
 50
0.000000
 51
0.000000
  7
EASYDRAW_FONT
 72
     5
 11
525.369812
 21
2232.394775
  0
LINE
  8
CSLAYER1
  6
CONTINUOUS
 62
     7
 10
625.266106
 20
2081.673116
 11
525.370306
 21
2222.394473
  0
LINE
  8
CSLAYER1
  6
CONTINUOUS
 62
     7
 10
625.266106
 20
2081.673116
 11
602.160617
 21
2100.807807
  0
LINE
  8
CSLAYER1
  6
CONTINUOUS
 62
     7
 10
625.266106
 20
2081.673116
 11
614.823510
 21
2109.796989
  0
LINE
  8
CSLAYER1
  6
CONTINUOUS
 62
     7
 10
525.370306
 20
2222.394473
 11
265.370306
 21
2222.394473
  0
ENDBLK
  8
0
  0
BLOCK
  8
CSLAYER1
  2
EASYDRAWDIM0001
 70
   64
 10
0.0
 20
0.0
 30
0.0
  0
TEXT
  8
CSLAYER1
 62
     3
 10
297.117371
 20
2143.147217
 40
48.000000
 41
0.794118
  1
ポンプペタル
 50
0.000000
 51
0.000000
  7
EASYDRAW_FONT
 72
     5
 11
513.117371
 21
2143.147217
  0
LINE
  8
CSLAYER1
  6
CONTINUOUS
 62
     7
 10
578.722950
 20
2053.332714
 11
515.069233
 21
2133.146775
  0
LINE
  8
CSLAYER1
  6
CONTINUOUS
 62
     7
 10
578.722950
 20
2053.332714
 11
554.584454
 21
2071.146556
  0
LINE
  8
CSLAYER1
  6
CONTINUOUS
 62
     7
 10
578.722950
 20
2053.332714
 11
566.725321
 21
2080.829202
  0
LINE
  8
CSLAYER1
  6
CONTINUOUS
 62
     7
 10
515.069233
 20
2133.146775
 11
285.069233
 21
2133.146775
  0
ENDBLK
  8
0
  0
BLOCK
  8
CSLAYER1
  2
EASYDRAWDIM0002
 70
   64
 10
0.0
 20
0.0
 30
0.0
  0
TEXT
  8
CSLAYER1
 62
     3
 10
651.837585
 20
2238.268311
 40
48.000000
 41
0.787500
  1
高圧ホース２m
 50
0.000000
 51
0.000000
  7
EASYDRAW_FONT
 72
     5
 11
903.837585
 21
2238.268311
  0
LINE
  8
CSLAYER1
  6
CONTINUOUS
 62
     7
 10
979.153903
 20
2098.422806
 11
911.888871
 21
2228.268097
  0
LINE
  8
CSLAYER1
  6
CONTINUOUS
 62
     7
 10
979.153903
 20
2098.422806
 11
958.930262
 21
2120.581424
  0
LINE
  8
CSLAYER1
  6
CONTINUOUS
 62
     7
 10
979.153903
 20
2098.422806
 11
972.719025
 21
2127.724553
  0
LINE
  8
CSLAYER1
  6
CONTINUOUS
 62
     7
 10
911.888871
 20
2228.268097
 11
641.888871
 21
2228.268097
  0
ENDBLK
  8
0
  0
BLOCK
  8
CSLAYER1
  2
*D0000
 70
    65
 10
0.0
 20
0.0
 30
0.0
  0
TEXT
  8
CSLAYER1
 62
     3
 10
2461.191406
 20
1169.543579
 40
40.000000
 41
0.843750
  1
635
 50
90.000000
 51
0.000000
  7
EASYDRAW_FONT
 72
     5
 11
2461.191406
 21
1259.543579
  0
LINE
  8
CSLAYER1
  6
CONTINUOUS
 62
     5
 10
2361.191251
 20
1540.190436
 11
2582.333325
 21
1540.190436
  0
LINE
  8
CSLAYER1
  6
CONTINUOUS
 62
     5
 10
2471.191251
 20
888.897026
 11
2471.191251
 21
1540.190436
  0
LINE
  8
CSLAYER1
  6
CONTINUOUS
 62
     5
 10
2471.191251
 20
888.897026
 11
2463.426680
 21
917.874801
  0
LINE
  8
CSLAYER1
  6
CONTINUOUS
 62
     5
 10
2471.191251
 20
888.897026
 11
2478.955822
 21
917.874801
  0
LINE
  8
CSLAYER1
  6
CONTINUOUS
 62
     5
 10
2471.191251
 20
1540.190436
 11
2463.426680
 21
1511.212661
  0
LINE
  8
CSLAYER1
  6
CONTINUOUS
 62
     5
 10
2471.191251
 20
1540.190436
 11
2478.955822
 21
1511.212661
  0
ENDBLK
  8
0
  0
BLOCK
  8
CSLAYER1
  2
*D0001
 70
    65
 10
0.0
 20
0.0
 30
0.0
  0
TEXT
  8
CSLAYER1
 62
     3
 10
2551.191406
 20
1137.043701
 40
40.000000
 41
0.843750
  1
700
 50
90.000000
 51
0.000000
  7
EASYDRAW_FONT
 72
     5
 11
2551.191406
 21
1227.043701
  0
LINE
  8
CSLAYER1
  6
CONTINUOUS
 62
     5
 10
2561.191251
 20
823.897026
 11
2561.191251
 21
1540.190436
  0
LINE
  8
CSLAYER1
  6
CONTINUOUS
 62
     5
 10
2561.191251
 20
823.897026
 11
2553.426680
 21
852.874801
  0
LINE
  8
CSLAYER1
  6
CONTINUOUS
 62
     5
 10
2561.191251
 20
823.897026
 11
2568.955822
 21
852.874801
  0
LINE
  8
CSLAYER1
  6
CONTINUOUS
 62
     5
 10
2561.191251
 20
1540.190436
 11
2553.426680
 21
1511.212661
  0
LINE
  8
CSLAYER1
  6
CONTINUOUS
 62
     5
 10
2561.191251
 20
1540.190436
 11
2568.955822
 21
1511.212661
  0
ENDBLK
  8
0
  0
BLOCK
  8
CSLAYER1
  2
*D0002
 70
    65
 10
0.0
 20
0.0
 30
0.0
  0
TEXT
  8
CSLAYER1
 62
     3
 10
1333.576294
 20
2027.876953
 40
40.000000
 41
0.843750
  1
250
 50
90.000000
 51
0.000000
  7
EASYDRAW_FONT
 72
     5
 11
1333.576294
 21
2117.876953
  0
LINE
  8
CSLAYER1
  6
CONTINUOUS
 62
     5
 10
1430.819424
 20
1973.429856
 11
1331.828165
 21
1973.429856
  0
LINE
  8
CSLAYER1
  6
CONTINUOUS
 62
     5
 10
1430.819424
 20
2223.429856
 11
1331.828165
 21
2223.429856
  0
LINE
  8
CSLAYER1
  6
CONTINUOUS
 62
     5
 10
1341.828165
 20
1973.429856
 11
1341.828165
 21
2223.429856
  0
LINE
  8
CSLAYER1
  6
CONTINUOUS
 62
     5
 10
1341.828165
 20
1973.429856
 11
1334.063593
 21
2002.407631
  0
LINE
  8
CSLAYER1
  6
CONTINUOUS
 62
     5
 10
1341.828165
 20
1973.429856
 11
1349.592736
 21
2002.407631
  0
LINE
  8
CSLAYER1
  6
CONTINUOUS
 62
     5
 10
1341.828165
 20
2223.429856
 11
1334.063593
 21
2194.452082
  0
LINE
  8
CSLAYER1
  6
CONTINUOUS
 62
     5
 10
1341.828165
 20
2223.429856
 11
1349.592736
 21
2194.452082
  0
ENDBLK
  8
0
  0
BLOCK
  8
CSLAYER1
  2
EASYDRAWDIM0003
 70
   64
 10
0.0
 20
0.0
 30
0.0
  0
TEXT
  8
CSLAYER1
 62
     3
 10
1540.759155
 20
1838.429565
 40
40.000000
 41
0.771429
  1
2-%%c13(アンカー穴)
 50
0.000000
 51
0.000000
  7
EASYDRAW_FONT
 72
     5
 11
1900.759155
 21
1838.429565
  0
LINE
  8
CSLAYER1
  6
CONTINUOUS
 62
     5
 10
1536.417804
 20
1828.429856
 11
1910.759057
 21
1828.429856
  0
ENDBLK
  8
0
  0
BLOCK
  8
CSLAYER1
  2
EASYDRAWDIM0004
 70
   64
 10
0.0
 20
0.0
 30
0.0
  0
TEXT
  8
CSLAYER1
 62
     3
 10
1149.094604
 20
972.224792
 40
40.000000
 41
0.803571
  1
高圧ホース
 50
0.000000
 51
0.000000
  7
EASYDRAW_FONT
 72
     5
 11
1299.094604
 21
972.224792
  0
LINE
  8
CSLAYER1
  6
CONTINUOUS
 62
     5
 10
1365.640031
 20
843.393279
 11
1299.094362
 21
962.224831
  0
LINE
  8
CSLAYER1
  6
CONTINUOUS
 62
     5
 10
1365.640031
 20
843.393279
 11
1344.706757
 21
864.882766
  0
LINE
  8
CSLAYER1
  6
CONTINUOUS
 62
     5
 10
1365.640031
 20
843.393279
 11
1358.256028
 21
872.470358
  0
LINE
  8
CSLAYER1
  6
CONTINUOUS
 62
     5
 10
1299.094362
 20
962.224831
 11
1139.094362
 21
962.224831
  0
ENDBLK
  8
0
  0
BLOCK
  8
CSLAYER1
  2
*D0003
 70
    65
 10
0.0
 20
0.0
 30
0.0
  0
TEXT
  8
CSLAYER1
 62
     3
 10
1064.803467
 20
841.711365
 40
40.000000
 41
1.125000
  1
6
 50
90.000000
 51
0.000000
  7
EASYDRAW_FONT
 72
     5
 11
1064.803467
 21
871.711365
  0
LINE
  8
CSLAYER1
  6
CONTINUOUS
 62
     5
 10
1018.304753
 20
823.897026
 11
1084.803424
 21
823.897026
  0
LINE
  8
CSLAYER1
  6
CONTINUOUS
 62
     5
 10
1018.304753
 20
829.897026
 11
1084.803424
 21
829.897026
  0
LINE
  8
CSLAYER1
  6
CONTINUOUS
 62
     5
 10
1074.803424
 20
823.897026
 11
1074.803424
 21
773.897026
  0
LINE
  8
CSLAYER1
  6
CONTINUOUS
 62
     5
 10
1074.803424
 20
823.897026
 11
1067.038853
 21
794.919251
  0
LINE
  8
CSLAYER1
  6
CONTINUOUS
 62
     5
 10
1074.803424
 20
823.897026
 11
1082.567995
 21
794.919251
  0
LINE
  8
CSLAYER1
  6
CONTINUOUS
 62
     5
 10
1074.803424
 20
829.897026
 11
1074.803424
 21
883.525888
  0
LINE
  8
CSLAYER1
  6
CONTINUOUS
 62
     5
 10
1074.803424
 20
829.897026
 11
1067.038853
 21
858.874801
  0
LINE
  8
CSLAYER1
  6
CONTINUOUS
 62
     5
 10
1074.803424
 20
829.897026
 11
1082.567995
 21
858.874801
  0
LINE
  8
CSLAYER1
  6
CONTINUOUS
 62
     5
 10
1074.803424
 20
823.897026
 11
1074.803424
 21
829.897026
  0
ENDBLK
  8
0
  0
BLOCK
  8
CSLAYER1
  2
EASYDRAWDIM0005
 70
   64
 10
0.0
 20
0.0
 30
0.0
  0
TEXT
  8
CSLAYER1
 62
     3
 10
1382.815063
 20
1996.329567
 40
33.155758
 41
0.767879
  1
穴ヒﾟッチ
 50
90.000000
 51
0.000000
  7
EASYDRAW_FONT
 72
     5
 11
1382.815063
 21
2115.141136
  0
ENDBLK
  8
0
  0
BLOCK
  8
CSLAYER1
  2
*D0004
 70
    65
 10
0.0
 20
0.0
 30
0.0
  0
TEXT
  8
CSLAYER1
 62
     3
 10
2461.523193
 20
2053.429932
 40
40.000000
 41
0.843750
  1
300
 50
90.000000
 51
0.000000
  7
EASYDRAW_FONT
 72
     5
 11
2461.523193
 21
2143.429932
  0
LINE
  8
CSLAYER1
  6
CONTINUOUS
 62
     5
 10
2339.782225
 20
1948.429856
 11
2481.523021
 21
1948.429856
  0
LINE
  8
CSLAYER1
  6
CONTINUOUS
 62
     5
 10
2339.782225
 20
2248.429856
 11
2481.523021
 21
2248.429856
  0
LINE
  8
CSLAYER1
  6
CONTINUOUS
 62
     5
 10
2471.523021
 20
1948.429856
 11
2471.523021
 21
2248.429856
  0
LINE
  8
CSLAYER1
  6
CONTINUOUS
 62
     5
 10
2471.523021
 20
1948.429856
 11
2463.758450
 21
1977.407631
  0
LINE
  8
CSLAYER1
  6
CONTINUOUS
 62
     5
 10
2471.523021
 20
1948.429856
 11
2479.287593
 21
1977.407631
  0
LINE
  8
CSLAYER1
  6
CONTINUOUS
 62
     5
 10
2471.523021
 20
2248.429856
 11
2463.758450
 21
2219.452082
  0
LINE
  8
CSLAYER1
  6
CONTINUOUS
 62
     5
 10
2471.523021
 20
2248.429856
 11
2479.287593
 21
2219.452082
  0
ENDBLK
  8
0
  0
BLOCK
  8
CSLAYER1
  2
*D0005
 70
    65
 10
0.0
 20
0.0
 30
0.0
  0
TEXT
  8
CSLAYER1
 62
     3
 10
1268.073608
 20
1317.794800
 40
40.000000
 41
0.803571
  1
MAX21
 50
0.000000
 51
0.000000
  7
EASYDRAW_FONT
 72
     5
 11
1418.073608
 21
1317.794800
  0
LINE
  8
CSLAYER1
  6
CONTINUOUS
 62
     5
 10
1429.782225
 20
898.897026
 11
1429.782225
 21
1305.571898
  0
LINE
  8
CSLAYER1
  6
CONTINUOUS
 62
     5
 10
1451.191251
 20
1530.190436
 11
1451.191251
 21
1285.571898
  0
LINE
  8
CSLAYER1
  6
CONTINUOUS
 62
     5
 10
1429.782225
 20
1295.571898
 11
1370.818937
 21
1295.571898
  0
LINE
  8
CSLAYER1
  6
CONTINUOUS
 62
     5
 10
1429.782225
 20
1295.571898
 11
1400.804450
 21
1303.336469
  0
LINE
  8
CSLAYER1
  6
CONTINUOUS
 62
     5
 10
1429.782225
 20
1295.571898
 11
1400.804450
 21
1287.807326
  0
LINE
  8
CSLAYER1
  6
CONTINUOUS
 62
     5
 10
1451.191251
 20
1295.571898
 11
1501.191251
 21
1295.571898
  0
LINE
  8
CSLAYER1
  6
CONTINUOUS
 62
     5
 10
1451.191251
 20
1295.571898
 11
1480.169026
 21
1303.336469
  0
LINE
  8
CSLAYER1
  6
CONTINUOUS
 62
     5
 10
1451.191251
 20
1295.571898
 11
1480.169026
 21
1287.807326
  0
LINE
  8
CSLAYER1
  6
CONTINUOUS
 62
     5
 10
1429.782225
 20
1295.571898
 11
1451.191251
 21
1295.571898
  0
ENDBLK
  8
0
  0
BLOCK
  8
CSLAYER1
  2
EASYDRAWDIM0006
 70
   64
 10
0.0
 20
0.0
 30
0.0
  0
TEXT
  8
CSLAYER1
 62
     3
 10
1183.445190
 20
1179.039551
 40
40.000000
 41
0.787500
  1
油圧シリンダー
 50
0.000000
 51
0.000000
  7
EASYDRAW_FONT
 72
     5
 11
1393.445190
 21
1179.039551
  0
LINE
  8
CSLAYER1
  6
CONTINUOUS
 62
     5
 10
1540.351784
 20
1021.826354
 11
1394.409730
 21
1169.039460
  0
LINE
  8
CSLAYER1
  6
CONTINUOUS
 62
     5
 10
1540.351784
 20
1021.826354
 11
1514.436301
 21
1036.938859
  0
LINE
  8
CSLAYER1
  6
CONTINUOUS
 62
     5
 10
1540.351784
 20
1021.826354
 11
1525.464570
 21
1047.871908
  0
LINE
  8
CSLAYER1
  6
CONTINUOUS
 62
     5
 10
1394.409730
 20
1169.039460
 11
1173.444988
 21
1169.039460
  0
ENDBLK
  8
0
  0
BLOCK
  8
CSLAYER1
  2
*D0006
 70
    65
 10
0.0
 20
0.0
 30
0.0
  0
TEXT
  8
CSLAYER1
 62
     3
 10
2641.191162
 20
826.297058
 40
40.000000
 41
0.900000
  1
65
 50
90.000000
 51
0.000000
  7
EASYDRAW_FONT
 72
     5
 11
2641.191162
 21
886.297058
  0
LINE
  8
CSLAYER1
  6
CONTINUOUS
 62
     5
 10
2665.097398
 20
823.897026
 11
2641.191251
 21
823.897026
  0
LINE
  8
CSLAYER1
  6
CONTINUOUS
 62
     5
 10
2715.638551
 20
888.697026
 11
2641.191251
 21
888.697026
  0
LINE
  8
CSLAYER1
  6
CONTINUOUS
 62
     5
 10
2651.191251
 20
823.897026
 11
2651.191251
 21
888.697026
  0
LINE
  8
CSLAYER1
  6
CONTINUOUS
 62
     5
 10
2651.191251
 20
773.897026
 11
2651.191251
 21
823.897026
  0
LINE
  8
CSLAYER1
  6
CONTINUOUS
 62
     5
 10
2651.191251
 20
823.897026
 11
2643.426680
 21
794.919251
  0
LINE
  8
CSLAYER1
  6
CONTINUOUS
 62
     5
 10
2651.191251
 20
823.897026
 11
2658.955822
 21
794.919251
  0
LINE
  8
CSLAYER1
  6
CONTINUOUS
 62
     5
 10
2651.191251
 20
888.697026
 11
2651.191251
 21
938.697026
  0
LINE
  8
CSLAYER1
  6
CONTINUOUS
 62
     5
 10
2651.191251
 20
888.697026
 11
2643.426680
 21
917.674801
  0
LINE
  8
CSLAYER1
  6
CONTINUOUS
 62
     5
 10
2651.191251
 20
888.697026
 11
2658.955822
 21
917.674801
  0
ENDBLK
  8
0
  0
BLOCK
  8
CSLAYER1
  2
*D0007
 70
    65
 10
0.0
 20
0.0
 30
0.0
  0
TEXT
  8
CSLAYER1
 62
     3
 10
813.304932
 20
1650.190430
 40
40.000000
 41
0.843750
  1
300
 50
0.000000
 51
0.000000
  7
EASYDRAW_FONT
 72
     5
 11
903.304932
 21
1650.190430
  0
LINE
  8
CSLAYER1
  6
CONTINUOUS
 62
     5
 10
708.304753
 20
1550.190436
 11
708.304753
 21
1650.190436
  0
LINE
  8
CSLAYER1
  6
CONTINUOUS
 62
     5
 10
1008.304753
 20
1550.190436
 11
1008.304753
 21
1650.190436
  0
LINE
  8
CSLAYER1
  6
CONTINUOUS
 62
     5
 10
708.304753
 20
1640.190436
 11
1008.304753
 21
1640.190436
  0
LINE
  8
CSLAYER1
  6
CONTINUOUS
 62
     5
 10
708.304753
 20
1640.190436
 11
737.282528
 21
1647.955007
  0
LINE
  8
CSLAYER1
  6
CONTINUOUS
 62
     5
 10
708.304753
 20
1640.190436
 11
737.282528
 21
1632.425865
  0
LINE
  8
CSLAYER1
  6
CONTINUOUS
 62
     5
 10
1008.304753
 20
1640.190436
 11
979.326978
 21
1647.955007
  0
LINE
  8
CSLAYER1
  6
CONTINUOUS
 62
     5
 10
1008.304753
 20
1640.190436
 11
979.326978
 21
1632.425865
  0
ENDBLK
  8
0
  0
BLOCK
  8
CSLAYER1
  2
EASYDRAWDIM0007
 70
   64
 10
0.0
 20
0.0
 30
0.0
  0
TEXT
  8
CSLAYER1
 62
     3
 10
1090.391479
 20
714.707886
 40
40.000000
 41
0.803571
  1
2-φ13
 50
0.000000
 51
0.000000
  7
EASYDRAW_FONT
 72
     5
 11
1240.391479
 21
714.707886
  0
ENDBLK
  8
0
  0
BLOCK
  8
CSLAYER1
  2
*D0008
 70
    65
 10
0.0
 20
0.0
 30
0.0
  0
LINE
  8
CSLAYER1
  6
CONTINUOUS
 62
     5
 10
1427.082225
 20
1948.429856
 11
1427.082225
 21
1818.429856
  0
LINE
  8
CSLAYER1
  6
CONTINUOUS
 62
     5
 10
1452.082225
 20
1952.167055
 11
1452.082225
 21
1818.429856
  0
LINE
  8
CSLAYER1
  6
CONTINUOUS
 62
     5
 10
1427.082225
 20
1828.429856
 11
1452.082225
 21
1828.429856
  0
LINE
  8
CSLAYER1
  6
CONTINUOUS
 62
     5
 10
1337.082225
 20
1828.429856
 11
1427.082225
 21
1828.429856
  0
LINE
  8
CSLAYER1
  6
CONTINUOUS
 62
     5
 10
1427.082225
 20
1828.429856
 11
1398.104450
 21
1836.194428
  0
LINE
  8
CSLAYER1
  6
CONTINUOUS
 62
     5
 10
1427.082225
 20
1828.429856
 11
1398.104450
 21
1820.665285
  0
LINE
  8
CSLAYER1
  6
CONTINUOUS
 62
     5
 10
1452.082225
 20
1828.429856
 11
1502.082225
 21
1828.429856
  0
LINE
  8
CSLAYER1
  6
CONTINUOUS
 62
     5
 10
1452.082225
 20
1828.429856
 11
1481.060000
 21
1836.194428
  0
LINE
  8
CSLAYER1
  6
CONTINUOUS
 62
     5
 10
1452.082225
 20
1828.429856
 11
1481.060000
 21
1820.665285
  0
TEXT
  8
CSLAYER1
 62
     3
 10
1337.082275
 20
1838.429810
 40
40.000000
 41
0.900000
  1
25
 50
0.000000
 51
0.000000
  7
EASYDRAW_FONT
 72
     5
 11
1397.082275
 21
1838.429810
  0
ENDBLK
  8
0
  0
BLOCK
  8
CSLAYER1
  2
*D0009
 70
    65
 10
0.0
 20
0.0
 30
0.0
  0
LINE
  8
CSLAYER1
  6
CONTINUOUS
 62
     5
 10
1427.082225
 20
1948.429856
 11
1427.082225
 21
1728.429856
  0
LINE
  8
CSLAYER1
  6
CONTINUOUS
 62
     5
 10
1477.082225
 20
1948.429856
 11
1477.082225
 21
1728.429856
  0
LINE
  8
CSLAYER1
  6
CONTINUOUS
 62
     5
 10
1427.082225
 20
1738.429856
 11
1477.082225
 21
1738.429856
  0
LINE
  8
CSLAYER1
  6
CONTINUOUS
 62
     5
 10
1337.082225
 20
1738.429856
 11
1427.082225
 21
1738.429856
  0
LINE
  8
CSLAYER1
  6
CONTINUOUS
 62
     5
 10
1427.082225
 20
1738.429856
 11
1398.104450
 21
1746.194428
  0
LINE
  8
CSLAYER1
  6
CONTINUOUS
 62
     5
 10
1427.082225
 20
1738.429856
 11
1398.104450
 21
1730.665285
  0
LINE
  8
CSLAYER1
  6
CONTINUOUS
 62
     5
 10
1477.082225
 20
1738.429856
 11
1527.082225
 21
1738.429856
  0
LINE
  8
CSLAYER1
  6
CONTINUOUS
 62
     5
 10
1477.082225
 20
1738.429856
 11
1506.060000
 21
1746.194428
  0
LINE
  8
CSLAYER1
  6
CONTINUOUS
 62
     5
 10
1477.082225
 20
1738.429856
 11
1506.060000
 21
1730.665285
  0
TEXT
  8
CSLAYER1
 62
     3
 10
1337.082275
 20
1748.429932
 40
40.000000
 41
0.900000
  1
50
 50
0.000000
 51
0.000000
  7
EASYDRAW_FONT
 72
     5
 11
1397.082275
 21
1748.429932
  0
ENDBLK
  8
0
  0
BLOCK
  8
CSLAYER1
  2
*D0010
 70
    65
 10
0.0
 20
0.0
 30
0.0
  0
LINE
  8
CSLAYER1
  6
CONTINUOUS
 62
     5
 10
1451.191251
 20
1550.190436
 11
1451.191251
 21
1650.190436
  0
LINE
  8
CSLAYER1
  6
CONTINUOUS
 62
     5
 10
2351.191251
 20
1550.190436
 11
2351.191251
 21
1650.190436
  0
LINE
  8
CSLAYER1
  6
CONTINUOUS
 62
     5
 10
1451.191251
 20
1640.190436
 11
2351.191251
 21
1640.190436
  0
LINE
  8
CSLAYER1
  6
CONTINUOUS
 62
     5
 10
1451.191251
 20
1640.190436
 11
1480.169026
 21
1647.955007
  0
LINE
  8
CSLAYER1
  6
CONTINUOUS
 62
     5
 10
1451.191251
 20
1640.190436
 11
1480.169026
 21
1632.425865
  0
LINE
  8
CSLAYER1
  6
CONTINUOUS
 62
     5
 10
2351.191251
 20
1640.190436
 11
2322.213476
 21
1647.955007
  0
LINE
  8
CSLAYER1
  6
CONTINUOUS
 62
     5
 10
2351.191251
 20
1640.190436
 11
2322.213476
 21
1632.425865
  0
TEXT
  8
CSLAYER1
 62
     3
 10
1856.191284
 20
1650.190552
 40
40.000000
 41
0.843750
  1
900
 50
0.000000
 51
0.000000
  7
EASYDRAW_FONT
 72
     5
 11
1946.191284
 21
1650.190552
  0
ENDBLK
  8
0
  0
BLOCK
  8
CSLAYER1
  2
*D0011
 70
    65
 10
0.0
 20
0.0
 30
0.0
  0
LINE
  8
CSLAYER1
  6
CONTINUOUS
 62
     5
 10
2463.486116
 20
823.897026
 11
2461.191251
 21
823.897026
  0
LINE
  8
CSLAYER1
  6
CONTINUOUS
 62
     5
 10
2339.782225
 20
888.897026
 11
2481.191251
 21
888.897026
  0
LINE
  8
CSLAYER1
  6
CONTINUOUS
 62
     5
 10
2471.191251
 20
823.897026
 11
2471.191251
 21
888.897026
  0
LINE
  8
CSLAYER1
  6
CONTINUOUS
 62
     5
 10
2471.191251
 20
823.897026
 11
2463.426680
 21
852.874801
  0
LINE
  8
CSLAYER1
  6
CONTINUOUS
 62
     5
 10
2471.191251
 20
823.897026
 11
2478.955822
 21
852.874801
  0
LINE
  8
CSLAYER1
  6
CONTINUOUS
 62
     5
 10
2471.191251
 20
888.897026
 11
2463.426680
 21
859.919251
  0
LINE
  8
CSLAYER1
  6
CONTINUOUS
 62
     5
 10
2471.191251
 20
888.897026
 11
2478.955822
 21
859.919251
  0
TEXT
  8
CSLAYER1
 62
     3
 10
2461.191406
 20
826.397034
 40
40.000000
 41
0.900000
  1
65
 50
90.000000
 51
0.000000
  7
EASYDRAW_FONT
 72
     5
 11
2461.191406
 21
886.397034
  0
ENDBLK
  8
0
  0
BLOCK
  8
CSLAYER1
  2
*D0012
 70
    65
 10
0.0
 20
0.0
 30
0.0
  0
LINE
  8
CSLAYER1
  6
CONTINUOUS
 62
     5
 10
1427.082225
 20
813.897026
 11
1427.082225
 21
693.897026
  0
LINE
  8
CSLAYER1
  6
CONTINUOUS
 62
     5
 10
1452.082225
 20
816.966395
 11
1452.082225
 21
693.897026
  0
LINE
  8
CSLAYER1
  6
CONTINUOUS
 62
     5
 10
1427.082225
 20
703.897026
 11
1452.082225
 21
703.897026
  0
LINE
  8
CSLAYER1
  6
CONTINUOUS
 62
     5
 10
1377.082225
 20
703.897026
 11
1427.082225
 21
703.897026
  0
LINE
  8
CSLAYER1
  6
CONTINUOUS
 62
     5
 10
1427.082225
 20
703.897026
 11
1398.104450
 21
711.661597
  0
LINE
  8
CSLAYER1
  6
CONTINUOUS
 62
     5
 10
1427.082225
 20
703.897026
 11
1398.104450
 21
696.132454
  0
LINE
  8
CSLAYER1
  6
CONTINUOUS
 62
     5
 10
1452.082225
 20
703.897026
 11
1542.082225
 21
703.897026
  0
LINE
  8
CSLAYER1
  6
CONTINUOUS
 62
     5
 10
1452.082225
 20
703.897026
 11
1481.060000
 21
711.661597
  0
LINE
  8
CSLAYER1
  6
CONTINUOUS
 62
     5
 10
1452.082225
 20
703.897026
 11
1481.060000
 21
696.132454
  0
TEXT
  8
CSLAYER1
 62
     3
 10
1482.082275
 20
713.897034
 40
40.000000
 41
0.900000
  1
25
 50
0.000000
 51
0.000000
  7
EASYDRAW_FONT
 72
     5
 11
1542.082275
 21
713.897034
  0
ENDBLK
  8
0
  0
BLOCK
  8
CSLAYER1
  2
*D0013
 70
    65
 10
0.0
 20
0.0
 30
0.0
  0
LINE
  8
CSLAYER1
  6
CONTINUOUS
 62
     5
 10
1427.082225
 20
813.897026
 11
1427.082225
 21
603.897026
  0
LINE
  8
CSLAYER1
  6
CONTINUOUS
 62
     5
 10
2330.082225
 20
813.897026
 11
2330.082225
 21
603.897026
  0
LINE
  8
CSLAYER1
  6
CONTINUOUS
 62
     5
 10
1427.082225
 20
613.897026
 11
2330.082225
 21
613.897026
  0
LINE
  8
CSLAYER1
  6
CONTINUOUS
 62
     5
 10
1427.082225
 20
613.897026
 11
1456.060000
 21
621.661597
  0
LINE
  8
CSLAYER1
  6
CONTINUOUS
 62
     5
 10
1427.082225
 20
613.897026
 11
1456.060000
 21
606.132454
  0
LINE
  8
CSLAYER1
  6
CONTINUOUS
 62
     5
 10
2330.082225
 20
613.897026
 11
2301.104450
 21
621.661597
  0
LINE
  8
CSLAYER1
  6
CONTINUOUS
 62
     5
 10
2330.082225
 20
613.897026
 11
2301.104450
 21
606.132454
  0
TEXT
  8
CSLAYER1
 62
     3
 10
1833.582275
 20
623.897034
 40
40.000000
 41
0.843750
  1
903
 50
0.000000
 51
0.000000
  7
EASYDRAW_FONT
 72
     5
 11
1923.582275
 21
623.897034
  0
ENDBLK
  8
0
  0
BLOCK
  8
CSLAYER1
  2
*D0014
 70
    65
 10
0.0
 20
0.0
 30
0.0
  0
LINE
  8
CSLAYER1
  6
CONTINUOUS
 62
     5
 10
708.304753
 20
813.897026
 11
708.304753
 21
603.897026
  0
LINE
  8
CSLAYER1
  6
CONTINUOUS
 62
     5
 10
1008.304753
 20
813.897026
 11
1008.304753
 21
603.897026
  0
LINE
  8
CSLAYER1
  6
CONTINUOUS
 62
     5
 10
708.304753
 20
613.897026
 11
1008.304753
 21
613.897026
  0
LINE
  8
CSLAYER1
  6
CONTINUOUS
 62
     5
 10
708.304753
 20
613.897026
 11
737.282528
 21
621.661597
  0
LINE
  8
CSLAYER1
  6
CONTINUOUS
 62
     5
 10
708.304753
 20
613.897026
 11
737.282528
 21
606.132454
  0
LINE
  8
CSLAYER1
  6
CONTINUOUS
 62
     5
 10
1008.304753
 20
613.897026
 11
979.326978
 21
621.661597
  0
LINE
  8
CSLAYER1
  6
CONTINUOUS
 62
     5
 10
1008.304753
 20
613.897026
 11
979.326978
 21
606.132454
  0
TEXT
  8
CSLAYER1
 62
     3
 10
813.304749
 20
623.896973
 40
40.000000
 41
0.843750
  1
300
 50
0.000000
 51
0.000000
  7
EASYDRAW_FONT
 72
     5
 11
903.304749
 21
623.896973
  0
ENDBLK
  8
0
  0
BLOCK
  8
CSLAYER1
  2
*D0015
 70
    65
 10
0.0
 20
0.0
 30
0.0
  0
LINE
  8
CSLAYER1
  6
CONTINUOUS
 62
     5
 10
733.304753
 20
804.967665
 11
733.304753
 21
693.897026
  0
LINE
  8
CSLAYER1
  6
CONTINUOUS
 62
     5
 10
983.304753
 20
804.967665
 11
983.304753
 21
693.897026
  0
LINE
  8
CSLAYER1
  6
CONTINUOUS
 62
     5
 10
733.304753
 20
703.897026
 11
983.304753
 21
703.897026
  0
LINE
  8
CSLAYER1
  6
CONTINUOUS
 62
     5
 10
733.304753
 20
703.897026
 11
762.282528
 21
711.661597
  0
LINE
  8
CSLAYER1
  6
CONTINUOUS
 62
     5
 10
733.304753
 20
703.897026
 11
762.282528
 21
696.132454
  0
LINE
  8
CSLAYER1
  6
CONTINUOUS
 62
     5
 10
983.304753
 20
703.897026
 11
954.326978
 21
711.661597
  0
LINE
  8
CSLAYER1
  6
CONTINUOUS
 62
     5
 10
983.304753
 20
703.897026
 11
954.326978
 21
696.132454
  0
TEXT
  8
CSLAYER1
 62
     3
 10
813.304749
 20
713.897034
 40
40.000000
 41
0.843750
  1
250
 50
0.000000
 51
0.000000
  7
EASYDRAW_FONT
 72
     5
 11
903.304749
 21
713.897034
  0
ENDBLK
  8
0
  0
BLOCK
  8
CSLAYER1
  2
BLKF0000
 70
   64
 10
0.0
 20
0.0
 30
0.0
  0
ARC
  8
CSLAYER1
  6
CONTINUOUS
 62
     5
 10
2868.537433
 20
133.477673
 40
3.549225
 50
6.429109
 51
73.182034
  0
ARC
  8
CSLAYER1
  6
CONTINUOUS
 62
     5
 10
2865.076463
 20
132.319280
 40
6.907754
 50
310.517970
 51
330.092764
  0
ARC
  8
CSLAYER1
  6
CONTINUOUS
 62
     5
 10
2865.015813
 20
132.684798
 40
7.148321
 50
-32.205059
 51
9.585194
  0
ARC
  8
CSLAYER1
  6
CONTINUOUS
 62
     5
 10
2868.308541
 20
129.923800
 40
4.767514
 50
180.000000
 51
218.514150
  0
ARC
  8
CSLAYER1
  6
CONTINUOUS
 62
     5
 10
2867.021821
 20
129.246659
 40
3.348282
 50
222.781148
 51
319.406906
  0
ARC
  8
CSLAYER1
  6
CONTINUOUS
 62
     5
 10
2870.087462
 20
130.336552
 40
6.559434
 50
94.574282
 51
183.607718
  0
LINE
  8
CSLAYER1
  6
CONTINUOUS
 62
     5
 10
2883.531369
 20
125.219720
 11
2882.674333
 21
122.181137
  0
LINE
  8
CSLAYER1
  6
CONTINUOUS
 62
     5
 10
2885.323354
 20
145.087377
 11
2883.219719
 21
147.814310
  0
LINE
  8
CSLAYER1
  6
CONTINUOUS
 62
     5
 10
2883.219719
 20
147.814310
 11
2876.466365
 21
151.572222
  0
LINE
  8
CSLAYER1
  6
CONTINUOUS
 62
     5
 10
2876.466365
 20
151.572222
 11
2869.564338
 21
152.375093
  0
LINE
  8
CSLAYER1
  6
CONTINUOUS
 62
     5
 10
2851.275112
 20
138.996419
 11
2853.421807
 21
143.960650
  0
LINE
  8
CSLAYER1
  6
CONTINUOUS
 62
     5
 10
2853.384809
 20
143.875093
 11
2855.568501
 21
146.509850
  0
LINE
  8
CSLAYER1
  6
CONTINUOUS
 62
     5
 10
2855.568501
 20
146.509850
 11
2858.872923
 21
148.875093
  0
LINE
  8
CSLAYER1
  6
CONTINUOUS
 62
     5
 10
2869.564338
 20
152.375093
 11
2868.046162
 21
151.608249
  0
LINE
  8
CSLAYER1
  6
CONTINUOUS
 62
     5
 10
2868.046162
 20
151.608249
 11
2864.557784
 21
151.608249
  0
LINE
  8
CSLAYER1
  6
CONTINUOUS
 62
     5
 10
2864.557784
 20
151.608249
 11
2861.002321
 21
149.662807
  0
LINE
  8
CSLAYER1
  6
CONTINUOUS
 62
     5
 10
2861.002321
 20
149.662807
 11
2858.872923
 21
148.875093
  0
LINE
  8
CSLAYER1
  6
CONTINUOUS
 62
     5
 10
2851.275112
 20
138.996419
 11
2849.757565
 21
131.447817
  0
LINE
  8
CSLAYER1
  6
CONTINUOUS
 62
     5
 10
2849.757565
 20
131.447817
 11
2849.564338
 21
128.875093
  0
LINE
  8
CSLAYER1
  6
CONTINUOUS
 62
     5
 10
2852.273720
 20
121.035311
 11
2849.564338
 21
127.131422
  0
LINE
  8
CSLAYER1
  6
CONTINUOUS
 62
     5
 10
2849.564338
 20
127.131422
 11
2849.564338
 21
128.875093
  0
LINE
  8
CSLAYER1
  6
CONTINUOUS
 62
     5
 10
2882.674333
 20
122.181137
 11
2880.988545
 21
119.178130
  0
LINE
  8
CSLAYER1
  6
CONTINUOUS
 62
     5
 10
2880.988545
 20
119.178130
 11
2879.564338
 21
117.859419
  0
ARC
  8
CSLAYER1
  6
CONTINUOUS
 62
     5
 10
2867.372393
 20
129.411854
 40
17.266626
 50
208.054813
 51
260.640470
  0
ARC
  8
CSLAYER1
  6
CONTINUOUS
 62
     5
 10
2862.178998
 20
142.154323
 40
29.874611
 50
274.579659
 51
305.587364
  0
ARC
  8
CSLAYER1
  6
CONTINUOUS
 62
     5
 10
2873.151347
 20
136.170601
 40
15.088627
 50
313.467013
 51
331.085078
  0
LINE
  8
CSLAYER1
  6
CONTINUOUS
 62
     5
 10
2887.942679
 20
132.388514
 11
2888.239973
 21
136.170601
  0
LINE
  8
CSLAYER1
  6
CONTINUOUS
 62
     5
 10
2888.239973
 20
136.170601
 11
2886.947976
 21
142.279584
  0
LINE
  8
CSLAYER1
  6
CONTINUOUS
 62
     5
 10
2887.942679
 20
132.388514
 11
2886.359004
 21
128.875093
  0
ARC
  8
CSLAYER1
  6
CONTINUOUS
 62
     5
 10
2873.151347
 20
136.170601
 40
15.088627
 50
23.883193
 51
36.225170
  0
LINE
  8
CSLAYER1
  6
CONTINUOUS
 62
     5
 10
2833.564338
 20
163.875093
 11
2834.564338
 21
164.967737
  0
LINE
  8
CSLAYER1
  6
CONTINUOUS
 62
     5
 10
2833.564338
 20
163.875093
 11
2835.141295
 21
162.430060
  0
LINE
  8
CSLAYER1
  6
CONTINUOUS
 62
     5
 10
2836.680508
 20
160.320768
 11
2836.706776
 21
158.152649
  0
LINE
  8
CSLAYER1
  6
CONTINUOUS
 62
     5
 10
2836.706776
 20
158.152649
 11
2836.914174
 21
157.392190
  0
LINE
  8
CSLAYER1
  6
CONTINUOUS
 62
     5
 10
2836.914174
 20
157.392190
 11
2837.501802
 21
156.666297
  0
LINE
  8
CSLAYER1
  6
CONTINUOUS
 62
     5
 10
2837.501802
 20
156.666297
 11
2838.089430
 21
156.735430
  0
LINE
  8
CSLAYER1
  6
CONTINUOUS
 62
     5
 10
2838.089430
 20
156.735430
 11
2838.711624
 21
156.908261
  0
LINE
  8
CSLAYER1
  6
CONTINUOUS
 62
     5
 10
2838.711624
 20
156.908261
 11
2839.126420
 21
156.735430
  0
LINE
  8
CSLAYER1
  6
CONTINUOUS
 62
     5
 10
2839.126420
 20
156.735430
 11
2840.025144
 21
156.286068
  0
LINE
  8
CSLAYER1
  6
CONTINUOUS
 62
     5
 10
2840.025144
 20
156.286068
 11
2840.801196
 21
155.875093
  0
LINE
  8
CSLAYER1
  6
CONTINUOUS
 62
     5
 10
2840.801196
 20
155.875093
 11
2841.304099
 21
155.905838
  0
LINE
  8
CSLAYER1
  6
CONTINUOUS
 62
     5
 10
2841.304099
 20
155.905838
 11
2844.111970
 21
157.352317
  0
LINE
  8
CSLAYER1
  6
CONTINUOUS
 62
     5
 10
2834.564338
 20
164.967737
 11
2834.897189
 21
166.441445
  0
LINE
  8
CSLAYER1
  6
CONTINUOUS
 62
     5
 10
2834.897189
 20
166.441445
 11
2836.350595
 21
166.591797
  0
LINE
  8
CSLAYER1
  6
CONTINUOUS
 62
     5
 10
2837.844353
 20
169.360256
 11
2839.598526
 21
169.517346
  0
LINE
  8
CSLAYER1
  6
CONTINUOUS
 62
     5
 10
2839.598526
 20
169.517346
 11
2843.133054
 21
170.355160
  0
LINE
  8
CSLAYER1
  6
CONTINUOUS
 62
     5
 10
2843.133054
 20
170.355160
 11
2844.564338
 21
170.686799
  0
LINE
  8
CSLAYER1
  6
CONTINUOUS
 62
     5
 10
2837.844353
 20
169.360256
 11
2835.911462
 21
169.519123
  0
LINE
  8
CSLAYER1
  6
CONTINUOUS
 62
     5
 10
2835.175339
 20
168.650436
 11
2835.268864
 21
168.279275
  0
LINE
  8
CSLAYER1
  6
CONTINUOUS
 62
     5
 10
2835.268864
 20
168.279275
 11
2835.760458
 21
167.741594
  0
LINE
  8
CSLAYER1
  6
CONTINUOUS
 62
     5
 10
2835.760458
 20
167.741594
 11
2836.436400
 21
167.234638
  0
LINE
  8
CSLAYER1
  6
CONTINUOUS
 62
     5
 10
2836.436400
 20
167.234638
 11
2836.559725
 21
167.070205
  0
LINE
  8
CSLAYER1
  6
CONTINUOUS
 62
     5
 10
2835.141295
 20
162.430060
 11
2836.680508
 21
160.320768
  0
ARC
  8
CSLAYER1
  6
CONTINUOUS
 62
     5
 10
2879.551038
 20
-7.783560
 40
180.727463
 50
80.438896
 51
96.353582
  0
ARC
  8
CSLAYER1
  6
CONTINUOUS
 62
     5
 10
2854.652125
 20
137.464341
 40
34.720242
 50
81.866516
 51
106.890578
  0
LINE
  8
CSLAYER1
  6
CONTINUOUS
 62
     5
 10
2913.758599
 20
169.641763
 11
2916.005682
 21
168.620362
  0
LINE
  8
CSLAYER1
  6
CONTINUOUS
 62
     5
 10
2919.580586
 20
167.037190
 11
2916.005682
 21
168.620362
  0
LINE
  8
CSLAYER1
  6
CONTINUOUS
 62
     5
 10
2913.758599
 20
169.641763
 11
2909.564338
 21
170.434335
  0
LINE
  8
CSLAYER1
  6
CONTINUOUS
 62
     5
 10
2919.564338
 20
167.044386
 11
2921.435913
 21
165.475909
  0
LINE
  8
CSLAYER1
  6
CONTINUOUS
 62
     5
 10
2902.807594
 20
168.081237
 11
2903.706868
 21
169.533911
  0
LINE
  8
CSLAYER1
  6
CONTINUOUS
 62
     5
 10
2903.706868
 20
169.533911
 11
2908.382467
 21
168.414402
  0
LINE
  8
CSLAYER1
  6
CONTINUOUS
 62
     5
 10
2908.382467
 20
168.414402
 11
2925.124853
 21
163.875093
  0
LINE
  8
CSLAYER1
  6
CONTINUOUS
 62
     5
 10
2928.064338
 20
163.875093
 11
2921.435913
 21
165.475909
  0
LINE
  8
CSLAYER1
  6
CONTINUOUS
 62
     5
 10
2925.124853
 20
163.875093
 11
2928.064338
 21
163.875093
  0
LINE
  8
CSLAYER1
  6
CONTINUOUS
 62
     5
 10
2869.564338
 20
168.340034
 11
2889.564338
 21
168.875093
  0
LINE
  8
CSLAYER1
  6
CONTINUOUS
 62
     5
 10
2889.564338
 20
168.875093
 11
2902.807594
 21
168.081237
  0
LINE
  8
CSLAYER1
  6
CONTINUOUS
 62
     5
 10
2904.410575
 20
166.020757
 11
2889.564338
 21
167.375093
  0
LINE
  8
CSLAYER1
  6
CONTINUOUS
 62
     5
 10
2889.564338
 20
167.375093
 11
2874.515128
 21
167.783745
  0
LINE
  8
CSLAYER1
  6
CONTINUOUS
 62
     5
 10
2874.564338
 20
167.782409
 11
2869.564338
 21
167.877703
  0
LINE
  8
CSLAYER1
  6
CONTINUOUS
 62
     5
 10
2869.564338
 20
168.340034
 11
2869.564338
 21
167.877703
  0
LINE
  8
CSLAYER1
  6
CONTINUOUS
 62
     5
 10
2927.064338
 20
160.375093
 11
2918.221779
 21
162.685755
  0
LINE
  8
CSLAYER1
  6
CONTINUOUS
 62
     5
 10
2904.410575
 20
166.020757
 11
2914.564338
 21
164.048373
  0
LINE
  8
CSLAYER1
  6
CONTINUOUS
 62
     5
 10
2914.564338
 20
164.048373
 11
2918.221779
 21
162.685755
  0
LINE
  8
CSLAYER1
  6
CONTINUOUS
 62
     5
 10
2927.064338
 20
160.375093
 11
2926.771720
 21
159.535988
  0
LINE
  8
CSLAYER1
  6
CONTINUOUS
 62
     5
 10
2936.564338
 20
154.875093
 11
2936.258310
 21
156.104074
  0
LINE
  8
CSLAYER1
  6
CONTINUOUS
 62
     5
 10
2926.771720
 20
159.535988
 11
2936.258310
 21
156.104074
  0
LINE
  8
CSLAYER1
  6
CONTINUOUS
 62
     5
 10
2873.064338
 20
160.375093
 11
2875.487376
 21
160.375093
  0
LINE
  8
CSLAYER1
  6
CONTINUOUS
 62
     5
 10
2895.564338
 20
160.807589
 11
2895.564338
 21
160.375093
  0
LINE
  8
CSLAYER1
  6
CONTINUOUS
 62
     5
 10
2894.564338
 20
161.342030
 11
2892.853058
 21
161.979208
  0
LINE
  8
CSLAYER1
  6
CONTINUOUS
 62
     5
 10
2892.853058
 20
161.979208
 11
2891.743002
 21
162.029665
  0
LINE
  8
CSLAYER1
  6
CONTINUOUS
 62
     5
 10
2891.743002
 20
162.029665
 11
2891.263660
 21
161.777380
  0
LINE
  8
CSLAYER1
  6
CONTINUOUS
 62
     5
 10
2891.263660
 20
161.777380
 11
2891.162746
 21
161.373723
  0
LINE
  8
CSLAYER1
  6
CONTINUOUS
 62
     5
 10
2891.162746
 20
161.373723
 11
2891.616860
 21
161.070980
  0
LINE
  8
CSLAYER1
  6
CONTINUOUS
 62
     5
 10
2891.616860
 20
161.070980
 11
2893.256715
 21
160.919609
  0
LINE
  8
CSLAYER1
  6
CONTINUOUS
 62
     5
 10
2893.256715
 20
160.919609
 11
2895.564338
 21
160.807589
  0
LINE
  8
CSLAYER1
  6
CONTINUOUS
 62
     5
 10
2936.564338
 20
154.875093
 11
2933.588795
 21
156.061675
  0
LINE
  8
CSLAYER1
  6
CONTINUOUS
 62
     5
 10
2933.588795
 20
156.061675
 11
2923.533105
 21
157.904550
  0
LINE
  8
CSLAYER1
  6
CONTINUOUS
 62
     5
 10
2923.533105
 20
157.904550
 11
2918.507325
 21
159.064345
  0
LINE
  8
CSLAYER1
  6
CONTINUOUS
 62
     5
 10
2896.098559
 20
161.375093
 11
2907.864225
 21
161.375093
  0
LINE
  8
CSLAYER1
  6
CONTINUOUS
 62
     5
 10
2894.564338
 20
161.342030
 11
2895.088997
 21
161.033562
  0
LINE
  8
CSLAYER1
  6
CONTINUOUS
 62
     5
 10
2895.088997
 20
161.033562
 11
2895.385809
 21
160.944519
  0
LINE
  8
CSLAYER1
  6
CONTINUOUS
 62
     5
 10
2895.385809
 20
160.944519
 11
2895.564338
 21
160.969689
  0
LINE
  8
CSLAYER1
  6
CONTINUOUS
 62
     5
 10
2895.564338
 20
160.969689
 11
2896.098559
 21
161.375093
  0
LINE
  8
CSLAYER1
  6
CONTINUOUS
 62
     5
 10
2907.864225
 20
161.375093
 11
2912.314493
 21
160.346267
  0
LINE
  8
CSLAYER1
  6
CONTINUOUS
 62
     5
 10
2912.314493
 20
160.346267
 11
2916.467685
 21
159.181119
  0
LINE
  8
CSLAYER1
  6
CONTINUOUS
 62
     5
 10
2916.467685
 20
159.181119
 11
2918.507325
 21
159.064345
  0
LINE
  8
CSLAYER1
  6
CONTINUOUS
 62
     5
 10
2872.064338
 20
159.375093
 11
2872.064338
 21
158.875093
  0
LINE
  8
CSLAYER1
  6
CONTINUOUS
 62
     5
 10
2869.564338
 20
158.875093
 11
2872.064338
 21
158.875093
  0
ARC
  8
CSLAYER1
  6
CONTINUOUS
 62
     5
 10
2873.064338
 20
159.375093
 40
1.000000
 50
90.000000
 51
180.000000
  0
LINE
  8
CSLAYER1
  6
CONTINUOUS
 62
     5
 10
2875.487376
 20
160.375093
 11
2876.184932
 21
159.803097
  0
LINE
  8
CSLAYER1
  6
CONTINUOUS
 62
     5
 10
2876.787301
 20
159.779136
 11
2877.644897
 21
160.375093
  0
LINE
  8
CSLAYER1
  6
CONTINUOUS
 62
     5
 10
2879.223293
 20
160.375093
 11
2880.890419
 21
159.717017
  0
LINE
  8
CSLAYER1
  6
CONTINUOUS
 62
     5
 10
2881.314128
 20
159.743529
 11
2882.467615
 21
160.375093
  0
LINE
  8
CSLAYER1
  6
CONTINUOUS
 62
     5
 10
2877.644897
 20
160.375093
 11
2879.223293
 21
160.375093
  0
LINE
  8
CSLAYER1
  6
CONTINUOUS
 62
     5
 10
2882.467615
 20
160.375093
 11
2895.564338
 21
160.375093
  0
LINE
  8
CSLAYER1
  6
CONTINUOUS
 62
     5
 10
2848.113321
 20
157.266267
 11
2869.564338
 21
158.875093
  0
LINE
  8
CSLAYER1
  6
CONTINUOUS
 62
     5
 10
2844.111970
 20
157.352317
 11
2848.113321
 21
157.266267
  0
ARC
  8
CSLAYER1
  6
CONTINUOUS
 62
     5
 10
2876.501972
 20
160.189730
 40
0.500000
 50
230.648247
 51
304.796026
  0
ARC
  8
CSLAYER1
  6
CONTINUOUS
 62
     5
 10
2881.074002
 20
160.182095
 40
0.500000
 50
248.459024
 51
298.701829
  0
ARC
  8
CSLAYER1
  6
CONTINUOUS
 62
     5
 10
2836.319725
 20
166.890205
 40
0.300000
 50
-84.093859
 51
36.869898
  0
ARC
  8
CSLAYER1
  6
CONTINUOUS
 62
     5
 10
2835.854121
 20
168.821476
 40
0.700000
 50
85.301319
 51
194.142980
  0
LINE
  8
CSLAYER1
  6
CONTINUOUS
 62
     3
 10
2868.046162
 20
151.608249
 11
2876.156658
 21
151.608249
  0
LINE
  8
CSLAYER1
  6
CONTINUOUS
 62
     3
 10
2861.633646
 20
150.008249
 11
2879.276986
 21
150.008249
  0
LINE
  8
CSLAYER1
  6
CONTINUOUS
 62
     3
 10
2858.220707
 20
148.408249
 11
2882.152351
 21
148.408249
  0
LINE
  8
CSLAYER1
  6
CONTINUOUS
 62
     3
 10
2855.985387
 20
146.808249
 11
2883.995824
 21
146.808249
  0
LINE
  8
CSLAYER1
  6
CONTINUOUS
 62
     3
 10
2854.489731
 20
145.208249
 11
2885.230110
 21
145.208249
  0
LINE
  8
CSLAYER1
  6
CONTINUOUS
 62
     3
 10
2853.269417
 20
143.608249
 11
2886.279486
 21
143.608249
  0
LINE
  8
CSLAYER1
  6
CONTINUOUS
 62
     3
 10
2852.577525
 20
142.008249
 11
2887.005361
 21
142.008249
  0
LINE
  8
CSLAYER1
  6
CONTINUOUS
 62
     3
 10
2851.885633
 20
140.408249
 11
2887.343747
 21
140.408249
  0
LINE
  8
CSLAYER1
  6
CONTINUOUS
 62
     3
 10
2851.237283
 20
138.808249
 11
2887.682133
 21
138.808249
  0
LINE
  8
CSLAYER1
  6
CONTINUOUS
 62
     3
 10
2850.915624
 20
137.208249
 11
2888.020520
 21
137.208249
  0
LINE
  8
CSLAYER1
  6
CONTINUOUS
 62
     3
 10
2850.593965
 20
135.608249
 11
2866.184208
 21
135.608249
  0
LINE
  8
CSLAYER1
  6
CONTINUOUS
 62
     3
 10
2850.272306
 20
134.008249
 11
2864.651947
 21
134.008249
  0
LINE
  8
CSLAYER1
  6
CONTINUOUS
 62
     3
 10
2849.950647
 20
132.408249
 11
2863.863778
 21
132.408249
  0
LINE
  8
CSLAYER1
  6
CONTINUOUS
 62
     3
 10
2849.709530
 20
130.808249
 11
2863.545010
 21
130.808249
  0
LINE
  8
CSLAYER1
  6
CONTINUOUS
 62
     3
 10
2849.589360
 20
129.208249
 11
2863.595031
 21
129.208249
  0
LINE
  8
CSLAYER1
  6
CONTINUOUS
 62
     3
 10
2849.564338
 20
127.608249
 11
2864.141118
 21
127.608249
  0
LINE
  8
CSLAYER1
  6
CONTINUOUS
 62
     3
 10
2850.063526
 20
126.008249
 11
2866.171121
 21
126.008249
  0
LINE
  8
CSLAYER1
  6
CONTINUOUS
 62
     3
 10
2850.774637
 20
124.408249
 11
2883.302492
 21
124.408249
  0
LINE
  8
CSLAYER1
  6
CONTINUOUS
 62
     3
 10
2851.485748
 20
122.808249
 11
2882.851210
 21
122.808249
  0
LINE
  8
CSLAYER1
  6
CONTINUOUS
 62
     3
 10
2852.196859
 20
121.208249
 11
2882.128186
 21
121.208249
  0
LINE
  8
CSLAYER1
  6
CONTINUOUS
 62
     3
 10
2853.158818
 20
119.608249
 11
2881.229999
 21
119.608249
  0
LINE
  8
CSLAYER1
  6
CONTINUOUS
 62
     3
 10
2854.407279
 20
118.008249
 11
2879.725073
 21
118.008249
  0
LINE
  8
CSLAYER1
  6
CONTINUOUS
 62
     3
 10
2856.012699
 20
116.408249
 11
2877.332613
 21
116.408249
  0
LINE
  8
CSLAYER1
  6
CONTINUOUS
 62
     3
 10
2858.159841
 20
114.808249
 11
2874.207489
 21
114.808249
  0
LINE
  8
CSLAYER1
  6
CONTINUOUS
 62
     3
 10
2861.407531
 20
113.208249
 11
2869.569340
 21
113.208249
  0
LINE
  8
CSLAYER1
  6
CONTINUOUS
 62
     3
 10
2871.376032
 20
135.608249
 11
2888.195769
 21
135.608249
  0
LINE
  8
CSLAYER1
  6
CONTINUOUS
 62
     3
 10
2872.046776
 20
134.008249
 11
2888.070000
 21
134.008249
  0
LINE
  8
CSLAYER1
  6
CONTINUOUS
 62
     3
 10
2872.158783
 20
132.408249
 11
2887.944230
 21
132.408249
  0
LINE
  8
CSLAYER1
  6
CONTINUOUS
 62
     3
 10
2871.913426
 20
130.808249
 11
2887.230374
 21
130.808249
  0
LINE
  8
CSLAYER1
  6
CONTINUOUS
 62
     3
 10
2871.261780
 20
129.208249
 11
2886.509174
 21
129.208249
  0
LINE
  8
CSLAYER1
  6
CONTINUOUS
 62
     3
 10
2870.128517
 20
127.608249
 11
2885.575226
 21
127.608249
  0
LINE
  8
CSLAYER1
  6
CONTINUOUS
 62
     3
 10
2867.872521
 20
126.008249
 11
2884.304519
 21
126.008249
  0
TEXT
  8
CSLAYER1
 62
     5
 10
2888.736113
 20
133.619426
 40
4.713448
 41
1.951056
  1
M
 50
0.000000
 51
0.000000
  7
EASYDRAW_FONT
 72
     5
 11
2894.866915
 21
133.619426
  0
TEXT
  8
CSLAYER1
 62
     5
 10
2898.387500
 20
133.561156
 40
4.626621
 41
0.778201
  1
T
 50
0.000000
 51
0.000000
  7
EASYDRAW_FONT
 72
     5
 11
2900.787793
 21
133.561156
  0
TEXT
  8
CSLAYER1
 62
     5
 10
2901.153063
 20
133.595955
 40
4.696183
 41
1.055553
  1
E
 50
0.000000
 51
0.000000
  7
EASYDRAW_FONT
 72
     5
 11
2904.457777
 21
133.595955
  0
TEXT
  8
CSLAYER1
 62
     5
 10
2904.269243
 20
135.211799
 40
0.348283
 41
9.375319
  1
-
 50
0.000000
 51
0.000000
  7
EASYDRAW_FONT
 72
     5
 11
2906.446089
 21
135.211799
  0
TEXT
  8
CSLAYER1
 62
     5
 10
2906.083453
 20
133.564608
 40
4.861659
 41
1.298502
  1
H
 50
0.000000
 51
0.000000
  7
EASYDRAW_FONT
 72
     5
 11
2910.292035
 21
133.564608
  0
TEXT
  8
CSLAYER1
 62
     5
 10
2910.159468
 20
133.594986
 40
4.843139
 41
1.269236
  1
A
 50
0.000000
 51
0.000000
  7
EASYDRAW_FONT
 72
     5
 11
2914.257524
 21
133.594986
  0
TEXT
  8
CSLAYER1
 62
     5
 10
2913.865624
 20
133.553460
 40
4.825362
 41
1.490144
  1
N
 50
0.000000
 51
0.000000
  7
EASYDRAW_FONT
 72
     5
 11
2918.659278
 21
133.553460
  0
TEXT
  8
CSLAYER1
 62
     5
 10
2894.657082
 20
133.530887
 40
4.982325
 41
1.177443
  1
A
 50
0.000000
 51
0.000000
  7
EASYDRAW_FONT
 72
     5
 11
2898.568016
 21
133.530887
  0
TEXT
  8
CSLAYER1
 62
     5
 10
2889.103127
 20
126.535647
 40
4.982325
 41
1.177443
  1
A
 50
0.000000
 51
0.000000
  7
EASYDRAW_FONT
 72
     5
 11
2893.014061
 21
126.535647
  0
TEXT
  8
CSLAYER1
 62
     5
 10
2901.887550
 20
126.563968
 40
4.982325
 41
1.177443
  1
A
 50
0.000000
 51
0.000000
  7
EASYDRAW_FONT
 72
     5
 11
2905.798485
 21
126.563968
  0
TEXT
  8
CSLAYER1
 62
     5
 10
2905.648095
 20
126.620965
 40
4.825362
 41
1.490144
  1
N
 50
0.000000
 51
0.000000
  7
EASYDRAW_FONT
 72
     5
 11
2910.441749
 21
126.620965
  0
TEXT
  8
CSLAYER1
 62
     5
 10
2914.550431
 20
126.629359
 40
4.841775
 41
1.184218
  1
E
 50
0.000000
 51
0.000000
  7
EASYDRAW_FONT
 72
     5
 11
2918.372909
 21
126.629359
  0
TEXT
  8
CSLAYER1
 62
     5
 10
2893.383680
 20
126.534323
 40
4.947865
 41
1.093992
  1
D
 50
0.000000
 51
0.000000
  7
EASYDRAW_FONT
 72
     5
 11
2896.992296
 21
126.534323
  0
TEXT
  8
CSLAYER1
 62
     5
 10
2897.786038
 20
126.528938
 40
4.924210
 41
1.228195
  1
V
 50
0.000000
 51
0.000000
  7
EASYDRAW_FONT
 72
     5
 11
2901.817966
 21
126.528938
  0
TEXT
  8
CSLAYER1
 62
     5
 10
2910.011240
 20
126.549670
 40
5.032894
 41
1.481023
  1
C
 50
0.000000
 51
0.000000
  7
EASYDRAW_FONT
 72
     5
 11
2914.980460
 21
126.549670
  0
LINE
  8
CSLAYER1
  6
CONTINUOUS
 62
     5
 10
2900.641674
 20
137.610065
 11
2899.629613
 21
137.610065
  0
LINE
  8
CSLAYER1
  6
CONTINUOUS
 62
     3
 10
2849.739913
 20
171.835336
 11
2899.537739
 21
171.835336
  0
LINE
  8
CSLAYER1
  6
CONTINUOUS
 62
     3
 10
2842.627549
 20
170.235336
 11
2910.617430
 21
170.235336
  0
LINE
  8
CSLAYER1
  6
CONTINUOUS
 62
     3
 10
2835.179144
 20
168.635336
 11
2880.602454
 21
168.635336
  0
LINE
  8
CSLAYER1
  6
CONTINUOUS
 62
     3
 10
2893.564004
 20
168.635336
 11
2903.150608
 21
168.635336
  0
LINE
  8
CSLAYER1
  6
CONTINUOUS
 62
     3
 10
2907.459741
 20
168.635336
 11
2915.972738
 21
168.635336
  0
LINE
  8
CSLAYER1
  6
CONTINUOUS
 62
     3
 10
2836.582283
 20
167.035336
 11
2893.288752
 21
167.035336
  0
LINE
  8
CSLAYER1
  6
CONTINUOUS
 62
     3
 10
2913.468891
 20
167.035336
 11
2919.575136
 21
167.035336
  0
LINE
  8
CSLAYER1
  6
CONTINUOUS
 62
     3
 10
2834.669950
 20
165.435336
 11
2907.424300
 21
165.435336
  0
LINE
  8
CSLAYER1
  6
CONTINUOUS
 62
     3
 10
2919.370189
 20
165.435336
 11
2921.603911
 21
165.435336
  0
LINE
  8
CSLAYER1
  6
CONTINUOUS
 62
     3
 10
2833.607724
 20
163.835336
 11
2915.136157
 21
163.835336
  0
LINE
  8
CSLAYER1
  6
CONTINUOUS
 62
     3
 10
2835.283391
 20
162.235336
 11
2919.945465
 21
162.235336
  0
LINE
  8
CSLAYER1
  6
CONTINUOUS
 62
     3
 10
2836.450959
 20
160.635336
 11
2895.564338
 21
160.635336
  0
LINE
  8
CSLAYER1
  6
CONTINUOUS
 62
     3
 10
2911.064103
 20
160.635336
 11
2926.068426
 21
160.635336
  0
LINE
  8
CSLAYER1
  6
CONTINUOUS
 62
     3
 10
2836.696082
 20
159.035336
 11
2872.064338
 21
159.035336
  0
LINE
  8
CSLAYER1
  6
CONTINUOUS
 62
     3
 10
2918.633031
 20
159.035336
 11
2928.155634
 21
159.035336
  0
LINE
  8
CSLAYER1
  6
CONTINUOUS
 62
     3
 10
2836.902407
 20
157.435336
 11
2850.367581
 21
157.435336
  0
LINE
  8
CSLAYER1
  6
CONTINUOUS
 62
     3
 10
2926.093380
 20
157.435336
 11
2932.578399
 21
157.435336
  0
LINE
  8
CSLAYER1
  6
CONTINUOUS
 62
     3
 10
2934.156374
 20
155.835336
 11
2936.325228
 21
155.835336
  0
ENDBLK
  8
0
  0
BLOCK
  8
CSLAYER1
  2
BLKF0001
 70
   64
 10
0.0
 20
0.0
 30
0.0
  0
LINE
  8
CSLAYER1
  6
CONTINUOUS
 62
     5
 10
3503.253043
 20
1724.596569
 11
2623.253043
 21
1724.596569
  0
TEXT
  8
CSLAYER1
 62
     3
 10
3100.636230
 20
1730.246704
 40
40.000000
 41
0.832500
  1
１０Ｒ４／１３
 50
0.000000
 51
0.000000
  7
EASYDRAW_FONT
 72
     5
 11
3322.636230
 21
1730.246704
  0
ENDBLK
  8
0
  0
BLOCK
  8
CSLAYER1
  2
BLKF0002
 70
   64
 10
0.0
 20
0.0
 30
0.0
  0
LINE
  8
CSLAYER1
  6
CONTINUOUS
 62
     7
 10
819.960379
 20
2054.239838
 11
833.467405
 21
2061.338941
  0
LINE
  8
CSLAYER1
  6
CONTINUOUS
 62
     7
 10
833.467405
 20
2061.338941
 11
848.001752
 21
2067.735808
  0
LINE
  8
CSLAYER1
  6
CONTINUOUS
 62
     7
 10
848.001752
 20
2067.735808
 11
863.452803
 21
2073.381753
  0
LINE
  8
CSLAYER1
  6
CONTINUOUS
 62
     7
 10
863.452803
 20
2073.381753
 11
879.702968
 21
2078.233809
  0
LINE
  8
CSLAYER1
  6
CONTINUOUS
 62
     7
 10
879.702968
 20
2078.233809
 11
896.628573
 21
2082.255047
  0
LINE
  8
CSLAYER1
  6
CONTINUOUS
 62
     7
 10
896.628573
 20
2082.255047
 11
914.100804
 21
2085.414864
  0
LINE
  8
CSLAYER1
  6
CONTINUOUS
 62
     7
 10
914.100804
 20
2085.414864
 11
931.986686
 21
2087.689212
  0
LINE
  8
CSLAYER1
  6
CONTINUOUS
 62
     7
 10
931.986686
 20
2087.689212
 11
950.150097
 21
2089.060782
  0
LINE
  8
CSLAYER1
  6
CONTINUOUS
 62
     7
 10
950.150097
 20
2089.060782
 11
968.452803
 21
2089.519134
  0
LINE
  8
CSLAYER1
  6
CONTINUOUS
 62
     7
 10
968.452803
 20
2089.519134
 11
986.755509
 21
2089.060782
  0
LINE
  8
CSLAYER1
  6
CONTINUOUS
 62
     7
 10
986.755509
 20
2089.060782
 11
1004.918921
 21
2087.689212
  0
LINE
  8
CSLAYER1
  6
CONTINUOUS
 62
     7
 10
1004.918921
 20
2087.689212
 11
1022.804803
 21
2085.414864
  0
LINE
  8
CSLAYER1
  6
CONTINUOUS
 62
     7
 10
1022.804803
 20
2085.414864
 11
1040.277033
 21
2082.255047
  0
LINE
  8
CSLAYER1
  6
CONTINUOUS
 62
     7
 10
1040.277033
 20
2082.255047
 11
1055.973863
 21
2078.525745
  0
LINE
  8
CSLAYER1
  6
CONTINUOUS
 62
     7
 10
811.050834
 20
2059.350143
 11
825.368281
 21
2066.875193
  0
LINE
  8
CSLAYER1
  6
CONTINUOUS
 62
     7
 10
825.368281
 20
2066.875193
 11
840.774688
 21
2073.655871
  0
LINE
  8
CSLAYER1
  6
CONTINUOUS
 62
     7
 10
840.774688
 20
2073.655871
 11
857.152803
 21
2079.640573
  0
LINE
  8
CSLAYER1
  6
CONTINUOUS
 62
     7
 10
857.152803
 20
2079.640573
 11
874.377978
 21
2084.783752
  0
LINE
  8
CSLAYER1
  6
CONTINUOUS
 62
     7
 10
874.377978
 20
2084.783752
 11
892.319119
 21
2089.046265
  0
LINE
  8
CSLAYER1
  6
CONTINUOUS
 62
     7
 10
892.319119
 20
2089.046265
 11
910.839684
 21
2092.395671
  0
LINE
  8
CSLAYER1
  6
CONTINUOUS
 62
     7
 10
910.839684
 20
2092.395671
 11
929.798719
 21
2094.806480
  0
LINE
  8
CSLAYER1
  6
CONTINUOUS
 62
     7
 10
929.798719
 20
2094.806480
 11
949.051935
 21
2096.260344
  0
LINE
  8
CSLAYER1
  6
CONTINUOUS
 62
     7
 10
949.051935
 20
2096.260344
 11
968.452803
 21
2096.746197
  0
LINE
  8
CSLAYER1
  6
CONTINUOUS
 62
     7
 10
968.452803
 20
2096.746197
 11
987.853672
 21
2096.260344
  0
LINE
  8
CSLAYER1
  6
CONTINUOUS
 62
     7
 10
987.853672
 20
2096.260344
 11
1007.106888
 21
2094.806480
  0
LINE
  8
CSLAYER1
  6
CONTINUOUS
 62
     7
 10
1007.106888
 20
2094.806480
 11
1026.065923
 21
2092.395671
  0
LINE
  8
CSLAYER1
  6
CONTINUOUS
 62
     7
 10
1026.065923
 20
2092.395671
 11
1044.586487
 21
2089.046265
  0
LINE
  8
CSLAYER1
  6
CONTINUOUS
 62
     7
 10
1044.586487
 20
2089.046265
 11
1055.973863
 21
2086.340816
  0
LINE
  8
CSLAYER1
  6
CONTINUOUS
 62
     7
 10
794.497084
 20
2038.315244
 11
820.094951
 21
2054.310567
  0
LINE
  8
CSLAYER1
  6
CONTINUOUS
 62
     7
 10
794.497084
 20
2048.992050
 11
811.193480
 21
2059.425116
  0
ENDBLK
  8
0
  0
BLOCK
  8
CSLAYER1
  2
BLKF0003
 70
   64
 10
0.0
 20
0.0
 30
0.0
  0
LINE
  8
CSLAYER1
  6
CONTINUOUS
 62
     7
 10
662.926471
 20
2053.280952
 11
663.154151
 21
2053.431840
  0
LINE
  8
CSLAYER1
  6
CONTINUOUS
 62
     7
 10
663.154151
 20
2053.431840
 11
663.363264
 21
2053.610736
  0
LINE
  8
CSLAYER1
  6
CONTINUOUS
 62
     7
 10
663.363264
 20
2053.610736
 11
663.552220
 21
2053.816278
  0
LINE
  8
CSLAYER1
  6
CONTINUOUS
 62
     7
 10
663.552220
 20
2053.816278
 11
663.719581
 21
2054.046901
  0
LINE
  8
CSLAYER1
  6
CONTINUOUS
 62
     7
 10
663.719581
 20
2054.046901
 11
663.864072
 21
2054.300851
  0
LINE
  8
CSLAYER1
  6
CONTINUOUS
 62
     7
 10
663.864072
 20
2054.300851
 11
663.984594
 21
2054.576195
  0
LINE
  8
CSLAYER1
  6
CONTINUOUS
 62
     7
 10
663.984594
 20
2054.576195
 11
664.080231
 21
2054.870837
  0
LINE
  8
CSLAYER1
  6
CONTINUOUS
 62
     7
 10
664.080231
 20
2054.870837
 11
664.150253
 21
2055.182535
  0
LINE
  8
CSLAYER1
  6
CONTINUOUS
 62
     7
 10
664.150253
 20
2055.182535
 11
664.194128
 21
2055.508917
  0
LINE
  8
CSLAYER1
  6
CONTINUOUS
 62
     7
 10
664.194128
 20
2055.508917
 11
664.211523
 21
2055.847499
  0
LINE
  8
CSLAYER1
  6
CONTINUOUS
 62
     7
 10
664.211523
 20
2055.847499
 11
664.202304
 21
2056.195703
  0
LINE
  8
CSLAYER1
  6
CONTINUOUS
 62
     7
 10
664.202304
 20
2056.195703
 11
664.166543
 21
2056.550881
  0
LINE
  8
CSLAYER1
  6
CONTINUOUS
 62
     7
 10
664.166543
 20
2056.550881
 11
664.104510
 21
2056.910328
  0
LINE
  8
CSLAYER1
  6
CONTINUOUS
 62
     7
 10
664.104510
 20
2056.910328
 11
664.016679
 21
2057.271310
  0
LINE
  8
CSLAYER1
  6
CONTINUOUS
 62
     7
 10
664.016679
 20
2057.271310
 11
663.903717
 21
2057.631078
  0
LINE
  8
CSLAYER1
  6
CONTINUOUS
 62
     7
 10
663.903717
 20
2057.631078
 11
663.766485
 21
2057.986895
  0
LINE
  8
CSLAYER1
  6
CONTINUOUS
 62
     7
 10
663.766485
 20
2057.986895
 11
663.606027
 21
2058.336053
  0
LINE
  8
CSLAYER1
  6
CONTINUOUS
 62
     7
 10
663.606027
 20
2058.336053
 11
663.423563
 21
2058.675895
  0
LINE
  8
CSLAYER1
  6
CONTINUOUS
 62
     7
 10
663.423563
 20
2058.675895
 11
663.220484
 21
2059.003833
  0
LINE
  8
CSLAYER1
  6
CONTINUOUS
 62
     7
 10
663.220484
 20
2059.003833
 11
662.998333
 21
2059.317373
  0
LINE
  8
CSLAYER1
  6
CONTINUOUS
 62
     7
 10
662.998333
 20
2059.317373
 11
662.758803
 21
2059.614128
  0
LINE
  8
CSLAYER1
  6
CONTINUOUS
 62
     7
 10
662.758803
 20
2059.614128
 11
662.503715
 21
2059.891840
  0
LINE
  8
CSLAYER1
  6
CONTINUOUS
 62
     7
 10
662.503715
 20
2059.891840
 11
662.235011
 21
2060.148395
  0
LINE
  8
CSLAYER1
  6
CONTINUOUS
 62
     7
 10
662.235011
 20
2060.148395
 11
661.954737
 21
2060.381840
  0
LINE
  8
CSLAYER1
  6
CONTINUOUS
 62
     7
 10
661.954737
 20
2060.381840
 11
661.665025
 21
2060.590400
  0
LINE
  8
CSLAYER1
  6
CONTINUOUS
 62
     7
 10
661.665025
 20
2060.590400
 11
661.368081
 21
2060.772486
  0
LINE
  8
CSLAYER1
  6
CONTINUOUS
 62
     7
 10
661.368081
 20
2060.772486
 11
661.066163
 21
2060.926712
  0
LINE
  8
CSLAYER1
  6
CONTINUOUS
 62
     7
 10
661.066163
 20
2060.926712
 11
660.761570
 21
2061.051906
  0
LINE
  8
CSLAYER1
  6
CONTINUOUS
 62
     7
 10
660.761570
 20
2061.051906
 11
660.456621
 21
2061.147114
  0
LINE
  8
CSLAYER1
  6
CONTINUOUS
 62
     7
 10
660.456621
 20
2061.147114
 11
660.153635
 21
2061.211612
  0
LINE
  8
CSLAYER1
  6
CONTINUOUS
 62
     7
 10
660.153635
 20
2061.211612
 11
659.854919
 21
2061.244908
  0
LINE
  8
CSLAYER1
  6
CONTINUOUS
 62
     7
 10
659.854919
 20
2061.244908
 11
659.562746
 21
2061.246750
  0
LINE
  8
CSLAYER1
  6
CONTINUOUS
 62
     7
 10
659.562746
 20
2061.246750
 11
659.279340
 21
2061.217123
  0
LINE
  8
CSLAYER1
  6
CONTINUOUS
 62
     7
 10
659.279340
 20
2061.217123
 11
659.006858
 21
2061.156253
  0
LINE
  8
CSLAYER1
  6
CONTINUOUS
 62
     7
 10
659.006858
 20
2061.156253
 11
658.747373
 21
2061.064604
  0
LINE
  8
CSLAYER1
  6
CONTINUOUS
 62
     7
 10
658.747373
 20
2061.064604
 11
658.502860
 21
2060.942871
  0
ENDBLK
  8
0
  0
BLOCK
  8
CSLAYER1
  2
BLKF0004
 70
   64
 10
0.0
 20
0.0
 30
0.0
  0
LINE
  8
CSLAYER1
  6
CONTINUOUS
 62
     7
 10
655.555968
 20
2059.241483
 11
655.328289
 21
2059.090595
  0
LINE
  8
CSLAYER1
  6
CONTINUOUS
 62
     7
 10
655.328289
 20
2059.090595
 11
655.119175
 21
2058.911699
  0
LINE
  8
CSLAYER1
  6
CONTINUOUS
 62
     7
 10
655.119175
 20
2058.911699
 11
654.930219
 21
2058.706157
  0
LINE
  8
CSLAYER1
  6
CONTINUOUS
 62
     7
 10
654.930219
 20
2058.706157
 11
654.762859
 21
2058.475534
  0
LINE
  8
CSLAYER1
  6
CONTINUOUS
 62
     7
 10
654.762859
 20
2058.475534
 11
654.618368
 21
2058.221584
  0
LINE
  8
CSLAYER1
  6
CONTINUOUS
 62
     7
 10
654.618368
 20
2058.221584
 11
654.497845
 21
2057.946240
  0
LINE
  8
CSLAYER1
  6
CONTINUOUS
 62
     7
 10
654.497845
 20
2057.946240
 11
654.402209
 21
2057.651598
  0
LINE
  8
CSLAYER1
  6
CONTINUOUS
 62
     7
 10
654.402209
 20
2057.651598
 11
654.332187
 21
2057.339900
  0
LINE
  8
CSLAYER1
  6
CONTINUOUS
 62
     7
 10
654.332187
 20
2057.339900
 11
654.288311
 21
2057.013518
  0
LINE
  8
CSLAYER1
  6
CONTINUOUS
 62
     7
 10
654.288311
 20
2057.013518
 11
654.270917
 21
2056.674936
  0
LINE
  8
CSLAYER1
  6
CONTINUOUS
 62
     7
 10
654.270917
 20
2056.674936
 11
654.280135
 21
2056.326732
  0
LINE
  8
CSLAYER1
  6
CONTINUOUS
 62
     7
 10
654.280135
 20
2056.326732
 11
654.315897
 21
2055.971554
  0
LINE
  8
CSLAYER1
  6
CONTINUOUS
 62
     7
 10
654.315897
 20
2055.971554
 11
654.377930
 21
2055.612107
  0
LINE
  8
CSLAYER1
  6
CONTINUOUS
 62
     7
 10
654.377930
 20
2055.612107
 11
654.465761
 21
2055.251125
  0
LINE
  8
CSLAYER1
  6
CONTINUOUS
 62
     7
 10
654.465761
 20
2055.251125
 11
654.578722
 21
2054.891357
  0
LINE
  8
CSLAYER1
  6
CONTINUOUS
 62
     7
 10
654.578722
 20
2054.891357
 11
654.715955
 21
2054.535540
  0
LINE
  8
CSLAYER1
  6
CONTINUOUS
 62
     7
 10
654.715955
 20
2054.535540
 11
654.876413
 21
2054.186382
  0
LINE
  8
CSLAYER1
  6
CONTINUOUS
 62
     7
 10
654.876413
 20
2054.186382
 11
655.058876
 21
2053.846540
  0
LINE
  8
CSLAYER1
  6
CONTINUOUS
 62
     7
 10
655.058876
 20
2053.846540
 11
655.261956
 21
2053.518602
  0
LINE
  8
CSLAYER1
  6
CONTINUOUS
 62
     7
 10
655.261956
 20
2053.518602
 11
655.484107
 21
2053.205062
  0
LINE
  8
CSLAYER1
  6
CONTINUOUS
 62
     7
 10
655.484107
 20
2053.205062
 11
655.723637
 21
2052.908306
  0
LINE
  8
CSLAYER1
  6
CONTINUOUS
 62
     7
 10
655.723637
 20
2052.908306
 11
655.978725
 21
2052.630595
  0
LINE
  8
CSLAYER1
  6
CONTINUOUS
 62
     7
 10
655.978725
 20
2052.630595
 11
656.247428
 21
2052.374040
  0
LINE
  8
CSLAYER1
  6
CONTINUOUS
 62
     7
 10
656.247428
 20
2052.374040
 11
656.527703
 21
2052.140594
  0
LINE
  8
CSLAYER1
  6
CONTINUOUS
 62
     7
 10
656.527703
 20
2052.140594
 11
656.817414
 21
2051.932035
  0
LINE
  8
CSLAYER1
  6
CONTINUOUS
 62
     7
 10
656.817414
 20
2051.932035
 11
657.114359
 21
2051.749949
  0
LINE
  8
CSLAYER1
  6
CONTINUOUS
 62
     7
 10
657.114359
 20
2051.749949
 11
657.416277
 21
2051.595723
  0
LINE
  8
CSLAYER1
  6
CONTINUOUS
 62
     7
 10
657.416277
 20
2051.595723
 11
657.720869
 21
2051.470529
  0
LINE
  8
CSLAYER1
  6
CONTINUOUS
 62
     7
 10
657.720869
 20
2051.470529
 11
658.025819
 21
2051.375321
  0
LINE
  8
CSLAYER1
  6
CONTINUOUS
 62
     7
 10
658.025819
 20
2051.375321
 11
658.328805
 21
2051.310823
  0
LINE
  8
CSLAYER1
  6
CONTINUOUS
 62
     7
 10
658.328805
 20
2051.310823
 11
658.627521
 21
2051.277527
  0
LINE
  8
CSLAYER1
  6
CONTINUOUS
 62
     7
 10
658.627521
 20
2051.277527
 11
658.919694
 21
2051.275685
  0
LINE
  8
CSLAYER1
  6
CONTINUOUS
 62
     7
 10
658.919694
 20
2051.275685
 11
659.203100
 21
2051.305312
  0
LINE
  8
CSLAYER1
  6
CONTINUOUS
 62
     7
 10
659.203100
 20
2051.305312
 11
659.475582
 21
2051.366182
  0
LINE
  8
CSLAYER1
  6
CONTINUOUS
 62
     7
 10
659.475582
 20
2051.366182
 11
659.735067
 21
2051.457831
  0
LINE
  8
CSLAYER1
  6
CONTINUOUS
 62
     7
 10
659.735067
 20
2051.457831
 11
659.979579
 21
2051.579563
  0
LINE
  8
CSLAYER1
  6
CONTINUOUS
 62
     7
 10
659.979579
 20
2051.579563
 11
660.207259
 21
2051.730451
  0
LINE
  8
CSLAYER1
  6
CONTINUOUS
 62
     7
 10
660.207259
 20
2051.730451
 11
660.416372
 21
2051.909347
  0
LINE
  8
CSLAYER1
  6
CONTINUOUS
 62
     7
 10
660.416372
 20
2051.909347
 11
660.605328
 21
2052.114889
  0
LINE
  8
CSLAYER1
  6
CONTINUOUS
 62
     7
 10
660.605328
 20
2052.114889
 11
660.772689
 21
2052.345512
  0
LINE
  8
CSLAYER1
  6
CONTINUOUS
 62
     7
 10
660.772689
 20
2052.345512
 11
660.917180
 21
2052.599462
  0
LINE
  8
CSLAYER1
  6
CONTINUOUS
 62
     7
 10
660.917180
 20
2052.599462
 11
661.037702
 21
2052.874806
  0
LINE
  8
CSLAYER1
  6
CONTINUOUS
 62
     7
 10
661.037702
 20
2052.874806
 11
661.133339
 21
2053.169448
  0
LINE
  8
CSLAYER1
  6
CONTINUOUS
 62
     7
 10
661.133339
 20
2053.169448
 11
661.203361
 21
2053.481146
  0
LINE
  8
CSLAYER1
  6
CONTINUOUS
 62
     7
 10
661.203361
 20
2053.481146
 11
661.247236
 21
2053.807528
  0
LINE
  8
CSLAYER1
  6
CONTINUOUS
 62
     7
 10
661.247236
 20
2053.807528
 11
661.264631
 21
2054.146110
  0
LINE
  8
CSLAYER1
  6
CONTINUOUS
 62
     7
 10
661.264631
 20
2054.146110
 11
661.255412
 21
2054.494314
  0
LINE
  8
CSLAYER1
  6
CONTINUOUS
 62
     7
 10
661.255412
 20
2054.494314
 11
661.219651
 21
2054.849492
  0
LINE
  8
CSLAYER1
  6
CONTINUOUS
 62
     7
 10
661.219651
 20
2054.849492
 11
661.157618
 21
2055.208939
  0
LINE
  8
CSLAYER1
  6
CONTINUOUS
 62
     7
 10
661.157618
 20
2055.208939
 11
661.069787
 21
2055.569921
  0
LINE
  8
CSLAYER1
  6
CONTINUOUS
 62
     7
 10
661.069787
 20
2055.569921
 11
660.956825
 21
2055.929689
  0
LINE
  8
CSLAYER1
  6
CONTINUOUS
 62
     7
 10
660.956825
 20
2055.929689
 11
660.819593
 21
2056.285506
  0
LINE
  8
CSLAYER1
  6
CONTINUOUS
 62
     7
 10
660.819593
 20
2056.285506
 11
660.659135
 21
2056.634664
  0
LINE
  8
CSLAYER1
  6
CONTINUOUS
 62
     7
 10
660.659135
 20
2056.634664
 11
660.476671
 21
2056.974506
  0
LINE
  8
CSLAYER1
  6
CONTINUOUS
 62
     7
 10
660.476671
 20
2056.974506
 11
660.273592
 21
2057.302444
  0
LINE
  8
CSLAYER1
  6
CONTINUOUS
 62
     7
 10
660.273592
 20
2057.302444
 11
660.051441
 21
2057.615984
  0
LINE
  8
CSLAYER1
  6
CONTINUOUS
 62
     7
 10
660.051441
 20
2057.615984
 11
659.811911
 21
2057.912740
  0
LINE
  8
CSLAYER1
  6
CONTINUOUS
 62
     7
 10
659.811911
 20
2057.912740
 11
659.556823
 21
2058.190451
  0
LINE
  8
CSLAYER1
  6
CONTINUOUS
 62
     7
 10
659.556823
 20
2058.190451
 11
659.288119
 21
2058.447006
  0
LINE
  8
CSLAYER1
  6
CONTINUOUS
 62
     7
 10
659.288119
 20
2058.447006
 11
659.007845
 21
2058.680452
  0
LINE
  8
CSLAYER1
  6
CONTINUOUS
 62
     7
 10
659.007845
 20
2058.680452
 11
658.718133
 21
2058.889011
  0
LINE
  8
CSLAYER1
  6
CONTINUOUS
 62
     7
 10
658.718133
 20
2058.889011
 11
658.421189
 21
2059.071097
  0
LINE
  8
CSLAYER1
  6
CONTINUOUS
 62
     7
 10
658.421189
 20
2059.071097
 11
658.119271
 21
2059.225323
  0
LINE
  8
CSLAYER1
  6
CONTINUOUS
 62
     7
 10
658.119271
 20
2059.225323
 11
657.814678
 21
2059.350517
  0
LINE
  8
CSLAYER1
  6
CONTINUOUS
 62
     7
 10
657.814678
 20
2059.350517
 11
657.509729
 21
2059.445725
  0
LINE
  8
CSLAYER1
  6
CONTINUOUS
 62
     7
 10
657.509729
 20
2059.445725
 11
657.206743
 21
2059.510223
  0
LINE
  8
CSLAYER1
  6
CONTINUOUS
 62
     7
 10
657.206743
 20
2059.510223
 11
656.908027
 21
2059.543519
  0
LINE
  8
CSLAYER1
  6
CONTINUOUS
 62
     7
 10
656.908027
 20
2059.543519
 11
656.615854
 21
2059.545361
  0
LINE
  8
CSLAYER1
  6
CONTINUOUS
 62
     7
 10
656.615854
 20
2059.545361
 11
656.332448
 21
2059.515734
  0
LINE
  8
CSLAYER1
  6
CONTINUOUS
 62
     7
 10
656.332448
 20
2059.515734
 11
656.059966
 21
2059.454864
  0
LINE
  8
CSLAYER1
  6
CONTINUOUS
 62
     7
 10
656.059966
 20
2059.454864
 11
655.800481
 21
2059.363215
  0
LINE
  8
CSLAYER1
  6
CONTINUOUS
 62
     7
 10
655.800481
 20
2059.363215
 11
655.555968
 21
2059.241483
  0
ENDBLK
  8
0
  0
BLOCK
  8
CSLAYER1
  2
BLKF0005
 70
   64
 10
0.0
 20
0.0
 30
0.0
  0
LINE
  8
CSLAYER1
  6
CONTINUOUS
 62
     7
 10
664.182054
 20
2051.761644
 11
664.467787
 21
2052.006088
  0
LINE
  8
CSLAYER1
  6
CONTINUOUS
 62
     7
 10
664.467787
 20
2052.006088
 11
664.725978
 21
2052.286941
  0
LINE
  8
CSLAYER1
  6
CONTINUOUS
 62
     7
 10
664.725978
 20
2052.286941
 11
664.954660
 21
2052.602066
  0
LINE
  8
CSLAYER1
  6
CONTINUOUS
 62
     7
 10
664.954660
 20
2052.602066
 11
665.152094
 21
2052.949064
  0
LINE
  8
CSLAYER1
  6
CONTINUOUS
 62
     7
 10
665.152094
 20
2052.949064
 11
665.316776
 21
2053.325296
  0
LINE
  8
CSLAYER1
  6
CONTINUOUS
 62
     7
 10
665.316776
 20
2053.325296
 11
665.447454
 21
2053.727896
  0
LINE
  8
CSLAYER1
  6
CONTINUOUS
 62
     7
 10
665.447454
 20
2053.727896
 11
665.543133
 21
2054.153802
  0
LINE
  8
CSLAYER1
  6
CONTINUOUS
 62
     7
 10
665.543133
 20
2054.153802
 11
665.603084
 21
2054.599772
  0
LINE
  8
CSLAYER1
  6
CONTINUOUS
 62
     7
 10
665.603084
 20
2054.599772
 11
665.626852
 21
2055.062412
  0
LINE
  8
CSLAYER1
  6
CONTINUOUS
 62
     7
 10
665.626852
 20
2055.062412
 11
665.614256
 21
2055.538200
  0
LINE
  8
CSLAYER1
  6
CONTINUOUS
 62
     7
 10
665.614256
 20
2055.538200
 11
665.565391
 21
2056.023516
  0
LINE
  8
CSLAYER1
  6
CONTINUOUS
 62
     7
 10
665.565391
 20
2056.023516
 11
665.480630
 21
2056.514667
  0
LINE
  8
CSLAYER1
  6
CONTINUOUS
 62
     7
 10
665.480630
 20
2056.514667
 11
665.360616
 21
2057.007914
  0
LINE
  8
CSLAYER1
  6
CONTINUOUS
 62
     7
 10
665.360616
 20
2057.007914
 11
665.206265
 21
2057.499503
  0
LINE
  8
CSLAYER1
  6
CONTINUOUS
 62
     7
 10
665.206265
 20
2057.499503
 11
665.018750
 21
2057.985693
  0
LINE
  8
CSLAYER1
  6
CONTINUOUS
 62
     7
 10
665.018750
 20
2057.985693
 11
664.799499
 21
2058.462785
  0
LINE
  8
CSLAYER1
  6
CONTINUOUS
 62
     7
 10
664.799499
 20
2058.462785
 11
664.550180
 21
2058.927146
  0
LINE
  8
CSLAYER1
  6
CONTINUOUS
 62
     7
 10
664.550180
 20
2058.927146
 11
664.272691
 21
2059.375243
  0
LINE
  8
CSLAYER1
  6
CONTINUOUS
 62
     7
 10
664.272691
 20
2059.375243
 11
663.969144
 21
2059.803666
  0
LINE
  8
CSLAYER1
  6
CONTINUOUS
 62
     7
 10
663.969144
 20
2059.803666
 11
663.641848
 21
2060.209153
  0
LINE
  8
CSLAYER1
  6
CONTINUOUS
 62
     7
 10
663.641848
 20
2060.209153
 11
663.293295
 21
2060.588620
  0
LINE
  8
CSLAYER1
  6
CONTINUOUS
 62
     7
 10
663.293295
 20
2060.588620
 11
662.926137
 21
2060.939178
  0
LINE
  8
CSLAYER1
  6
CONTINUOUS
 62
     7
 10
662.926137
 20
2060.939178
 11
662.543169
 21
2061.258159
  0
LINE
  8
CSLAYER1
  6
CONTINUOUS
 62
     7
 10
662.543169
 20
2061.258159
 11
662.147305
 21
2061.543135
  0
LINE
  8
CSLAYER1
  6
CONTINUOUS
 62
     7
 10
662.147305
 20
2061.543135
 11
661.741558
 21
2061.791938
  0
LINE
  8
CSLAYER1
  6
CONTINUOUS
 62
     7
 10
661.741558
 20
2061.791938
 11
661.329017
 21
2062.002674
  0
LINE
  8
CSLAYER1
  6
CONTINUOUS
 62
     7
 10
661.329017
 20
2062.002674
 11
660.912820
 21
2062.173740
  0
LINE
  8
CSLAYER1
  6
CONTINUOUS
 62
     7
 10
660.912820
 20
2062.173740
 11
660.496135
 21
2062.303832
  0
LINE
  8
CSLAYER1
  6
CONTINUOUS
 62
     7
 10
660.496135
 20
2062.303832
 11
660.082134
 21
2062.391962
  0
LINE
  8
CSLAYER1
  6
CONTINUOUS
 62
     7
 10
660.082134
 20
2062.391962
 11
659.673967
 21
2062.437459
  0
LINE
  8
CSLAYER1
  6
CONTINUOUS
 62
     7
 10
659.673967
 20
2062.437459
 11
659.274740
 21
2062.439975
  0
LINE
  8
CSLAYER1
  6
CONTINUOUS
 62
     7
 10
659.274740
 20
2062.439975
 11
658.887493
 21
2062.399493
  0
LINE
  8
CSLAYER1
  6
CONTINUOUS
 62
     7
 10
658.887493
 20
2062.399493
 11
658.515172
 21
2062.316320
  0
LINE
  8
CSLAYER1
  6
CONTINUOUS
 62
     7
 10
658.515172
 20
2062.316320
 11
658.160610
 21
2062.191090
  0
LINE
  8
CSLAYER1
  6
CONTINUOUS
 62
     7
 10
658.160610
 20
2062.191090
 11
657.826507
 21
2062.024754
  0
LINE
  8
CSLAYER1
  6
CONTINUOUS
 62
     7
 10
657.826507
 20
2062.024754
 11
657.515405
 21
2061.818580
  0
LINE
  8
CSLAYER1
  6
CONTINUOUS
 62
     7
 10
657.515405
 20
2061.818580
 11
657.229671
 21
2061.574136
  0
LINE
  8
CSLAYER1
  6
CONTINUOUS
 62
     7
 10
657.229671
 20
2061.574136
 11
656.971481
 21
2061.293283
  0
LINE
  8
CSLAYER1
  6
CONTINUOUS
 62
     7
 10
656.971481
 20
2061.293283
 11
656.742798
 21
2060.978158
  0
LINE
  8
CSLAYER1
  6
CONTINUOUS
 62
     7
 10
656.742798
 20
2060.978158
 11
656.545365
 21
2060.631160
  0
LINE
  8
CSLAYER1
  6
CONTINUOUS
 62
     7
 10
656.545365
 20
2060.631160
 11
656.380682
 21
2060.254928
  0
LINE
  8
CSLAYER1
  6
CONTINUOUS
 62
     7
 10
656.380682
 20
2060.254928
 11
656.250005
 21
2059.852328
  0
LINE
  8
CSLAYER1
  6
CONTINUOUS
 62
     7
 10
656.250005
 20
2059.852328
 11
656.195761
 21
2059.610867
  0
LINE
  8
CSLAYER1
  6
CONTINUOUS
 62
     7
 10
660.147128
 20
2051.690602
 11
660.368442
 21
2051.577550
  0
LINE
  8
CSLAYER1
  6
CONTINUOUS
 62
     7
 10
660.368442
 20
2051.577550
 11
660.784639
 21
2051.406484
  0
LINE
  8
CSLAYER1
  6
CONTINUOUS
 62
     7
 10
660.784639
 20
2051.406484
 11
661.201324
 21
2051.276392
  0
LINE
  8
CSLAYER1
  6
CONTINUOUS
 62
     7
 10
661.201324
 20
2051.276392
 11
661.615325
 21
2051.188262
  0
LINE
  8
CSLAYER1
  6
CONTINUOUS
 62
     7
 10
661.615325
 20
2051.188262
 11
662.023492
 21
2051.142765
  0
LINE
  8
CSLAYER1
  6
CONTINUOUS
 62
     7
 10
662.023492
 20
2051.142765
 11
662.422718
 21
2051.140248
  0
LINE
  8
CSLAYER1
  6
CONTINUOUS
 62
     7
 10
662.422718
 20
2051.140248
 11
662.809966
 21
2051.180731
  0
LINE
  8
CSLAYER1
  6
CONTINUOUS
 62
     7
 10
662.809966
 20
2051.180731
 11
663.182287
 21
2051.263903
  0
LINE
  8
CSLAYER1
  6
CONTINUOUS
 62
     7
 10
663.182287
 20
2051.263903
 11
663.513174
 21
2051.380773
  0
ENDBLK
  8
0
  0
BLOCK
  8
CSLAYER1
  2
BLKF0006
 70
   64
 10
0.0
 20
0.0
 30
0.0
  0
LINE
  8
CSLAYER1
  6
CONTINUOUS
 62
     7
 10
665.613890
 20
2052.558341
 11
666.007388
 21
2052.894976
  0
LINE
  8
CSLAYER1
  6
CONTINUOUS
 62
     7
 10
666.007388
 20
2052.894976
 11
666.265578
 21
2053.175830
  0
LINE
  8
CSLAYER1
  6
CONTINUOUS
 62
     7
 10
666.265578
 20
2053.175830
 11
666.494261
 21
2053.490955
  0
LINE
  8
CSLAYER1
  6
CONTINUOUS
 62
     7
 10
666.494261
 20
2053.490955
 11
666.691694
 21
2053.837953
  0
LINE
  8
CSLAYER1
  6
CONTINUOUS
 62
     7
 10
666.691694
 20
2053.837953
 11
666.856377
 21
2054.214184
  0
LINE
  8
CSLAYER1
  6
CONTINUOUS
 62
     7
 10
666.856377
 20
2054.214184
 11
666.987055
 21
2054.616785
  0
LINE
  8
CSLAYER1
  6
CONTINUOUS
 62
     7
 10
666.987055
 20
2054.616785
 11
667.082733
 21
2055.042691
  0
LINE
  8
CSLAYER1
  6
CONTINUOUS
 62
     7
 10
667.082733
 20
2055.042691
 11
667.142685
 21
2055.488661
  0
LINE
  8
CSLAYER1
  6
CONTINUOUS
 62
     7
 10
667.142685
 20
2055.488661
 11
667.166453
 21
2055.951300
  0
LINE
  8
CSLAYER1
  6
CONTINUOUS
 62
     7
 10
667.166453
 20
2055.951300
 11
667.153857
 21
2056.427089
  0
LINE
  8
CSLAYER1
  6
CONTINUOUS
 62
     7
 10
667.153857
 20
2056.427089
 11
667.104992
 21
2056.912405
  0
LINE
  8
CSLAYER1
  6
CONTINUOUS
 62
     7
 10
667.104992
 20
2056.912405
 11
667.020230
 21
2057.403556
  0
LINE
  8
CSLAYER1
  6
CONTINUOUS
 62
     7
 10
667.020230
 20
2057.403556
 11
666.900217
 21
2057.896803
  0
LINE
  8
CSLAYER1
  6
CONTINUOUS
 62
     7
 10
666.900217
 20
2057.896803
 11
666.745866
 21
2058.388392
  0
LINE
  8
CSLAYER1
  6
CONTINUOUS
 62
     7
 10
666.745866
 20
2058.388392
 11
666.558351
 21
2058.874582
  0
LINE
  8
CSLAYER1
  6
CONTINUOUS
 62
     7
 10
666.558351
 20
2058.874582
 11
666.339100
 21
2059.351673
  0
LINE
  8
CSLAYER1
  6
CONTINUOUS
 62
     7
 10
666.339100
 20
2059.351673
 11
666.089781
 21
2059.816035
  0
LINE
  8
CSLAYER1
  6
CONTINUOUS
 62
     7
 10
666.089781
 20
2059.816035
 11
665.812292
 21
2060.264132
  0
LINE
  8
CSLAYER1
  6
CONTINUOUS
 62
     7
 10
665.812292
 20
2060.264132
 11
665.508744
 21
2060.692554
  0
LINE
  8
CSLAYER1
  6
CONTINUOUS
 62
     7
 10
665.508744
 20
2060.692554
 11
665.181449
 21
2061.098042
  0
LINE
  8
CSLAYER1
  6
CONTINUOUS
 62
     7
 10
665.181449
 20
2061.098042
 11
664.832895
 21
2061.477509
  0
LINE
  8
CSLAYER1
  6
CONTINUOUS
 62
     7
 10
664.832895
 20
2061.477509
 11
664.465738
 21
2061.828067
  0
LINE
  8
CSLAYER1
  6
CONTINUOUS
 62
     7
 10
664.465738
 20
2061.828067
 11
664.082770
 21
2062.147048
  0
LINE
  8
CSLAYER1
  6
CONTINUOUS
 62
     7
 10
664.082770
 20
2062.147048
 11
663.686906
 21
2062.432024
  0
LINE
  8
CSLAYER1
  6
CONTINUOUS
 62
     7
 10
663.686906
 20
2062.432024
 11
663.281159
 21
2062.680827
  0
LINE
  8
CSLAYER1
  6
CONTINUOUS
 62
     7
 10
663.281159
 20
2062.680827
 11
662.868617
 21
2062.891563
  0
LINE
  8
CSLAYER1
  6
CONTINUOUS
 62
     7
 10
662.868617
 20
2062.891563
 11
662.452420
 21
2063.062628
  0
LINE
  8
CSLAYER1
  6
CONTINUOUS
 62
     7
 10
662.452420
 20
2063.062628
 11
662.035736
 21
2063.192721
  0
LINE
  8
CSLAYER1
  6
CONTINUOUS
 62
     7
 10
662.035736
 20
2063.192721
 11
661.621734
 21
2063.280851
  0
LINE
  8
CSLAYER1
  6
CONTINUOUS
 62
     7
 10
661.621734
 20
2063.280851
 11
661.213567
 21
2063.326348
  0
LINE
  8
CSLAYER1
  6
CONTINUOUS
 62
     7
 10
661.213567
 20
2063.326348
 11
660.814341
 21
2063.328864
  0
LINE
  8
CSLAYER1
  6
CONTINUOUS
 62
     7
 10
660.814341
 20
2063.328864
 11
660.427093
 21
2063.288382
  0
LINE
  8
CSLAYER1
  6
CONTINUOUS
 62
     7
 10
660.427093
 20
2063.288382
 11
660.054772
 21
2063.205209
  0
LINE
  8
CSLAYER1
  6
CONTINUOUS
 62
     7
 10
660.054772
 20
2063.205209
 11
659.700211
 21
2063.079979
  0
ENDBLK
  8
0
  0
BLOCK
  8
CSLAYER1
  2
BLKF0007
 70
   64
 10
0.0
 20
0.0
 30
0.0
  0
LINE
  8
CSLAYER1
  6
CONTINUOUS
 62
     7
 10
679.544491
 20
2065.105631
 11
679.528001
 21
2065.372688
  0
LINE
  8
CSLAYER1
  6
CONTINUOUS
 62
     7
 10
679.528001
 20
2065.372688
 11
679.478658
 21
2065.637712
  0
LINE
  8
CSLAYER1
  6
CONTINUOUS
 62
     7
 10
679.478658
 20
2065.637712
 11
679.396836
 21
2065.898686
  0
LINE
  8
CSLAYER1
  6
CONTINUOUS
 62
     7
 10
679.396836
 20
2065.898686
 11
679.283159
 21
2066.153625
  0
LINE
  8
CSLAYER1
  6
CONTINUOUS
 62
     7
 10
679.283159
 20
2066.153625
 11
679.138491
 21
2066.400588
  0
LINE
  8
CSLAYER1
  6
CONTINUOUS
 62
     7
 10
679.138491
 20
2066.400588
 11
678.963934
 21
2066.637696
  0
LINE
  8
CSLAYER1
  6
CONTINUOUS
 62
     7
 10
678.963934
 20
2066.637696
 11
678.760816
 21
2066.863143
  0
LINE
  8
CSLAYER1
  6
CONTINUOUS
 62
     7
 10
678.760816
 20
2066.863143
 11
678.530684
 21
2067.075215
  0
LINE
  8
CSLAYER1
  6
CONTINUOUS
 62
     7
 10
678.530684
 20
2067.075215
 11
678.275287
 21
2067.272298
  0
LINE
  8
CSLAYER1
  6
CONTINUOUS
 62
     7
 10
678.275287
 20
2067.272298
 11
677.996571
 21
2067.452890
  0
LINE
  8
CSLAYER1
  6
CONTINUOUS
 62
     7
 10
677.996571
 20
2067.452890
 11
677.696655
 21
2067.615619
  0
LINE
  8
CSLAYER1
  6
CONTINUOUS
 62
     7
 10
677.696655
 20
2067.615619
 11
677.377824
 21
2067.759245
  0
LINE
  8
CSLAYER1
  6
CONTINUOUS
 62
     7
 10
677.377824
 20
2067.759245
 11
677.042503
 21
2067.882675
  0
LINE
  8
CSLAYER1
  6
CONTINUOUS
 62
     7
 10
677.042503
 20
2067.882675
 11
676.693245
 21
2067.984971
  0
LINE
  8
CSLAYER1
  6
CONTINUOUS
 62
     7
 10
676.693245
 20
2067.984971
 11
676.332707
 21
2068.065353
  0
LINE
  8
CSLAYER1
  6
CONTINUOUS
 62
     7
 10
676.332707
 20
2068.065353
 11
675.963633
 21
2068.123209
  0
LINE
  8
CSLAYER1
  6
CONTINUOUS
 62
     7
 10
675.963633
 20
2068.123209
 11
675.588832
 21
2068.158100
  0
LINE
  8
CSLAYER1
  6
CONTINUOUS
 62
     7
 10
675.588832
 20
2068.158100
 11
675.211158
 21
2068.169760
  0
LINE
  8
CSLAYER1
  6
CONTINUOUS
 62
     7
 10
675.211158
 20
2068.169760
 11
674.833483
 21
2068.158100
  0
LINE
  8
CSLAYER1
  6
CONTINUOUS
 62
     7
 10
674.833483
 20
2068.158100
 11
674.458682
 21
2068.123209
  0
LINE
  8
CSLAYER1
  6
CONTINUOUS
 62
     7
 10
674.458682
 20
2068.123209
 11
674.089608
 21
2068.065353
  0
LINE
  8
CSLAYER1
  6
CONTINUOUS
 62
     7
 10
674.089608
 20
2068.065353
 11
673.729070
 21
2067.984971
  0
LINE
  8
CSLAYER1
  6
CONTINUOUS
 62
     7
 10
673.729070
 20
2067.984971
 11
673.379812
 21
2067.882675
  0
LINE
  8
CSLAYER1
  6
CONTINUOUS
 62
     7
 10
673.379812
 20
2067.882675
 11
673.044491
 21
2067.759245
  0
LINE
  8
CSLAYER1
  6
CONTINUOUS
 62
     7
 10
673.044491
 20
2067.759245
 11
672.725660
 21
2067.615619
  0
LINE
  8
CSLAYER1
  6
CONTINUOUS
 62
     7
 10
672.725660
 20
2067.615619
 11
672.425745
 21
2067.452890
  0
LINE
  8
CSLAYER1
  6
CONTINUOUS
 62
     7
 10
672.425745
 20
2067.452890
 11
672.147028
 21
2067.272298
  0
LINE
  8
CSLAYER1
  6
CONTINUOUS
 62
     7
 10
672.147028
 20
2067.272298
 11
671.891632
 21
2067.075215
  0
LINE
  8
CSLAYER1
  6
CONTINUOUS
 62
     7
 10
671.891632
 20
2067.075215
 11
671.661499
 21
2066.863143
  0
LINE
  8
CSLAYER1
  6
CONTINUOUS
 62
     7
 10
671.661499
 20
2066.863143
 11
671.458381
 21
2066.637696
  0
LINE
  8
CSLAYER1
  6
CONTINUOUS
 62
     7
 10
671.458381
 20
2066.637696
 11
671.283824
 21
2066.400588
  0
LINE
  8
CSLAYER1
  6
CONTINUOUS
 62
     7
 10
671.283824
 20
2066.400588
 11
671.139156
 21
2066.153625
  0
LINE
  8
CSLAYER1
  6
CONTINUOUS
 62
     7
 10
671.139156
 20
2066.153625
 11
671.025479
 21
2065.898686
  0
LINE
  8
CSLAYER1
  6
CONTINUOUS
 62
     7
 10
671.025479
 20
2065.898686
 11
670.943657
 21
2065.637712
  0
LINE
  8
CSLAYER1
  6
CONTINUOUS
 62
     7
 10
670.943657
 20
2065.637712
 11
670.894314
 21
2065.372688
  0
LINE
  8
CSLAYER1
  6
CONTINUOUS
 62
     7
 10
670.894314
 20
2065.372688
 11
670.877824
 21
2065.105631
  0
LINE
  8
CSLAYER1
  6
CONTINUOUS
 62
     7
 10
670.877824
 20
2065.105631
 11
670.894314
 21
2064.838575
  0
LINE
  8
CSLAYER1
  6
CONTINUOUS
 62
     7
 10
670.894314
 20
2064.838575
 11
670.943657
 21
2064.573551
  0
LINE
  8
CSLAYER1
  6
CONTINUOUS
 62
     7
 10
670.943657
 20
2064.573551
 11
671.025479
 21
2064.312576
  0
LINE
  8
CSLAYER1
  6
CONTINUOUS
 62
     7
 10
671.025479
 20
2064.312576
 11
671.139156
 21
2064.057637
  0
LINE
  8
CSLAYER1
  6
CONTINUOUS
 62
     7
 10
671.139156
 20
2064.057637
 11
671.283824
 21
2063.810674
  0
LINE
  8
CSLAYER1
  6
CONTINUOUS
 62
     7
 10
671.283824
 20
2063.810674
 11
671.458381
 21
2063.573566
  0
LINE
  8
CSLAYER1
  6
CONTINUOUS
 62
     7
 10
671.458381
 20
2063.573566
 11
671.661499
 21
2063.348119
  0
LINE
  8
CSLAYER1
  6
CONTINUOUS
 62
     7
 10
671.661499
 20
2063.348119
 11
671.891632
 21
2063.136047
  0
LINE
  8
CSLAYER1
  6
CONTINUOUS
 62
     7
 10
671.891632
 20
2063.136047
 11
672.147028
 21
2062.938964
  0
LINE
  8
CSLAYER1
  6
CONTINUOUS
 62
     7
 10
672.147028
 20
2062.938964
 11
672.425745
 21
2062.758372
  0
LINE
  8
CSLAYER1
  6
CONTINUOUS
 62
     7
 10
672.425745
 20
2062.758372
 11
672.725660
 21
2062.595643
  0
LINE
  8
CSLAYER1
  6
CONTINUOUS
 62
     7
 10
672.725660
 20
2062.595643
 11
673.044491
 21
2062.452017
  0
LINE
  8
CSLAYER1
  6
CONTINUOUS
 62
     7
 10
673.044491
 20
2062.452017
 11
673.379812
 21
2062.328587
  0
LINE
  8
CSLAYER1
  6
CONTINUOUS
 62
     7
 10
673.379812
 20
2062.328587
 11
673.729070
 21
2062.226291
  0
LINE
  8
CSLAYER1
  6
CONTINUOUS
 62
     7
 10
673.729070
 20
2062.226291
 11
674.089608
 21
2062.145909
  0
LINE
  8
CSLAYER1
  6
CONTINUOUS
 62
     7
 10
674.089608
 20
2062.145909
 11
674.458682
 21
2062.088053
  0
LINE
  8
CSLAYER1
  6
CONTINUOUS
 62
     7
 10
674.458682
 20
2062.088053
 11
674.833483
 21
2062.053162
  0
LINE
  8
CSLAYER1
  6
CONTINUOUS
 62
     7
 10
674.833483
 20
2062.053162
 11
675.211158
 21
2062.041502
  0
LINE
  8
CSLAYER1
  6
CONTINUOUS
 62
     7
 10
675.211158
 20
2062.041502
 11
675.588832
 21
2062.053162
  0
LINE
  8
CSLAYER1
  6
CONTINUOUS
 62
     7
 10
675.588832
 20
2062.053162
 11
675.963633
 21
2062.088053
  0
LINE
  8
CSLAYER1
  6
CONTINUOUS
 62
     7
 10
675.963633
 20
2062.088053
 11
676.332707
 21
2062.145909
  0
LINE
  8
CSLAYER1
  6
CONTINUOUS
 62
     7
 10
676.332707
 20
2062.145909
 11
676.693245
 21
2062.226291
  0
LINE
  8
CSLAYER1
  6
CONTINUOUS
 62
     7
 10
676.693245
 20
2062.226291
 11
677.042503
 21
2062.328587
  0
LINE
  8
CSLAYER1
  6
CONTINUOUS
 62
     7
 10
677.042503
 20
2062.328587
 11
677.377824
 21
2062.452017
  0
LINE
  8
CSLAYER1
  6
CONTINUOUS
 62
     7
 10
677.377824
 20
2062.452017
 11
677.696655
 21
2062.595643
  0
LINE
  8
CSLAYER1
  6
CONTINUOUS
 62
     7
 10
677.696655
 20
2062.595643
 11
677.996571
 21
2062.758372
  0
LINE
  8
CSLAYER1
  6
CONTINUOUS
 62
     7
 10
677.996571
 20
2062.758372
 11
678.275287
 21
2062.938964
  0
LINE
  8
CSLAYER1
  6
CONTINUOUS
 62
     7
 10
678.275287
 20
2062.938964
 11
678.530684
 21
2063.136047
  0
LINE
  8
CSLAYER1
  6
CONTINUOUS
 62
     7
 10
678.530684
 20
2063.136047
 11
678.760816
 21
2063.348119
  0
LINE
  8
CSLAYER1
  6
CONTINUOUS
 62
     7
 10
678.760816
 20
2063.348119
 11
678.963934
 21
2063.573566
  0
LINE
  8
CSLAYER1
  6
CONTINUOUS
 62
     7
 10
678.963934
 20
2063.573566
 11
679.138491
 21
2063.810674
  0
LINE
  8
CSLAYER1
  6
CONTINUOUS
 62
     7
 10
679.138491
 20
2063.810674
 11
679.283159
 21
2064.057637
  0
LINE
  8
CSLAYER1
  6
CONTINUOUS
 62
     7
 10
679.283159
 20
2064.057637
 11
679.396836
 21
2064.312576
  0
LINE
  8
CSLAYER1
  6
CONTINUOUS
 62
     7
 10
679.396836
 20
2064.312576
 11
679.478658
 21
2064.573551
  0
LINE
  8
CSLAYER1
  6
CONTINUOUS
 62
     7
 10
679.478658
 20
2064.573551
 11
679.528001
 21
2064.838575
  0
LINE
  8
CSLAYER1
  6
CONTINUOUS
 62
     7
 10
679.528001
 20
2064.838575
 11
679.544491
 21
2065.105631
  0
ENDBLK
  8
0
  0
BLOCK
  8
CSLAYER1
  2
BLKF0008
 70
   64
 10
0.0
 20
0.0
 30
0.0
  0
LINE
  8
CSLAYER1
  6
CONTINUOUS
 62
     7
 10
613.754347
 20
2062.594204
 11
614.861182
 21
2063.285831
  0
LINE
  8
CSLAYER1
  6
CONTINUOUS
 62
     7
 10
615.266150
 20
2073.376133
 11
641.833591
 21
2089.977313
  0
LINE
  8
CSLAYER1
  6
CONTINUOUS
 62
     7
 10
613.300923
 20
2070.279155
 11
613.300923
 21
2065.461113
  0
LINE
  8
CSLAYER1
  6
CONTINUOUS
 62
     7
 10
613.300923
 20
2070.279155
 11
613.332887
 21
2070.699075
  0
LINE
  8
CSLAYER1
  6
CONTINUOUS
 62
     7
 10
613.332887
 20
2070.699075
 11
613.428538
 21
2071.115799
  0
LINE
  8
CSLAYER1
  6
CONTINUOUS
 62
     7
 10
613.428538
 20
2071.115799
 11
613.587146
 21
2071.526156
  0
LINE
  8
CSLAYER1
  6
CONTINUOUS
 62
     7
 10
613.587146
 20
2071.526156
 11
613.807505
 21
2071.927023
  0
LINE
  8
CSLAYER1
  6
CONTINUOUS
 62
     7
 10
613.807505
 20
2071.927023
 11
614.087938
 21
2072.315348
  0
LINE
  8
CSLAYER1
  6
CONTINUOUS
 62
     7
 10
614.087938
 20
2072.315348
 11
614.426310
 21
2072.688176
  0
LINE
  8
CSLAYER1
  6
CONTINUOUS
 62
     7
 10
614.426310
 20
2072.688176
 11
614.820046
 21
2073.042670
  0
LINE
  8
CSLAYER1
  6
CONTINUOUS
 62
     7
 10
614.820046
 20
2073.042670
 11
615.266150
 21
2073.376133
  0
LINE
  8
CSLAYER1
  6
CONTINUOUS
 62
     7
 10
627.640620
 20
2066.872285
 11
627.100339
 21
2066.588321
  0
LINE
  8
CSLAYER1
  6
CONTINUOUS
 62
     7
 10
627.100339
 20
2066.588321
 11
626.518965
 21
2066.332446
  0
LINE
  8
CSLAYER1
  6
CONTINUOUS
 62
     7
 10
626.518965
 20
2066.332446
 11
625.900923
 21
2066.106608
  0
LINE
  8
CSLAYER1
  6
CONTINUOUS
 62
     7
 10
625.900923
 20
2066.106608
 11
625.250916
 21
2065.912526
  0
LINE
  8
CSLAYER1
  6
CONTINUOUS
 62
     7
 10
625.250916
 20
2065.912526
 11
624.573892
 21
2065.751677
  0
LINE
  8
CSLAYER1
  6
CONTINUOUS
 62
     7
 10
624.573892
 20
2065.751677
 11
623.875003
 21
2065.625284
  0
LINE
  8
CSLAYER1
  6
CONTINUOUS
 62
     7
 10
623.875003
 20
2065.625284
 11
623.159568
 21
2065.534310
  0
LINE
  8
CSLAYER1
  6
CONTINUOUS
 62
     7
 10
623.159568
 20
2065.534310
 11
622.433031
 21
2065.479447
  0
LINE
  8
CSLAYER1
  6
CONTINUOUS
 62
     7
 10
622.433031
 20
2065.479447
 11
621.700923
 21
2065.461113
  0
LINE
  8
CSLAYER1
  6
CONTINUOUS
 62
     7
 10
621.700923
 20
2065.461113
 11
620.968815
 21
2065.479447
  0
LINE
  8
CSLAYER1
  6
CONTINUOUS
 62
     7
 10
620.968815
 20
2065.479447
 11
620.242278
 21
2065.534310
  0
LINE
  8
CSLAYER1
  6
CONTINUOUS
 62
     7
 10
620.242278
 20
2065.534310
 11
619.526843
 21
2065.625284
  0
LINE
  8
CSLAYER1
  6
CONTINUOUS
 62
     7
 10
619.526843
 20
2065.625284
 11
618.827954
 21
2065.751677
  0
LINE
  8
CSLAYER1
  6
CONTINUOUS
 62
     7
 10
618.827954
 20
2065.751677
 11
618.150930
 21
2065.912526
  0
LINE
  8
CSLAYER1
  6
CONTINUOUS
 62
     7
 10
618.150930
 20
2065.912526
 11
617.500923
 21
2066.106608
  0
LINE
  8
CSLAYER1
  6
CONTINUOUS
 62
     7
 10
617.500923
 20
2066.106608
 11
616.882881
 21
2066.332446
  0
LINE
  8
CSLAYER1
  6
CONTINUOUS
 62
     7
 10
616.882881
 20
2066.332446
 11
616.301507
 21
2066.588321
  0
LINE
  8
CSLAYER1
  6
CONTINUOUS
 62
     7
 10
616.301507
 20
2066.588321
 11
615.761226
 21
2066.872285
  0
LINE
  8
CSLAYER1
  6
CONTINUOUS
 62
     7
 10
615.761226
 20
2066.872285
 11
615.266150
 21
2067.182177
  0
LINE
  8
CSLAYER1
  6
CONTINUOUS
 62
     7
 10
615.266150
 20
2067.182177
 11
614.820046
 21
2067.515640
  0
LINE
  8
CSLAYER1
  6
CONTINUOUS
 62
     7
 10
614.820046
 20
2067.515640
 11
614.426310
 21
2067.870134
  0
LINE
  8
CSLAYER1
  6
CONTINUOUS
 62
     7
 10
614.426310
 20
2067.870134
 11
614.087938
 21
2068.242963
  0
LINE
  8
CSLAYER1
  6
CONTINUOUS
 62
     7
 10
614.087938
 20
2068.242963
 11
613.807505
 21
2068.631288
  0
LINE
  8
CSLAYER1
  6
CONTINUOUS
 62
     7
 10
613.807505
 20
2068.631288
 11
613.587146
 21
2069.032154
  0
LINE
  8
CSLAYER1
  6
CONTINUOUS
 62
     7
 10
613.587146
 20
2069.032154
 11
613.428538
 21
2069.442511
  0
LINE
  8
CSLAYER1
  6
CONTINUOUS
 62
     7
 10
613.428538
 20
2069.442511
 11
613.332887
 21
2069.859235
  0
LINE
  8
CSLAYER1
  6
CONTINUOUS
 62
     7
 10
613.332887
 20
2069.859235
 11
613.300923
 21
2070.279155
  0
LINE
  8
CSLAYER1
  6
CONTINUOUS
 62
     7
 10
628.135696
 20
2062.364135
 11
627.640620
 21
2062.054243
  0
LINE
  8
CSLAYER1
  6
CONTINUOUS
 62
     7
 10
627.640620
 20
2062.054243
 11
627.100339
 21
2061.770279
  0
LINE
  8
CSLAYER1
  6
CONTINUOUS
 62
     7
 10
627.100339
 20
2061.770279
 11
626.518965
 21
2061.514404
  0
LINE
  8
CSLAYER1
  6
CONTINUOUS
 62
     7
 10
626.518965
 20
2061.514404
 11
625.900923
 21
2061.288566
  0
LINE
  8
CSLAYER1
  6
CONTINUOUS
 62
     7
 10
625.900923
 20
2061.288566
 11
625.250916
 21
2061.094484
  0
LINE
  8
CSLAYER1
  6
CONTINUOUS
 62
     7
 10
625.250916
 20
2061.094484
 11
624.573892
 21
2060.933634
  0
LINE
  8
CSLAYER1
  6
CONTINUOUS
 62
     7
 10
624.573892
 20
2060.933634
 11
623.875003
 21
2060.807242
  0
LINE
  8
CSLAYER1
  6
CONTINUOUS
 62
     7
 10
623.875003
 20
2060.807242
 11
623.159568
 21
2060.716268
  0
LINE
  8
CSLAYER1
  6
CONTINUOUS
 62
     7
 10
623.159568
 20
2060.716268
 11
622.433031
 21
2060.661405
  0
LINE
  8
CSLAYER1
  6
CONTINUOUS
 62
     7
 10
622.433031
 20
2060.661405
 11
621.700923
 21
2060.643071
  0
LINE
  8
CSLAYER1
  6
CONTINUOUS
 62
     7
 10
621.700923
 20
2060.643071
 11
620.968815
 21
2060.661405
  0
LINE
  8
CSLAYER1
  6
CONTINUOUS
 62
     7
 10
620.968815
 20
2060.661405
 11
620.242278
 21
2060.716268
  0
LINE
  8
CSLAYER1
  6
CONTINUOUS
 62
     7
 10
620.242278
 20
2060.716268
 11
619.526843
 21
2060.807242
  0
LINE
  8
CSLAYER1
  6
CONTINUOUS
 62
     7
 10
619.526843
 20
2060.807242
 11
618.827954
 21
2060.933634
  0
LINE
  8
CSLAYER1
  6
CONTINUOUS
 62
     7
 10
618.827954
 20
2060.933634
 11
618.150930
 21
2061.094484
  0
LINE
  8
CSLAYER1
  6
CONTINUOUS
 62
     7
 10
618.150930
 20
2061.094484
 11
617.500923
 21
2061.288566
  0
LINE
  8
CSLAYER1
  6
CONTINUOUS
 62
     7
 10
617.500923
 20
2061.288566
 11
616.882881
 21
2061.514404
  0
LINE
  8
CSLAYER1
  6
CONTINUOUS
 62
     7
 10
616.882881
 20
2061.514404
 11
616.301507
 21
2061.770279
  0
LINE
  8
CSLAYER1
  6
CONTINUOUS
 62
     7
 10
616.301507
 20
2061.770279
 11
615.761226
 21
2062.054243
  0
LINE
  8
CSLAYER1
  6
CONTINUOUS
 62
     7
 10
615.761226
 20
2062.054243
 11
615.266150
 21
2062.364135
  0
LINE
  8
CSLAYER1
  6
CONTINUOUS
 62
     7
 10
615.266150
 20
2062.364135
 11
614.820046
 21
2062.697598
  0
LINE
  8
CSLAYER1
  6
CONTINUOUS
 62
     7
 10
614.820046
 20
2062.697598
 11
614.426310
 21
2063.052092
  0
LINE
  8
CSLAYER1
  6
CONTINUOUS
 62
     7
 10
614.426310
 20
2063.052092
 11
614.087938
 21
2063.424920
  0
LINE
  8
CSLAYER1
  6
CONTINUOUS
 62
     7
 10
614.087938
 20
2063.424920
 11
613.807505
 21
2063.813246
  0
LINE
  8
CSLAYER1
  6
CONTINUOUS
 62
     7
 10
613.807505
 20
2063.813246
 11
613.587146
 21
2064.214112
  0
LINE
  8
CSLAYER1
  6
CONTINUOUS
 62
     7
 10
613.587146
 20
2064.214112
 11
613.428538
 21
2064.624469
  0
LINE
  8
CSLAYER1
  6
CONTINUOUS
 62
     7
 10
613.428538
 20
2064.624469
 11
613.332887
 21
2065.041193
  0
LINE
  8
CSLAYER1
  6
CONTINUOUS
 62
     7
 10
613.332887
 20
2065.041193
 11
613.300923
 21
2065.461113
  0
LINE
  8
CSLAYER1
  6
CONTINUOUS
 62
     7
 10
615.132960
 20
2069.931675
 11
645.232759
 21
2088.740117
  0
LINE
  8
CSLAYER1
  6
CONTINUOUS
 62
     7
 10
617.685344
 20
2068.165349
 11
648.631927
 21
2087.502921
  0
LINE
  8
CSLAYER1
  6
CONTINUOUS
 62
     7
 10
627.640620
 20
2062.054243
 11
656.337342
 21
2079.985945
  0
LINE
  8
CSLAYER1
  6
CONTINUOUS
 62
     7
 10
627.640620
 20
2066.872285
 11
656.230542
 21
2084.737251
  0
LINE
  8
CSLAYER1
  6
CONTINUOUS
 62
     7
 10
629.028029
 20
2068.530582
 11
655.430263
 21
2085.028529
  0
LINE
  8
CSLAYER1
  6
CONTINUOUS
 62
     7
 10
621.881205
 20
2067.425982
 11
652.031095
 21
2086.265725
  0
LINE
  8
CSLAYER1
  6
CONTINUOUS
 62
     7
 10
648.370446
 20
2093.424193
 11
648.394739
 21
2093.743332
  0
LINE
  8
CSLAYER1
  6
CONTINUOUS
 62
     7
 10
648.394739
 20
2093.743332
 11
648.467433
 21
2094.060043
  0
LINE
  8
CSLAYER1
  6
CONTINUOUS
 62
     7
 10
648.467433
 20
2094.060043
 11
648.587975
 21
2094.371914
  0
LINE
  8
CSLAYER1
  6
CONTINUOUS
 62
     7
 10
648.587975
 20
2094.371914
 11
648.755448
 21
2094.676572
  0
LINE
  8
CSLAYER1
  6
CONTINUOUS
 62
     7
 10
648.755448
 20
2094.676572
 11
648.968577
 21
2094.971700
  0
LINE
  8
CSLAYER1
  6
CONTINUOUS
 62
     7
 10
648.968577
 20
2094.971700
 11
649.225739
 21
2095.255049
  0
LINE
  8
CSLAYER1
  6
CONTINUOUS
 62
     7
 10
649.225739
 20
2095.255049
 11
649.524979
 21
2095.524465
  0
LINE
  8
CSLAYER1
  6
CONTINUOUS
 62
     7
 10
649.524979
 20
2095.524465
 11
649.864018
 21
2095.777896
  0
LINE
  8
CSLAYER1
  6
CONTINUOUS
 62
     7
 10
649.864018
 20
2095.777896
 11
650.240276
 21
2096.013415
  0
LINE
  8
CSLAYER1
  6
CONTINUOUS
 62
     7
 10
650.240276
 20
2096.013415
 11
650.650889
 21
2096.229227
  0
LINE
  8
CSLAYER1
  6
CONTINUOUS
 62
     7
 10
650.650889
 20
2096.229227
 11
651.092734
 21
2096.423692
  0
LINE
  8
CSLAYER1
  6
CONTINUOUS
 62
     7
 10
651.092734
 20
2096.423692
 11
651.562446
 21
2096.595329
  0
LINE
  8
CSLAYER1
  6
CONTINUOUS
 62
     7
 10
651.562446
 20
2096.595329
 11
652.056451
 21
2096.742831
  0
LINE
  8
CSLAYER1
  6
CONTINUOUS
 62
     7
 10
652.056451
 20
2096.742831
 11
652.570989
 21
2096.865077
  0
LINE
  8
CSLAYER1
  6
CONTINUOUS
 62
     7
 10
652.570989
 20
2096.865077
 11
653.102145
 21
2096.961135
  0
LINE
  8
CSLAYER1
  6
CONTINUOUS
 62
     7
 10
653.102145
 20
2096.961135
 11
653.645876
 21
2097.030276
  0
LINE
  8
CSLAYER1
  6
CONTINUOUS
 62
     7
 10
653.645876
 20
2097.030276
 11
654.198043
 21
2097.071971
  0
LINE
  8
CSLAYER1
  6
CONTINUOUS
 62
     7
 10
654.198043
 20
2097.071971
 11
654.754446
 21
2097.085905
  0
LINE
  8
CSLAYER1
  6
CONTINUOUS
 62
     7
 10
654.754446
 20
2097.085905
 11
655.310848
 21
2097.071971
  0
LINE
  8
CSLAYER1
  6
CONTINUOUS
 62
     7
 10
655.310848
 20
2097.071971
 11
655.863016
 21
2097.030276
  0
LINE
  8
CSLAYER1
  6
CONTINUOUS
 62
     7
 10
655.863016
 20
2097.030276
 11
656.406746
 21
2096.961135
  0
LINE
  8
CSLAYER1
  6
CONTINUOUS
 62
     7
 10
656.406746
 20
2096.961135
 11
656.937902
 21
2096.865077
  0
LINE
  8
CSLAYER1
  6
CONTINUOUS
 62
     7
 10
656.937902
 20
2096.865077
 11
657.452441
 21
2096.742831
  0
LINE
  8
CSLAYER1
  6
CONTINUOUS
 62
     7
 10
657.452441
 20
2096.742831
 11
657.946446
 21
2096.595329
  0
LINE
  8
CSLAYER1
  6
CONTINUOUS
 62
     7
 10
657.946446
 20
2096.595329
 11
658.416158
 21
2096.423692
  0
LINE
  8
CSLAYER1
  6
CONTINUOUS
 62
     7
 10
658.416158
 20
2096.423692
 11
658.858002
 21
2096.229227
  0
LINE
  8
CSLAYER1
  6
CONTINUOUS
 62
     7
 10
658.858002
 20
2096.229227
 11
659.268615
 21
2096.013415
  0
LINE
  8
CSLAYER1
  6
CONTINUOUS
 62
     7
 10
659.268615
 20
2096.013415
 11
659.644873
 21
2095.777896
  0
LINE
  8
CSLAYER1
  6
CONTINUOUS
 62
     7
 10
659.644873
 20
2095.777896
 11
659.983912
 21
2095.524465
  0
LINE
  8
CSLAYER1
  6
CONTINUOUS
 62
     7
 10
659.983912
 20
2095.524465
 11
660.283152
 21
2095.255049
  0
LINE
  8
CSLAYER1
  6
CONTINUOUS
 62
     7
 10
660.283152
 20
2095.255049
 11
660.540314
 21
2094.971700
  0
LINE
  8
CSLAYER1
  6
CONTINUOUS
 62
     7
 10
660.540314
 20
2094.971700
 11
660.753443
 21
2094.676572
  0
LINE
  8
CSLAYER1
  6
CONTINUOUS
 62
     7
 10
660.753443
 20
2094.676572
 11
660.920916
 21
2094.371914
  0
LINE
  8
CSLAYER1
  6
CONTINUOUS
 62
     7
 10
660.920916
 20
2094.371914
 11
661.041458
 21
2094.060043
  0
LINE
  8
CSLAYER1
  6
CONTINUOUS
 62
     7
 10
661.041458
 20
2094.060043
 11
661.114153
 21
2093.743332
  0
LINE
  8
CSLAYER1
  6
CONTINUOUS
 62
     7
 10
661.114153
 20
2093.743332
 11
661.138446
 21
2093.424193
  0
LINE
  8
CSLAYER1
  6
CONTINUOUS
 62
     7
 10
661.138446
 20
2093.424193
 11
661.114153
 21
2093.105054
  0
LINE
  8
CSLAYER1
  6
CONTINUOUS
 62
     7
 10
661.114153
 20
2093.105054
 11
661.041458
 21
2092.788344
  0
LINE
  8
CSLAYER1
  6
CONTINUOUS
 62
     7
 10
661.041458
 20
2092.788344
 11
660.920916
 21
2092.476472
  0
LINE
  8
CSLAYER1
  6
CONTINUOUS
 62
     7
 10
660.920916
 20
2092.476472
 11
660.753443
 21
2092.171814
  0
LINE
  8
CSLAYER1
  6
CONTINUOUS
 62
     7
 10
660.753443
 20
2092.171814
 11
660.540314
 21
2091.876687
  0
LINE
  8
CSLAYER1
  6
CONTINUOUS
 62
     7
 10
660.540314
 20
2091.876687
 11
660.283152
 21
2091.593337
  0
LINE
  8
CSLAYER1
  6
CONTINUOUS
 62
     7
 10
660.283152
 20
2091.593337
 11
659.983912
 21
2091.323922
  0
LINE
  8
CSLAYER1
  6
CONTINUOUS
 62
     7
 10
659.983912
 20
2091.323922
 11
659.644873
 21
2091.070490
  0
LINE
  8
CSLAYER1
  6
CONTINUOUS
 62
     7
 10
659.644873
 20
2091.070490
 11
659.268615
 21
2090.834972
  0
LINE
  8
CSLAYER1
  6
CONTINUOUS
 62
     7
 10
659.268615
 20
2090.834972
 11
658.858002
 21
2090.619159
  0
LINE
  8
CSLAYER1
  6
CONTINUOUS
 62
     7
 10
658.858002
 20
2090.619159
 11
658.416158
 21
2090.424694
  0
LINE
  8
CSLAYER1
  6
CONTINUOUS
 62
     7
 10
658.416158
 20
2090.424694
 11
657.946446
 21
2090.253058
  0
LINE
  8
CSLAYER1
  6
CONTINUOUS
 62
     7
 10
657.946446
 20
2090.253058
 11
657.452441
 21
2090.105555
  0
LINE
  8
CSLAYER1
  6
CONTINUOUS
 62
     7
 10
657.452441
 20
2090.105555
 11
656.937902
 21
2089.983310
  0
LINE
  8
CSLAYER1
  6
CONTINUOUS
 62
     7
 10
656.937902
 20
2089.983310
 11
656.406746
 21
2089.887251
  0
LINE
  8
CSLAYER1
  6
CONTINUOUS
 62
     7
 10
656.406746
 20
2089.887251
 11
655.863016
 21
2089.818111
  0
LINE
  8
CSLAYER1
  6
CONTINUOUS
 62
     7
 10
655.863016
 20
2089.818111
 11
655.310848
 21
2089.776415
  0
LINE
  8
CSLAYER1
  6
CONTINUOUS
 62
     7
 10
655.310848
 20
2089.776415
 11
654.754446
 21
2089.762481
  0
LINE
  8
CSLAYER1
  6
CONTINUOUS
 62
     7
 10
654.754446
 20
2089.762481
 11
654.198043
 21
2089.776415
  0
LINE
  8
CSLAYER1
  6
CONTINUOUS
 62
     7
 10
654.198043
 20
2089.776415
 11
653.645876
 21
2089.818111
  0
LINE
  8
CSLAYER1
  6
CONTINUOUS
 62
     7
 10
653.645876
 20
2089.818111
 11
653.102145
 21
2089.887251
  0
LINE
  8
CSLAYER1
  6
CONTINUOUS
 62
     7
 10
653.102145
 20
2089.887251
 11
652.570989
 21
2089.983310
  0
LINE
  8
CSLAYER1
  6
CONTINUOUS
 62
     7
 10
652.570989
 20
2089.983310
 11
652.056451
 21
2090.105555
  0
LINE
  8
CSLAYER1
  6
CONTINUOUS
 62
     7
 10
652.056451
 20
2090.105555
 11
651.562446
 21
2090.253058
  0
LINE
  8
CSLAYER1
  6
CONTINUOUS
 62
     7
 10
651.562446
 20
2090.253058
 11
651.092734
 21
2090.424694
  0
LINE
  8
CSLAYER1
  6
CONTINUOUS
 62
     7
 10
651.092734
 20
2090.424694
 11
650.650889
 21
2090.619159
  0
LINE
  8
CSLAYER1
  6
CONTINUOUS
 62
     7
 10
650.650889
 20
2090.619159
 11
650.240276
 21
2090.834972
  0
LINE
  8
CSLAYER1
  6
CONTINUOUS
 62
     7
 10
650.240276
 20
2090.834972
 11
649.864018
 21
2091.070490
  0
LINE
  8
CSLAYER1
  6
CONTINUOUS
 62
     7
 10
649.864018
 20
2091.070490
 11
649.524979
 21
2091.323922
  0
LINE
  8
CSLAYER1
  6
CONTINUOUS
 62
     7
 10
649.524979
 20
2091.323922
 11
649.225739
 21
2091.593337
  0
LINE
  8
CSLAYER1
  6
CONTINUOUS
 62
     7
 10
649.225739
 20
2091.593337
 11
648.968577
 21
2091.876687
  0
LINE
  8
CSLAYER1
  6
CONTINUOUS
 62
     7
 10
648.968577
 20
2091.876687
 11
648.755448
 21
2092.171814
  0
LINE
  8
CSLAYER1
  6
CONTINUOUS
 62
     7
 10
648.755448
 20
2092.171814
 11
648.587975
 21
2092.476472
  0
LINE
  8
CSLAYER1
  6
CONTINUOUS
 62
     7
 10
648.587975
 20
2092.476472
 11
648.467433
 21
2092.788344
  0
LINE
  8
CSLAYER1
  6
CONTINUOUS
 62
     7
 10
648.467433
 20
2092.788344
 11
648.394739
 21
2093.105054
  0
LINE
  8
CSLAYER1
  6
CONTINUOUS
 62
     7
 10
648.394739
 20
2093.105054
 11
648.370446
 21
2093.424193
  0
LINE
  8
CSLAYER1
  6
CONTINUOUS
 62
     7
 10
651.394446
 20
2093.424193
 11
651.407231
 21
2093.592161
  0
LINE
  8
CSLAYER1
  6
CONTINUOUS
 62
     7
 10
651.407231
 20
2093.592161
 11
651.445491
 21
2093.758851
  0
LINE
  8
CSLAYER1
  6
CONTINUOUS
 62
     7
 10
651.445491
 20
2093.758851
 11
651.508935
 21
2093.922994
  0
LINE
  8
CSLAYER1
  6
CONTINUOUS
 62
     7
 10
651.508935
 20
2093.922994
 11
651.597078
 21
2094.083340
  0
LINE
  8
CSLAYER1
  6
CONTINUOUS
 62
     7
 10
651.597078
 20
2094.083340
 11
651.709251
 21
2094.238670
  0
LINE
  8
CSLAYER1
  6
CONTINUOUS
 62
     7
 10
651.709251
 20
2094.238670
 11
651.844600
 21
2094.387802
  0
LINE
  8
CSLAYER1
  6
CONTINUOUS
 62
     7
 10
651.844600
 20
2094.387802
 11
652.002095
 21
2094.529599
  0
LINE
  8
CSLAYER1
  6
CONTINUOUS
 62
     7
 10
652.002095
 20
2094.529599
 11
652.180536
 21
2094.662984
  0
LINE
  8
CSLAYER1
  6
CONTINUOUS
 62
     7
 10
652.180536
 20
2094.662984
 11
652.378567
 21
2094.786941
  0
LINE
  8
CSLAYER1
  6
CONTINUOUS
 62
     7
 10
652.378567
 20
2094.786941
 11
652.594679
 21
2094.900527
  0
LINE
  8
CSLAYER1
  6
CONTINUOUS
 62
     7
 10
652.594679
 20
2094.900527
 11
652.827229
 21
2095.002877
  0
LINE
  8
CSLAYER1
  6
CONTINUOUS
 62
     7
 10
652.827229
 20
2095.002877
 11
653.074446
 21
2095.093212
  0
LINE
  8
CSLAYER1
  6
CONTINUOUS
 62
     7
 10
653.074446
 20
2095.093212
 11
653.334448
 21
2095.170845
  0
LINE
  8
CSLAYER1
  6
CONTINUOUS
 62
     7
 10
653.334448
 20
2095.170845
 11
653.605258
 21
2095.235185
  0
LINE
  8
CSLAYER1
  6
CONTINUOUS
 62
     7
 10
653.605258
 20
2095.235185
 11
653.884814
 21
2095.285742
  0
LINE
  8
CSLAYER1
  6
CONTINUOUS
 62
     7
 10
653.884814
 20
2095.285742
 11
654.170988
 21
2095.322131
  0
LINE
  8
CSLAYER1
  6
CONTINUOUS
 62
     7
 10
654.170988
 20
2095.322131
 11
654.461602
 21
2095.344076
  0
LINE
  8
CSLAYER1
  6
CONTINUOUS
 62
     7
 10
654.461602
 20
2095.344076
 11
654.754446
 21
2095.351410
  0
LINE
  8
CSLAYER1
  6
CONTINUOUS
 62
     7
 10
654.754446
 20
2095.351410
 11
655.047289
 21
2095.344076
  0
LINE
  8
CSLAYER1
  6
CONTINUOUS
 62
     7
 10
655.047289
 20
2095.344076
 11
655.337903
 21
2095.322131
  0
LINE
  8
CSLAYER1
  6
CONTINUOUS
 62
     7
 10
655.337903
 20
2095.322131
 11
655.624078
 21
2095.285742
  0
LINE
  8
CSLAYER1
  6
CONTINUOUS
 62
     7
 10
655.624078
 20
2095.285742
 11
655.903633
 21
2095.235185
  0
LINE
  8
CSLAYER1
  6
CONTINUOUS
 62
     7
 10
655.903633
 20
2095.235185
 11
656.174443
 21
2095.170845
  0
LINE
  8
CSLAYER1
  6
CONTINUOUS
 62
     7
 10
656.174443
 20
2095.170845
 11
656.434446
 21
2095.093212
  0
LINE
  8
CSLAYER1
  6
CONTINUOUS
 62
     7
 10
656.434446
 20
2095.093212
 11
656.681662
 21
2095.002877
  0
LINE
  8
CSLAYER1
  6
CONTINUOUS
 62
     7
 10
656.681662
 20
2095.002877
 11
656.914212
 21
2094.900527
  0
LINE
  8
CSLAYER1
  6
CONTINUOUS
 62
     7
 10
656.914212
 20
2094.900527
 11
657.130324
 21
2094.786941
  0
LINE
  8
CSLAYER1
  6
CONTINUOUS
 62
     7
 10
657.130324
 20
2094.786941
 11
657.328355
 21
2094.662984
  0
LINE
  8
CSLAYER1
  6
CONTINUOUS
 62
     7
 10
657.328355
 20
2094.662984
 11
657.506796
 21
2094.529599
  0
LINE
  8
CSLAYER1
  6
CONTINUOUS
 62
     7
 10
657.506796
 20
2094.529599
 11
657.664291
 21
2094.387802
  0
LINE
  8
CSLAYER1
  6
CONTINUOUS
 62
     7
 10
657.664291
 20
2094.387802
 11
657.799640
 21
2094.238670
  0
LINE
  8
CSLAYER1
  6
CONTINUOUS
 62
     7
 10
657.799640
 20
2094.238670
 11
657.911813
 21
2094.083340
  0
LINE
  8
CSLAYER1
  6
CONTINUOUS
 62
     7
 10
657.911813
 20
2094.083340
 11
657.999956
 21
2093.922994
  0
LINE
  8
CSLAYER1
  6
CONTINUOUS
 62
     7
 10
657.999956
 20
2093.922994
 11
658.063400
 21
2093.758851
  0
LINE
  8
CSLAYER1
  6
CONTINUOUS
 62
     7
 10
658.063400
 20
2093.758851
 11
658.101660
 21
2093.592161
  0
LINE
  8
CSLAYER1
  6
CONTINUOUS
 62
     7
 10
658.101660
 20
2093.592161
 11
658.114446
 21
2093.424193
  0
LINE
  8
CSLAYER1
  6
CONTINUOUS
 62
     7
 10
658.114446
 20
2093.424193
 11
658.101660
 21
2093.256225
  0
LINE
  8
CSLAYER1
  6
CONTINUOUS
 62
     7
 10
658.101660
 20
2093.256225
 11
658.063400
 21
2093.089536
  0
LINE
  8
CSLAYER1
  6
CONTINUOUS
 62
     7
 10
658.063400
 20
2093.089536
 11
657.999956
 21
2092.925393
  0
LINE
  8
CSLAYER1
  6
CONTINUOUS
 62
     7
 10
657.999956
 20
2092.925393
 11
657.911813
 21
2092.765046
  0
LINE
  8
CSLAYER1
  6
CONTINUOUS
 62
     7
 10
657.911813
 20
2092.765046
 11
657.799640
 21
2092.609716
  0
LINE
  8
CSLAYER1
  6
CONTINUOUS
 62
     7
 10
657.799640
 20
2092.609716
 11
657.664291
 21
2092.460585
  0
LINE
  8
CSLAYER1
  6
CONTINUOUS
 62
     7
 10
657.664291
 20
2092.460585
 11
657.506796
 21
2092.318787
  0
LINE
  8
CSLAYER1
  6
CONTINUOUS
 62
     7
 10
657.506796
 20
2092.318787
 11
657.328355
 21
2092.185402
  0
LINE
  8
CSLAYER1
  6
CONTINUOUS
 62
     7
 10
657.328355
 20
2092.185402
 11
657.130324
 21
2092.061445
  0
LINE
  8
CSLAYER1
  6
CONTINUOUS
 62
     7
 10
657.130324
 20
2092.061445
 11
656.914212
 21
2091.947859
  0
LINE
  8
CSLAYER1
  6
CONTINUOUS
 62
     7
 10
656.914212
 20
2091.947859
 11
656.681662
 21
2091.845510
  0
LINE
  8
CSLAYER1
  6
CONTINUOUS
 62
     7
 10
656.681662
 20
2091.845510
 11
656.434446
 21
2091.755175
  0
LINE
  8
CSLAYER1
  6
CONTINUOUS
 62
     7
 10
656.434446
 20
2091.755175
 11
656.174443
 21
2091.677542
  0
LINE
  8
CSLAYER1
  6
CONTINUOUS
 62
     7
 10
656.174443
 20
2091.677542
 11
655.903633
 21
2091.613202
  0
LINE
  8
CSLAYER1
  6
CONTINUOUS
 62
     7
 10
655.903633
 20
2091.613202
 11
655.624078
 21
2091.562645
  0
LINE
  8
CSLAYER1
  6
CONTINUOUS
 62
     7
 10
655.624078
 20
2091.562645
 11
655.337903
 21
2091.526255
  0
LINE
  8
CSLAYER1
  6
CONTINUOUS
 62
     7
 10
655.337903
 20
2091.526255
 11
655.047289
 21
2091.504310
  0
LINE
  8
CSLAYER1
  6
CONTINUOUS
 62
     7
 10
655.047289
 20
2091.504310
 11
654.754446
 21
2091.496976
  0
LINE
  8
CSLAYER1
  6
CONTINUOUS
 62
     7
 10
654.754446
 20
2091.496976
 11
654.461602
 21
2091.504310
  0
LINE
  8
CSLAYER1
  6
CONTINUOUS
 62
     7
 10
654.461602
 20
2091.504310
 11
654.170988
 21
2091.526255
  0
LINE
  8
CSLAYER1
  6
CONTINUOUS
 62
     7
 10
654.170988
 20
2091.526255
 11
653.884814
 21
2091.562645
  0
LINE
  8
CSLAYER1
  6
CONTINUOUS
 62
     7
 10
653.884814
 20
2091.562645
 11
653.605258
 21
2091.613202
  0
LINE
  8
CSLAYER1
  6
CONTINUOUS
 62
     7
 10
653.605258
 20
2091.613202
 11
653.334448
 21
2091.677542
  0
LINE
  8
CSLAYER1
  6
CONTINUOUS
 62
     7
 10
653.334448
 20
2091.677542
 11
653.074446
 21
2091.755175
  0
LINE
  8
CSLAYER1
  6
CONTINUOUS
 62
     7
 10
653.074446
 20
2091.755175
 11
652.827229
 21
2091.845510
  0
LINE
  8
CSLAYER1
  6
CONTINUOUS
 62
     7
 10
652.827229
 20
2091.845510
 11
652.594679
 21
2091.947859
  0
LINE
  8
CSLAYER1
  6
CONTINUOUS
 62
     7
 10
652.594679
 20
2091.947859
 11
652.378567
 21
2092.061445
  0
LINE
  8
CSLAYER1
  6
CONTINUOUS
 62
     7
 10
652.378567
 20
2092.061445
 11
652.180536
 21
2092.185402
  0
LINE
  8
CSLAYER1
  6
CONTINUOUS
 62
     7
 10
652.180536
 20
2092.185402
 11
652.002095
 21
2092.318787
  0
LINE
  8
CSLAYER1
  6
CONTINUOUS
 62
     7
 10
652.002095
 20
2092.318787
 11
651.844600
 21
2092.460585
  0
LINE
  8
CSLAYER1
  6
CONTINUOUS
 62
     7
 10
651.844600
 20
2092.460585
 11
651.709251
 21
2092.609716
  0
LINE
  8
CSLAYER1
  6
CONTINUOUS
 62
     7
 10
651.709251
 20
2092.609716
 11
651.597078
 21
2092.765046
  0
LINE
  8
CSLAYER1
  6
CONTINUOUS
 62
     7
 10
651.597078
 20
2092.765046
 11
651.508935
 21
2092.925393
  0
LINE
  8
CSLAYER1
  6
CONTINUOUS
 62
     7
 10
651.508935
 20
2092.925393
 11
651.445491
 21
2093.089536
  0
LINE
  8
CSLAYER1
  6
CONTINUOUS
 62
     7
 10
651.445491
 20
2093.089536
 11
651.407231
 21
2093.256225
  0
LINE
  8
CSLAYER1
  6
CONTINUOUS
 62
     7
 10
651.407231
 20
2093.256225
 11
651.394446
 21
2093.424193
  0
LINE
  8
CSLAYER1
  6
CONTINUOUS
 62
     7
 10
661.138446
 20
2093.424193
 11
661.138446
 21
2089.795454
  0
LINE
  8
CSLAYER1
  6
CONTINUOUS
 62
     7
 10
648.370446
 20
2093.424193
 11
648.370446
 21
2089.795454
  0
LINE
  8
CSLAYER1
  6
CONTINUOUS
 62
     7
 10
658.290331
 20
2090.378716
 11
658.290331
 21
2086.749977
  0
LINE
  8
CSLAYER1
  6
CONTINUOUS
 62
     7
 10
650.971244
 20
2090.478165
 11
650.971244
 21
2086.849425
  0
LINE
  8
CSLAYER1
  6
CONTINUOUS
 62
     7
 10
661.138446
 20
2089.795454
 11
661.114153
 21
2089.476314
  0
LINE
  8
CSLAYER1
  6
CONTINUOUS
 62
     7
 10
661.114153
 20
2089.476314
 11
661.041458
 21
2089.159604
  0
LINE
  8
CSLAYER1
  6
CONTINUOUS
 62
     7
 10
661.041458
 20
2089.159604
 11
660.920916
 21
2088.847733
  0
LINE
  8
CSLAYER1
  6
CONTINUOUS
 62
     7
 10
660.920916
 20
2088.847733
 11
660.753443
 21
2088.543074
  0
LINE
  8
CSLAYER1
  6
CONTINUOUS
 62
     7
 10
660.753443
 20
2088.543074
 11
660.540314
 21
2088.247947
  0
LINE
  8
CSLAYER1
  6
CONTINUOUS
 62
     7
 10
660.540314
 20
2088.247947
 11
660.283152
 21
2087.964598
  0
LINE
  8
CSLAYER1
  6
CONTINUOUS
 62
     7
 10
660.283152
 20
2087.964598
 11
659.983912
 21
2087.695182
  0
LINE
  8
CSLAYER1
  6
CONTINUOUS
 62
     7
 10
659.983912
 20
2087.695182
 11
659.644873
 21
2087.441751
  0
LINE
  8
CSLAYER1
  6
CONTINUOUS
 62
     7
 10
659.644873
 20
2087.441751
 11
659.268615
 21
2087.206232
  0
LINE
  8
CSLAYER1
  6
CONTINUOUS
 62
     7
 10
659.268615
 20
2087.206232
 11
658.858002
 21
2086.990420
  0
LINE
  8
CSLAYER1
  6
CONTINUOUS
 62
     7
 10
658.858002
 20
2086.990420
 11
658.416158
 21
2086.795955
  0
LINE
  8
CSLAYER1
  6
CONTINUOUS
 62
     7
 10
658.416158
 20
2086.795955
 11
657.946446
 21
2086.624318
  0
LINE
  8
CSLAYER1
  6
CONTINUOUS
 62
     7
 10
657.946446
 20
2086.624318
 11
657.452441
 21
2086.476816
  0
LINE
  8
CSLAYER1
  6
CONTINUOUS
 62
     7
 10
657.452441
 20
2086.476816
 11
656.937902
 21
2086.354570
  0
LINE
  8
CSLAYER1
  6
CONTINUOUS
 62
     7
 10
656.937902
 20
2086.354570
 11
656.406746
 21
2086.258512
  0
LINE
  8
CSLAYER1
  6
CONTINUOUS
 62
     7
 10
656.406746
 20
2086.258512
 11
655.863016
 21
2086.189371
  0
LINE
  8
CSLAYER1
  6
CONTINUOUS
 62
     7
 10
655.863016
 20
2086.189371
 11
655.310848
 21
2086.147676
  0
LINE
  8
CSLAYER1
  6
CONTINUOUS
 62
     7
 10
655.310848
 20
2086.147676
 11
654.754446
 21
2086.133742
  0
LINE
  8
CSLAYER1
  6
CONTINUOUS
 62
     7
 10
654.754446
 20
2086.133742
 11
654.198043
 21
2086.147676
  0
LINE
  8
CSLAYER1
  6
CONTINUOUS
 62
     7
 10
654.198043
 20
2086.147676
 11
653.645876
 21
2086.189371
  0
LINE
  8
CSLAYER1
  6
CONTINUOUS
 62
     7
 10
653.645876
 20
2086.189371
 11
653.102145
 21
2086.258512
  0
LINE
  8
CSLAYER1
  6
CONTINUOUS
 62
     7
 10
653.102145
 20
2086.258512
 11
652.570989
 21
2086.354570
  0
LINE
  8
CSLAYER1
  6
CONTINUOUS
 62
     7
 10
652.570989
 20
2086.354570
 11
652.056451
 21
2086.476816
  0
LINE
  8
CSLAYER1
  6
CONTINUOUS
 62
     7
 10
652.056451
 20
2086.476816
 11
651.562446
 21
2086.624318
  0
LINE
  8
CSLAYER1
  6
CONTINUOUS
 62
     7
 10
651.562446
 20
2086.624318
 11
651.092734
 21
2086.795955
  0
LINE
  8
CSLAYER1
  6
CONTINUOUS
 62
     7
 10
651.092734
 20
2086.795955
 11
650.650889
 21
2086.990420
  0
LINE
  8
CSLAYER1
  6
CONTINUOUS
 62
     7
 10
650.650889
 20
2086.990420
 11
650.240276
 21
2087.206232
  0
LINE
  8
CSLAYER1
  6
CONTINUOUS
 62
     7
 10
650.240276
 20
2087.206232
 11
649.864018
 21
2087.441751
  0
LINE
  8
CSLAYER1
  6
CONTINUOUS
 62
     7
 10
649.864018
 20
2087.441751
 11
649.524979
 21
2087.695182
  0
LINE
  8
CSLAYER1
  6
CONTINUOUS
 62
     7
 10
649.524979
 20
2087.695182
 11
649.225739
 21
2087.964598
  0
LINE
  8
CSLAYER1
  6
CONTINUOUS
 62
     7
 10
649.225739
 20
2087.964598
 11
648.968577
 21
2088.247947
  0
LINE
  8
CSLAYER1
  6
CONTINUOUS
 62
     7
 10
648.968577
 20
2088.247947
 11
648.755448
 21
2088.543074
  0
LINE
  8
CSLAYER1
  6
CONTINUOUS
 62
     7
 10
648.755448
 20
2088.543074
 11
648.587975
 21
2088.847733
  0
LINE
  8
CSLAYER1
  6
CONTINUOUS
 62
     7
 10
648.587975
 20
2088.847733
 11
648.467433
 21
2089.159604
  0
LINE
  8
CSLAYER1
  6
CONTINUOUS
 62
     7
 10
648.467433
 20
2089.159604
 11
648.394739
 21
2089.476314
  0
LINE
  8
CSLAYER1
  6
CONTINUOUS
 62
     7
 10
648.394739
 20
2089.476314
 11
648.370446
 21
2089.795454
  0
LINE
  8
CSLAYER1
  6
CONTINUOUS
 62
     7
 10
650.971244
 20
2076.632835
 11
650.971244
 21
2076.083785
  0
LINE
  8
CSLAYER1
  6
CONTINUOUS
 62
     7
 10
661.138446
 20
2079.029814
 11
661.114153
 21
2078.710675
  0
LINE
  8
CSLAYER1
  6
CONTINUOUS
 62
     7
 10
661.114153
 20
2078.710675
 11
661.041458
 21
2078.393964
  0
LINE
  8
CSLAYER1
  6
CONTINUOUS
 62
     7
 10
661.041458
 20
2078.393964
 11
660.920916
 21
2078.082093
  0
LINE
  8
CSLAYER1
  6
CONTINUOUS
 62
     7
 10
660.920916
 20
2078.082093
 11
660.753443
 21
2077.777435
  0
LINE
  8
CSLAYER1
  6
CONTINUOUS
 62
     7
 10
660.753443
 20
2077.777435
 11
660.540314
 21
2077.482308
  0
LINE
  8
CSLAYER1
  6
CONTINUOUS
 62
     7
 10
660.540314
 20
2077.482308
 11
660.283152
 21
2077.198958
  0
LINE
  8
CSLAYER1
  6
CONTINUOUS
 62
     7
 10
660.283152
 20
2077.198958
 11
659.983912
 21
2076.929542
  0
LINE
  8
CSLAYER1
  6
CONTINUOUS
 62
     7
 10
659.983912
 20
2076.929542
 11
659.644873
 21
2076.676111
  0
LINE
  8
CSLAYER1
  6
CONTINUOUS
 62
     7
 10
659.644873
 20
2076.676111
 11
659.268615
 21
2076.440593
  0
LINE
  8
CSLAYER1
  6
CONTINUOUS
 62
     7
 10
659.268615
 20
2076.440593
 11
658.858002
 21
2076.224780
  0
LINE
  8
CSLAYER1
  6
CONTINUOUS
 62
     7
 10
658.858002
 20
2076.224780
 11
658.416158
 21
2076.030315
  0
LINE
  8
CSLAYER1
  6
CONTINUOUS
 62
     7
 10
658.416158
 20
2076.030315
 11
657.946446
 21
2075.858678
  0
LINE
  8
CSLAYER1
  6
CONTINUOUS
 62
     7
 10
657.946446
 20
2075.858678
 11
657.452441
 21
2075.711176
  0
LINE
  8
CSLAYER1
  6
CONTINUOUS
 62
     7
 10
657.452441
 20
2075.711176
 11
656.937902
 21
2075.588930
  0
LINE
  8
CSLAYER1
  6
CONTINUOUS
 62
     7
 10
656.937902
 20
2075.588930
 11
656.406746
 21
2075.492872
  0
LINE
  8
CSLAYER1
  6
CONTINUOUS
 62
     7
 10
656.406746
 20
2075.492872
 11
655.863016
 21
2075.423732
  0
LINE
  8
CSLAYER1
  6
CONTINUOUS
 62
     7
 10
655.863016
 20
2075.423732
 11
655.310848
 21
2075.382036
  0
LINE
  8
CSLAYER1
  6
CONTINUOUS
 62
     7
 10
655.310848
 20
2075.382036
 11
654.754446
 21
2075.368102
  0
LINE
  8
CSLAYER1
  6
CONTINUOUS
 62
     7
 10
654.754446
 20
2075.368102
 11
654.198043
 21
2075.382036
  0
LINE
  8
CSLAYER1
  6
CONTINUOUS
 62
     7
 10
654.198043
 20
2075.382036
 11
653.645876
 21
2075.423732
  0
LINE
  8
CSLAYER1
  6
CONTINUOUS
 62
     7
 10
653.645876
 20
2075.423732
 11
653.102145
 21
2075.492872
  0
LINE
  8
CSLAYER1
  6
CONTINUOUS
 62
     7
 10
653.102145
 20
2075.492872
 11
652.570989
 21
2075.588930
  0
LINE
  8
CSLAYER1
  6
CONTINUOUS
 62
     7
 10
652.570989
 20
2075.588930
 11
652.056451
 21
2075.711176
  0
LINE
  8
CSLAYER1
  6
CONTINUOUS
 62
     7
 10
652.056451
 20
2075.711176
 11
651.562446
 21
2075.858678
  0
LINE
  8
CSLAYER1
  6
CONTINUOUS
 62
     7
 10
651.562446
 20
2075.858678
 11
651.092734
 21
2076.030315
  0
LINE
  8
CSLAYER1
  6
CONTINUOUS
 62
     7
 10
651.092734
 20
2076.030315
 11
650.650889
 21
2076.224780
  0
LINE
  8
CSLAYER1
  6
CONTINUOUS
 62
     7
 10
650.650889
 20
2076.224780
 11
650.470200
 21
2076.319748
  0
LINE
  8
CSLAYER1
  6
CONTINUOUS
 62
     7
 10
661.138446
 20
2084.076694
 11
661.138446
 21
2079.029814
  0
LINE
  8
CSLAYER1
  6
CONTINUOUS
 62
     7
 10
658.114446
 20
2071.445288
 11
658.114446
 21
2075.920067
  0
LINE
  8
CSLAYER1
  6
CONTINUOUS
 62
     7
 10
651.394446
 20
2071.445288
 11
651.394446
 21
2075.920067
  0
LINE
  8
CSLAYER1
  6
CONTINUOUS
 62
     7
 10
658.114446
 20
2071.445288
 11
658.101660
 21
2071.277320
  0
LINE
  8
CSLAYER1
  6
CONTINUOUS
 62
     7
 10
658.101660
 20
2071.277320
 11
658.063400
 21
2071.110631
  0
LINE
  8
CSLAYER1
  6
CONTINUOUS
 62
     7
 10
658.063400
 20
2071.110631
 11
657.999956
 21
2070.946488
  0
LINE
  8
CSLAYER1
  6
CONTINUOUS
 62
     7
 10
657.999956
 20
2070.946488
 11
657.911813
 21
2070.786141
  0
LINE
  8
CSLAYER1
  6
CONTINUOUS
 62
     7
 10
657.911813
 20
2070.786141
 11
657.799640
 21
2070.630811
  0
LINE
  8
CSLAYER1
  6
CONTINUOUS
 62
     7
 10
657.799640
 20
2070.630811
 11
657.664291
 21
2070.481680
  0
LINE
  8
CSLAYER1
  6
CONTINUOUS
 62
     7
 10
657.664291
 20
2070.481680
 11
657.506796
 21
2070.339882
  0
LINE
  8
CSLAYER1
  6
CONTINUOUS
 62
     7
 10
657.506796
 20
2070.339882
 11
657.328355
 21
2070.206497
  0
LINE
  8
CSLAYER1
  6
CONTINUOUS
 62
     7
 10
657.328355
 20
2070.206497
 11
657.130324
 21
2070.082540
  0
LINE
  8
CSLAYER1
  6
CONTINUOUS
 62
     7
 10
657.130324
 20
2070.082540
 11
656.914212
 21
2069.968955
  0
LINE
  8
CSLAYER1
  6
CONTINUOUS
 62
     7
 10
656.914212
 20
2069.968955
 11
656.681662
 21
2069.866605
  0
LINE
  8
CSLAYER1
  6
CONTINUOUS
 62
     7
 10
656.681662
 20
2069.866605
 11
656.434446
 21
2069.776270
  0
LINE
  8
CSLAYER1
  6
CONTINUOUS
 62
     7
 10
656.434446
 20
2069.776270
 11
656.174443
 21
2069.698637
  0
LINE
  8
CSLAYER1
  6
CONTINUOUS
 62
     7
 10
656.174443
 20
2069.698637
 11
655.903633
 21
2069.634297
  0
LINE
  8
CSLAYER1
  6
CONTINUOUS
 62
     7
 10
655.903633
 20
2069.634297
 11
655.624078
 21
2069.583740
  0
LINE
  8
CSLAYER1
  6
CONTINUOUS
 62
     7
 10
655.624078
 20
2069.583740
 11
655.337903
 21
2069.547350
  0
LINE
  8
CSLAYER1
  6
CONTINUOUS
 62
     7
 10
655.337903
 20
2069.547350
 11
655.047289
 21
2069.525405
  0
LINE
  8
CSLAYER1
  6
CONTINUOUS
 62
     7
 10
655.047289
 20
2069.525405
 11
654.754446
 21
2069.518071
  0
LINE
  8
CSLAYER1
  6
CONTINUOUS
 62
     7
 10
654.754446
 20
2069.518071
 11
654.461602
 21
2069.525405
  0
LINE
  8
CSLAYER1
  6
CONTINUOUS
 62
     7
 10
654.461602
 20
2069.525405
 11
654.170988
 21
2069.547350
  0
LINE
  8
CSLAYER1
  6
CONTINUOUS
 62
     7
 10
654.170988
 20
2069.547350
 11
653.884814
 21
2069.583740
  0
LINE
  8
CSLAYER1
  6
CONTINUOUS
 62
     7
 10
653.884814
 20
2069.583740
 11
653.605258
 21
2069.634297
  0
LINE
  8
CSLAYER1
  6
CONTINUOUS
 62
     7
 10
653.605258
 20
2069.634297
 11
653.334448
 21
2069.698637
  0
LINE
  8
CSLAYER1
  6
CONTINUOUS
 62
     7
 10
653.334448
 20
2069.698637
 11
653.074446
 21
2069.776270
  0
LINE
  8
CSLAYER1
  6
CONTINUOUS
 62
     7
 10
653.074446
 20
2069.776270
 11
652.827229
 21
2069.866605
  0
LINE
  8
CSLAYER1
  6
CONTINUOUS
 62
     7
 10
652.827229
 20
2069.866605
 11
652.594679
 21
2069.968955
  0
LINE
  8
CSLAYER1
  6
CONTINUOUS
 62
     7
 10
652.594679
 20
2069.968955
 11
652.378567
 21
2070.082540
  0
LINE
  8
CSLAYER1
  6
CONTINUOUS
 62
     7
 10
652.378567
 20
2070.082540
 11
652.180536
 21
2070.206497
  0
LINE
  8
CSLAYER1
  6
CONTINUOUS
 62
     7
 10
652.180536
 20
2070.206497
 11
652.002095
 21
2070.339882
  0
LINE
  8
CSLAYER1
  6
CONTINUOUS
 62
     7
 10
652.002095
 20
2070.339882
 11
651.844600
 21
2070.481680
  0
LINE
  8
CSLAYER1
  6
CONTINUOUS
 62
     7
 10
651.844600
 20
2070.481680
 11
651.709251
 21
2070.630811
  0
LINE
  8
CSLAYER1
  6
CONTINUOUS
 62
     7
 10
651.709251
 20
2070.630811
 11
651.597078
 21
2070.786141
  0
LINE
  8
CSLAYER1
  6
CONTINUOUS
 62
     7
 10
651.597078
 20
2070.786141
 11
651.508935
 21
2070.946488
  0
LINE
  8
CSLAYER1
  6
CONTINUOUS
 62
     7
 10
651.508935
 20
2070.946488
 11
651.445491
 21
2071.110631
  0
LINE
  8
CSLAYER1
  6
CONTINUOUS
 62
     7
 10
651.445491
 20
2071.110631
 11
651.407231
 21
2071.277320
  0
LINE
  8
CSLAYER1
  6
CONTINUOUS
 62
     7
 10
651.407231
 20
2071.277320
 11
651.394446
 21
2071.445288
  0
LINE
  8
CSLAYER1
  6
CONTINUOUS
 62
     7
 10
656.337342
 20
2084.698379
 11
641.833591
 21
2089.977313
  0
LINE
  8
CSLAYER1
  6
CONTINUOUS
 62
     7
 10
656.337342
 20
2084.698379
 11
656.337342
 21
2079.985945
  0
LINE
  8
CSLAYER1
  6
CONTINUOUS
 62
     7
 10
643.623195
 20
2089.325950
 11
648.370446
 21
2092.292361
  0
LINE
  8
CSLAYER1
  6
CONTINUOUS
 62
     7
 10
656.337342
 20
2083.498440
 11
663.570251
 21
2088.018063
  0
LINE
  8
CSLAYER1
  6
CONTINUOUS
 62
     7
 10
656.337342
 20
2081.076631
 11
662.906512
 21
2085.181504
  0
ARC
  8
CSLAYER1
  6
CONTINUOUS
 62
     7
 10
657.159131
 20
2084.488225
 40
7.403380
 50
30.339165
 51
57.486408
  0
ARC
  8
CSLAYER1
  6
CONTINUOUS
 62
     7
 10
658.818453
 20
2087.634023
 40
4.767292
 50
-30.960488
 51
7.154948
  0
ENDBLK
  8
0
  0
BLOCK
  8
CSLAYER1
  2
BLKF0009
 70
   64
 10
0.0
 20
0.0
 30
0.0
  0
ARC
  8
CSLAYER1
  6
CONTINUOUS
 62
     3
 10
1473.491251
 20
1520.390436
 40
9.500000
 50
-190.922071
 51
10.922071
  0
LINE
  8
CSLAYER1
  6
CONTINUOUS
 62
     3
 10
1463.991251
 20
1522.190436
 11
1463.991251
 21
1514.905608
  0
LINE
  8
CSLAYER1
  6
CONTINUOUS
 62
     3
 10
1463.991251
 20
1514.905608
 11
1473.491251
 21
1509.420781
  0
LINE
  8
CSLAYER1
  6
CONTINUOUS
 62
     3
 10
1473.491251
 20
1509.420781
 11
1482.991251
 21
1514.905608
  0
LINE
  8
CSLAYER1
  6
CONTINUOUS
 62
     3
 10
1482.991251
 20
1514.905608
 11
1482.991251
 21
1522.190436
  0
POINT
  8
CSLAYER1
 62
     3
 10
1473.491251
 20
1520.390436
  0
LINE
  8
CSLAYER1
  6
CONTINUOUS
 62
     3
 10
1451.191251
 20
1540.190436
 11
1451.191251
 21
1522.190436
  0
LINE
  8
CSLAYER1
  6
CONTINUOUS
 62
     3
 10
2351.191251
 20
1540.190436
 11
2351.191251
 21
1522.190436
  0
LINE
  8
CSLAYER1
  6
CONTINUOUS
 62
     3
 10
1503.491251
 20
1507.890436
 11
2333.491251
 21
1507.890436
  0
LINE
  8
CSLAYER1
  6
CONTINUOUS
 62
     3
 10
1451.191251
 20
1540.190436
 11
2351.191251
 21
1540.190436
  0
LINE
  8
CSLAYER1
  6
CONTINUOUS
 62
     3
 10
1451.191251
 20
1522.190436
 11
2351.191251
 21
1522.190436
  0
LINE
  8
CSLAYER1
  6
CONTINUOUS
 62
     3
 10
1453.491251
 20
1522.190436
 11
1453.491251
 21
1514.890436
  0
LINE
  8
CSLAYER1
  6
CONTINUOUS
 62
     3
 10
1451.191251
 20
1522.190436
 11
1453.491251
 21
1522.190436
  0
LINE
  8
CSLAYER1
  6
CONTINUOUS
 62
     3
 10
1458.491251
 20
1509.890436
 11
1472.677785
 21
1509.890436
  0
ARC
  8
CSLAYER1
  6
CONTINUOUS
 62
     3
 10
1458.491251
 20
1514.890436
 40
5.000000
 50
180.000000
 51
270.000000
  0
LINE
  8
CSLAYER1
  6
CONTINUOUS
 62
     3
 10
2333.491251
 20
1522.190436
 11
2333.491251
 21
1507.890436
  0
LINE
  8
CSLAYER1
  6
CONTINUOUS
 62
     3
 10
1503.491251
 20
1518.890436
 11
1478.491251
 21
1509.890436
  0
LINE
  8
CSLAYER1
  6
CONTINUOUS
 62
     3
 10
1503.491251
 20
1522.190436
 11
1503.491251
 21
1507.890436
  0
ARC
  8
CSLAYER1
  6
DASHED
 62
     5
 10
1964.160538
 20
1520.390436
 40
13.000000
 50
-74.057631
 51
254.057631
  0
POINT
  8
CSLAYER1
 62
     4
 10
1964.160538
 20
1520.390436
  0
POINT
  8
CSLAYER1
 62
     7
 10
1473.491251
 20
1520.390436
  0
ARC
  8
CSLAYER1
  6
CONTINUOUS
 62
     4
 10
1964.160538
 20
1520.390436
 40
13.000000
 50
254.057631
 51
285.942369
  0
LINE
  8
CSLAYER1
  6
CONTINUOUS
 62
     3
 10
1474.304718
 20
1509.890436
 11
1478.491251
 21
1509.890436
  0
LINE
  8
CSLAYER1
  6
CENTER
 62
     5
 10
1473.491251
 20
1530.990509
 11
1473.491251
 21
1508.337801
  0
LINE
  8
CSLAYER1
  6
CENTER
 62
     5
 10
1462.511355
 20
1520.390436
 11
1484.736653
 21
1520.390436
  0
LINE
  8
CSLAYER1
  6
CENTER
 62
     5
 10
1964.160538
 20
1536.664260
 11
1964.160538
 21
1503.146714
  0
LINE
  8
CSLAYER1
  6
CENTER
 62
     5
 10
1948.240882
 20
1520.390436
 11
1980.311627
 21
1520.390436
  0
ENDBLK
  8
0
  0
BLOCK
  8
CSLAYER1
  2
BLKF0010
 70
   64
 10
0.0
 20
0.0
 30
0.0
  0
LINE
  8
CSLAYER1
  6
CONTINUOUS
 62
     3
 10
1471.082225
 20
829.897026
 11
1471.082225
 21
863.897026
  0
LINE
  8
CSLAYER1
  6
CONTINUOUS
 62
     3
 10
1427.082225
 20
829.897026
 11
1477.082225
 21
829.897026
  0
LINE
  8
CSLAYER1
  6
CONTINUOUS
 62
     3
 10
1477.082225
 20
823.897026
 11
1477.082225
 21
829.897026
  0
ENDBLK
  8
0
  0
BLOCK
  8
CSLAYER1
  2
BLKF0011
 70
   64
 10
0.0
 20
0.0
 30
0.0
  0
TEXT
  8
CSLAYER1
 62
     7
 10
1209.223999
 20
1359.177124
 40
40.000000
 41
0.787500
  1
テーブルのズレ
 50
0.000000
 51
0.000000
  7
EASYDRAW_FONT
 72
     5
 11
1419.223999
 21
1359.177124
  0
DIMENSION
  8
CSLAYER1
 62
     3
  2
*D0005
 10
1451.191251
 20
1295.571898
 11
1343.073608
 21
1317.794800
 13
1429.782225
 23
888.897026
 14
1451.191251
 24
1540.190436
  0
INSERT
  8
CSLAYER1
  2
EASYDRAWDIM0006
 10
0.0
 20
0.0
 30
0.0
  0
ENDBLK
  8
0
  0
ENDSEC
  0
SECTION
  2
ENTITIES
  0
LINE
  8
CSLAYER1
  6
CONTINUOUS
 62
     3
 10
204.679732
 20
2454.596572
 11
204.679732
 21
106.049642
  0
LINE
  8
CSLAYER1
  6
CONTINUOUS
 62
     3
 10
3527.253043
 20
2454.596572
 11
204.679732
 21
2454.596572
  0
LINE
  8
CSLAYER1
  6
CONTINUOUS
 62
     3
 10
3527.253043
 20
2454.596572
 11
3527.253043
 21
106.049642
  0
LINE
  8
CSLAYER1
  6
CONTINUOUS
 62
     3
 10
3527.253043
 20
106.049642
 11
204.679732
 21
106.049642
  0
LINE
  8
CSLAYER1
  6
CONTINUOUS
 62
     5
 10
154.679732
 20
1266.049642
 11
104.679732
 21
1266.049642
  0
LINE
  8
CSLAYER1
  6
CONTINUOUS
 62
     5
 10
2727.253043
 20
546.049642
 11
3527.253043
 21
546.049642
  0
LINE
  8
CSLAYER1
  6
CONTINUOUS
 62
     5
 10
2727.253043
 20
186.049642
 11
3527.253043
 21
186.049642
  0
LINE
  8
CSLAYER1
  6
CONTINUOUS
 62
     5
 10
2727.253043
 20
346.049642
 11
3527.253043
 21
346.049642
  0
LINE
  8
CSLAYER1
  6
CONTINUOUS
 62
     5
 10
2727.253043
 20
406.049642
 11
3527.253043
 21
406.049642
  0
LINE
  8
CSLAYER1
  6
CONTINUOUS
 62
     5
 10
2727.253043
 20
466.049642
 11
3527.253043
 21
466.049642
  0
LINE
  8
CSLAYER1
  6
CONTINUOUS
 62
     5
 10
2727.253043
 20
626.049642
 11
3527.253043
 21
626.049642
  0
LINE
  8
CSLAYER1
  6
CONTINUOUS
 62
     5
 10
2727.253043
 20
706.049642
 11
2727.253043
 21
106.049642
  0
LINE
  8
CSLAYER1
  6
CONTINUOUS
 62
     5
 10
2927.253043
 20
706.049642
 11
2927.253043
 21
466.049642
  0
LINE
  8
CSLAYER1
  6
CONTINUOUS
 62
     5
 10
2727.253043
 20
706.049642
 11
3527.253043
 21
706.049642
  0
LINE
  8
CSLAYER1
  6
CONTINUOUS
 62
     5
 10
3227.253043
 20
466.049642
 11
3227.253043
 21
186.049642
  0
TEXT
  8
CSLAYER1
 62
     3
 10
2946.944149
 20
114.612370
 40
59.380363
 41
1.003345
  1
東正車輌株式会社
 50
0.000000
 51
0.000000
  7
EASYDRAW_FONT
 72
     5
 11
3403.716496
 21
114.612370
  0
LINE
  8
CSLAYER1
  6
CONTINUOUS
 62
     5
 10
2977.253043
 20
406.049642
 11
2977.253043
 21
186.049642
  0
TEXT
  8
CSLAYER1
 62
     5
 10
2757.252930
 20
641.049622
 40
50.000000
 41
1.050000
  1
品　名
 50
0.000000
 51
0.000000
  7
EASYDRAW_FONT
 72
     5
 11
2897.252930
 21
641.049622
  0
TEXT
  8
CSLAYER1
 62
     5
 10
2757.252930
 20
561.049622
 40
50.000000
 41
1.050000
  1
型　式
 50
0.000000
 51
0.000000
  7
EASYDRAW_FONT
 72
     5
 11
2897.252930
 21
561.049622
  0
TEXT
  8
CSLAYER1
 62
     5
 10
2732.252930
 20
481.049652
 40
50.000000
 41
1.036364
  1
図面番号
 50
0.000000
 51
0.000000
  7
EASYDRAW_FONT
 72
     5
 11
2922.252930
 21
481.049652
  0
TEXT
  8
CSLAYER1
 62
     5
 10
2757.252930
 20
411.049652
 40
50.000000
 41
0.825000
  1
平成26年01月10日
 50
0.000000
 51
0.000000
  7
EASYDRAW_FONT
 72
     5
 11
3197.252930
 21
411.049652
  0
TEXT
  8
CSLAYER1
 62
     5
 10
3307.252930
 20
411.049652
 40
50.000000
 41
1.050000
  1
Ｂ－４
 50
0.000000
 51
0.000000
  7
EASYDRAW_FONT
 72
     5
 11
3447.252930
 21
411.049652
  0
TEXT
  8
CSLAYER1
 62
     5
 10
2782.252930
 20
351.049652
 40
50.000000
 41
1.050000
  1
検　図
 50
0.000000
 51
0.000000
  7
EASYDRAW_FONT
 72
     5
 11
2922.252930
 21
351.049652
  0
TEXT
  8
CSLAYER1
 62
     5
 10
3032.252930
 20
351.049652
 40
50.000000
 41
1.050000
  1
作　図
 50
0.000000
 51
0.000000
  7
EASYDRAW_FONT
 72
     5
 11
3172.252930
 21
351.049652
  0
TEXT
  8
CSLAYER1
 62
     5
 10
3307.252930
 20
351.049652
 40
50.000000
 41
1.050000
  1
尺　度
 50
0.000000
 51
0.000000
  7
EASYDRAW_FONT
 72
     5
 11
3447.252930
 21
351.049652
  0
TEXT
  8
CSLAYER1
 62
     5
 10
3407.991699
 20
200.534912
 40
50.000000
 41
1.080000
  1
１０
 50
0.000000
 51
0.000000
  7
EASYDRAW_FONT
 72
     5
 11
3497.991699
 21
200.534912
  0
TEXT
  8
CSLAYER1
 62
     5
 10
3387.672119
 20
248.239594
 40
50.000000
 41
1.200000
  1
／
 50
0.000000
 51
0.000000
  7
EASYDRAW_FONT
 72
     5
 11
3427.672119
 21
248.239594
  0
TEXT
  8
CSLAYER1
 62
     5
 10
3357.459229
 20
283.223053
 40
50.000000
 41
1.200000
  1
１
 50
0.000000
 51
0.000000
  7
EASYDRAW_FONT
 72
     5
 11
3397.459229
 21
283.223053
  0
TEXT
  8
CSLAYER1
 62
     3
 10
3067.252930
 20
641.049622
 40
50.000000
 41
0.834783
  1
ゴールドリフター
 50
0.000000
 51
0.000000
  7
EASYDRAW_FONT
 72
     5
 11
3387.252930
 21
641.049622
  0
TEXT
  8
CSLAYER1
 62
     3
 10
2967.252930
 20
561.049622
 40
50.000000
 41
0.821053
  1
GLSH-150-3009
 50
0.000000
 51
0.000000
  7
EASYDRAW_FONT
 72
     5
 11
3487.252930
 21
561.049622
  0
INSERT
  8
CSLAYER1
  2
BLKF0000
 10
0.0
 20
0.0
 30
0.0
  0
LINE
  8
CSLAYER1
  6
CONTINUOUS
 62
     5
 10
3503.253043
 20
2364.596572
 11
2623.253043
 21
2364.596572
  0
LINE
  8
CSLAYER1
  6
CONTINUOUS
 62
     5
 10
3503.253043
 20
2311.263239
 11
2623.253043
 21
2311.263239
  0
LINE
  8
CSLAYER1
  6
CONTINUOUS
 62
     5
 10
3503.253043
 20
2257.929906
 11
2623.253043
 21
2257.929906
  0
LINE
  8
CSLAYER1
  6
CONTINUOUS
 62
     5
 10
3503.253043
 20
2151.263239
 11
2623.253043
 21
2151.263239
  0
LINE
  8
CSLAYER1
  6
CONTINUOUS
 62
     5
 10
3503.253043
 20
2044.596572
 11
2623.253043
 21
2044.596572
  0
LINE
  8
CSLAYER1
  6
CONTINUOUS
 62
     5
 10
3503.253043
 20
1831.263239
 11
2623.253043
 21
1831.263239
  0
LINE
  8
CSLAYER1
  6
CONTINUOUS
 62
     5
 10
3503.253043
 20
1831.263236
 11
2623.253043
 21
1831.263236
  0
LINE
  8
CSLAYER1
  6
CONTINUOUS
 62
     5
 10
3503.253043
 20
1777.929902
 11
2623.253043
 21
1777.929902
  0
TEXT
  8
CSLAYER1
 62
     3
 10
2636.586182
 20
2371.263184
 40
40.000000
 41
0.838235
  1
仕    様
 50
0.000000
 51
0.000000
  7
EASYDRAW_FONT
 72
     5
 11
2826.586182
 21
2371.263184
  0
TEXT
  8
CSLAYER1
 62
     3
 10
2636.586182
 20
2317.929932
 40
40.000000
 41
0.838235
  1
型    式
 50
0.000000
 51
0.000000
  7
EASYDRAW_FONT
 72
     5
 11
2826.586182
 21
2317.929932
  0
TEXT
  8
CSLAYER1
 62
     3
 10
3001.586182
 20
2317.929932
 40
40.000000
 41
0.817105
  1
GLSH-150-3009
 50
0.000000
 51
0.000000
  7
EASYDRAW_FONT
 72
     5
 11
3415.586182
 21
2317.929932
  0
TEXT
  8
CSLAYER1
 62
     3
 10
2636.586182
 20
2264.596680
 40
40.000000
 41
0.859091
  1
均等荷重
 50
0.000000
 51
0.000000
  7
EASYDRAW_FONT
 72
     5
 11
2762.586182
 21
2264.596680
  0
TEXT
  8
CSLAYER1
 62
     3
 10
3427.919434
 20
2264.596680
 40
40.000000
 41
0.930000
  1
ｋｇ
 50
0.000000
 51
0.000000
  7
EASYDRAW_FONT
 72
     5
 11
3489.919434
 21
2264.596680
  0
TEXT
  8
CSLAYER1
 62
     3
 10
2636.586182
 20
2157.929688
 40
40.000000
 41
0.838235
  1
テーブル高サ
 50
0.000000
 51
0.000000
  7
EASYDRAW_FONT
 72
     5
 11
2826.586182
 21
2157.929688
  0
TEXT
  8
CSLAYER1
 62
     3
 10
3427.919434
 20
2157.929688
 40
40.000000
 41
0.930000
  1
ｍｍ
 50
0.000000
 51
0.000000
  7
EASYDRAW_FONT
 72
     5
 11
3489.919434
 21
2157.929688
  0
TEXT
  8
CSLAYER1
 62
     3
 10
2636.586182
 20
2051.262939
 40
40.000000
 41
0.838235
  1
全    長
 50
0.000000
 51
0.000000
  7
EASYDRAW_FONT
 72
     5
 11
2826.586182
 21
2051.262939
  0
TEXT
  8
CSLAYER1
 62
     3
 10
3161.586182
 20
2051.262939
 40
40.000000
 41
0.881250
  1
903
 50
0.000000
 51
0.000000
  7
EASYDRAW_FONT
 72
     5
 11
3255.586182
 21
2051.262939
  0
TEXT
  8
CSLAYER1
 62
     3
 10
3145.586182
 20
1837.929565
 40
40.000000
 41
0.859091
  1
約 28
 50
0.000000
 51
0.000000
  7
EASYDRAW_FONT
 72
     5
 11
3271.586182
 21
1837.929565
  0
TEXT
  8
CSLAYER1
 62
     3
 10
2636.586182
 20
1837.929565
 40
40.000000
 41
0.846429
  1
ポンプ回数
 50
0.000000
 51
0.000000
  7
EASYDRAW_FONT
 72
     5
 11
2794.586182
 21
1837.929565
  0
TEXT
  8
CSLAYER1
 62
     3
 10
2636.586182
 20
1784.596313
 40
40.000000
 41
0.832500
  1
自     重
 50
0.000000
 51
0.000000
  7
EASYDRAW_FONT
 72
     5
 11
2858.586182
 21
1784.596313
  0
TEXT
  8
CSLAYER1
 62
     3
 10
2636.586182
 20
1731.263062
 40
40.000000
 41
0.832500
  1
塗  装  色
 50
0.000000
 51
0.000000
  7
EASYDRAW_FONT
 72
     5
 11
2858.586182
 21
1731.263062
  0
TEXT
  8
CSLAYER1
 62
     3
 10
3161.586182
 20
2264.596680
 40
40.000000
 41
0.881250
  1
150
 50
0.000000
 51
0.000000
  7
EASYDRAW_FONT
 72
     5
 11
3255.586182
 21
2264.596680
  0
TEXT
  8
CSLAYER1
 62
     3
 10
3113.586182
 20
2157.929688
 40
40.000000
 41
0.838235
  1
65～700
 50
0.000000
 51
0.000000
  7
EASYDRAW_FONT
 72
     5
 11
3303.586182
 21
2157.929688
  0
TEXT
  8
CSLAYER1
 62
     3
 10
3427.919434
 20
2051.262939
 40
40.000000
 41
0.930000
  1
ｍｍ
 50
0.000000
 51
0.000000
  7
EASYDRAW_FONT
 72
     5
 11
3489.919434
 21
2051.262939
  0
LINE
  8
CSLAYER1
  6
CONTINUOUS
 62
     5
 10
3503.253043
 20
1991.263239
 11
2623.253043
 21
1991.263239
  0
TEXT
  8
CSLAYER1
 62
     3
 10
2636.586182
 20
1997.929565
 40
40.000000
 41
0.838235
  1
全    幅
 50
0.000000
 51
0.000000
  7
EASYDRAW_FONT
 72
     5
 11
2826.586182
 21
1997.929565
  0
TEXT
  8
CSLAYER1
 62
     3
 10
3161.586182
 20
1997.929565
 40
40.000000
 41
0.881250
  1
300
 50
0.000000
 51
0.000000
  7
EASYDRAW_FONT
 72
     5
 11
3255.586182
 21
1997.929565
  0
TEXT
  8
CSLAYER1
 62
     3
 10
3427.919434
 20
1997.929565
 40
40.000000
 41
0.930000
  1
ｍｍ
 50
0.000000
 51
0.000000
  7
EASYDRAW_FONT
 72
     5
 11
3489.919434
 21
1997.929565
  0
TEXT
  8
CSLAYER1
 62
     3
 10
3427.919434
 20
1784.596313
 40
40.000000
 41
0.930000
  1
ｋｇ
 50
0.000000
 51
0.000000
  7
EASYDRAW_FONT
 72
     5
 11
3489.919434
 21
1784.596313
  0
LINE
  8
CSLAYER1
  6
CONTINUOUS
 62
     5
 10
3503.253043
 20
2204.596572
 11
2623.253043
 21
2204.596572
  0
TEXT
  8
CSLAYER1
 62
     3
 10
2636.586182
 20
2211.263428
 40
40.000000
 41
0.838235
  1
テーブル寸法
 50
0.000000
 51
0.000000
  7
EASYDRAW_FONT
 72
     5
 11
2826.586182
 21
2211.263428
  0
TEXT
  8
CSLAYER1
 62
     3
 10
3427.919434
 20
2211.263428
 40
40.000000
 41
0.930000
  1
ｍｍ
 50
0.000000
 51
0.000000
  7
EASYDRAW_FONT
 72
     5
 11
3489.919434
 21
2211.263428
  0
TEXT
  8
CSLAYER1
 62
     3
 10
3065.586182
 20
2211.263428
 40
40.000000
 41
0.825000
  1
900L×300W
 50
0.000000
 51
0.000000
  7
EASYDRAW_FONT
 72
     5
 11
3351.586182
 21
2211.263428
  0
LINE
  8
CSLAYER1
  6
CONTINUOUS
 62
     5
 10
3503.253043
 20
2097.929906
 11
2623.253043
 21
2097.929906
  0
TEXT
  8
CSLAYER1
 62
     3
 10
3427.919434
 20
2104.596436
 40
40.000000
 41
0.930000
  1
ｍｍ
 50
0.000000
 51
0.000000
  7
EASYDRAW_FONT
 72
     5
 11
3489.919434
 21
2104.596436
  0
TEXT
  8
CSLAYER1
 62
     3
 10
3161.586182
 20
2104.596436
 40
40.000000
 41
0.881250
  1
635
 50
0.000000
 51
0.000000
  7
EASYDRAW_FONT
 72
     5
 11
3255.586182
 21
2104.596436
  0
TEXT
  8
CSLAYER1
 62
     3
 10
2638.418701
 20
2104.596436
 40
40.000000
 41
0.846429
  1
ストローク
 50
0.000000
 51
0.000000
  7
EASYDRAW_FONT
 72
     5
 11
2796.418701
 21
2104.596436
  0
LINE
  8
CSLAYER1
  6
CONTINUOUS
 62
     5
 10
3503.253043
 20
1937.929906
 11
2623.253043
 21
1937.929906
  0
TEXT
  8
CSLAYER1
 62
     3
 10
2636.586182
 20
1944.596313
 40
40.000000
 41
0.838235
  1
全    高
 50
0.000000
 51
0.000000
  7
EASYDRAW_FONT
 72
     5
 11
2826.586182
 21
1944.596313
  0
TEXT
  8
CSLAYER1
 62
     3
 10
3161.586182
 20
1944.596313
 40
40.000000
 41
0.881250
  1
 65
 50
0.000000
 51
0.000000
  7
EASYDRAW_FONT
 72
     5
 11
3255.586182
 21
1944.596313
  0
TEXT
  8
CSLAYER1
 62
     3
 10
3427.919434
 20
1944.596313
 40
40.000000
 41
0.930000
  1
ｍｍ
 50
0.000000
 51
0.000000
  7
EASYDRAW_FONT
 72
     5
 11
3489.919434
 21
1944.596313
  0
LINE
  8
CSLAYER1
  6
CONTINUOUS
 62
     5
 10
3503.253043
 20
1884.596572
 11
2623.253043
 21
1884.596572
  0
TEXT
  8
CSLAYER1
 62
     3
 10
2636.586182
 20
1891.262939
 40
40.000000
 41
0.846429
  1
リフト方式
 50
0.000000
 51
0.000000
  7
EASYDRAW_FONT
 72
     5
 11
2794.586182
 21
1891.262939
  0
TEXT
  8
CSLAYER1
 62
     3
 10
3129.586182
 20
1891.262939
 40
40.000000
 41
0.846429
  1
足踏油圧式
 50
0.000000
 51
0.000000
  7
EASYDRAW_FONT
 72
     5
 11
3287.586182
 21
1891.262939
  0
LINE
  8
CSLAYER1
  6
CONTINUOUS
 62
     5
 10
2927.253043
 20
1724.596569
 11
2927.253043
 21
2364.596572
  0
TEXT
  8
CSLAYER1
 62
     3
 10
3459.919434
 20
1837.929688
 40
40.000000
 41
1.125000
  1
回
 50
0.000000
 51
0.000000
  7
EASYDRAW_FONT
 72
     5
 11
3489.919434
 21
1837.929688
  0
LINE
  8
CSLAYER2
  6
CONTINUOUS
 62
     5
 10
254.679732
 20
1700.486983
 11
254.679732
 21
2404.596572
  0
LINE
  8
CSLAYER2
  6
CONTINUOUS
 62
     5
 10
1055.973863
 20
2404.596572
 11
254.679732
 21
2404.596572
  0
INSERT
  8
CSLAYER1
  2
BLKF0001
 10
0.0
 20
0.0
 30
0.0
  0
INSERT
  8
CSLAYER1
  2
BLKF0002
 10
0.0
 20
0.0
 30
0.0
  0
LINE
  8
CSLAYER1
  6
CONTINUOUS
 62
     7
 10
683.826835
 20
1843.014361
 11
811.353131
 21
1985.035122
  0
LINE
  8
CSLAYER1
  6
CONTINUOUS
 62
     7
 10
460.650943
 20
1930.832381
 11
646.022714
 21
1999.871360
  0
LINE
  8
CSLAYER1
  6
CONTINUOUS
 62
     7
 10
465.716524
 20
1916.877647
 11
685.179181
 21
1998.613273
  0
LINE
  8
CSLAYER1
  6
CONTINUOUS
 62
     7
 10
672.220068
 20
1852.906250
 11
763.981953
 21
1955.097664
  0
LINE
  8
CSLAYER1
  6
CONTINUOUS
 62
     7
 10
794.497084
 20
2132.148644
 11
794.497084
 21
2026.752386
  0
LINE
  8
CSLAYER1
  6
CONTINUOUS
 62
     7
 10
794.497084
 20
2132.148644
 11
674.517130
 21
2175.817776
  0
LINE
  8
CSLAYER1
  6
CONTINUOUS
 62
     7
 10
766.002668
 20
1948.457952
 11
794.497084
 21
1966.263239
  0
LINE
  8
CSLAYER1
  6
CONTINUOUS
 62
     7
 10
766.002668
 20
2114.343356
 11
766.002668
 21
1948.457952
  0
LINE
  8
CSLAYER1
  6
CONTINUOUS
 62
     7
 10
766.002668
 20
2114.343356
 11
794.497084
 21
2132.148644
  0
LINE
  8
CSLAYER1
  6
CONTINUOUS
 62
     7
 10
674.911275
 20
2172.067739
 11
674.911275
 21
2137.241700
  0
LINE
  8
CSLAYER1
  6
CONTINUOUS
 62
     7
 10
646.022714
 20
2158.012488
 11
674.517130
 21
2175.817776
  0
LINE
  8
CSLAYER1
  6
CONTINUOUS
 62
     7
 10
766.002668
 20
1948.457952
 11
763.981953
 21
1949.193432
  0
LINE
  8
CSLAYER1
  6
CONTINUOUS
 62
     7
 10
763.981953
 20
1973.396999
 11
694.570655
 21
1998.660646
  0
LINE
  8
CSLAYER1
  6
CONTINUOUS
 62
     7
 10
790.652726
 20
2131.744585
 11
674.714202
 21
2173.942757
  0
LINE
  8
CSLAYER1
  6
CONTINUOUS
 62
     7
 10
723.845599
 20
2089.998859
 11
790.652726
 21
2131.744585
  0
LINE
  8
CSLAYER1
  6
CONTINUOUS
 62
     7
 10
766.002668
 20
2114.343356
 11
763.981953
 21
2115.078837
  0
LINE
  8
CSLAYER1
  6
CONTINUOUS
 62
     7
 10
763.981953
 20
2115.078837
 11
763.981953
 21
1973.396999
  0
LINE
  8
CSLAYER1
  6
CONTINUOUS
 62
     7
 10
646.022714
 20
2158.012488
 11
646.022714
 21
2156.014325
  0
LINE
  8
CSLAYER1
  6
CONTINUOUS
 62
     7
 10
646.022714
 20
2158.012488
 11
674.517130
 21
2175.817776
  0
LINE
  8
CSLAYER1
  6
CONTINUOUS
 62
     7
 10
648.043429
 20
2157.277008
 11
674.714202
 21
2173.942757
  0
LINE
  8
CSLAYER1
  6
CONTINUOUS
 62
     7
 10
648.043429
 20
2157.277008
 11
646.022714
 21
2158.012488
  0
LINE
  8
CSLAYER1
  6
CONTINUOUS
 62
     7
 10
648.043429
 20
1989.222054
 11
664.496635
 21
1999.503159
  0
LINE
  8
CSLAYER1
  6
CONTINUOUS
 62
     7
 10
721.824884
 20
2090.734339
 11
786.808368
 21
2131.340527
  0
LINE
  8
CSLAYER1
  6
CONTINUOUS
 62
     7
 10
720.245413
 20
2087.884898
 11
720.245413
 21
2020.799142
  0
LINE
  8
CSLAYER1
  6
CONTINUOUS
 62
     7
 10
722.266128
 20
2087.149418
 11
722.266128
 21
2021.153496
  0
LINE
  8
CSLAYER1
  6
CONTINUOUS
 62
     7
 10
786.808368
 20
2131.340527
 11
769.884880
 21
2137.500173
  0
LINE
  8
CSLAYER1
  6
CONTINUOUS
 62
     7
 10
720.245413
 20
2089.205017
 11
611.197760
 21
2128.895116
  0
LINE
  8
CSLAYER1
  6
CONTINUOUS
 62
     7
 10
720.245413
 20
2022.005017
 11
686.765200
 21
2034.190818
  0
LINE
  8
CSLAYER1
  6
CONTINUOUS
 62
     7
 10
611.507261
 20
2132.448514
 11
674.911275
 21
2172.067739
  0
LINE
  8
CSLAYER1
  6
CONTINUOUS
 62
     7
 10
609.486546
 20
2133.183994
 11
646.022714
 21
2156.014325
  0
LINE
  8
CSLAYER1
  6
CONTINUOUS
 62
     7
 10
606.327604
 20
2127.485111
 11
606.327604
 21
2061.630029
  0
LINE
  8
CSLAYER1
  6
CONTINUOUS
 62
     7
 10
608.348319
 20
2126.749631
 11
608.348319
 21
2062.616188
  0
LINE
  8
CSLAYER1
  6
CONTINUOUS
 62
     7
 10
611.197760
 20
2128.895116
 11
611.197760
 21
2061.695116
  0
LINE
  8
CSLAYER1
  6
CONTINUOUS
 62
     7
 10
611.197760
 20
2128.895116
 11
643.090099
 21
2148.823661
  0
LINE
  8
CSLAYER1
  6
CONTINUOUS
 62
     7
 10
751.589270
 20
2109.333192
 11
643.090099
 21
2148.823661
  0
LINE
  8
CSLAYER1
  6
CONTINUOUS
 62
     7
 10
727.406656
 20
2018.304055
 11
763.981953
 21
2041.158837
  0
LINE
  8
CSLAYER1
  6
CONTINUOUS
 62
     7
 10
724.248136
 20
2018.090005
 11
721.192711
 21
2019.202089
  0
LINE
  8
CSLAYER1
  6
CONTINUOUS
 62
     7
 10
670.264214
 20
1997.403932
 11
647.305240
 21
2005.760315
  0
LINE
  8
CSLAYER1
  6
CONTINUOUS
 62
     7
 10
670.264214
 20
1997.403932
 11
674.160893
 21
1999.838847
  0
LINE
  8
CSLAYER1
  6
CONTINUOUS
 62
     7
 10
654.366123
 20
2044.036747
 11
655.651274
 21
2044.839799
  0
LINE
  8
CSLAYER1
  6
CONTINUOUS
 62
     7
 10
662.208238
 20
2031.218804
 11
663.613799
 21
2032.097096
  0
LINE
  8
CSLAYER1
  6
CONTINUOUS
 62
     7
 10
655.651274
 20
2044.839799
 11
655.984931
 21
2045.014579
  0
LINE
  8
CSLAYER1
  6
CONTINUOUS
 62
     7
 10
655.984931
 20
2045.014579
 11
656.346349
 21
2045.139540
  0
LINE
  8
CSLAYER1
  6
CONTINUOUS
 62
     7
 10
656.346349
 20
2045.139540
 11
656.732776
 21
2045.213729
  0
LINE
  8
CSLAYER1
  6
CONTINUOUS
 62
     7
 10
656.732776
 20
2045.213729
 11
657.141272
 21
2045.236582
  0
LINE
  8
CSLAYER1
  6
CONTINUOUS
 62
     7
 10
657.141272
 20
2045.236582
 11
657.568728
 21
2045.207926
  0
LINE
  8
CSLAYER1
  6
CONTINUOUS
 62
     7
 10
657.568728
 20
2045.207926
 11
658.011891
 21
2045.127979
  0
LINE
  8
CSLAYER1
  6
CONTINUOUS
 62
     7
 10
658.011891
 20
2045.127979
 11
658.467388
 21
2044.997348
  0
LINE
  8
CSLAYER1
  6
CONTINUOUS
 62
     7
 10
658.467388
 20
2044.997348
 11
658.931753
 21
2044.817029
  0
LINE
  8
CSLAYER1
  6
CONTINUOUS
 62
     7
 10
658.931753
 20
2044.817029
 11
659.401450
 21
2044.588393
  0
LINE
  8
CSLAYER1
  6
CONTINUOUS
 62
     7
 10
659.401450
 20
2044.588393
 11
659.872907
 21
2044.313180
  0
LINE
  8
CSLAYER1
  6
CONTINUOUS
 62
     7
 10
659.872907
 20
2044.313180
 11
660.342534
 21
2043.993486
  0
LINE
  8
CSLAYER1
  6
CONTINUOUS
 62
     7
 10
660.342534
 20
2043.993486
 11
660.806758
 21
2043.631743
  0
LINE
  8
CSLAYER1
  6
CONTINUOUS
 62
     7
 10
660.806758
 20
2043.631743
 11
661.262045
 21
2043.230704
  0
LINE
  8
CSLAYER1
  6
CONTINUOUS
 62
     7
 10
661.262045
 20
2043.230704
 11
661.704931
 21
2042.793421
  0
LINE
  8
CSLAYER1
  6
CONTINUOUS
 62
     7
 10
661.704931
 20
2042.793421
 11
662.132045
 21
2042.323222
  0
LINE
  8
CSLAYER1
  6
CONTINUOUS
 62
     7
 10
662.132045
 20
2042.323222
 11
662.540135
 21
2041.823687
  0
LINE
  8
CSLAYER1
  6
CONTINUOUS
 62
     7
 10
662.540135
 20
2041.823687
 11
662.926098
 21
2041.298616
  0
LINE
  8
CSLAYER1
  6
CONTINUOUS
 62
     7
 10
662.926098
 20
2041.298616
 11
663.286994
 21
2040.752006
  0
LINE
  8
CSLAYER1
  6
CONTINUOUS
 62
     7
 10
663.286994
 20
2040.752006
 11
663.620077
 21
2040.188016
  0
LINE
  8
CSLAYER1
  6
CONTINUOUS
 62
     7
 10
663.620077
 20
2040.188016
 11
663.922813
 21
2039.610940
  0
LINE
  8
CSLAYER1
  6
CONTINUOUS
 62
     7
 10
663.922813
 20
2039.610940
 11
664.192898
 21
2039.025168
  0
LINE
  8
CSLAYER1
  6
CONTINUOUS
 62
     7
 10
664.192898
 20
2039.025168
 11
664.428275
 21
2038.435160
  0
LINE
  8
CSLAYER1
  6
CONTINUOUS
 62
     7
 10
664.428275
 20
2038.435160
 11
664.627154
 21
2037.845405
  0
LINE
  8
CSLAYER1
  6
CONTINUOUS
 62
     7
 10
664.627154
 20
2037.845405
 11
664.788020
 21
2037.260391
  0
LINE
  8
CSLAYER1
  6
CONTINUOUS
 62
     7
 10
664.788020
 20
2037.260391
 11
664.909651
 21
2036.684572
  0
LINE
  8
CSLAYER1
  6
CONTINUOUS
 62
     7
 10
664.909651
 20
2036.684572
 11
664.991119
 21
2036.122329
  0
LINE
  8
CSLAYER1
  6
CONTINUOUS
 62
     7
 10
664.991119
 20
2036.122329
 11
665.031806
 21
2035.577941
  0
LINE
  8
CSLAYER1
  6
CONTINUOUS
 62
     7
 10
665.031806
 20
2035.577941
 11
665.031400
 21
2035.055552
  0
LINE
  8
CSLAYER1
  6
CONTINUOUS
 62
     7
 10
665.031400
 20
2035.055552
 11
664.989906
 21
2034.559137
  0
LINE
  8
CSLAYER1
  6
CONTINUOUS
 62
     7
 10
664.989906
 20
2034.559137
 11
664.907639
 21
2034.092474
  0
LINE
  8
CSLAYER1
  6
CONTINUOUS
 62
     7
 10
664.907639
 20
2034.092474
 11
664.785226
 21
2033.659116
  0
LINE
  8
CSLAYER1
  6
CONTINUOUS
 62
     7
 10
664.785226
 20
2033.659116
 11
664.623597
 21
2033.262358
  0
LINE
  8
CSLAYER1
  6
CONTINUOUS
 62
     7
 10
664.623597
 20
2033.262358
 11
664.423984
 21
2032.905223
  0
LINE
  8
CSLAYER1
  6
CONTINUOUS
 62
     7
 10
664.423984
 20
2032.905223
 11
664.187904
 21
2032.590427
  0
LINE
  8
CSLAYER1
  6
CONTINUOUS
 62
     7
 10
664.187904
 20
2032.590427
 11
663.917156
 21
2032.320366
  0
LINE
  8
CSLAYER1
  6
CONTINUOUS
 62
     7
 10
663.917156
 20
2032.320366
 11
663.613799
 21
2032.097096
  0
LINE
  8
CSLAYER1
  6
CONTINUOUS
 62
     7
 10
654.382018
 20
2044.032908
 11
654.579371
 21
2044.136288
  0
LINE
  8
CSLAYER1
  6
CONTINUOUS
 62
     7
 10
654.579371
 20
2044.136288
 11
654.940788
 21
2044.261248
  0
LINE
  8
CSLAYER1
  6
CONTINUOUS
 62
     7
 10
654.940788
 20
2044.261248
 11
655.327215
 21
2044.335437
  0
LINE
  8
CSLAYER1
  6
CONTINUOUS
 62
     7
 10
655.327215
 20
2044.335437
 11
655.735711
 21
2044.358291
  0
LINE
  8
CSLAYER1
  6
CONTINUOUS
 62
     7
 10
655.735711
 20
2044.358291
 11
656.163168
 21
2044.329635
  0
LINE
  8
CSLAYER1
  6
CONTINUOUS
 62
     7
 10
656.163168
 20
2044.329635
 11
656.606331
 21
2044.249687
  0
LINE
  8
CSLAYER1
  6
CONTINUOUS
 62
     7
 10
656.606331
 20
2044.249687
 11
657.061828
 21
2044.119057
  0
LINE
  8
CSLAYER1
  6
CONTINUOUS
 62
     7
 10
657.061828
 20
2044.119057
 11
657.526192
 21
2043.938737
  0
LINE
  8
CSLAYER1
  6
CONTINUOUS
 62
     7
 10
657.526192
 20
2043.938737
 11
657.995890
 21
2043.710101
  0
LINE
  8
CSLAYER1
  6
CONTINUOUS
 62
     7
 10
657.995890
 20
2043.710101
 11
658.467347
 21
2043.434889
  0
LINE
  8
CSLAYER1
  6
CONTINUOUS
 62
     7
 10
658.467347
 20
2043.434889
 11
658.936974
 21
2043.115194
  0
LINE
  8
CSLAYER1
  6
CONTINUOUS
 62
     7
 10
658.936974
 20
2043.115194
 11
659.401198
 21
2042.753451
  0
LINE
  8
CSLAYER1
  6
CONTINUOUS
 62
     7
 10
663.585559
 20
2035.244037
 11
663.626245
 21
2034.699650
  0
LINE
  8
CSLAYER1
  6
CONTINUOUS
 62
     7
 10
663.626245
 20
2034.699650
 11
663.625840
 21
2034.177260
  0
LINE
  8
CSLAYER1
  6
CONTINUOUS
 62
     7
 10
663.625840
 20
2034.177260
 11
663.584346
 21
2033.680846
  0
LINE
  8
CSLAYER1
  6
CONTINUOUS
 62
     7
 10
663.584346
 20
2033.680846
 11
663.502079
 21
2033.214183
  0
LINE
  8
CSLAYER1
  6
CONTINUOUS
 62
     7
 10
663.502079
 20
2033.214183
 11
663.379665
 21
2032.780824
  0
LINE
  8
CSLAYER1
  6
CONTINUOUS
 62
     7
 10
663.379665
 20
2032.780824
 11
663.218037
 21
2032.384067
  0
LINE
  8
CSLAYER1
  6
CONTINUOUS
 62
     7
 10
663.218037
 20
2032.384067
 11
663.018423
 21
2032.026931
  0
LINE
  8
CSLAYER1
  6
CONTINUOUS
 62
     7
 10
663.018423
 20
2032.026931
 11
662.782344
 21
2031.712135
  0
LINE
  8
CSLAYER1
  6
CONTINUOUS
 62
     7
 10
662.782344
 20
2031.712135
 11
662.511595
 21
2031.442075
  0
LINE
  8
CSLAYER1
  6
CONTINUOUS
 62
     7
 10
662.511595
 20
2031.442075
 11
662.208238
 21
2031.218804
  0
LINE
  8
CSLAYER1
  6
CONTINUOUS
 62
     7
 10
648.043429
 20
1989.222054
 11
646.022714
 21
1989.957535
  0
LINE
  8
CSLAYER1
  6
CONTINUOUS
 62
     7
 10
648.043429
 20
2005.491636
 11
648.043429
 21
1989.222054
  0
LINE
  8
CSLAYER1
  6
CONTINUOUS
 62
     7
 10
646.022714
 20
2000.453772
 11
646.022714
 21
1999.871360
  0
LINE
  8
CSLAYER1
  6
CONTINUOUS
 62
     7
 10
627.649223
 20
2115.262296
 11
627.858132
 21
2115.371730
  0
LINE
  8
CSLAYER1
  6
CONTINUOUS
 62
     7
 10
627.858132
 20
2115.371730
 11
628.084422
 21
2115.449969
  0
LINE
  8
CSLAYER1
  6
CONTINUOUS
 62
     7
 10
628.084422
 20
2115.449969
 11
628.326371
 21
2115.496421
  0
LINE
  8
CSLAYER1
  6
CONTINUOUS
 62
     7
 10
628.326371
 20
2115.496421
 11
628.582138
 21
2115.510730
  0
LINE
  8
CSLAYER1
  6
CONTINUOUS
 62
     7
 10
628.582138
 20
2115.510730
 11
628.849776
 21
2115.492788
  0
LINE
  8
CSLAYER1
  6
CONTINUOUS
 62
     7
 10
628.849776
 20
2115.492788
 11
629.127248
 21
2115.442731
  0
LINE
  8
CSLAYER1
  6
CONTINUOUS
 62
     7
 10
629.127248
 20
2115.442731
 11
629.412443
 21
2115.360941
  0
LINE
  8
CSLAYER1
  6
CONTINUOUS
 62
     7
 10
629.412443
 20
2115.360941
 11
629.703190
 21
2115.248040
  0
LINE
  8
CSLAYER1
  6
CONTINUOUS
 62
     7
 10
629.703190
 20
2115.248040
 11
629.997276
 21
2115.104887
  0
LINE
  8
CSLAYER1
  6
CONTINUOUS
 62
     7
 10
629.997276
 20
2115.104887
 11
630.292464
 21
2114.932571
  0
LINE
  8
CSLAYER1
  6
CONTINUOUS
 62
     7
 10
630.292464
 20
2114.932571
 11
630.586506
 21
2114.732405
  0
LINE
  8
CSLAYER1
  6
CONTINUOUS
 62
     7
 10
630.586506
 20
2114.732405
 11
630.877165
 21
2114.505911
  0
LINE
  8
CSLAYER1
  6
CONTINUOUS
 62
     7
 10
630.877165
 20
2114.505911
 11
631.162229
 21
2114.254813
  0
LINE
  8
CSLAYER1
  6
CONTINUOUS
 62
     7
 10
631.162229
 20
2114.254813
 11
631.439527
 21
2113.981022
  0
LINE
  8
CSLAYER1
  6
CONTINUOUS
 62
     7
 10
631.439527
 20
2113.981022
 11
631.706951
 21
2113.686622
  0
LINE
  8
CSLAYER1
  6
CONTINUOUS
 62
     7
 10
631.706951
 20
2113.686622
 11
631.962464
 21
2113.373854
  0
LINE
  8
CSLAYER1
  6
CONTINUOUS
 62
     7
 10
631.962464
 20
2113.373854
 11
632.204122
 21
2113.045098
  0
LINE
  8
CSLAYER1
  6
CONTINUOUS
 62
     7
 10
632.204122
 20
2113.045098
 11
632.430085
 21
2112.702855
  0
LINE
  8
CSLAYER1
  6
CONTINUOUS
 62
     7
 10
632.430085
 20
2112.702855
 11
632.638635
 21
2112.349731
  0
LINE
  8
CSLAYER1
  6
CONTINUOUS
 62
     7
 10
632.638635
 20
2112.349731
 11
632.828183
 21
2111.988413
  0
LINE
  8
CSLAYER1
  6
CONTINUOUS
 62
     7
 10
632.828183
 20
2111.988413
 11
632.997288
 21
2111.621651
  0
LINE
  8
CSLAYER1
  6
CONTINUOUS
 62
     7
 10
632.997288
 20
2111.621651
 11
633.144662
 21
2111.252236
  0
LINE
  8
CSLAYER1
  6
CONTINUOUS
 62
     7
 10
633.144662
 20
2111.252236
 11
633.269184
 21
2110.882980
  0
LINE
  8
CSLAYER1
  6
CONTINUOUS
 62
     7
 10
633.269184
 20
2110.882980
 11
633.369905
 21
2110.516692
  0
LINE
  8
CSLAYER1
  6
CONTINUOUS
 62
     7
 10
633.369905
 20
2110.516692
 11
633.446060
 21
2110.156161
  0
LINE
  8
CSLAYER1
  6
CONTINUOUS
 62
     7
 10
633.446060
 20
2110.156161
 11
633.497069
 21
2109.804131
  0
LINE
  8
CSLAYER1
  6
CONTINUOUS
 62
     7
 10
633.497069
 20
2109.804131
 11
633.522543
 21
2109.463280
  0
LINE
  8
CSLAYER1
  6
CONTINUOUS
 62
     7
 10
633.522543
 20
2109.463280
 11
633.522290
 21
2109.136203
  0
LINE
  8
CSLAYER1
  6
CONTINUOUS
 62
     7
 10
633.522290
 20
2109.136203
 11
633.496310
 21
2108.825388
  0
LINE
  8
CSLAYER1
  6
CONTINUOUS
 62
     7
 10
633.496310
 20
2108.825388
 11
633.444801
 21
2108.533202
  0
LINE
  8
CSLAYER1
  6
CONTINUOUS
 62
     7
 10
633.444801
 20
2108.533202
 11
633.368156
 21
2108.261869
  0
LINE
  8
CSLAYER1
  6
CONTINUOUS
 62
     7
 10
633.368156
 20
2108.261869
 11
633.266957
 21
2108.013452
  0
LINE
  8
CSLAYER1
  6
CONTINUOUS
 62
     7
 10
633.266957
 20
2108.013452
 11
633.141975
 21
2107.789843
  0
LINE
  8
CSLAYER1
  6
CONTINUOUS
 62
     7
 10
633.141975
 20
2107.789843
 11
632.994162
 21
2107.592743
  0
LINE
  8
CSLAYER1
  6
CONTINUOUS
 62
     7
 10
632.994162
 20
2107.592743
 11
632.824641
 21
2107.423653
  0
LINE
  8
CSLAYER1
  6
CONTINUOUS
 62
     7
 10
632.824641
 20
2107.423653
 11
632.634704
 21
2107.283860
  0
LINE
  8
CSLAYER1
  6
CONTINUOUS
 62
     7
 10
632.634704
 20
2107.283860
 11
632.425795
 21
2107.174427
  0
LINE
  8
CSLAYER1
  6
CONTINUOUS
 62
     7
 10
632.425795
 20
2107.174427
 11
632.199505
 21
2107.096187
  0
LINE
  8
CSLAYER1
  6
CONTINUOUS
 62
     7
 10
632.199505
 20
2107.096187
 11
631.957556
 21
2107.049736
  0
LINE
  8
CSLAYER1
  6
CONTINUOUS
 62
     7
 10
631.957556
 20
2107.049736
 11
631.701790
 21
2107.035427
  0
LINE
  8
CSLAYER1
  6
CONTINUOUS
 62
     7
 10
631.701790
 20
2107.035427
 11
631.434152
 21
2107.053369
  0
LINE
  8
CSLAYER1
  6
CONTINUOUS
 62
     7
 10
631.434152
 20
2107.053369
 11
631.156679
 21
2107.103425
  0
LINE
  8
CSLAYER1
  6
CONTINUOUS
 62
     7
 10
631.156679
 20
2107.103425
 11
630.871484
 21
2107.185216
  0
LINE
  8
CSLAYER1
  6
CONTINUOUS
 62
     7
 10
630.871484
 20
2107.185216
 11
630.580737
 21
2107.298117
  0
LINE
  8
CSLAYER1
  6
CONTINUOUS
 62
     7
 10
630.580737
 20
2107.298117
 11
630.286651
 21
2107.441270
  0
LINE
  8
CSLAYER1
  6
CONTINUOUS
 62
     7
 10
630.286651
 20
2107.441270
 11
629.991463
 21
2107.613585
  0
LINE
  8
CSLAYER1
  6
CONTINUOUS
 62
     7
 10
629.991463
 20
2107.613585
 11
629.697421
 21
2107.813752
  0
LINE
  8
CSLAYER1
  6
CONTINUOUS
 62
     7
 10
629.697421
 20
2107.813752
 11
629.406762
 21
2108.040246
  0
LINE
  8
CSLAYER1
  6
CONTINUOUS
 62
     7
 10
629.406762
 20
2108.040246
 11
629.121699
 21
2108.291344
  0
LINE
  8
CSLAYER1
  6
CONTINUOUS
 62
     7
 10
629.121699
 20
2108.291344
 11
628.844400
 21
2108.565134
  0
LINE
  8
CSLAYER1
  6
CONTINUOUS
 62
     7
 10
628.844400
 20
2108.565134
 11
628.576977
 21
2108.859534
  0
LINE
  8
CSLAYER1
  6
CONTINUOUS
 62
     7
 10
628.576977
 20
2108.859534
 11
628.321464
 21
2109.172302
  0
LINE
  8
CSLAYER1
  6
CONTINUOUS
 62
     7
 10
628.321464
 20
2109.172302
 11
628.079806
 21
2109.501059
  0
LINE
  8
CSLAYER1
  6
CONTINUOUS
 62
     7
 10
628.079806
 20
2109.501059
 11
627.853842
 21
2109.843301
  0
LINE
  8
CSLAYER1
  6
CONTINUOUS
 62
     7
 10
627.853842
 20
2109.843301
 11
627.645292
 21
2110.196425
  0
LINE
  8
CSLAYER1
  6
CONTINUOUS
 62
     7
 10
627.645292
 20
2110.196425
 11
627.455744
 21
2110.557743
  0
LINE
  8
CSLAYER1
  6
CONTINUOUS
 62
     7
 10
627.455744
 20
2110.557743
 11
627.286639
 21
2110.924505
  0
LINE
  8
CSLAYER1
  6
CONTINUOUS
 62
     7
 10
627.286639
 20
2110.924505
 11
627.139265
 21
2111.293920
  0
LINE
  8
CSLAYER1
  6
CONTINUOUS
 62
     7
 10
627.139265
 20
2111.293920
 11
627.014744
 21
2111.663177
  0
LINE
  8
CSLAYER1
  6
CONTINUOUS
 62
     7
 10
627.014744
 20
2111.663177
 11
626.914022
 21
2112.029464
  0
LINE
  8
CSLAYER1
  6
CONTINUOUS
 62
     7
 10
626.914022
 20
2112.029464
 11
626.837867
 21
2112.389995
  0
LINE
  8
CSLAYER1
  6
CONTINUOUS
 62
     7
 10
626.837867
 20
2112.389995
 11
626.786858
 21
2112.742026
  0
LINE
  8
CSLAYER1
  6
CONTINUOUS
 62
     7
 10
626.786858
 20
2112.742026
 11
626.761384
 21
2113.082876
  0
LINE
  8
CSLAYER1
  6
CONTINUOUS
 62
     7
 10
626.761384
 20
2113.082876
 11
626.761638
 21
2113.409954
  0
LINE
  8
CSLAYER1
  6
CONTINUOUS
 62
     7
 10
626.761638
 20
2113.409954
 11
626.787618
 21
2113.720768
  0
LINE
  8
CSLAYER1
  6
CONTINUOUS
 62
     7
 10
626.787618
 20
2113.720768
 11
626.839127
 21
2114.012954
  0
LINE
  8
CSLAYER1
  6
CONTINUOUS
 62
     7
 10
626.839127
 20
2114.012954
 11
626.915772
 21
2114.284288
  0
LINE
  8
CSLAYER1
  6
CONTINUOUS
 62
     7
 10
626.915772
 20
2114.284288
 11
627.016970
 21
2114.532705
  0
LINE
  8
CSLAYER1
  6
CONTINUOUS
 62
     7
 10
627.016970
 20
2114.532705
 11
627.141952
 21
2114.756314
  0
LINE
  8
CSLAYER1
  6
CONTINUOUS
 62
     7
 10
627.141952
 20
2114.756314
 11
627.289766
 21
2114.953413
  0
LINE
  8
CSLAYER1
  6
CONTINUOUS
 62
     7
 10
627.289766
 20
2114.953413
 11
627.459286
 21
2115.122503
  0
LINE
  8
CSLAYER1
  6
CONTINUOUS
 62
     7
 10
627.459286
 20
2115.122503
 11
627.649223
 21
2115.262296
  0
LINE
  8
CSLAYER1
  6
CONTINUOUS
 62
     7
 10
693.658406
 20
2167.047631
 11
693.658406
 21
2130.418303
  0
LINE
  8
CSLAYER1
  6
CONTINUOUS
 62
     7
 10
691.834763
 20
2165.908093
 11
693.658406
 21
2167.047631
  0
LINE
  8
CSLAYER1
  6
CONTINUOUS
 62
     7
 10
691.834763
 20
2165.908093
 11
691.834763
 21
2131.082054
  0
LINE
  8
CSLAYER1
  6
CONTINUOUS
 62
     7
 10
691.834763
 20
2165.908093
 11
674.911275
 21
2172.067739
  0
LINE
  8
CSLAYER1
  6
CONTINUOUS
 62
     7
 10
769.884880
 20
2137.500173
 11
771.708523
 21
2138.639712
  0
LINE
  8
CSLAYER1
  6
CONTINUOUS
 62
     7
 10
769.884880
 20
2137.500173
 11
769.884880
 21
2120.765558
  0
LINE
  8
CSLAYER1
  6
CONTINUOUS
 62
     7
 10
680.397677
 20
2160.868726
 11
680.621507
 21
2160.985976
  0
LINE
  8
CSLAYER1
  6
CONTINUOUS
 62
     7
 10
680.621507
 20
2160.985976
 11
680.863961
 21
2161.069805
  0
LINE
  8
CSLAYER1
  6
CONTINUOUS
 62
     7
 10
680.863961
 20
2161.069805
 11
681.123192
 21
2161.119574
  0
LINE
  8
CSLAYER1
  6
CONTINUOUS
 62
     7
 10
681.123192
 20
2161.119574
 11
681.397228
 21
2161.134905
  0
LINE
  8
CSLAYER1
  6
CONTINUOUS
 62
     7
 10
681.397228
 20
2161.134905
 11
681.683983
 21
2161.115681
  0
LINE
  8
CSLAYER1
  6
CONTINUOUS
 62
     7
 10
681.683983
 20
2161.115681
 11
681.981274
 21
2161.062049
  0
LINE
  8
CSLAYER1
  6
CONTINUOUS
 62
     7
 10
681.981274
 20
2161.062049
 11
682.286840
 21
2160.974417
  0
LINE
  8
CSLAYER1
  6
CONTINUOUS
 62
     7
 10
682.286840
 20
2160.974417
 11
682.598355
 21
2160.853451
  0
LINE
  8
CSLAYER1
  6
CONTINUOUS
 62
     7
 10
682.598355
 20
2160.853451
 11
682.913448
 21
2160.700073
  0
LINE
  8
CSLAYER1
  6
CONTINUOUS
 62
     7
 10
682.913448
 20
2160.700073
 11
683.229720
 21
2160.515449
  0
LINE
  8
CSLAYER1
  6
CONTINUOUS
 62
     7
 10
683.229720
 20
2160.515449
 11
683.544765
 21
2160.300985
  0
LINE
  8
CSLAYER1
  6
CONTINUOUS
 62
     7
 10
683.544765
 20
2160.300985
 11
683.856185
 21
2160.058313
  0
LINE
  8
CSLAYER1
  6
CONTINUOUS
 62
     7
 10
683.856185
 20
2160.058313
 11
684.161611
 21
2159.789280
  0
LINE
  8
CSLAYER1
  6
CONTINUOUS
 62
     7
 10
684.161611
 20
2159.789280
 11
684.458716
 21
2159.495933
  0
LINE
  8
CSLAYER1
  6
CONTINUOUS
 62
     7
 10
684.458716
 20
2159.495933
 11
684.745242
 21
2159.180504
  0
LINE
  8
CSLAYER1
  6
CONTINUOUS
 62
     7
 10
684.745242
 20
2159.180504
 11
685.019005
 21
2158.845395
  0
LINE
  8
CSLAYER1
  6
CONTINUOUS
 62
     7
 10
685.019005
 20
2158.845395
 11
685.277925
 21
2158.493156
  0
LINE
  8
CSLAYER1
  6
CONTINUOUS
 62
     7
 10
685.277925
 20
2158.493156
 11
685.520028
 21
2158.126468
  0
LINE
  8
CSLAYER1
  6
CONTINUOUS
 62
     7
 10
685.520028
 20
2158.126468
 11
685.743475
 21
2157.748121
  0
LINE
  8
CSLAYER1
  6
CONTINUOUS
 62
     7
 10
685.743475
 20
2157.748121
 11
685.946562
 21
2157.360994
  0
LINE
  8
CSLAYER1
  6
CONTINUOUS
 62
     7
 10
685.946562
 20
2157.360994
 11
686.127746
 21
2156.968035
  0
LINE
  8
CSLAYER1
  6
CONTINUOUS
 62
     7
 10
686.127746
 20
2156.968035
 11
686.285646
 21
2156.572233
  0
LINE
  8
CSLAYER1
  6
CONTINUOUS
 62
     7
 10
686.285646
 20
2156.572233
 11
686.419062
 21
2156.176601
  0
LINE
  8
CSLAYER1
  6
CONTINUOUS
 62
     7
 10
686.419062
 20
2156.176601
 11
686.526978
 21
2155.784151
  0
LINE
  8
CSLAYER1
  6
CONTINUOUS
 62
     7
 10
686.526978
 20
2155.784151
 11
686.608573
 21
2155.397867
  0
LINE
  8
CSLAYER1
  6
CONTINUOUS
 62
     7
 10
686.608573
 20
2155.397867
 11
686.663225
 21
2155.020692
  0
LINE
  8
CSLAYER1
  6
CONTINUOUS
 62
     7
 10
686.663225
 20
2155.020692
 11
686.690519
 21
2154.655495
  0
LINE
  8
CSLAYER1
  6
CONTINUOUS
 62
     7
 10
686.690519
 20
2154.655495
 11
686.690248
 21
2154.305055
  0
LINE
  8
CSLAYER1
  6
CONTINUOUS
 62
     7
 10
686.690248
 20
2154.305055
 11
686.662412
 21
2153.972039
  0
LINE
  8
CSLAYER1
  6
CONTINUOUS
 62
     7
 10
686.662412
 20
2153.972039
 11
686.607224
 21
2153.658983
  0
LINE
  8
CSLAYER1
  6
CONTINUOUS
 62
     7
 10
686.607224
 20
2153.658983
 11
686.525104
 21
2153.368268
  0
LINE
  8
CSLAYER1
  6
CONTINUOUS
 62
     7
 10
686.525104
 20
2153.368268
 11
686.416677
 21
2153.102107
  0
LINE
  8
CSLAYER1
  6
CONTINUOUS
 62
     7
 10
686.416677
 20
2153.102107
 11
686.282768
 21
2152.862526
  0
LINE
  8
CSLAYER1
  6
CONTINUOUS
 62
     7
 10
686.282768
 20
2152.862526
 11
686.124396
 21
2152.651348
  0
LINE
  8
CSLAYER1
  6
CONTINUOUS
 62
     7
 10
686.124396
 20
2152.651348
 11
685.942767
 21
2152.470180
  0
LINE
  8
CSLAYER1
  6
CONTINUOUS
 62
     7
 10
685.942767
 20
2152.470180
 11
685.739263
 21
2152.320402
  0
LINE
  8
CSLAYER1
  6
CONTINUOUS
 62
     7
 10
685.739263
 20
2152.320402
 11
685.515432
 21
2152.203152
  0
LINE
  8
CSLAYER1
  6
CONTINUOUS
 62
     7
 10
685.515432
 20
2152.203152
 11
685.272979
 21
2152.119323
  0
LINE
  8
CSLAYER1
  6
CONTINUOUS
 62
     7
 10
685.272979
 20
2152.119323
 11
685.013748
 21
2152.069554
  0
LINE
  8
CSLAYER1
  6
CONTINUOUS
 62
     7
 10
685.013748
 20
2152.069554
 11
684.739712
 21
2152.054223
  0
LINE
  8
CSLAYER1
  6
CONTINUOUS
 62
     7
 10
684.739712
 20
2152.054223
 11
684.452957
 21
2152.073447
  0
LINE
  8
CSLAYER1
  6
CONTINUOUS
 62
     7
 10
684.452957
 20
2152.073447
 11
684.155665
 21
2152.127079
  0
LINE
  8
CSLAYER1
  6
CONTINUOUS
 62
     7
 10
684.155665
 20
2152.127079
 11
683.850099
 21
2152.214711
  0
LINE
  8
CSLAYER1
  6
CONTINUOUS
 62
     7
 10
683.850099
 20
2152.214711
 11
683.538584
 21
2152.335677
  0
LINE
  8
CSLAYER1
  6
CONTINUOUS
 62
     7
 10
683.538584
 20
2152.335677
 11
683.223492
 21
2152.489055
  0
LINE
  8
CSLAYER1
  6
CONTINUOUS
 62
     7
 10
683.223492
 20
2152.489055
 11
682.907219
 21
2152.673679
  0
LINE
  8
CSLAYER1
  6
CONTINUOUS
 62
     7
 10
682.907219
 20
2152.673679
 11
682.592174
 21
2152.888143
  0
LINE
  8
CSLAYER1
  6
CONTINUOUS
 62
     7
 10
682.592174
 20
2152.888143
 11
682.280754
 21
2153.130815
  0
LINE
  8
CSLAYER1
  6
CONTINUOUS
 62
     7
 10
682.280754
 20
2153.130815
 11
681.975329
 21
2153.399848
  0
LINE
  8
CSLAYER1
  6
CONTINUOUS
 62
     7
 10
681.975329
 20
2153.399848
 11
681.678223
 21
2153.693196
  0
LINE
  8
CSLAYER1
  6
CONTINUOUS
 62
     7
 10
681.678223
 20
2153.693196
 11
681.391698
 21
2154.008624
  0
LINE
  8
CSLAYER1
  6
CONTINUOUS
 62
     7
 10
681.391698
 20
2154.008624
 11
681.117934
 21
2154.343733
  0
LINE
  8
CSLAYER1
  6
CONTINUOUS
 62
     7
 10
681.117934
 20
2154.343733
 11
680.859015
 21
2154.695972
  0
LINE
  8
CSLAYER1
  6
CONTINUOUS
 62
     7
 10
680.859015
 20
2154.695972
 11
680.616911
 21
2155.062660
  0
LINE
  8
CSLAYER1
  6
CONTINUOUS
 62
     7
 10
680.616911
 20
2155.062660
 11
680.393465
 21
2155.441007
  0
LINE
  8
CSLAYER1
  6
CONTINUOUS
 62
     7
 10
680.393465
 20
2155.441007
 11
680.190377
 21
2155.828134
  0
LINE
  8
CSLAYER1
  6
CONTINUOUS
 62
     7
 10
680.190377
 20
2155.828134
 11
680.009194
 21
2156.221093
  0
LINE
  8
CSLAYER1
  6
CONTINUOUS
 62
     7
 10
680.009194
 20
2156.221093
 11
679.851293
 21
2156.616895
  0
LINE
  8
CSLAYER1
  6
CONTINUOUS
 62
     7
 10
679.851293
 20
2156.616895
 11
679.717877
 21
2157.012527
  0
LINE
  8
CSLAYER1
  6
CONTINUOUS
 62
     7
 10
679.717877
 20
2157.012527
 11
679.609961
 21
2157.404977
  0
LINE
  8
CSLAYER1
  6
CONTINUOUS
 62
     7
 10
679.609961
 20
2157.404977
 11
679.528366
 21
2157.791261
  0
LINE
  8
CSLAYER1
  6
CONTINUOUS
 62
     7
 10
679.528366
 20
2157.791261
 11
679.473714
 21
2158.168436
  0
LINE
  8
CSLAYER1
  6
CONTINUOUS
 62
     7
 10
679.473714
 20
2158.168436
 11
679.446420
 21
2158.533634
  0
LINE
  8
CSLAYER1
  6
CONTINUOUS
 62
     7
 10
679.446420
 20
2158.533634
 11
679.446692
 21
2158.884073
  0
LINE
  8
CSLAYER1
  6
CONTINUOUS
 62
     7
 10
679.446692
 20
2158.884073
 11
679.474528
 21
2159.217089
  0
LINE
  8
CSLAYER1
  6
CONTINUOUS
 62
     7
 10
679.474528
 20
2159.217089
 11
679.529716
 21
2159.530145
  0
LINE
  8
CSLAYER1
  6
CONTINUOUS
 62
     7
 10
679.529716
 20
2159.530145
 11
679.611836
 21
2159.820860
  0
LINE
  8
CSLAYER1
  6
CONTINUOUS
 62
     7
 10
679.611836
 20
2159.820860
 11
679.720263
 21
2160.087021
  0
LINE
  8
CSLAYER1
  6
CONTINUOUS
 62
     7
 10
679.720263
 20
2160.087021
 11
679.854172
 21
2160.326602
  0
LINE
  8
CSLAYER1
  6
CONTINUOUS
 62
     7
 10
679.854172
 20
2160.326602
 11
680.012543
 21
2160.537780
  0
LINE
  8
CSLAYER1
  6
CONTINUOUS
 62
     7
 10
680.012543
 20
2160.537780
 11
680.194172
 21
2160.718948
  0
LINE
  8
CSLAYER1
  6
CONTINUOUS
 62
     7
 10
680.194172
 20
2160.718948
 11
680.397677
 21
2160.868726
  0
LINE
  8
CSLAYER1
  6
CONTINUOUS
 62
     7
 10
680.397677
 20
2160.868726
 11
682.849235
 21
2162.400630
  0
LINE
  8
CSLAYER1
  6
CONTINUOUS
 62
     7
 10
685.739263
 20
2152.320402
 11
688.190822
 21
2153.852306
  0
LINE
  8
CSLAYER1
  6
CONTINUOUS
 62
     7
 10
683.856185
 20
2160.058313
 11
686.307744
 21
2161.590217
  0
LINE
  8
CSLAYER1
  6
CONTINUOUS
 62
     7
 10
686.399489
 20
2156.234644
 11
688.851048
 21
2157.766548
  0
LINE
  8
CSLAYER1
  6
CONTINUOUS
 62
     7
 10
682.849235
 20
2162.400630
 11
683.073066
 21
2162.517880
  0
LINE
  8
CSLAYER1
  6
CONTINUOUS
 62
     7
 10
683.073066
 20
2162.517880
 11
683.315519
 21
2162.601709
  0
LINE
  8
CSLAYER1
  6
CONTINUOUS
 62
     7
 10
683.315519
 20
2162.601709
 11
683.574751
 21
2162.651478
  0
LINE
  8
CSLAYER1
  6
CONTINUOUS
 62
     7
 10
683.574751
 20
2162.651478
 11
683.848786
 21
2162.666809
  0
LINE
  8
CSLAYER1
  6
CONTINUOUS
 62
     7
 10
683.848786
 20
2162.666809
 11
684.135541
 21
2162.647585
  0
LINE
  8
CSLAYER1
  6
CONTINUOUS
 62
     7
 10
684.135541
 20
2162.647585
 11
684.432833
 21
2162.593953
  0
LINE
  8
CSLAYER1
  6
CONTINUOUS
 62
     7
 10
684.432833
 20
2162.593953
 11
684.738399
 21
2162.506321
  0
LINE
  8
CSLAYER1
  6
CONTINUOUS
 62
     7
 10
684.738399
 20
2162.506321
 11
685.049914
 21
2162.385355
  0
LINE
  8
CSLAYER1
  6
CONTINUOUS
 62
     7
 10
685.049914
 20
2162.385355
 11
685.365006
 21
2162.231977
  0
LINE
  8
CSLAYER1
  6
CONTINUOUS
 62
     7
 10
685.365006
 20
2162.231977
 11
685.681279
 21
2162.047353
  0
LINE
  8
CSLAYER1
  6
CONTINUOUS
 62
     7
 10
685.681279
 20
2162.047353
 11
685.996324
 21
2161.832889
  0
LINE
  8
CSLAYER1
  6
CONTINUOUS
 62
     7
 10
685.996324
 20
2161.832889
 11
686.307744
 21
2161.590217
  0
LINE
  8
CSLAYER1
  6
CONTINUOUS
 62
     7
 10
686.307744
 20
2161.590217
 11
686.613169
 21
2161.321184
  0
LINE
  8
CSLAYER1
  6
CONTINUOUS
 62
     7
 10
686.613169
 20
2161.321184
 11
686.910275
 21
2161.027837
  0
LINE
  8
CSLAYER1
  6
CONTINUOUS
 62
     7
 10
686.910275
 20
2161.027837
 11
687.196800
 21
2160.712408
  0
LINE
  8
CSLAYER1
  6
CONTINUOUS
 62
     7
 10
687.196800
 20
2160.712408
 11
687.470564
 21
2160.377299
  0
LINE
  8
CSLAYER1
  6
CONTINUOUS
 62
     7
 10
687.470564
 20
2160.377299
 11
687.729483
 21
2160.025060
  0
LINE
  8
CSLAYER1
  6
CONTINUOUS
 62
     7
 10
687.729483
 20
2160.025060
 11
687.971587
 21
2159.658372
  0
LINE
  8
CSLAYER1
  6
CONTINUOUS
 62
     7
 10
687.971587
 20
2159.658372
 11
688.195033
 21
2159.280025
  0
LINE
  8
CSLAYER1
  6
CONTINUOUS
 62
     7
 10
688.195033
 20
2159.280025
 11
688.398121
 21
2158.892898
  0
LINE
  8
CSLAYER1
  6
CONTINUOUS
 62
     7
 10
688.398121
 20
2158.892898
 11
688.579305
 21
2158.499939
  0
LINE
  8
CSLAYER1
  6
CONTINUOUS
 62
     7
 10
688.579305
 20
2158.499939
 11
688.737205
 21
2158.104137
  0
LINE
  8
CSLAYER1
  6
CONTINUOUS
 62
     7
 10
688.737205
 20
2158.104137
 11
688.870621
 21
2157.708505
  0
LINE
  8
CSLAYER1
  6
CONTINUOUS
 62
     7
 10
688.870621
 20
2157.708505
 11
688.978537
 21
2157.316055
  0
LINE
  8
CSLAYER1
  6
CONTINUOUS
 62
     7
 10
688.978537
 20
2157.316055
 11
689.060132
 21
2156.929771
  0
LINE
  8
CSLAYER1
  6
CONTINUOUS
 62
     7
 10
689.060132
 20
2156.929771
 11
689.114784
 21
2156.552596
  0
LINE
  8
CSLAYER1
  6
CONTINUOUS
 62
     7
 10
689.114784
 20
2156.552596
 11
689.142078
 21
2156.187398
  0
LINE
  8
CSLAYER1
  6
CONTINUOUS
 62
     7
 10
689.142078
 20
2156.187398
 11
689.141806
 21
2155.836959
  0
LINE
  8
CSLAYER1
  6
CONTINUOUS
 62
     7
 10
689.141806
 20
2155.836959
 11
689.113970
 21
2155.503943
  0
LINE
  8
CSLAYER1
  6
CONTINUOUS
 62
     7
 10
689.113970
 20
2155.503943
 11
689.058783
 21
2155.190887
  0
LINE
  8
CSLAYER1
  6
CONTINUOUS
 62
     7
 10
689.058783
 20
2155.190887
 11
688.976663
 21
2154.900172
  0
LINE
  8
CSLAYER1
  6
CONTINUOUS
 62
     7
 10
688.976663
 20
2154.900172
 11
688.868236
 21
2154.634011
  0
LINE
  8
CSLAYER1
  6
CONTINUOUS
 62
     7
 10
688.868236
 20
2154.634011
 11
688.734327
 21
2154.394430
  0
LINE
  8
CSLAYER1
  6
CONTINUOUS
 62
     7
 10
688.734327
 20
2154.394430
 11
688.575955
 21
2154.183252
  0
LINE
  8
CSLAYER1
  6
CONTINUOUS
 62
     7
 10
688.575955
 20
2154.183252
 11
688.394326
 21
2154.002084
  0
LINE
  8
CSLAYER1
  6
CONTINUOUS
 62
     7
 10
688.394326
 20
2154.002084
 11
688.190822
 21
2153.852306
  0
LINE
  8
CSLAYER1
  6
CONTINUOUS
 62
     7
 10
771.077263
 20
2127.864056
 11
773.528822
 21
2129.395960
  0
LINE
  8
CSLAYER1
  6
CONTINUOUS
 62
     7
 10
774.535771
 20
2127.053643
 11
776.987330
 21
2128.585547
  0
LINE
  8
CSLAYER1
  6
CONTINUOUS
 62
     7
 10
777.079075
 20
2123.229974
 11
779.530634
 21
2124.761878
  0
LINE
  8
CSLAYER1
  6
CONTINUOUS
 62
     7
 10
773.528822
 20
2129.395960
 11
773.752652
 21
2129.513210
  0
LINE
  8
CSLAYER1
  6
CONTINUOUS
 62
     7
 10
773.752652
 20
2129.513210
 11
773.995106
 21
2129.597038
  0
LINE
  8
CSLAYER1
  6
CONTINUOUS
 62
     7
 10
773.995106
 20
2129.597038
 11
774.254337
 21
2129.646808
  0
LINE
  8
CSLAYER1
  6
CONTINUOUS
 62
     7
 10
774.254337
 20
2129.646808
 11
774.528373
 21
2129.662139
  0
LINE
  8
CSLAYER1
  6
CONTINUOUS
 62
     7
 10
774.528373
 20
2129.662139
 11
774.815128
 21
2129.642915
  0
LINE
  8
CSLAYER1
  6
CONTINUOUS
 62
     7
 10
774.815128
 20
2129.642915
 11
775.112419
 21
2129.589283
  0
LINE
  8
CSLAYER1
  6
CONTINUOUS
 62
     7
 10
775.112419
 20
2129.589283
 11
775.417985
 21
2129.501651
  0
LINE
  8
CSLAYER1
  6
CONTINUOUS
 62
     7
 10
775.417985
 20
2129.501651
 11
775.729500
 21
2129.380685
  0
LINE
  8
CSLAYER1
  6
CONTINUOUS
 62
     7
 10
775.729500
 20
2129.380685
 11
776.044593
 21
2129.227307
  0
LINE
  8
CSLAYER1
  6
CONTINUOUS
 62
     7
 10
776.044593
 20
2129.227307
 11
776.360865
 21
2129.042683
  0
LINE
  8
CSLAYER1
  6
CONTINUOUS
 62
     7
 10
776.360865
 20
2129.042683
 11
776.675910
 21
2128.828219
  0
LINE
  8
CSLAYER1
  6
CONTINUOUS
 62
     7
 10
776.675910
 20
2128.828219
 11
776.987330
 21
2128.585547
  0
LINE
  8
CSLAYER1
  6
CONTINUOUS
 62
     7
 10
776.987330
 20
2128.585547
 11
777.292756
 21
2128.316513
  0
LINE
  8
CSLAYER1
  6
CONTINUOUS
 62
     7
 10
777.292756
 20
2128.316513
 11
777.589861
 21
2128.023166
  0
LINE
  8
CSLAYER1
  6
CONTINUOUS
 62
     7
 10
777.589861
 20
2128.023166
 11
777.876387
 21
2127.707738
  0
LINE
  8
CSLAYER1
  6
CONTINUOUS
 62
     7
 10
777.876387
 20
2127.707738
 11
778.150150
 21
2127.372629
  0
LINE
  8
CSLAYER1
  6
CONTINUOUS
 62
     7
 10
778.150150
 20
2127.372629
 11
778.409070
 21
2127.020390
  0
LINE
  8
CSLAYER1
  6
CONTINUOUS
 62
     7
 10
778.409070
 20
2127.020390
 11
778.651173
 21
2126.653702
  0
LINE
  8
CSLAYER1
  6
CONTINUOUS
 62
     7
 10
778.651173
 20
2126.653702
 11
778.828195
 21
2126.353962
  0
LINE
  8
CSLAYER1
  6
CONTINUOUS
 62
     7
 10
771.077263
 20
2127.864056
 11
771.301093
 21
2127.981306
  0
LINE
  8
CSLAYER1
  6
CONTINUOUS
 62
     7
 10
771.301093
 20
2127.981306
 11
771.543547
 21
2128.065134
  0
LINE
  8
CSLAYER1
  6
CONTINUOUS
 62
     7
 10
771.543547
 20
2128.065134
 11
771.802778
 21
2128.114904
  0
LINE
  8
CSLAYER1
  6
CONTINUOUS
 62
     7
 10
771.802778
 20
2128.114904
 11
772.076814
 21
2128.130235
  0
LINE
  8
CSLAYER1
  6
CONTINUOUS
 62
     7
 10
772.076814
 20
2128.130235
 11
772.363569
 21
2128.111011
  0
LINE
  8
CSLAYER1
  6
CONTINUOUS
 62
     7
 10
772.363569
 20
2128.111011
 11
772.660861
 21
2128.057379
  0
LINE
  8
CSLAYER1
  6
CONTINUOUS
 62
     7
 10
772.660861
 20
2128.057379
 11
772.966427
 21
2127.969747
  0
LINE
  8
CSLAYER1
  6
CONTINUOUS
 62
     7
 10
772.966427
 20
2127.969747
 11
773.277941
 21
2127.848781
  0
LINE
  8
CSLAYER1
  6
CONTINUOUS
 62
     7
 10
773.277941
 20
2127.848781
 11
773.593034
 21
2127.695403
  0
LINE
  8
CSLAYER1
  6
CONTINUOUS
 62
     7
 10
773.593034
 20
2127.695403
 11
773.909306
 21
2127.510779
  0
LINE
  8
CSLAYER1
  6
CONTINUOUS
 62
     7
 10
773.909306
 20
2127.510779
 11
774.224351
 21
2127.296315
  0
LINE
  8
CSLAYER1
  6
CONTINUOUS
 62
     7
 10
774.224351
 20
2127.296315
 11
774.535771
 21
2127.053643
  0
LINE
  8
CSLAYER1
  6
CONTINUOUS
 62
     7
 10
774.535771
 20
2127.053643
 11
774.841197
 21
2126.784609
  0
LINE
  8
CSLAYER1
  6
CONTINUOUS
 62
     7
 10
774.841197
 20
2126.784609
 11
775.138303
 21
2126.491262
  0
LINE
  8
CSLAYER1
  6
CONTINUOUS
 62
     7
 10
775.138303
 20
2126.491262
 11
775.424828
 21
2126.175834
  0
LINE
  8
CSLAYER1
  6
CONTINUOUS
 62
     7
 10
775.424828
 20
2126.175834
 11
775.698592
 21
2125.840725
  0
LINE
  8
CSLAYER1
  6
CONTINUOUS
 62
     7
 10
775.698592
 20
2125.840725
 11
775.957511
 21
2125.488486
  0
LINE
  8
CSLAYER1
  6
CONTINUOUS
 62
     7
 10
775.957511
 20
2125.488486
 11
776.199615
 21
2125.121798
  0
LINE
  8
CSLAYER1
  6
CONTINUOUS
 62
     7
 10
776.199615
 20
2125.121798
 11
776.376637
 21
2124.822058
  0
LINE
  8
CSLAYER1
  6
CONTINUOUS
 62
     7
 10
771.488300
 20
2121.767486
 11
771.296497
 21
2122.057990
  0
LINE
  8
CSLAYER1
  6
CONTINUOUS
 62
     7
 10
771.296497
 20
2122.057990
 11
771.073051
 21
2122.436337
  0
LINE
  8
CSLAYER1
  6
CONTINUOUS
 62
     7
 10
771.073051
 20
2122.436337
 11
770.869963
 21
2122.823463
  0
LINE
  8
CSLAYER1
  6
CONTINUOUS
 62
     7
 10
770.869963
 20
2122.823463
 11
770.688780
 21
2123.216423
  0
LINE
  8
CSLAYER1
  6
CONTINUOUS
 62
     7
 10
770.688780
 20
2123.216423
 11
770.530879
 21
2123.612225
  0
LINE
  8
CSLAYER1
  6
CONTINUOUS
 62
     7
 10
770.530879
 20
2123.612225
 11
770.397463
 21
2124.007856
  0
LINE
  8
CSLAYER1
  6
CONTINUOUS
 62
     7
 10
770.397463
 20
2124.007856
 11
770.289547
 21
2124.400307
  0
LINE
  8
CSLAYER1
  6
CONTINUOUS
 62
     7
 10
770.289547
 20
2124.400307
 11
770.207952
 21
2124.786590
  0
LINE
  8
CSLAYER1
  6
CONTINUOUS
 62
     7
 10
770.207952
 20
2124.786590
 11
770.153300
 21
2125.163766
  0
LINE
  8
CSLAYER1
  6
CONTINUOUS
 62
     7
 10
770.153300
 20
2125.163766
 11
770.126006
 21
2125.528963
  0
LINE
  8
CSLAYER1
  6
CONTINUOUS
 62
     7
 10
770.126006
 20
2125.528963
 11
770.126278
 21
2125.879403
  0
LINE
  8
CSLAYER1
  6
CONTINUOUS
 62
     7
 10
770.126278
 20
2125.879403
 11
770.154114
 21
2126.212419
  0
LINE
  8
CSLAYER1
  6
CONTINUOUS
 62
     7
 10
770.154114
 20
2126.212419
 11
770.209302
 21
2126.525475
  0
LINE
  8
CSLAYER1
  6
CONTINUOUS
 62
     7
 10
770.209302
 20
2126.525475
 11
770.291422
 21
2126.816190
  0
LINE
  8
CSLAYER1
  6
CONTINUOUS
 62
     7
 10
770.291422
 20
2126.816190
 11
770.399849
 21
2127.082351
  0
LINE
  8
CSLAYER1
  6
CONTINUOUS
 62
     7
 10
770.399849
 20
2127.082351
 11
770.533758
 21
2127.321932
  0
LINE
  8
CSLAYER1
  6
CONTINUOUS
 62
     7
 10
770.533758
 20
2127.321932
 11
770.692129
 21
2127.533110
  0
LINE
  8
CSLAYER1
  6
CONTINUOUS
 62
     7
 10
770.692129
 20
2127.533110
 11
770.873758
 21
2127.714278
  0
LINE
  8
CSLAYER1
  6
CONTINUOUS
 62
     7
 10
770.873758
 20
2127.714278
 11
771.077263
 21
2127.864056
  0
ARC
  8
CSLAYER1
  6
CONTINUOUS
 62
     7
 10
615.068319
 20
2126.749631
 40
6.720000
 50
122.000000
 51
180.000000
  0
ARC
  8
CSLAYER1
  6
CONTINUOUS
 62
     7
 10
613.047604
 20
2127.485111
 40
6.720000
 50
122.000000
 51
180.000000
  0
ARC
  8
CSLAYER1
  6
CONTINUOUS
 62
     7
 10
611.708319
 20
2062.616188
 40
3.360000
 50
256.943959
 51
302.000000
  0
ARC
  8
CSLAYER1
  6
CONTINUOUS
 62
     7
 10
609.439580
 20
2062.896995
 40
3.360000
 50
202.152506
 51
217.167534
  0
LINE
  8
CSLAYER1
  6
CONTINUOUS
 62
     7
 10
610.949281
 20
2059.343045
 11
606.762089
 21
2060.867059
  0
ARC
  8
CSLAYER1
  6
CONTINUOUS
 62
     7
 10
725.626128
 20
2087.149418
 40
3.360000
 50
122.000000
 51
180.000000
  0
ARC
  8
CSLAYER1
  6
CONTINUOUS
 62
     7
 10
723.605413
 20
2087.884898
 40
3.360000
 50
122.000000
 51
180.000000
  0
ARC
  8
CSLAYER1
  6
CONTINUOUS
 62
     7
 10
725.626128
 20
2021.153496
 40
3.360000
 50
180.000000
 51
302.000000
  0
ARC
  8
CSLAYER1
  6
CONTINUOUS
 62
     7
 10
723.496415
 20
2021.648013
 40
3.360000
 50
194.633804
 51
226.715114
  0
LINE
  8
CSLAYER1
  6
CONTINUOUS
 62
     7
 10
646.022714
 20
2156.014325
 11
674.714202
 21
2173.942757
  0
LINE
  8
CSLAYER1
  6
CONTINUOUS
 62
     7
 10
614.595683
 20
2060.458374
 11
611.197760
 21
2061.695116
  0
ARC
  8
CSLAYER1
  6
CONTINUOUS
 62
     7
 10
611.708319
 20
2062.616188
 40
3.360000
 50
180.000000
 51
256.943959
  0
LINE
  8
CSLAYER1
  6
CONTINUOUS
 62
     7
 10
646.022714
 20
2006.227116
 11
646.022714
 21
1989.957535
  0
LINE
  8
CSLAYER1
  6
CONTINUOUS
 62
     7
 10
401.751786
 20
1910.688942
 11
402.189757
 21
1910.811613
  0
LINE
  8
CSLAYER1
  6
CONTINUOUS
 62
     7
 10
402.189757
 20
1910.811613
 11
402.648008
 21
1910.868471
  0
LINE
  8
CSLAYER1
  6
CONTINUOUS
 62
     7
 10
402.648008
 20
1910.868471
 11
403.123053
 21
1910.859083
  0
LINE
  8
CSLAYER1
  6
CONTINUOUS
 62
     7
 10
403.123053
 20
1910.859083
 11
403.611276
 21
1910.783521
  0
LINE
  8
CSLAYER1
  6
CONTINUOUS
 62
     7
 10
403.611276
 20
1910.783521
 11
404.108962
 21
1910.642359
  0
LINE
  8
CSLAYER1
  6
CONTINUOUS
 62
     7
 10
404.108962
 20
1910.642359
 11
404.612322
 21
1910.436672
  0
LINE
  8
CSLAYER1
  6
CONTINUOUS
 62
     7
 10
404.612322
 20
1910.436672
 11
405.117526
 21
1910.168025
  0
LINE
  8
CSLAYER1
  6
CONTINUOUS
 62
     7
 10
405.117526
 20
1910.168025
 11
405.620729
 21
1909.838464
  0
LINE
  8
CSLAYER1
  6
CONTINUOUS
 62
     7
 10
405.620729
 20
1909.838464
 11
406.118101
 21
1909.450495
  0
LINE
  8
CSLAYER1
  6
CONTINUOUS
 62
     7
 10
406.118101
 20
1909.450495
 11
406.605857
 21
1909.007072
  0
LINE
  8
CSLAYER1
  6
CONTINUOUS
 62
     7
 10
406.605857
 20
1909.007072
 11
407.080285
 21
1908.511570
  0
LINE
  8
CSLAYER1
  6
CONTINUOUS
 62
     7
 10
407.080285
 20
1908.511570
 11
407.537774
 21
1907.967759
  0
LINE
  8
CSLAYER1
  6
CONTINUOUS
 62
     7
 10
407.537774
 20
1907.967759
 11
407.974842
 21
1907.379779
  0
LINE
  8
CSLAYER1
  6
CONTINUOUS
 62
     7
 10
407.974842
 20
1907.379779
 11
408.388164
 21
1906.752103
  0
LINE
  8
CSLAYER1
  6
CONTINUOUS
 62
     7
 10
408.388164
 20
1906.752103
 11
408.774593
 21
1906.089510
  0
LINE
  8
CSLAYER1
  6
CONTINUOUS
 62
     7
 10
408.774593
 20
1906.089510
 11
409.131188
 21
1905.397042
  0
LINE
  8
CSLAYER1
  6
CONTINUOUS
 62
     7
 10
409.131188
 20
1905.397042
 11
409.455236
 21
1904.679969
  0
LINE
  8
CSLAYER1
  6
CONTINUOUS
 62
     7
 10
409.455236
 20
1904.679969
 11
409.744270
 21
1903.943748
  0
LINE
  8
CSLAYER1
  6
CONTINUOUS
 62
     7
 10
409.744270
 20
1903.943748
 11
409.996091
 21
1903.193982
  0
LINE
  8
CSLAYER1
  6
CONTINUOUS
 62
     7
 10
409.996091
 20
1903.193982
 11
410.208781
 21
1902.436378
  0
LINE
  8
CSLAYER1
  6
CONTINUOUS
 62
     7
 10
410.208781
 20
1902.436378
 11
410.380724
 21
1901.676702
  0
LINE
  8
CSLAYER1
  6
CONTINUOUS
 62
     7
 10
410.380724
 20
1901.676702
 11
410.510609
 21
1900.920734
  0
LINE
  8
CSLAYER1
  6
CONTINUOUS
 62
     7
 10
410.510609
 20
1900.920734
 11
410.597448
 21
1900.174229
  0
LINE
  8
CSLAYER1
  6
CONTINUOUS
 62
     7
 10
410.597448
 20
1900.174229
 11
410.640581
 21
1899.442868
  0
LINE
  8
CSLAYER1
  6
CONTINUOUS
 62
     7
 10
410.640581
 20
1899.442868
 11
410.639679
 21
1898.732216
  0
LINE
  8
CSLAYER1
  6
CONTINUOUS
 62
     7
 10
410.639679
 20
1898.732216
 11
410.594749
 21
1898.047683
  0
LINE
  8
CSLAYER1
  6
CONTINUOUS
 62
     7
 10
410.594749
 20
1898.047683
 11
410.506132
 21
1897.394478
  0
LINE
  8
CSLAYER1
  6
CONTINUOUS
 62
     7
 10
410.506132
 20
1897.394478
 11
410.374505
 21
1896.777572
  0
LINE
  8
CSLAYER1
  6
CONTINUOUS
 62
     7
 10
410.374505
 20
1896.777572
 11
410.200867
 21
1896.201661
  0
LINE
  8
CSLAYER1
  6
CONTINUOUS
 62
     7
 10
410.200867
 20
1896.201661
 11
409.986541
 21
1895.671127
  0
LINE
  8
CSLAYER1
  6
CONTINUOUS
 62
     7
 10
409.986541
 20
1895.671127
 11
409.733158
 21
1895.190008
  0
LINE
  8
CSLAYER1
  6
CONTINUOUS
 62
     7
 10
409.733158
 20
1895.190008
 11
409.442646
 21
1894.761965
  0
LINE
  8
CSLAYER1
  6
CONTINUOUS
 62
     7
 10
409.442646
 20
1894.761965
 11
409.117216
 21
1894.390258
  0
LINE
  8
CSLAYER1
  6
CONTINUOUS
 62
     7
 10
409.117216
 20
1894.390258
 11
408.759345
 21
1894.077713
  0
LINE
  8
CSLAYER1
  6
CONTINUOUS
 62
     7
 10
408.759345
 20
1894.077713
 11
408.371756
 21
1893.826710
  0
LINE
  8
CSLAYER1
  6
CONTINUOUS
 62
     7
 10
408.371756
 20
1893.826710
 11
407.957400
 21
1893.639159
  0
LINE
  8
CSLAYER1
  6
CONTINUOUS
 62
     7
 10
407.957400
 20
1893.639159
 11
407.519429
 21
1893.516488
  0
LINE
  8
CSLAYER1
  6
CONTINUOUS
 62
     7
 10
407.519429
 20
1893.516488
 11
407.061178
 21
1893.459631
  0
LINE
  8
CSLAYER1
  6
CONTINUOUS
 62
     7
 10
407.061178
 20
1893.459631
 11
406.586133
 21
1893.469019
  0
LINE
  8
CSLAYER1
  6
CONTINUOUS
 62
     7
 10
406.586133
 20
1893.469019
 11
406.097910
 21
1893.544581
  0
LINE
  8
CSLAYER1
  6
CONTINUOUS
 62
     7
 10
406.097910
 20
1893.544581
 11
405.600224
 21
1893.685743
  0
LINE
  8
CSLAYER1
  6
CONTINUOUS
 62
     7
 10
405.600224
 20
1893.685743
 11
405.096864
 21
1893.891430
  0
LINE
  8
CSLAYER1
  6
CONTINUOUS
 62
     7
 10
405.096864
 20
1893.891430
 11
404.591660
 21
1894.160076
  0
LINE
  8
CSLAYER1
  6
CONTINUOUS
 62
     7
 10
404.591660
 20
1894.160076
 11
404.088457
 21
1894.489638
  0
LINE
  8
CSLAYER1
  6
CONTINUOUS
 62
     7
 10
404.088457
 20
1894.489638
 11
403.591085
 21
1894.877607
  0
LINE
  8
CSLAYER1
  6
CONTINUOUS
 62
     7
 10
403.591085
 20
1894.877607
 11
403.103329
 21
1895.321029
  0
LINE
  8
CSLAYER1
  6
CONTINUOUS
 62
     7
 10
403.103329
 20
1895.321029
 11
402.628901
 21
1895.816532
  0
LINE
  8
CSLAYER1
  6
CONTINUOUS
 62
     7
 10
402.628901
 20
1895.816532
 11
402.171412
 21
1896.360343
  0
LINE
  8
CSLAYER1
  6
CONTINUOUS
 62
     7
 10
402.171412
 20
1896.360343
 11
401.734344
 21
1896.948323
  0
LINE
  8
CSLAYER1
  6
CONTINUOUS
 62
     7
 10
401.734344
 20
1896.948323
 11
401.321022
 21
1897.575998
  0
LINE
  8
CSLAYER1
  6
CONTINUOUS
 62
     7
 10
401.321022
 20
1897.575998
 11
400.934593
 21
1898.238592
  0
LINE
  8
CSLAYER1
  6
CONTINUOUS
 62
     7
 10
400.934593
 20
1898.238592
 11
400.577998
 21
1898.931060
  0
LINE
  8
CSLAYER1
  6
CONTINUOUS
 62
     7
 10
400.577998
 20
1898.931060
 11
400.253950
 21
1899.648133
  0
LINE
  8
CSLAYER1
  6
CONTINUOUS
 62
     7
 10
400.253950
 20
1899.648133
 11
399.964916
 21
1900.384354
  0
LINE
  8
CSLAYER1
  6
CONTINUOUS
 62
     7
 10
399.964916
 20
1900.384354
 11
399.713095
 21
1901.134120
  0
LINE
  8
CSLAYER1
  6
CONTINUOUS
 62
     7
 10
399.713095
 20
1901.134120
 11
399.500405
 21
1901.891724
  0
LINE
  8
CSLAYER1
  6
CONTINUOUS
 62
     7
 10
399.500405
 20
1901.891724
 11
399.328462
 21
1902.651400
  0
LINE
  8
CSLAYER1
  6
CONTINUOUS
 62
     7
 10
399.328462
 20
1902.651400
 11
399.198577
 21
1903.407368
  0
LINE
  8
CSLAYER1
  6
CONTINUOUS
 62
     7
 10
399.198577
 20
1903.407368
 11
399.111738
 21
1904.153873
  0
LINE
  8
CSLAYER1
  6
CONTINUOUS
 62
     7
 10
399.111738
 20
1904.153873
 11
399.068605
 21
1904.885234
  0
LINE
  8
CSLAYER1
  6
CONTINUOUS
 62
     7
 10
399.068605
 20
1904.885234
 11
399.069507
 21
1905.595885
  0
LINE
  8
CSLAYER1
  6
CONTINUOUS
 62
     7
 10
399.069507
 20
1905.595885
 11
399.114438
 21
1906.280419
  0
LINE
  8
CSLAYER1
  6
CONTINUOUS
 62
     7
 10
399.114438
 20
1906.280419
 11
399.203054
 21
1906.933624
  0
LINE
  8
CSLAYER1
  6
CONTINUOUS
 62
     7
 10
399.203054
 20
1906.933624
 11
399.334681
 21
1907.550530
  0
LINE
  8
CSLAYER1
  6
CONTINUOUS
 62
     7
 10
399.334681
 20
1907.550530
 11
399.508319
 21
1908.126441
  0
LINE
  8
CSLAYER1
  6
CONTINUOUS
 62
     7
 10
399.508319
 20
1908.126441
 11
399.722645
 21
1908.656975
  0
LINE
  8
CSLAYER1
  6
CONTINUOUS
 62
     7
 10
399.722645
 20
1908.656975
 11
399.976028
 21
1909.138094
  0
LINE
  8
CSLAYER1
  6
CONTINUOUS
 62
     7
 10
399.976028
 20
1909.138094
 11
400.266540
 21
1909.566136
  0
LINE
  8
CSLAYER1
  6
CONTINUOUS
 62
     7
 10
400.266540
 20
1909.566136
 11
400.591970
 21
1909.937844
  0
LINE
  8
CSLAYER1
  6
CONTINUOUS
 62
     7
 10
400.591970
 20
1909.937844
 11
400.949841
 21
1910.250389
  0
LINE
  8
CSLAYER1
  6
CONTINUOUS
 62
     7
 10
400.949841
 20
1910.250389
 11
401.337430
 21
1910.501392
  0
LINE
  8
CSLAYER1
  6
CONTINUOUS
 62
     7
 10
401.337430
 20
1910.501392
 11
401.751786
 21
1910.688942
  0
LINE
  8
CSLAYER1
  6
CONTINUOUS
 62
     7
 10
401.751786
 20
1910.688942
 11
457.267443
 21
1931.364929
  0
LINE
  8
CSLAYER1
  6
CONTINUOUS
 62
     7
 10
407.957400
 20
1893.639159
 11
463.473057
 21
1914.315146
  0
LINE
  8
CSLAYER1
  6
CONTINUOUS
 62
     7
 10
457.267443
 20
1931.364929
 11
457.705414
 21
1931.487600
  0
LINE
  8
CSLAYER1
  6
CONTINUOUS
 62
     7
 10
457.705414
 20
1931.487600
 11
458.163666
 21
1931.544458
  0
LINE
  8
CSLAYER1
  6
CONTINUOUS
 62
     7
 10
458.163666
 20
1931.544458
 11
458.638710
 21
1931.535070
  0
LINE
  8
CSLAYER1
  6
CONTINUOUS
 62
     7
 10
458.638710
 20
1931.535070
 11
459.126934
 21
1931.459507
  0
LINE
  8
CSLAYER1
  6
CONTINUOUS
 62
     7
 10
459.126934
 20
1931.459507
 11
459.624619
 21
1931.318345
  0
LINE
  8
CSLAYER1
  6
CONTINUOUS
 62
     7
 10
459.624619
 20
1931.318345
 11
460.127979
 21
1931.112659
  0
LINE
  8
CSLAYER1
  6
CONTINUOUS
 62
     7
 10
460.127979
 20
1931.112659
 11
460.633183
 21
1930.844012
  0
LINE
  8
CSLAYER1
  6
CONTINUOUS
 62
     7
 10
460.633183
 20
1930.844012
 11
461.136386
 21
1930.514450
  0
LINE
  8
CSLAYER1
  6
CONTINUOUS
 62
     7
 10
461.136386
 20
1930.514450
 11
461.633758
 21
1930.126482
  0
LINE
  8
CSLAYER1
  6
CONTINUOUS
 62
     7
 10
461.633758
 20
1930.126482
 11
462.121514
 21
1929.683059
  0
LINE
  8
CSLAYER1
  6
CONTINUOUS
 62
     7
 10
462.121514
 20
1929.683059
 11
462.595942
 21
1929.187557
  0
LINE
  8
CSLAYER1
  6
CONTINUOUS
 62
     7
 10
462.595942
 20
1929.187557
 11
463.053431
 21
1928.643746
  0
LINE
  8
CSLAYER1
  6
CONTINUOUS
 62
     7
 10
463.053431
 20
1928.643746
 11
463.490500
 21
1928.055765
  0
LINE
  8
CSLAYER1
  6
CONTINUOUS
 62
     7
 10
463.490500
 20
1928.055765
 11
463.903821
 21
1927.428090
  0
LINE
  8
CSLAYER1
  6
CONTINUOUS
 62
     7
 10
463.903821
 20
1927.428090
 11
464.290250
 21
1926.765497
  0
LINE
  8
CSLAYER1
  6
CONTINUOUS
 62
     7
 10
464.290250
 20
1926.765497
 11
464.646845
 21
1926.073029
  0
LINE
  8
CSLAYER1
  6
CONTINUOUS
 62
     7
 10
464.646845
 20
1926.073029
 11
464.970893
 21
1925.355955
  0
LINE
  8
CSLAYER1
  6
CONTINUOUS
 62
     7
 10
464.970893
 20
1925.355955
 11
465.259927
 21
1924.619734
  0
LINE
  8
CSLAYER1
  6
CONTINUOUS
 62
     7
 10
465.259927
 20
1924.619734
 11
465.511748
 21
1923.869969
  0
LINE
  8
CSLAYER1
  6
CONTINUOUS
 62
     7
 10
465.511748
 20
1923.869969
 11
465.724439
 21
1923.112365
  0
LINE
  8
CSLAYER1
  6
CONTINUOUS
 62
     7
 10
465.724439
 20
1923.112365
 11
465.896381
 21
1922.352688
  0
LINE
  8
CSLAYER1
  6
CONTINUOUS
 62
     7
 10
465.896381
 20
1922.352688
 11
466.026266
 21
1921.596721
  0
LINE
  8
CSLAYER1
  6
CONTINUOUS
 62
     7
 10
466.026266
 20
1921.596721
 11
466.113105
 21
1920.850216
  0
LINE
  8
CSLAYER1
  6
CONTINUOUS
 62
     7
 10
466.113105
 20
1920.850216
 11
466.156238
 21
1920.118855
  0
LINE
  8
CSLAYER1
  6
CONTINUOUS
 62
     7
 10
466.156238
 20
1920.118855
 11
466.155336
 21
1919.408203
  0
LINE
  8
CSLAYER1
  6
CONTINUOUS
 62
     7
 10
466.155336
 20
1919.408203
 11
466.110406
 21
1918.723670
  0
LINE
  8
CSLAYER1
  6
CONTINUOUS
 62
     7
 10
466.110406
 20
1918.723670
 11
466.021790
 21
1918.070465
  0
LINE
  8
CSLAYER1
  6
CONTINUOUS
 62
     7
 10
466.021790
 20
1918.070465
 11
465.890162
 21
1917.453559
  0
LINE
  8
CSLAYER1
  6
CONTINUOUS
 62
     7
 10
465.890162
 20
1917.453559
 11
465.716524
 21
1916.877647
  0
LINE
  8
CSLAYER1
  6
CONTINUOUS
 62
     7
 10
465.716524
 20
1916.877647
 11
465.502198
 21
1916.347113
  0
LINE
  8
CSLAYER1
  6
CONTINUOUS
 62
     7
 10
465.502198
 20
1916.347113
 11
465.248815
 21
1915.865994
  0
LINE
  8
CSLAYER1
  6
CONTINUOUS
 62
     7
 10
465.248815
 20
1915.865994
 11
464.958303
 21
1915.437952
  0
LINE
  8
CSLAYER1
  6
CONTINUOUS
 62
     7
 10
464.958303
 20
1915.437952
 11
464.632873
 21
1915.066244
  0
LINE
  8
CSLAYER1
  6
CONTINUOUS
 62
     7
 10
464.632873
 20
1915.066244
 11
464.275002
 21
1914.753700
  0
LINE
  8
CSLAYER1
  6
CONTINUOUS
 62
     7
 10
464.275002
 20
1914.753700
 11
463.887413
 21
1914.502697
  0
LINE
  8
CSLAYER1
  6
CONTINUOUS
 62
     7
 10
463.887413
 20
1914.502697
 11
463.473057
 21
1914.315146
  0
LINE
  8
CSLAYER1
  6
CONTINUOUS
 62
     7
 10
639.588862
 20
1818.390693
 11
639.917976
 21
1818.704619
  0
LINE
  8
CSLAYER1
  6
CONTINUOUS
 62
     7
 10
639.917976
 20
1818.704619
 11
640.295895
 21
1818.969958
  0
LINE
  8
CSLAYER1
  6
CONTINUOUS
 62
     7
 10
640.295895
 20
1818.969958
 11
640.719743
 21
1819.184689
  0
LINE
  8
CSLAYER1
  6
CONTINUOUS
 62
     7
 10
640.719743
 20
1819.184689
 11
641.186292
 21
1819.347178
  0
LINE
  8
CSLAYER1
  6
CONTINUOUS
 62
     7
 10
641.186292
 20
1819.347178
 11
641.691994
 21
1819.456189
  0
LINE
  8
CSLAYER1
  6
CONTINUOUS
 62
     7
 10
641.691994
 20
1819.456189
 11
642.232999
 21
1819.510891
  0
LINE
  8
CSLAYER1
  6
CONTINUOUS
 62
     7
 10
642.232999
 20
1819.510891
 11
642.805189
 21
1819.510869
  0
LINE
  8
CSLAYER1
  6
CONTINUOUS
 62
     7
 10
642.805189
 20
1819.510869
 11
643.404211
 21
1819.456123
  0
LINE
  8
CSLAYER1
  6
CONTINUOUS
 62
     7
 10
643.404211
 20
1819.456123
 11
644.025505
 21
1819.347069
  0
LINE
  8
CSLAYER1
  6
CONTINUOUS
 62
     7
 10
644.025505
 20
1819.347069
 11
644.664342
 21
1819.184538
  0
LINE
  8
CSLAYER1
  6
CONTINUOUS
 62
     7
 10
644.664342
 20
1819.184538
 11
645.315861
 21
1818.969766
  0
LINE
  8
CSLAYER1
  6
CONTINUOUS
 62
     7
 10
645.315861
 20
1818.969766
 11
645.975104
 21
1818.704387
  0
LINE
  8
CSLAYER1
  6
CONTINUOUS
 62
     7
 10
645.975104
 20
1818.704387
 11
646.637052
 21
1818.390423
  0
LINE
  8
CSLAYER1
  6
CONTINUOUS
 62
     7
 10
646.637052
 20
1818.390423
 11
647.296669
 21
1818.030261
  0
LINE
  8
CSLAYER1
  6
CONTINUOUS
 62
     7
 10
647.296669
 20
1818.030261
 11
647.948934
 21
1817.626643
  0
LINE
  8
CSLAYER1
  6
CONTINUOUS
 62
     7
 10
647.948934
 20
1817.626643
 11
648.588884
 21
1817.182641
  0
LINE
  8
CSLAYER1
  6
CONTINUOUS
 62
     7
 10
648.588884
 20
1817.182641
 11
649.211646
 21
1816.701634
  0
LINE
  8
CSLAYER1
  6
CONTINUOUS
 62
     7
 10
649.211646
 20
1816.701634
 11
649.812483
 21
1816.187283
  0
LINE
  8
CSLAYER1
  6
CONTINUOUS
 62
     7
 10
649.812483
 20
1816.187283
 11
650.386821
 21
1815.643502
  0
LINE
  8
CSLAYER1
  6
CONTINUOUS
 62
     7
 10
650.386821
 20
1815.643502
 11
650.930290
 21
1815.074430
  0
LINE
  8
CSLAYER1
  6
CONTINUOUS
 62
     7
 10
650.930290
 20
1815.074430
 11
651.438752
 21
1814.484397
  0
LINE
  8
CSLAYER1
  6
CONTINUOUS
 62
     7
 10
651.438752
 20
1814.484397
 11
651.908339
 21
1813.877895
  0
LINE
  8
CSLAYER1
  6
CONTINUOUS
 62
     7
 10
651.908339
 20
1813.877895
 11
652.335476
 21
1813.259539
  0
LINE
  8
CSLAYER1
  6
CONTINUOUS
 62
     7
 10
652.335476
 20
1813.259539
 11
652.716914
 21
1812.634034
  0
LINE
  8
CSLAYER1
  6
CONTINUOUS
 62
     7
 10
652.716914
 20
1812.634034
 11
653.049748
 21
1812.006143
  0
LINE
  8
CSLAYER1
  6
CONTINUOUS
 62
     7
 10
653.049748
 20
1812.006143
 11
653.331446
 21
1811.380643
  0
LINE
  8
CSLAYER1
  6
CONTINUOUS
 62
     7
 10
653.331446
 20
1811.380643
 11
653.559864
 21
1810.762294
  0
LINE
  8
CSLAYER1
  6
CONTINUOUS
 62
     7
 10
653.559864
 20
1810.762294
 11
653.733263
 21
1810.155803
  0
LINE
  8
CSLAYER1
  6
CONTINUOUS
 62
     7
 10
653.733263
 20
1810.155803
 11
653.850324
 21
1809.565785
  0
LINE
  8
CSLAYER1
  6
CONTINUOUS
 62
     7
 10
653.850324
 20
1809.565785
 11
653.910156
 21
1808.996732
  0
LINE
  8
CSLAYER1
  6
CONTINUOUS
 62
     7
 10
653.910156
 20
1808.996732
 11
653.912304
 21
1808.452973
  0
LINE
  8
CSLAYER1
  6
CONTINUOUS
 62
     7
 10
653.912304
 20
1808.452973
 11
653.856750
 21
1807.938646
  0
LINE
  8
CSLAYER1
  6
CONTINUOUS
 62
     7
 10
653.856750
 20
1807.938646
 11
653.743919
 21
1807.457668
  0
LINE
  8
CSLAYER1
  6
CONTINUOUS
 62
     7
 10
653.743919
 20
1807.457668
 11
653.574669
 21
1807.013697
  0
LINE
  8
CSLAYER1
  6
CONTINUOUS
 62
     7
 10
653.574669
 20
1807.013697
 11
653.350287
 21
1806.610113
  0
LINE
  8
CSLAYER1
  6
CONTINUOUS
 62
     7
 10
653.350287
 20
1806.610113
 11
653.072482
 21
1806.249987
  0
LINE
  8
CSLAYER1
  6
CONTINUOUS
 62
     7
 10
653.072482
 20
1806.249987
 11
652.743367
 21
1805.936060
  0
LINE
  8
CSLAYER1
  6
CONTINUOUS
 62
     7
 10
652.743367
 20
1805.936060
 11
652.365448
 21
1805.670722
  0
LINE
  8
CSLAYER1
  6
CONTINUOUS
 62
     7
 10
652.365448
 20
1805.670722
 11
651.941601
 21
1805.455991
  0
LINE
  8
CSLAYER1
  6
CONTINUOUS
 62
     7
 10
651.941601
 20
1805.455991
 11
651.475051
 21
1805.293501
  0
LINE
  8
CSLAYER1
  6
CONTINUOUS
 62
     7
 10
651.475051
 20
1805.293501
 11
650.969349
 21
1805.184491
  0
LINE
  8
CSLAYER1
  6
CONTINUOUS
 62
     7
 10
650.969349
 20
1805.184491
 11
650.428345
 21
1805.129788
  0
LINE
  8
CSLAYER1
  6
CONTINUOUS
 62
     7
 10
650.428345
 20
1805.129788
 11
649.856154
 21
1805.129810
  0
LINE
  8
CSLAYER1
  6
CONTINUOUS
 62
     7
 10
649.856154
 20
1805.129810
 11
649.257132
 21
1805.184556
  0
LINE
  8
CSLAYER1
  6
CONTINUOUS
 62
     7
 10
649.257132
 20
1805.184556
 11
648.635839
 21
1805.293610
  0
LINE
  8
CSLAYER1
  6
CONTINUOUS
 62
     7
 10
648.635839
 20
1805.293610
 11
647.997001
 21
1805.456142
  0
LINE
  8
CSLAYER1
  6
CONTINUOUS
 62
     7
 10
647.997001
 20
1805.456142
 11
647.345482
 21
1805.670914
  0
LINE
  8
CSLAYER1
  6
CONTINUOUS
 62
     7
 10
647.345482
 20
1805.670914
 11
646.686240
 21
1805.936292
  0
LINE
  8
CSLAYER1
  6
CONTINUOUS
 62
     7
 10
646.686240
 20
1805.936292
 11
646.024291
 21
1806.250257
  0
LINE
  8
CSLAYER1
  6
CONTINUOUS
 62
     7
 10
646.024291
 20
1806.250257
 11
645.364674
 21
1806.610419
  0
LINE
  8
CSLAYER1
  6
CONTINUOUS
 62
     7
 10
645.364674
 20
1806.610419
 11
644.712409
 21
1807.014036
  0
LINE
  8
CSLAYER1
  6
CONTINUOUS
 62
     7
 10
644.712409
 20
1807.014036
 11
644.072460
 21
1807.458038
  0
LINE
  8
CSLAYER1
  6
CONTINUOUS
 62
     7
 10
644.072460
 20
1807.458038
 11
643.449697
 21
1807.939045
  0
LINE
  8
CSLAYER1
  6
CONTINUOUS
 62
     7
 10
643.449697
 20
1807.939045
 11
642.848860
 21
1808.453396
  0
LINE
  8
CSLAYER1
  6
CONTINUOUS
 62
     7
 10
642.848860
 20
1808.453396
 11
642.274522
 21
1808.997177
  0
LINE
  8
CSLAYER1
  6
CONTINUOUS
 62
     7
 10
642.274522
 20
1808.997177
 11
641.731054
 21
1809.566250
  0
LINE
  8
CSLAYER1
  6
CONTINUOUS
 62
     7
 10
641.731054
 20
1809.566250
 11
641.222591
 21
1810.156282
  0
LINE
  8
CSLAYER1
  6
CONTINUOUS
 62
     7
 10
641.222591
 20
1810.156282
 11
640.753004
 21
1810.762785
  0
LINE
  8
CSLAYER1
  6
CONTINUOUS
 62
     7
 10
640.753004
 20
1810.762785
 11
640.325867
 21
1811.381141
  0
LINE
  8
CSLAYER1
  6
CONTINUOUS
 62
     7
 10
640.325867
 20
1811.381141
 11
639.944430
 21
1812.006645
  0
LINE
  8
CSLAYER1
  6
CONTINUOUS
 62
     7
 10
639.944430
 20
1812.006645
 11
639.611596
 21
1812.634537
  0
LINE
  8
CSLAYER1
  6
CONTINUOUS
 62
     7
 10
639.611596
 20
1812.634537
 11
639.329898
 21
1813.260037
  0
LINE
  8
CSLAYER1
  6
CONTINUOUS
 62
     7
 10
639.329898
 20
1813.260037
 11
639.101480
 21
1813.878386
  0
LINE
  8
CSLAYER1
  6
CONTINUOUS
 62
     7
 10
639.101480
 20
1813.878386
 11
638.928081
 21
1814.484877
  0
LINE
  8
CSLAYER1
  6
CONTINUOUS
 62
     7
 10
638.928081
 20
1814.484877
 11
638.811019
 21
1815.074894
  0
LINE
  8
CSLAYER1
  6
CONTINUOUS
 62
     7
 10
638.811019
 20
1815.074894
 11
638.751187
 21
1815.643948
  0
LINE
  8
CSLAYER1
  6
CONTINUOUS
 62
     7
 10
638.751187
 20
1815.643948
 11
638.749040
 21
1816.187707
  0
LINE
  8
CSLAYER1
  6
CONTINUOUS
 62
     7
 10
638.749040
 20
1816.187707
 11
638.804593
 21
1816.702033
  0
LINE
  8
CSLAYER1
  6
CONTINUOUS
 62
     7
 10
638.804593
 20
1816.702033
 11
638.917424
 21
1817.183012
  0
LINE
  8
CSLAYER1
  6
CONTINUOUS
 62
     7
 10
638.917424
 20
1817.183012
 11
639.086675
 21
1817.626983
  0
LINE
  8
CSLAYER1
  6
CONTINUOUS
 62
     7
 10
639.086675
 20
1817.626983
 11
639.311057
 21
1818.030567
  0
LINE
  8
CSLAYER1
  6
CONTINUOUS
 62
     7
 10
639.311057
 20
1818.030567
 11
639.588862
 21
1818.390693
  0
LINE
  8
CSLAYER1
  6
CONTINUOUS
 62
     7
 10
653.072482
 20
1806.249987
 11
683.059551
 21
1839.645345
  0
LINE
  8
CSLAYER1
  6
CONTINUOUS
 62
     7
 10
639.588862
 20
1818.390693
 11
669.575931
 21
1851.786051
  0
LINE
  8
CSLAYER1
  6
CONTINUOUS
 62
     7
 10
669.575931
 20
1851.786051
 11
669.905046
 21
1852.099978
  0
LINE
  8
CSLAYER1
  6
CONTINUOUS
 62
     7
 10
669.905046
 20
1852.099978
 11
670.282965
 21
1852.365316
  0
LINE
  8
CSLAYER1
  6
CONTINUOUS
 62
     7
 10
670.282965
 20
1852.365316
 11
670.706812
 21
1852.580047
  0
LINE
  8
CSLAYER1
  6
CONTINUOUS
 62
     7
 10
670.706812
 20
1852.580047
 11
671.173362
 21
1852.742536
  0
LINE
  8
CSLAYER1
  6
CONTINUOUS
 62
     7
 10
671.173362
 20
1852.742536
 11
671.679063
 21
1852.851547
  0
LINE
  8
CSLAYER1
  6
CONTINUOUS
 62
     7
 10
671.679063
 20
1852.851547
 11
672.220068
 21
1852.906250
  0
LINE
  8
CSLAYER1
  6
CONTINUOUS
 62
     7
 10
672.220068
 20
1852.906250
 11
672.792259
 21
1852.906228
  0
LINE
  8
CSLAYER1
  6
CONTINUOUS
 62
     7
 10
672.792259
 20
1852.906228
 11
673.391280
 21
1852.851481
  0
LINE
  8
CSLAYER1
  6
CONTINUOUS
 62
     7
 10
673.391280
 20
1852.851481
 11
674.012574
 21
1852.742428
  0
LINE
  8
CSLAYER1
  6
CONTINUOUS
 62
     7
 10
674.012574
 20
1852.742428
 11
674.651411
 21
1852.579896
  0
LINE
  8
CSLAYER1
  6
CONTINUOUS
 62
     7
 10
674.651411
 20
1852.579896
 11
675.302931
 21
1852.365124
  0
LINE
  8
CSLAYER1
  6
CONTINUOUS
 62
     7
 10
675.302931
 20
1852.365124
 11
675.962173
 21
1852.099746
  0
LINE
  8
CSLAYER1
  6
CONTINUOUS
 62
     7
 10
675.962173
 20
1852.099746
 11
676.624122
 21
1851.785781
  0
LINE
  8
CSLAYER1
  6
CONTINUOUS
 62
     7
 10
676.624122
 20
1851.785781
 11
677.283739
 21
1851.425619
  0
LINE
  8
CSLAYER1
  6
CONTINUOUS
 62
     7
 10
677.283739
 20
1851.425619
 11
677.936004
 21
1851.022001
  0
LINE
  8
CSLAYER1
  6
CONTINUOUS
 62
     7
 10
677.936004
 20
1851.022001
 11
678.575953
 21
1850.578000
  0
LINE
  8
CSLAYER1
  6
CONTINUOUS
 62
     7
 10
678.575953
 20
1850.578000
 11
679.198716
 21
1850.096993
  0
LINE
  8
CSLAYER1
  6
CONTINUOUS
 62
     7
 10
679.198716
 20
1850.096993
 11
679.799552
 21
1849.582641
  0
LINE
  8
CSLAYER1
  6
CONTINUOUS
 62
     7
 10
679.799552
 20
1849.582641
 11
680.373890
 21
1849.038860
  0
LINE
  8
CSLAYER1
  6
CONTINUOUS
 62
     7
 10
680.373890
 20
1849.038860
 11
680.917359
 21
1848.469788
  0
LINE
  8
CSLAYER1
  6
CONTINUOUS
 62
     7
 10
680.917359
 20
1848.469788
 11
681.425821
 21
1847.879756
  0
LINE
  8
CSLAYER1
  6
CONTINUOUS
 62
     7
 10
681.425821
 20
1847.879756
 11
681.895408
 21
1847.273253
  0
LINE
  8
CSLAYER1
  6
CONTINUOUS
 62
     7
 10
681.895408
 20
1847.273253
 11
682.322546
 21
1846.654897
  0
LINE
  8
CSLAYER1
  6
CONTINUOUS
 62
     7
 10
682.322546
 20
1846.654897
 11
682.703983
 21
1846.029393
  0
LINE
  8
CSLAYER1
  6
CONTINUOUS
 62
     7
 10
682.703983
 20
1846.029393
 11
683.036817
 21
1845.401501
  0
LINE
  8
CSLAYER1
  6
CONTINUOUS
 62
     7
 10
683.036817
 20
1845.401501
 11
683.318515
 21
1844.776001
  0
LINE
  8
CSLAYER1
  6
CONTINUOUS
 62
     7
 10
683.318515
 20
1844.776001
 11
683.546933
 21
1844.157652
  0
LINE
  8
CSLAYER1
  6
CONTINUOUS
 62
     7
 10
683.546933
 20
1844.157652
 11
683.720332
 21
1843.551161
  0
LINE
  8
CSLAYER1
  6
CONTINUOUS
 62
     7
 10
683.720332
 20
1843.551161
 11
683.837393
 21
1842.961144
  0
LINE
  8
CSLAYER1
  6
CONTINUOUS
 62
     7
 10
683.837393
 20
1842.961144
 11
683.897225
 21
1842.392090
  0
LINE
  8
CSLAYER1
  6
CONTINUOUS
 62
     7
 10
683.897225
 20
1842.392090
 11
683.899373
 21
1841.848331
  0
LINE
  8
CSLAYER1
  6
CONTINUOUS
 62
     7
 10
683.899373
 20
1841.848331
 11
683.843820
 21
1841.334005
  0
LINE
  8
CSLAYER1
  6
CONTINUOUS
 62
     7
 10
683.843820
 20
1841.334005
 11
683.730988
 21
1840.853026
  0
LINE
  8
CSLAYER1
  6
CONTINUOUS
 62
     7
 10
683.730988
 20
1840.853026
 11
683.561738
 21
1840.409055
  0
LINE
  8
CSLAYER1
  6
CONTINUOUS
 62
     7
 10
683.561738
 20
1840.409055
 11
683.337356
 21
1840.005471
  0
LINE
  8
CSLAYER1
  6
CONTINUOUS
 62
     7
 10
683.337356
 20
1840.005471
 11
683.059551
 21
1839.645345
  0
LINE
  8
CSLAYER1
  6
CONTINUOUS
 62
     7
 10
763.981953
 20
1973.396999
 11
763.981953
 21
1955.097664
  0
LINE
  8
CSLAYER1
  6
CONTINUOUS
 62
     7
 10
763.981953
 20
1955.097664
 11
763.981953
 21
1949.193432
  0
LINE
  8
CSLAYER1
  6
CONTINUOUS
 62
     7
 10
794.497084
 20
2026.752386
 11
794.497084
 21
2006.401184
  0
LINE
  8
CSLAYER1
  6
CONTINUOUS
 62
     7
 10
794.497084
 20
1988.864995
 11
794.497084
 21
1966.263239
  0
LINE
  8
CSLAYER1
  6
CONTINUOUS
 62
     7
 10
806.081952
 20
2019.593019
 11
808.916853
 21
2017.040660
  0
LINE
  8
CSLAYER1
  6
CONTINUOUS
 62
     7
 10
808.916853
 20
2017.040660
 11
811.353131
 21
2014.356295
  0
LINE
  8
CSLAYER1
  6
CONTINUOUS
 62
     7
 10
811.353131
 20
2014.356295
 11
813.372246
 21
2011.560354
  0
LINE
  8
CSLAYER1
  6
CONTINUOUS
 62
     7
 10
813.372246
 20
2011.560354
 11
814.958830
 21
2008.674116
  0
LINE
  8
CSLAYER1
  6
CONTINUOUS
 62
     7
 10
814.958830
 20
2008.674116
 11
816.100809
 21
2005.719547
  0
LINE
  8
CSLAYER1
  6
CONTINUOUS
 62
     7
 10
816.100809
 20
2005.719547
 11
816.789492
 21
2002.719133
  0
LINE
  8
CSLAYER1
  6
CONTINUOUS
 62
     7
 10
816.789492
 20
2002.719133
 11
817.019637
 21
1999.695708
  0
LINE
  8
CSLAYER1
  6
CONTINUOUS
 62
     7
 10
817.019637
 20
1999.695708
 11
816.789492
 21
1996.672284
  0
LINE
  8
CSLAYER1
  6
CONTINUOUS
 62
     7
 10
816.789492
 20
1996.672284
 11
816.100809
 21
1993.671870
  0
LINE
  8
CSLAYER1
  6
CONTINUOUS
 62
     7
 10
816.100809
 20
1993.671870
 11
814.958830
 21
1990.717301
  0
LINE
  8
CSLAYER1
  6
CONTINUOUS
 62
     7
 10
814.958830
 20
1990.717301
 11
813.372246
 21
1987.831063
  0
LINE
  8
CSLAYER1
  6
CONTINUOUS
 62
     7
 10
813.372246
 20
1987.831063
 11
811.353131
 21
1985.035122
  0
LINE
  8
CSLAYER1
  6
CONTINUOUS
 62
     7
 10
811.353131
 20
1985.035122
 11
808.916853
 21
1982.350757
  0
LINE
  8
CSLAYER1
  6
CONTINUOUS
 62
     7
 10
794.497084
 20
2026.752386
 11
799.305455
 21
2024.225174
  0
LINE
  8
CSLAYER1
  6
CONTINUOUS
 62
     7
 10
799.305455
 20
2024.225174
 11
802.870004
 21
2021.993948
  0
LINE
  8
CSLAYER1
  6
CONTINUOUS
 62
     7
 10
802.870004
 20
2021.993948
 11
806.081952
 21
2019.593019
  0
LINE
  8
CSLAYER1
  6
CONTINUOUS
 62
     7
 10
797.716045
 20
2002.452491
 11
797.969742
 21
2001.347197
  0
LINE
  8
CSLAYER1
  6
CONTINUOUS
 62
     7
 10
797.969742
 20
2001.347197
 11
798.143629
 21
1999.062832
  0
LINE
  8
CSLAYER1
  6
CONTINUOUS
 62
     7
 10
798.143629
 20
1999.062832
 11
797.969742
 21
1996.778467
  0
LINE
  8
CSLAYER1
  6
CONTINUOUS
 62
     7
 10
797.969742
 20
1996.778467
 11
797.449404
 21
1994.511488
  0
LINE
  8
CSLAYER1
  6
CONTINUOUS
 62
     7
 10
797.449404
 20
1994.511488
 11
796.586575
 21
1992.279147
  0
LINE
  8
CSLAYER1
  6
CONTINUOUS
 62
     7
 10
796.586575
 20
1992.279147
 11
795.387823
 21
1990.098433
  0
LINE
  8
CSLAYER1
  6
CONTINUOUS
 62
     7
 10
795.387823
 20
1990.098433
 11
794.497084
 21
1988.864995
  0
LINE
  8
CSLAYER1
  6
CONTINUOUS
 62
     7
 10
794.497084
 20
2006.409759
 11
794.454528
 21
2006.448073
  0
LINE
  8
CSLAYER1
  6
CONTINUOUS
 62
     7
 10
794.454528
 20
2006.448073
 11
796.295272
 21
2004.419886
  0
LINE
  8
CSLAYER1
  6
CONTINUOUS
 62
     7
 10
796.295272
 20
2004.419886
 11
797.820825
 21
2002.307398
  0
LINE
  8
CSLAYER1
  6
CONTINUOUS
 62
     7
 10
794.497084
 20
2006.401184
 11
794.497084
 21
1988.864995
  0
LINE
  8
CSLAYER1
  6
CONTINUOUS
 62
     7
 10
612.865717
 20
2026.621279
 11
556.033108
 21
2047.306657
  0
LINE
  8
CSLAYER1
  6
CONTINUOUS
 62
     7
 10
621.744190
 20
2037.692329
 11
564.911580
 21
2058.377707
  0
LINE
  8
CSLAYER1
  6
CONTINUOUS
 62
     7
 10
618.688286
 20
2037.374332
 11
561.898281
 21
2058.044203
  0
LINE
  8
CSLAYER1
  6
CONTINUOUS
 62
     7
 10
617.352068
 20
2036.430420
 11
560.519458
 21
2057.115799
  0
LINE
  8
CSLAYER1
  6
CONTINUOUS
 62
     7
 10
616.303639
 20
2035.381762
 11
559.471030
 21
2056.067141
  0
LINE
  8
CSLAYER1
  6
CONTINUOUS
 62
     7
 10
615.443130
 20
2034.264707
 11
558.610520
 21
2054.950086
  0
LINE
  8
CSLAYER1
  6
CONTINUOUS
 62
     7
 10
614.723226
 20
2033.096476
 11
557.890818
 21
2053.781781
  0
LINE
  8
CSLAYER1
  6
CONTINUOUS
 62
     7
 10
614.130490
 20
2031.881959
 11
557.297880
 21
2052.567338
  0
LINE
  8
CSLAYER1
  6
CONTINUOUS
 62
     7
 10
613.644694
 20
2030.628520
 11
556.812085
 21
2051.313898
  0
LINE
  8
CSLAYER1
  6
CONTINUOUS
 62
     7
 10
613.258824
 20
2029.338710
 11
556.431294
 21
2050.022239
  0
LINE
  8
CSLAYER1
  6
CONTINUOUS
 62
     7
 10
558.705966
 20
2041.327924
 11
558.291610
 21
2041.515475
  0
LINE
  8
CSLAYER1
  6
CONTINUOUS
 62
     7
 10
558.291610
 20
2041.515475
 11
557.904022
 21
2041.766478
  0
LINE
  8
CSLAYER1
  6
CONTINUOUS
 62
     7
 10
557.904022
 20
2041.766478
 11
557.546151
 21
2042.079022
  0
LINE
  8
CSLAYER1
  6
CONTINUOUS
 62
     7
 10
557.546151
 20
2042.079022
 11
557.220721
 21
2042.450730
  0
LINE
  8
CSLAYER1
  6
CONTINUOUS
 62
     7
 10
557.220721
 20
2042.450730
 11
556.930209
 21
2042.878772
  0
LINE
  8
CSLAYER1
  6
CONTINUOUS
 62
     7
 10
556.930209
 20
2042.878772
 11
556.676825
 21
2043.359891
  0
LINE
  8
CSLAYER1
  6
CONTINUOUS
 62
     7
 10
556.676825
 20
2043.359891
 11
556.462499
 21
2043.890426
  0
LINE
  8
CSLAYER1
  6
CONTINUOUS
 62
     7
 10
556.462499
 20
2043.890426
 11
556.288862
 21
2044.466337
  0
LINE
  8
CSLAYER1
  6
CONTINUOUS
 62
     7
 10
556.288862
 20
2044.466337
 11
556.157234
 21
2045.083243
  0
LINE
  8
CSLAYER1
  6
CONTINUOUS
 62
     7
 10
556.157234
 20
2045.083243
 11
556.068618
 21
2045.736448
  0
LINE
  8
CSLAYER1
  6
CONTINUOUS
 62
     7
 10
556.068618
 20
2045.736448
 11
556.023688
 21
2046.420981
  0
LINE
  8
CSLAYER1
  6
CONTINUOUS
 62
     7
 10
556.023688
 20
2046.420981
 11
556.022785
 21
2047.131633
  0
LINE
  8
CSLAYER1
  6
CONTINUOUS
 62
     7
 10
556.022785
 20
2047.131633
 11
556.065918
 21
2047.862994
  0
LINE
  8
CSLAYER1
  6
CONTINUOUS
 62
     7
 10
556.065918
 20
2047.862994
 11
556.152758
 21
2048.609499
  0
LINE
  8
CSLAYER1
  6
CONTINUOUS
 62
     7
 10
556.152758
 20
2048.609499
 11
556.282643
 21
2049.365466
  0
LINE
  8
CSLAYER1
  6
CONTINUOUS
 62
     7
 10
556.282643
 20
2049.365466
 11
556.454585
 21
2050.125143
  0
LINE
  8
CSLAYER1
  6
CONTINUOUS
 62
     7
 10
556.454585
 20
2050.125143
 11
556.667276
 21
2050.882747
  0
LINE
  8
CSLAYER1
  6
CONTINUOUS
 62
     7
 10
556.667276
 20
2050.882747
 11
556.919096
 21
2051.632512
  0
LINE
  8
CSLAYER1
  6
CONTINUOUS
 62
     7
 10
556.919096
 20
2051.632512
 11
557.208130
 21
2052.368733
  0
LINE
  8
CSLAYER1
  6
CONTINUOUS
 62
     7
 10
557.208130
 20
2052.368733
 11
557.532178
 21
2053.085807
  0
LINE
  8
CSLAYER1
  6
CONTINUOUS
 62
     7
 10
557.532178
 20
2053.085807
 11
557.888774
 21
2053.778275
  0
LINE
  8
CSLAYER1
  6
CONTINUOUS
 62
     7
 10
557.888774
 20
2053.778275
 11
558.275202
 21
2054.440868
  0
LINE
  8
CSLAYER1
  6
CONTINUOUS
 62
     7
 10
558.275202
 20
2054.440868
 11
558.688524
 21
2055.068544
  0
LINE
  8
CSLAYER1
  6
CONTINUOUS
 62
     7
 10
558.688524
 20
2055.068544
 11
559.125592
 21
2055.656524
  0
LINE
  8
CSLAYER1
  6
CONTINUOUS
 62
     7
 10
559.125592
 20
2055.656524
 11
559.583081
 21
2056.200335
  0
LINE
  8
CSLAYER1
  6
CONTINUOUS
 62
     7
 10
559.583081
 20
2056.200335
 11
560.057509
 21
2056.695837
  0
LINE
  8
CSLAYER1
  6
CONTINUOUS
 62
     7
 10
560.057509
 20
2056.695837
 11
560.545265
 21
2057.139260
  0
LINE
  8
CSLAYER1
  6
CONTINUOUS
 62
     7
 10
560.545265
 20
2057.139260
 11
561.042637
 21
2057.527228
  0
LINE
  8
CSLAYER1
  6
CONTINUOUS
 62
     7
 10
561.042637
 20
2057.527228
 11
561.545840
 21
2057.856790
  0
LINE
  8
CSLAYER1
  6
CONTINUOUS
 62
     7
 10
561.545840
 20
2057.856790
 11
562.051044
 21
2058.125437
  0
LINE
  8
CSLAYER1
  6
CONTINUOUS
 62
     7
 10
562.051044
 20
2058.125437
 11
562.554404
 21
2058.331123
  0
LINE
  8
CSLAYER1
  6
CONTINUOUS
 62
     7
 10
562.554404
 20
2058.331123
 11
563.052090
 21
2058.472285
  0
LINE
  8
CSLAYER1
  6
CONTINUOUS
 62
     7
 10
563.052090
 20
2058.472285
 11
563.540313
 21
2058.547848
  0
LINE
  8
CSLAYER1
  6
CONTINUOUS
 62
     7
 10
563.540313
 20
2058.547848
 11
564.015358
 21
2058.557236
  0
LINE
  8
CSLAYER1
  6
CONTINUOUS
 62
     7
 10
564.015358
 20
2058.557236
 11
564.473609
 21
2058.500378
  0
LINE
  8
CSLAYER1
  6
CONTINUOUS
 62
     7
 10
564.473609
 20
2058.500378
 11
564.911580
 21
2058.377707
  0
LINE
  8
CSLAYER1
  6
CONTINUOUS
 62
     7
 10
612.998928
 20
2028.003049
 11
556.162117
 21
2048.689957
  0
LINE
  8
CSLAYER1
  6
CONTINUOUS
 62
     7
 10
612.892686
 20
2025.181209
 11
556.060076
 21
2045.866587
  0
LINE
  8
CSLAYER1
  6
CONTINUOUS
 62
     7
 10
613.147676
 20
2023.658145
 11
556.327224
 21
2044.339098
  0
LINE
  8
CSLAYER1
  6
CONTINUOUS
 62
     7
 10
613.886220
 20
2021.959082
 11
557.100924
 21
2042.627239
  0
LINE
  8
CSLAYER1
  6
CONTINUOUS
 62
     7
 10
615.538576
 20
2020.642546
 11
558.705966
 21
2041.327924
  0
LINE
  8
CSLAYER1
  6
CONTINUOUS
 62
     7
 10
689.276250
 20
1998.157552
 11
672.115957
 21
2000.066307
  0
LINE
  8
CSLAYER1
  6
CONTINUOUS
 62
     7
 10
621.744190
 20
2037.692329
 11
622.158546
 21
2037.504778
  0
LINE
  8
CSLAYER1
  6
CONTINUOUS
 62
     7
 10
622.158546
 20
2037.504778
 11
622.546135
 21
2037.253775
  0
LINE
  8
CSLAYER1
  6
CONTINUOUS
 62
     7
 10
622.546135
 20
2037.253775
 11
622.904006
 21
2036.941231
  0
LINE
  8
CSLAYER1
  6
CONTINUOUS
 62
     7
 10
622.904006
 20
2036.941231
 11
623.229435
 21
2036.569523
  0
LINE
  8
CSLAYER1
  6
CONTINUOUS
 62
     7
 10
623.229435
 20
2036.569523
 11
623.519948
 21
2036.141480
  0
LINE
  8
CSLAYER1
  6
CONTINUOUS
 62
     7
 10
623.519948
 20
2036.141480
 11
623.773331
 21
2035.660361
  0
LINE
  8
CSLAYER1
  6
CONTINUOUS
 62
     7
 10
623.773331
 20
2035.660361
 11
623.987657
 21
2035.129827
  0
LINE
  8
CSLAYER1
  6
CONTINUOUS
 62
     7
 10
623.987657
 20
2035.129827
 11
624.161294
 21
2034.553916
  0
LINE
  8
CSLAYER1
  6
CONTINUOUS
 62
     7
 10
624.161294
 20
2034.553916
 11
624.269463
 21
2034.046958
  0
LINE
  8
CSLAYER1
  6
CONTINUOUS
 62
     7
 10
619.169654
 20
2021.337240
 11
618.904316
 21
2021.163463
  0
LINE
  8
CSLAYER1
  6
CONTINUOUS
 62
     7
 10
618.904316
 20
2021.163463
 11
618.399112
 21
2020.894816
  0
LINE
  8
CSLAYER1
  6
CONTINUOUS
 62
     7
 10
618.399112
 20
2020.894816
 11
617.895752
 21
2020.689129
  0
LINE
  8
CSLAYER1
  6
CONTINUOUS
 62
     7
 10
617.895752
 20
2020.689129
 11
617.398066
 21
2020.547968
  0
LINE
  8
CSLAYER1
  6
CONTINUOUS
 62
     7
 10
617.398066
 20
2020.547968
 11
616.909843
 21
2020.472405
  0
LINE
  8
CSLAYER1
  6
CONTINUOUS
 62
     7
 10
616.909843
 20
2020.472405
 11
616.434798
 21
2020.463017
  0
LINE
  8
CSLAYER1
  6
CONTINUOUS
 62
     7
 10
616.434798
 20
2020.463017
 11
615.976547
 21
2020.519875
  0
LINE
  8
CSLAYER1
  6
CONTINUOUS
 62
     7
 10
615.976547
 20
2020.519875
 11
615.538576
 21
2020.642546
  0
LINE
  8
CSLAYER1
  6
CONTINUOUS
 62
     7
 10
615.538576
 20
2020.642546
 11
615.124220
 21
2020.830096
  0
LINE
  8
CSLAYER1
  6
CONTINUOUS
 62
     7
 10
615.124220
 20
2020.830096
 11
614.736631
 21
2021.081099
  0
LINE
  8
CSLAYER1
  6
CONTINUOUS
 62
     7
 10
614.736631
 20
2021.081099
 11
614.378760
 21
2021.393644
  0
LINE
  8
CSLAYER1
  6
CONTINUOUS
 62
     7
 10
614.378760
 20
2021.393644
 11
614.053330
 21
2021.765352
  0
LINE
  8
CSLAYER1
  6
CONTINUOUS
 62
     7
 10
614.053330
 20
2021.765352
 11
613.762818
 21
2022.193394
  0
LINE
  8
CSLAYER1
  6
CONTINUOUS
 62
     7
 10
613.762818
 20
2022.193394
 11
613.509435
 21
2022.674513
  0
LINE
  8
CSLAYER1
  6
CONTINUOUS
 62
     7
 10
613.509435
 20
2022.674513
 11
613.295109
 21
2023.205047
  0
LINE
  8
CSLAYER1
  6
CONTINUOUS
 62
     7
 10
613.295109
 20
2023.205047
 11
613.121471
 21
2023.780959
  0
LINE
  8
CSLAYER1
  6
CONTINUOUS
 62
     7
 10
613.121471
 20
2023.780959
 11
612.989844
 21
2024.397864
  0
LINE
  8
CSLAYER1
  6
CONTINUOUS
 62
     7
 10
612.989844
 20
2024.397864
 11
612.901227
 21
2025.051070
  0
LINE
  8
CSLAYER1
  6
CONTINUOUS
 62
     7
 10
612.901227
 20
2025.051070
 11
612.856297
 21
2025.735603
  0
LINE
  8
CSLAYER1
  6
CONTINUOUS
 62
     7
 10
612.856297
 20
2025.735603
 11
612.855395
 21
2026.446254
  0
LINE
  8
CSLAYER1
  6
CONTINUOUS
 62
     7
 10
612.855395
 20
2026.446254
 11
612.898528
 21
2027.177616
  0
LINE
  8
CSLAYER1
  6
CONTINUOUS
 62
     7
 10
612.898528
 20
2027.177616
 11
612.985367
 21
2027.924121
  0
LINE
  8
CSLAYER1
  6
CONTINUOUS
 62
     7
 10
612.985367
 20
2027.924121
 11
613.115252
 21
2028.680088
  0
LINE
  8
CSLAYER1
  6
CONTINUOUS
 62
     7
 10
613.115252
 20
2028.680088
 11
613.287194
 21
2029.439765
  0
LINE
  8
CSLAYER1
  6
CONTINUOUS
 62
     7
 10
613.287194
 20
2029.439765
 11
613.499885
 21
2030.197369
  0
LINE
  8
CSLAYER1
  6
CONTINUOUS
 62
     7
 10
613.499885
 20
2030.197369
 11
613.751706
 21
2030.947134
  0
LINE
  8
CSLAYER1
  6
CONTINUOUS
 62
     7
 10
613.751706
 20
2030.947134
 11
614.040740
 21
2031.683355
  0
LINE
  8
CSLAYER1
  6
CONTINUOUS
 62
     7
 10
614.040740
 20
2031.683355
 11
614.364788
 21
2032.400428
  0
LINE
  8
CSLAYER1
  6
CONTINUOUS
 62
     7
 10
614.364788
 20
2032.400428
 11
614.721383
 21
2033.092897
  0
LINE
  8
CSLAYER1
  6
CONTINUOUS
 62
     7
 10
614.721383
 20
2033.092897
 11
615.107812
 21
2033.755490
  0
LINE
  8
CSLAYER1
  6
CONTINUOUS
 62
     7
 10
615.107812
 20
2033.755490
 11
615.521133
 21
2034.383165
  0
LINE
  8
CSLAYER1
  6
CONTINUOUS
 62
     7
 10
615.521133
 20
2034.383165
 11
615.958202
 21
2034.971146
  0
LINE
  8
CSLAYER1
  6
CONTINUOUS
 62
     7
 10
615.958202
 20
2034.971146
 11
616.415691
 21
2035.514956
  0
LINE
  8
CSLAYER1
  6
CONTINUOUS
 62
     7
 10
616.415691
 20
2035.514956
 11
616.890119
 21
2036.010459
  0
LINE
  8
CSLAYER1
  6
CONTINUOUS
 62
     7
 10
616.890119
 20
2036.010459
 11
617.377875
 21
2036.453882
  0
LINE
  8
CSLAYER1
  6
CONTINUOUS
 62
     7
 10
617.377875
 20
2036.453882
 11
617.875247
 21
2036.841850
  0
LINE
  8
CSLAYER1
  6
CONTINUOUS
 62
     7
 10
617.875247
 20
2036.841850
 11
618.378450
 21
2037.171412
  0
LINE
  8
CSLAYER1
  6
CONTINUOUS
 62
     7
 10
618.378450
 20
2037.171412
 11
618.883654
 21
2037.440058
  0
LINE
  8
CSLAYER1
  6
CONTINUOUS
 62
     7
 10
618.883654
 20
2037.440058
 11
619.387014
 21
2037.645745
  0
LINE
  8
CSLAYER1
  6
CONTINUOUS
 62
     7
 10
619.387014
 20
2037.645745
 11
619.884700
 21
2037.786907
  0
LINE
  8
CSLAYER1
  6
CONTINUOUS
 62
     7
 10
619.884700
 20
2037.786907
 11
620.372923
 21
2037.862470
  0
LINE
  8
CSLAYER1
  6
CONTINUOUS
 62
     7
 10
620.372923
 20
2037.862470
 11
620.847968
 21
2037.871858
  0
LINE
  8
CSLAYER1
  6
CONTINUOUS
 62
     7
 10
620.847968
 20
2037.871858
 11
621.306219
 21
2037.815000
  0
LINE
  8
CSLAYER1
  6
CONTINUOUS
 62
     7
 10
621.306219
 20
2037.815000
 11
621.744190
 21
2037.692329
  0
LINE
  8
CSLAYER1
  6
CONTINUOUS
 62
     7
 10
690.787277
 20
2011.742154
 11
673.571625
 21
2013.657067
  0
LINE
  8
CSLAYER1
  6
CONTINUOUS
 62
     7
 10
615.224174
 20
2030.367500
 11
615.442684
 21
2030.924083
  0
LINE
  8
CSLAYER1
  6
CONTINUOUS
 62
     7
 10
615.442684
 20
2030.924083
 11
615.687664
 21
2031.466190
  0
LINE
  8
CSLAYER1
  6
CONTINUOUS
 62
     7
 10
615.687664
 20
2031.466190
 11
615.957250
 21
2031.989696
  0
LINE
  8
CSLAYER1
  6
CONTINUOUS
 62
     7
 10
615.957250
 20
2031.989696
 11
616.249390
 21
2032.490616
  0
LINE
  8
CSLAYER1
  6
CONTINUOUS
 62
     7
 10
616.249390
 20
2032.490616
 11
616.561861
 21
2032.965139
  0
LINE
  8
CSLAYER1
  6
CONTINUOUS
 62
     7
 10
616.561861
 20
2032.965139
 11
616.892285
 21
2033.409652
  0
LINE
  8
CSLAYER1
  6
CONTINUOUS
 62
     7
 10
616.892285
 20
2033.409652
 11
617.238147
 21
2033.820773
  0
LINE
  8
CSLAYER1
  6
CONTINUOUS
 62
     7
 10
617.238147
 20
2033.820773
 11
617.596814
 21
2034.195373
  0
LINE
  8
CSLAYER1
  6
CONTINUOUS
 62
     7
 10
617.596814
 20
2034.195373
 11
617.965558
 21
2034.530601
  0
LINE
  8
CSLAYER1
  6
CONTINUOUS
 62
     7
 10
617.965558
 20
2034.530601
 11
618.341571
 21
2034.823905
  0
LINE
  8
CSLAYER1
  6
CONTINUOUS
 62
     7
 10
618.341571
 20
2034.823905
 11
618.721992
 21
2035.073053
  0
LINE
  8
CSLAYER1
  6
CONTINUOUS
 62
     7
 10
618.721992
 20
2035.073053
 11
619.103927
 21
2035.276150
  0
LINE
  8
CSLAYER1
  6
CONTINUOUS
 62
     7
 10
619.103927
 20
2035.276150
 11
619.484467
 21
2035.431649
  0
LINE
  8
CSLAYER1
  6
CONTINUOUS
 62
     7
 10
619.484467
 20
2035.431649
 11
619.860717
 21
2035.538368
  0
LINE
  8
CSLAYER1
  6
CONTINUOUS
 62
     7
 10
619.860717
 20
2035.538368
 11
620.229814
 21
2035.595493
  0
LINE
  8
CSLAYER1
  6
CONTINUOUS
 62
     7
 10
620.229814
 20
2035.595493
 11
620.588948
 21
2035.602590
  0
LINE
  8
CSLAYER1
  6
CONTINUOUS
 62
     7
 10
620.588948
 20
2035.602590
 11
620.935386
 21
2035.559606
  0
LINE
  8
CSLAYER1
  6
CONTINUOUS
 62
     7
 10
620.935386
 20
2035.559606
 11
621.302709
 21
2035.456723
  0
LINE
  8
CSLAYER1
  6
CONTINUOUS
 62
     7
 10
616.261795
 20
2022.719019
 11
615.968778
 21
2022.908777
  0
LINE
  8
CSLAYER1
  6
CONTINUOUS
 62
     7
 10
615.968778
 20
2022.908777
 11
615.698227
 21
2023.145061
  0
LINE
  8
CSLAYER1
  6
CONTINUOUS
 62
     7
 10
615.698227
 20
2023.145061
 11
615.452202
 21
2023.426072
  0
LINE
  8
CSLAYER1
  6
CONTINUOUS
 62
     7
 10
615.452202
 20
2023.426072
 11
615.232575
 21
2023.749672
  0
LINE
  8
CSLAYER1
  6
CONTINUOUS
 62
     7
 10
615.232575
 20
2023.749672
 11
615.041017
 21
2024.113398
  0
LINE
  8
CSLAYER1
  6
CONTINUOUS
 62
     7
 10
615.041017
 20
2024.113398
 11
614.878987
 21
2024.514482
  0
LINE
  8
CSLAYER1
  6
CONTINUOUS
 62
     7
 10
614.878987
 20
2024.514482
 11
614.747717
 21
2024.949871
  0
LINE
  8
CSLAYER1
  6
CONTINUOUS
 62
     7
 10
614.747717
 20
2024.949871
 11
614.648206
 21
2025.416252
  0
LINE
  8
CSLAYER1
  6
CONTINUOUS
 62
     7
 10
614.648206
 20
2025.416252
 11
614.581212
 21
2025.910075
  0
LINE
  8
CSLAYER1
  6
CONTINUOUS
 62
     7
 10
614.581212
 20
2025.910075
 11
614.547245
 21
2026.427582
  0
LINE
  8
CSLAYER1
  6
CONTINUOUS
 62
     7
 10
614.547245
 20
2026.427582
 11
614.546563
 21
2026.964834
  0
LINE
  8
CSLAYER1
  6
CONTINUOUS
 62
     7
 10
614.546563
 20
2026.964834
 11
614.579171
 21
2027.517744
  0
LINE
  8
CSLAYER1
  6
CONTINUOUS
 62
     7
 10
614.579171
 20
2027.517744
 11
614.644822
 21
2028.082101
  0
LINE
  8
CSLAYER1
  6
CONTINUOUS
 62
     7
 10
614.644822
 20
2028.082101
 11
614.743015
 21
2028.653613
  0
LINE
  8
CSLAYER1
  6
CONTINUOUS
 62
     7
 10
614.743015
 20
2028.653613
 11
614.873003
 21
2029.227928
  0
LINE
  8
CSLAYER1
  6
CONTINUOUS
 62
     7
 10
614.873003
 20
2029.227928
 11
615.033798
 21
2029.800677
  0
LINE
  8
CSLAYER1
  6
CONTINUOUS
 62
     7
 10
615.033798
 20
2029.800677
 11
615.224174
 21
2030.367500
  0
ARC
  8
CSLAYER1
  6
CONTINUOUS
 62
     7
 10
691.220539
 20
2005.806356
 40
7.892050
 50
255.737756
 51
348.379625
  0
LINE
  8
CSLAYER1
  6
CONTINUOUS
 62
     7
 10
690.787277
 20
2011.742154
 11
712.008866
 21
2025.002875
  0
INSERT
  8
CSLAYER1
  2
EASYDRAWDIM0000
 10
0.0
 20
0.0
 30
0.0
  0
INSERT
  8
CSLAYER1
  2
EASYDRAWDIM0001
 10
0.0
 20
0.0
 30
0.0
  0
TEXT
  8
CSLAYER1
 62
     3
 10
487.385681
 20
2331.521484
 40
40.000000
 41
0.771429
  1
足踏式油圧ポンプユニット
 50
0.000000
 51
0.000000
  7
EASYDRAW_FONT
 72
     5
 11
847.385681
 21
2331.521484
  0
TEXT
  8
CSLAYER1
 62
     3
 10
397.410095
 20
1726.570068
 40
40.000000
 41
0.763393
  1
外形寸法 400W×500D×280H
 50
0.000000
 51
0.000000
  7
EASYDRAW_FONT
 72
     5
 11
967.410095
 21
1726.570068
  0
LINE
  8
CSLAYER1
  6
CONTINUOUS
 62
     5
 10
1055.973863
 20
2404.596572
 11
1055.973863
 21
1700.486983
  0
LINE
  8
CSLAYER1
  6
CONTINUOUS
 62
     5
 10
1055.973863
 20
1700.486983
 11
254.679732
 21
1700.486983
  0
INSERT
  8
CSLAYER1
  2
EASYDRAWDIM0002
 10
0.0
 20
0.0
 30
0.0
  0
LINE
  8
CSLAYER1
  6
CONTINUOUS
 62
     7
 10
472.476637
 20
2376.967716
 11
862.487884
 21
2376.967716
  0
LINE
  8
CSLAYER1
  6
CONTINUOUS
 62
     7
 10
862.487884
 20
2376.967716
 11
862.487884
 21
2326.823413
  0
LINE
  8
CSLAYER1
  6
CONTINUOUS
 62
     7
 10
862.487884
 20
2326.823413
 11
472.476637
 21
2326.823413
  0
LINE
  8
CSLAYER1
  6
CONTINUOUS
 62
     7
 10
472.476637
 20
2326.823413
 11
472.476637
 21
2376.967716
  0
INSERT
  8
CSLAYER1
  2
BLKF0003
 10
0.0
 20
0.0
 30
0.0
  0
INSERT
  8
CSLAYER1
  2
BLKF0004
 10
0.0
 20
0.0
 30
0.0
  0
LINE
  8
CSLAYER1
  6
CONTINUOUS
 62
     7
 10
658.502860
 20
2060.942871
 11
655.555968
 21
2059.241483
  0
LINE
  8
CSLAYER1
  6
CONTINUOUS
 62
     7
 10
662.926471
 20
2053.280952
 11
659.979579
 21
2051.579563
  0
LINE
  8
CSLAYER1
  6
CONTINUOUS
 62
     7
 10
656.406663
 20
2057.768037
 11
658.795711
 21
2057.190963
  0
LINE
  8
CSLAYER1
  6
CONTINUOUS
 62
     7
 10
658.795711
 20
2057.190963
 11
659.823649
 21
2055.410523
  0
LINE
  8
CSLAYER1
  6
CONTINUOUS
 62
     7
 10
659.823649
 20
2055.410523
 11
659.128885
 21
2053.053009
  0
LINE
  8
CSLAYER1
  6
CONTINUOUS
 62
     7
 10
659.128885
 20
2053.053009
 11
656.739836
 21
2053.630083
  0
LINE
  8
CSLAYER1
  6
CONTINUOUS
 62
     7
 10
656.739836
 20
2053.630083
 11
655.711899
 21
2055.410523
  0
LINE
  8
CSLAYER1
  6
CONTINUOUS
 62
     7
 10
655.711899
 20
2055.410523
 11
656.406663
 21
2057.768037
  0
INSERT
  8
CSLAYER1
  2
BLKF0005
 10
0.0
 20
0.0
 30
0.0
  0
LINE
  8
CSLAYER1
  6
CONTINUOUS
 62
     7
 10
659.700211
 20
2063.079979
 11
657.515405
 21
2061.818580
  0
LINE
  8
CSLAYER1
  6
CONTINUOUS
 62
     7
 10
665.613890
 20
2052.558341
 11
663.513174
 21
2051.380773
  0
INSERT
  8
CSLAYER1
  2
BLKF0006
 10
0.0
 20
0.0
 30
0.0
  0
LINE
  8
CSLAYER1
  6
CONTINUOUS
 62
     7
 10
686.765200
 20
2065.492643
 11
665.720924
 21
2073.152133
  0
LINE
  8
CSLAYER1
  6
CONTINUOUS
 62
     7
 10
686.765200
 20
2065.492643
 11
686.765200
 21
2031.684309
  0
LINE
  8
CSLAYER1
  6
CONTINUOUS
 62
     7
 10
676.570107
 20
2059.122042
 11
676.570107
 21
2013.323543
  0
LINE
  8
CSLAYER1
  6
CONTINUOUS
 62
     7
 10
661.417185
 20
2035.549965
 11
659.283261
 21
2028.559031
  0
LINE
  8
CSLAYER1
  6
CONTINUOUS
 62
     7
 10
659.283261
 20
2028.559031
 11
652.161973
 21
2030.206465
  0
LINE
  8
CSLAYER1
  6
CONTINUOUS
 62
     7
 10
652.161973
 20
2030.206465
 11
649.076902
 21
2035.549965
  0
LINE
  8
CSLAYER1
  6
CONTINUOUS
 62
     7
 10
649.076902
 20
2035.549965
 11
651.162044
 21
2042.625392
  0
LINE
  8
CSLAYER1
  6
CONTINUOUS
 62
     7
 10
651.162044
 20
2042.625392
 11
658.332115
 21
2040.893464
  0
LINE
  8
CSLAYER1
  6
CONTINUOUS
 62
     7
 10
658.332115
 20
2040.893464
 11
661.417185
 21
2035.549965
  0
LINE
  8
CSLAYER1
  6
CONTINUOUS
 62
     7
 10
664.085764
 20
2037.090669
 11
661.951840
 21
2030.099736
  0
LINE
  8
CSLAYER1
  6
CONTINUOUS
 62
     7
 10
661.000693
 20
2042.434169
 11
664.085764
 21
2037.090669
  0
LINE
  8
CSLAYER1
  6
CONTINUOUS
 62
     7
 10
653.830622
 20
2044.166097
 11
661.000693
 21
2042.434169
  0
LINE
  8
CSLAYER1
  6
CONTINUOUS
 62
     7
 10
661.951840
 20
2030.099736
 11
659.283261
 21
2028.559031
  0
LINE
  8
CSLAYER1
  6
CONTINUOUS
 62
     7
 10
664.085764
 20
2037.090669
 11
661.417185
 21
2035.549965
  0
LINE
  8
CSLAYER1
  6
CONTINUOUS
 62
     7
 10
661.000693
 20
2042.434169
 11
658.332115
 21
2040.893464
  0
LINE
  8
CSLAYER1
  6
CONTINUOUS
 62
     7
 10
653.830622
 20
2044.166097
 11
651.162044
 21
2042.625392
  0
INSERT
  8
CSLAYER1
  2
BLKF0007
 10
0.0
 20
0.0
 30
0.0
  0
LINE
  8
CSLAYER1
  6
CONTINUOUS
 62
     7
 10
677.877824
 20
2065.105631
 11
676.218117
 21
2063.361527
  0
LINE
  8
CSLAYER1
  6
CONTINUOUS
 62
     7
 10
676.218117
 20
2063.361527
 11
674.204199
 21
2063.361527
  0
LINE
  8
CSLAYER1
  6
CONTINUOUS
 62
     7
 10
674.204199
 20
2063.361527
 11
672.544491
 21
2065.105631
  0
LINE
  8
CSLAYER1
  6
CONTINUOUS
 62
     7
 10
672.544491
 20
2065.105631
 11
674.204199
 21
2066.849735
  0
LINE
  8
CSLAYER1
  6
CONTINUOUS
 62
     7
 10
674.204199
 20
2066.849735
 11
676.218117
 21
2066.849735
  0
LINE
  8
CSLAYER1
  6
CONTINUOUS
 62
     7
 10
676.218117
 20
2066.849735
 11
677.877824
 21
2065.105631
  0
INSERT
  8
CSLAYER1
  2
BLKF0008
 10
0.0
 20
0.0
 30
0.0
  0
LINE
  8
CSLAYER1
  6
CONTINUOUS
 62
     7
 10
676.570107
 20
2059.122042
 11
655.525831
 21
2066.781532
  0
LINE
  8
CSLAYER1
  6
CONTINUOUS
 62
     7
 10
676.570107
 20
2059.122042
 11
686.765200
 21
2065.492643
  0
LINE
  8
CSLAYER1
  6
CONTINUOUS
 62
     7
 10
641.997220
 20
2070.388996
 11
641.997220
 21
2025.622946
  0
LINE
  8
CSLAYER1
  6
CONTINUOUS
 62
     7
 10
655.525831
 20
2066.781532
 11
665.720924
 21
2073.152133
  0
LINE
  8
CSLAYER1
  6
CONTINUOUS
 62
     7
 10
655.525831
 20
2065.464984
 11
641.997220
 21
2070.388996
  0
LINE
  8
CSLAYER1
  6
CONTINUOUS
 62
     7
 10
655.525831
 20
2066.781532
 11
655.525831
 21
2065.464984
  0
LINE
  8
CSLAYER1
  6
CONTINUOUS
 62
     7
 10
651.451356
 20
2065.768727
 11
644.813010
 21
2068.184887
  0
LINE
  8
CSLAYER1
  6
CONTINUOUS
 62
     7
 10
644.419032
 20
2069.507528
 11
644.813010
 21
2068.184887
  0
LINE
  8
CSLAYER1
  6
CONTINUOUS
 62
     7
 10
651.451356
 20
2065.768727
 11
653.665861
 21
2066.141958
  0
LINE
  8
CSLAYER1
  6
CONTINUOUS
 62
     7
 10
664.389518
 20
2072.320178
 11
658.114446
 21
2074.604117
  0
LINE
  8
CSLAYER1
  6
CONTINUOUS
 62
     7
 10
641.997220
 20
2070.388996
 11
651.053120
 21
2076.047750
  0
LINE
  8
CSLAYER1
  6
CONTINUOUS
 62
     7
 10
651.451356
 20
2065.768727
 11
651.451356
 21
2052.015272
  0
LINE
  8
CSLAYER1
  6
CONTINUOUS
 62
     7
 10
653.665861
 20
2066.141958
 11
653.665861
 21
2053.487938
  0
LINE
  8
CSLAYER1
  6
CONTINUOUS
 62
     7
 10
644.813010
 20
2068.184887
 11
644.813010
 21
2054.431433
  0
LINE
  8
CSLAYER1
  6
CONTINUOUS
 62
     7
 10
644.813010
 20
2054.431433
 11
646.537939
 21
2049.315386
  0
LINE
  8
CSLAYER1
  6
CONTINUOUS
 62
     7
 10
651.451356
 20
2052.015272
 11
649.074196
 21
2048.251794
  0
LINE
  8
CSLAYER1
  6
CONTINUOUS
 62
     7
 10
646.537939
 20
2049.315386
 11
646.537939
 21
2023.830094
  0
LINE
  8
CSLAYER1
  6
CONTINUOUS
 62
     7
 10
649.074196
 20
2048.251794
 11
649.074196
 21
2022.111984
  0
LINE
  8
CSLAYER1
  6
CONTINUOUS
 62
     7
 10
651.451356
 20
2052.015272
 11
653.573105
 21
2053.341088
  0
LINE
  8
CSLAYER1
  6
CONTINUOUS
 62
     7
 10
649.074196
 20
2048.251794
 11
651.195944
 21
2049.577610
  0
LINE
  8
CSLAYER1
  6
CONTINUOUS
 62
     7
 10
653.665861
 20
2053.487938
 11
651.288700
 21
2049.724460
  0
LINE
  8
CSLAYER1
  6
CONTINUOUS
 62
     7
 10
651.288700
 20
2049.724460
 11
651.288700
 21
2042.698517
  0
LINE
  8
CSLAYER1
  6
CONTINUOUS
 62
     7
 10
651.288700
 20
2031.719019
 11
651.288700
 21
2021.212022
  0
LINE
  8
CSLAYER1
  6
CONTINUOUS
 62
     7
 10
686.765200
 20
2031.684309
 11
689.299998
 21
2033.268227
  0
LINE
  8
CSLAYER1
  6
CONTINUOUS
 62
     7
 10
657.639326
 20
2018.190010
 11
621.302709
 21
2035.456723
  0
LINE
  8
CSLAYER1
  6
CONTINUOUS
 62
     7
 10
651.722615
 20
2005.868474
 11
616.261795
 21
2022.719019
  0
LINE
  8
CSLAYER1
  6
CONTINUOUS
 62
     7
 10
701.930232
 20
2018.705045
 11
698.950831
 21
2004.216690
  0
ARC
  8
CSLAYER1
  6
CONTINUOUS
 62
     7
 10
679.099082
 20
2063.350600
 40
50.000000
 50
244.583509
 51
263.653028
  0
ARC
  8
CSLAYER1
  6
CONTINUOUS
 62
     7
 10
679.191102
 20
2063.674030
 40
64.000000
 50
244.583509
 51
263.653028
  0
LINE
  8
CSLAYER1
  6
CONTINUOUS
 62
     7
 10
670.264214
 20
2000.299660
 11
670.264214
 21
1997.403932
  0
LINE
  8
CSLAYER1
  6
CONTINUOUS
 62
     7
 10
647.305240
 20
2005.760315
 11
644.498297
 21
2009.301381
  0
LINE
  8
CSLAYER1
  6
CONTINUOUS
 62
     5
 10
458.354950
 20
823.897026
 11
708.304753
 21
823.897026
  0
LINE
  8
CSLAYER1
  6
DASHED
 62
     4
 10
1429.782225
 20
2198.429856
 11
2329.782225
 21
2198.429856
  0
LINE
  8
CSLAYER1
  6
CONTINUOUS
 62
     4
 10
1429.782225
 20
2248.429856
 11
1429.782225
 21
1948.429856
  0
LINE
  8
CSLAYER1
  6
CONTINUOUS
 62
     4
 10
2329.782225
 20
2248.429856
 11
2329.782225
 21
1948.429856
  0
LINE
  8
CSLAYER1
  6
CENTER
 62
     5
 10
1173.586371
 20
2128.429856
 11
1429.782225
 21
2128.429856
  0
LINE
  8
CSLAYER1
  6
CENTER
 62
     5
 10
1387.082225
 20
2098.429856
 11
2369.782225
 21
2098.429856
  0
ARC
  8
CSLAYER1
  6
CONTINUOUS
 62
     4
 10
1467.082225
 20
2238.429856
 40
10.000000
 50
0.000000
 51
90.000000
  0
LINE
  8
CSLAYER1
  6
CONTINUOUS
 62
     3
 10
1437.082225
 20
2248.429856
 11
1467.082225
 21
2248.429856
  0
ARC
  8
CSLAYER1
  6
CONTINUOUS
 62
     3
 10
1437.082225
 20
2238.429856
 40
10.000000
 50
136.886394
 51
180.000000
  0
LINE
  8
CSLAYER1
  6
CONTINUOUS
 62
     3
 10
1427.082225
 20
2124.279856
 11
1427.082225
 21
1958.429856
  0
LINE
  8
CSLAYER1
  6
DASHED
 62
     4
 10
1477.082225
 20
2238.429856
 11
1477.082225
 21
2198.429856
  0
LINE
  8
CSLAYER1
  6
CONTINUOUS
 62
     4
 10
1559.994490
 20
1036.592218
 11
1553.204032
 21
1041.116441
  0
LINE
  8
CSLAYER1
  6
CENTER
 62
     5
 10
1452.082225
 20
2212.167055
 11
1452.082225
 21
2234.692658
  0
LINE
  8
CSLAYER1
  6
CENTER
 62
     5
 10
1440.819424
 20
2223.429856
 11
1463.345027
 21
2223.429856
  0
ARC
  8
CSLAYER1
  6
CONTINUOUS
 62
     3
 10
1452.082225
 20
2223.429856
 40
6.500000
 50
158.664788
 51
204.921188
  0
LINE
  8
CSLAYER1
  6
CENTER
 62
     5
 10
858.304753
 20
1580.190436
 11
858.304753
 21
783.897026
  0
LINE
  8
CSLAYER1
  6
CONTINUOUS
 62
     3
 10
758.304753
 20
863.897026
 11
958.304753
 21
863.897026
  0
LINE
  8
CSLAYER1
  6
CONTINUOUS
 62
     3
 10
758.304753
 20
863.897026
 11
758.304753
 21
829.897026
  0
LINE
  8
CSLAYER1
  6
CONTINUOUS
 62
     3
 10
958.304753
 20
863.897026
 11
958.304753
 21
829.897026
  0
LINE
  8
CSLAYER1
  6
CONTINUOUS
 62
     3
 10
1008.304753
 20
823.897026
 11
1008.304753
 21
829.897026
  0
LINE
  8
CSLAYER1
  6
CENTER
 62
     5
 10
983.304753
 20
814.967665
 11
983.304753
 21
839.177626
  0
LINE
  8
CSLAYER1
  6
CONTINUOUS
 62
     3
 10
932.804753
 20
823.897026
 11
932.804753
 21
863.897026
  0
LINE
  8
CSLAYER1
  6
CONTINUOUS
 62
     3
 10
1008.304753
 20
829.897026
 11
932.804753
 21
829.897026
  0
LINE
  8
CSLAYER1
  6
CONTINUOUS
 62
     3
 10
935.804753
 20
852.366681
 11
935.804753
 21
830.427371
  0
LINE
  8
CSLAYER1
  6
CONTINUOUS
 62
     3
 10
932.804753
 20
830.647026
 11
935.804753
 21
830.647026
  0
LINE
  8
CSLAYER1
  6
CONTINUOUS
 62
     3
 10
932.804753
 20
852.147026
 11
935.804753
 21
852.147026
  0
LINE
  8
CSLAYER1
  6
CONTINUOUS
 62
     3
 10
932.804753
 20
842.909222
 11
935.804753
 21
839.409222
  0
LINE
  8
CSLAYER1
  6
CONTINUOUS
 62
     3
 10
943.804753
 20
832.397026
 11
943.804753
 21
850.397026
  0
LINE
  8
CSLAYER1
  6
CONTINUOUS
 62
     3
 10
935.804753
 20
835.912198
 11
942.667572
 21
835.912198
  0
LINE
  8
CSLAYER1
  6
CONTINUOUS
 62
     3
 10
935.804753
 20
830.427371
 11
942.667572
 21
830.427371
  0
LINE
  8
CSLAYER1
  6
CONTINUOUS
 62
     3
 10
943.804753
 20
832.397026
 11
942.667572
 21
830.427371
  0
ARC
  8
CSLAYER1
  6
CONTINUOUS
 62
     3
 10
940.024708
 20
833.169784
 40
3.808617
 50
5.661633
 51
46.059028
  0
ARC
  8
CSLAYER1
  6
CONTINUOUS
 62
     3
 10
930.009009
 20
841.397026
 40
13.795744
 50
-23.426598
 51
23.426598
  0
LINE
  8
CSLAYER1
  6
CONTINUOUS
 62
     3
 10
935.804753
 20
846.881853
 11
942.667572
 21
846.881853
  0
LINE
  8
CSLAYER1
  6
CONTINUOUS
 62
     3
 10
935.804753
 20
852.366681
 11
942.667572
 21
852.366681
  0
LINE
  8
CSLAYER1
  6
CONTINUOUS
 62
     3
 10
943.804753
 20
850.397026
 11
942.667572
 21
852.366681
  0
ARC
  8
CSLAYER1
  6
CONTINUOUS
 62
     3
 10
940.024708
 20
849.624267
 40
3.808617
 50
313.940972
 51
354.338367
  0
LINE
  8
CSLAYER1
  6
CENTER
 62
     5
 10
932.804753
 20
841.397026
 11
943.804753
 21
841.397026
  0
LINE
  8
CSLAYER1
  6
CONTINUOUS
 62
     3
 10
708.304753
 20
823.897026
 11
708.304753
 21
829.897026
  0
LINE
  8
CSLAYER1
  6
CENTER
 62
     5
 10
733.304753
 20
814.967665
 11
733.304753
 21
839.177626
  0
LINE
  8
CSLAYER1
  6
CONTINUOUS
 62
     3
 10
708.304753
 20
829.897026
 11
783.804753
 21
829.897026
  0
LINE
  8
CSLAYER1
  6
CONTINUOUS
 62
     3
 10
780.804753
 20
852.366681
 11
780.804753
 21
830.427371
  0
LINE
  8
CSLAYER1
  6
CONTINUOUS
 62
     3
 10
783.804753
 20
830.647026
 11
780.804753
 21
830.647026
  0
LINE
  8
CSLAYER1
  6
CONTINUOUS
 62
     3
 10
783.804753
 20
852.147026
 11
780.804753
 21
852.147026
  0
LINE
  8
CSLAYER1
  6
CONTINUOUS
 62
     3
 10
783.804753
 20
842.909222
 11
780.804753
 21
839.409222
  0
LINE
  8
CSLAYER1
  6
CONTINUOUS
 62
     3
 10
772.804753
 20
832.397026
 11
772.804753
 21
850.397026
  0
LINE
  8
CSLAYER1
  6
CONTINUOUS
 62
     3
 10
780.804753
 20
835.912198
 11
773.941934
 21
835.912198
  0
LINE
  8
CSLAYER1
  6
CONTINUOUS
 62
     3
 10
780.804753
 20
830.427371
 11
773.941934
 21
830.427371
  0
LINE
  8
CSLAYER1
  6
CONTINUOUS
 62
     3
 10
772.804753
 20
832.397026
 11
773.941934
 21
830.427371
  0
ARC
  8
CSLAYER1
  6
CONTINUOUS
 62
     3
 10
776.584797
 20
833.169784
 40
3.808617
 50
133.940972
 51
174.338367
  0
ARC
  8
CSLAYER1
  6
CONTINUOUS
 62
     3
 10
786.600497
 20
841.397026
 40
13.795744
 50
156.573402
 51
203.426598
  0
LINE
  8
CSLAYER1
  6
CONTINUOUS
 62
     3
 10
780.804753
 20
846.881853
 11
773.941934
 21
846.881853
  0
LINE
  8
CSLAYER1
  6
CONTINUOUS
 62
     3
 10
780.804753
 20
852.366681
 11
773.941934
 21
852.366681
  0
LINE
  8
CSLAYER1
  6
CONTINUOUS
 62
     3
 10
772.804753
 20
850.397026
 11
773.941934
 21
852.366681
  0
ARC
  8
CSLAYER1
  6
CONTINUOUS
 62
     3
 10
776.584797
 20
849.624267
 40
3.808617
 50
185.661633
 51
226.059028
  0
LINE
  8
CSLAYER1
  6
CENTER
 62
     5
 10
783.804753
 20
841.397026
 11
772.804753
 21
841.397026
  0
LINE
  8
CSLAYER1
  6
CONTINUOUS
 62
     3
 10
783.804753
 20
823.897026
 11
783.804753
 21
863.897026
  0
LINE
  8
CSLAYER1
  6
CENTER
 62
     5
 10
828.304753
 20
827.207462
 11
828.304753
 21
860.470782
  0
LINE
  8
CSLAYER1
  6
CENTER
 62
     5
 10
810.430807
 20
843.897026
 11
847.427764
 21
843.897026
  0
CIRCLE
  8
CSLAYER1
  6
CONTINUOUS
 62
     3
 10
828.304753
 20
843.897026
 40
12.500000
  0
LINE
  8
CSLAYER1
  6
CONTINUOUS
 62
     3
 10
1008.304753
 20
1540.190436
 11
708.304753
 21
1540.190436
  0
LINE
  8
CSLAYER1
  6
CONTINUOUS
 62
     3
 10
904.304753
 20
863.897026
 11
904.304753
 21
1522.190436
  0
LINE
  8
CSLAYER1
  6
CONTINUOUS
 62
     3
 10
913.304753
 20
863.897026
 11
913.304753
 21
1522.190436
  0
LINE
  8
CSLAYER1
  6
CONTINUOUS
 62
     3
 10
916.304753
 20
863.897026
 11
916.304753
 21
1509.890436
  0
LINE
  8
CSLAYER1
  6
CONTINUOUS
 62
     3
 10
925.304753
 20
863.897026
 11
925.304753
 21
1509.420781
  0
LINE
  8
CSLAYER1
  6
CONTINUOUS
 62
     3
 10
1008.304753
 20
1522.190436
 11
708.304753
 21
1522.190436
  0
LINE
  8
CSLAYER1
  6
CONTINUOUS
 62
     3
 10
914.304753
 20
1511.740436
 11
913.304753
 21
1511.740436
  0
LINE
  8
CSLAYER1
  6
CONTINUOUS
 62
     3
 10
915.304753
 20
1522.190436
 11
915.304753
 21
1512.740436
  0
LINE
  8
CSLAYER1
  6
CONTINUOUS
 62
     3
 10
915.304753
 20
1512.740436
 11
914.304753
 21
1511.740436
  0
LINE
  8
CSLAYER1
  6
CONTINUOUS
 62
     3
 10
914.304753
 20
1522.190436
 11
914.304753
 21
1511.740436
  0
LINE
  8
CSLAYER1
  6
CONTINUOUS
 62
     3
 10
915.804753
 20
1509.890436
 11
921.804753
 21
1509.890436
  0
LINE
  8
CSLAYER1
  6
CONTINUOUS
 62
     3
 10
921.804753
 20
1522.190436
 11
921.804753
 21
1509.890436
  0
LINE
  8
CSLAYER1
  6
CONTINUOUS
 62
     3
 10
915.804753
 20
1522.190436
 11
915.804753
 21
1509.890436
  0
LINE
  8
CSLAYER1
  6
CONTINUOUS
 62
     3
 10
904.304753
 20
1511.740436
 11
812.304753
 21
1511.740436
  0
LINE
  8
CSLAYER1
  6
CENTER
 62
     5
 10
783.804753
 20
1520.390436
 11
932.804753
 21
1520.390436
  0
LINE
  8
CSLAYER1
  6
CONTINUOUS
 62
     3
 10
924.804753
 20
1509.420781
 11
924.804753
 21
1522.190436
  0
LINE
  8
CSLAYER1
  6
CONTINUOUS
 62
     3
 10
921.804753
 20
1509.640436
 11
924.804753
 21
1509.640436
  0
LINE
  8
CSLAYER1
  6
CONTINUOUS
 62
     3
 10
921.804753
 20
1518.878239
 11
924.643779
 21
1522.190436
  0
LINE
  8
CSLAYER1
  6
CONTINUOUS
 62
     3
 10
932.804753
 20
1522.190436
 11
932.804753
 21
1511.390436
  0
ARC
  8
CSLAYER1
  6
CONTINUOUS
 62
     3
 10
919.009009
 20
1520.390436
 40
13.795744
 50
-23.426598
 51
7.497043
  0
LINE
  8
CSLAYER1
  6
CONTINUOUS
 62
     3
 10
924.804753
 20
1514.905608
 11
931.667572
 21
1514.905608
  0
LINE
  8
CSLAYER1
  6
CONTINUOUS
 62
     3
 10
924.804753
 20
1509.420781
 11
931.667572
 21
1509.420781
  0
LINE
  8
CSLAYER1
  6
CONTINUOUS
 62
     3
 10
932.804753
 20
1511.390436
 11
931.667572
 21
1509.420781
  0
ARC
  8
CSLAYER1
  6
CONTINUOUS
 62
     3
 10
929.024708
 20
1512.163195
 40
3.808617
 50
5.661633
 51
46.059028
  0
LINE
  8
CSLAYER1
  6
CENTER
 62
     5
 10
803.304753
 20
1226.513406
 11
913.304753
 21
1226.513406
  0
LINE
  8
CSLAYER1
  6
CENTER
 62
     5
 10
778.804753
 20
1172.263789
 11
937.804753
 21
1172.263789
  0
LINE
  8
CSLAYER1
  6
CONTINUOUS
 62
     3
 10
936.804753
 20
1167.263789
 11
936.304753
 21
1167.263789
  0
LINE
  8
CSLAYER1
  6
CONTINUOUS
 62
     3
 10
925.804753
 20
1182.763789
 11
925.804753
 21
1161.763789
  0
LINE
  8
CSLAYER1
  6
CONTINUOUS
 62
     3
 10
937.804753
 20
1168.263789
 11
937.804753
 21
1176.263789
  0
LINE
  8
CSLAYER1
  6
CONTINUOUS
 62
     3
 10
916.304753
 20
1186.263789
 11
913.304753
 21
1186.263789
  0
LINE
  8
CSLAYER1
  6
CONTINUOUS
 62
     3
 10
916.304753
 20
1158.263789
 11
913.304753
 21
1158.263789
  0
LINE
  8
CSLAYER1
  6
CONTINUOUS
 62
     3
 10
927.804753
 20
1182.763789
 11
927.804753
 21
1161.763789
  0
LINE
  8
CSLAYER1
  6
CONTINUOUS
 62
     3
 10
930.304753
 20
1181.463789
 11
930.304753
 21
1163.063789
  0
LINE
  8
CSLAYER1
  6
CONTINUOUS
 62
     3
 10
930.304753
 20
1163.063789
 11
927.804753
 21
1163.063789
  0
LINE
  8
CSLAYER1
  6
CONTINUOUS
 62
     3
 10
927.804753
 20
1161.763789
 11
925.804753
 21
1161.763789
  0
LINE
  8
CSLAYER1
  6
CONTINUOUS
 62
     3
 10
930.304753
 20
1181.463789
 11
927.804753
 21
1181.463789
  0
LINE
  8
CSLAYER1
  6
CONTINUOUS
 62
     3
 10
927.804753
 20
1182.763789
 11
925.804753
 21
1182.763789
  0
LINE
  8
CSLAYER1
  6
CONTINUOUS
 62
     3
 10
936.304753
 20
1180.763789
 11
936.304753
 21
1163.763789
  0
LINE
  8
CSLAYER1
  6
CONTINUOUS
 62
     3
 10
936.804753
 20
1167.263789
 11
937.804753
 21
1168.263789
  0
LINE
  8
CSLAYER1
  6
CONTINUOUS
 62
     3
 10
937.504753
 20
1167.963789
 11
936.304753
 21
1167.963789
  0
LINE
  8
CSLAYER1
  6
CONTINUOUS
 62
     3
 10
936.804753
 20
1167.263789
 11
936.804753
 21
1177.263789
  0
LINE
  8
CSLAYER1
  6
CONTINUOUS
 62
     3
 10
935.545564
 20
1162.448834
 11
931.063942
 21
1162.448834
  0
LINE
  8
CSLAYER1
  6
CONTINUOUS
 62
     3
 10
935.545564
 20
1167.356311
 11
931.063942
 21
1167.356311
  0
LINE
  8
CSLAYER1
  6
CONTINUOUS
 62
     3
 10
936.304753
 20
1163.763789
 11
935.545564
 21
1162.448834
  0
ARC
  8
CSLAYER1
  6
CONTINUOUS
 62
     3
 10
920.063942
 20
1172.263789
 40
16.240811
 50
-17.587954
 51
17.587954
  0
ARC
  8
CSLAYER1
  6
CONTINUOUS
 62
     3
 10
931.963829
 20
1164.902573
 40
4.341619
 50
-27.480777
 51
34.413868
  0
LINE
  8
CSLAYER1
  6
CONTINUOUS
 62
     3
 10
936.304753
 20
1180.763789
 11
935.545564
 21
1182.078743
  0
ARC
  8
CSLAYER1
  6
CONTINUOUS
 62
     3
 10
931.963829
 20
1179.625005
 40
4.341619
 50
-34.413868
 51
27.480777
  0
LINE
  8
CSLAYER1
  6
CONTINUOUS
 62
     3
 10
930.304753
 20
1163.763789
 11
931.063942
 21
1162.448834
  0
ARC
  8
CSLAYER1
  6
CONTINUOUS
 62
     3
 10
946.545564
 20
1172.263789
 40
16.240811
 50
162.412046
 51
197.587954
  0
ARC
  8
CSLAYER1
  6
CONTINUOUS
 62
     3
 10
934.645677
 20
1164.902573
 40
4.341619
 50
145.586132
 51
207.480777
  0
LINE
  8
CSLAYER1
  6
CONTINUOUS
 62
     3
 10
930.304753
 20
1180.763789
 11
931.063942
 21
1182.078743
  0
ARC
  8
CSLAYER1
  6
CONTINUOUS
 62
     3
 10
934.645677
 20
1179.625005
 40
4.341619
 50
152.519223
 51
214.413868
  0
LINE
  8
CSLAYER1
  6
CONTINUOUS
 62
     3
 10
935.545564
 20
1182.078743
 11
931.063942
 21
1182.078743
  0
LINE
  8
CSLAYER1
  6
CONTINUOUS
 62
     3
 10
935.545564
 20
1177.171266
 11
931.063942
 21
1177.171266
  0
LINE
  8
CSLAYER1
  6
CONTINUOUS
 62
     3
 10
936.804753
 20
1177.263789
 11
936.304753
 21
1177.263789
  0
LINE
  8
CSLAYER1
  6
CONTINUOUS
 62
     3
 10
936.804753
 20
1177.263789
 11
937.804753
 21
1176.263789
  0
LINE
  8
CSLAYER1
  6
CONTINUOUS
 62
     3
 10
937.504753
 20
1176.563789
 11
936.304753
 21
1176.563789
  0
LINE
  8
CSLAYER1
  6
CONTINUOUS
 62
     3
 10
927.804753
 20
1174.165236
 11
930.304753
 21
1170.795671
  0
LINE
  8
CSLAYER1
  6
CONTINUOUS
 62
     3
 10
925.304753
 20
1164.763789
 11
925.804753
 21
1164.763789
  0
LINE
  8
CSLAYER1
  6
CONTINUOUS
 62
     3
 10
925.304753
 20
1179.763789
 11
925.804753
 21
1179.763789
  0
LINE
  8
CSLAYER1
  6
CENTER
 62
     5
 10
868.804753
 20
1226.513406
 11
868.804753
 21
897.431583
  0
LINE
  8
CSLAYER1
  6
CONTINUOUS
 62
     3
 10
897.804753
 20
875.977343
 11
897.804753
 21
929.520824
  0
LINE
  8
CSLAYER1
  6
CONTINUOUS
 62
     3
 10
891.804753
 20
875.977343
 11
891.804753
 21
929.520824
  0
LINE
  8
CSLAYER1
  6
CONTINUOUS
 62
     3
 10
839.804753
 20
875.977343
 11
839.804753
 21
929.520824
  0
LINE
  8
CSLAYER1
  6
CONTINUOUS
 62
     3
 10
845.804753
 20
875.977343
 11
845.804753
 21
929.520824
  0
LINE
  8
CSLAYER1
  6
CONTINUOUS
 62
     3
 10
891.304753
 20
1213.913406
 11
891.304753
 21
1239.113406
  0
LINE
  8
CSLAYER1
  6
CONTINUOUS
 62
     3
 10
846.304753
 20
1213.913406
 11
846.304753
 21
1239.113406
  0
LINE
  8
CSLAYER1
  6
CONTINUOUS
 62
     3
 10
847.304753
 20
1240.113406
 11
890.304753
 21
1240.113406
  0
LINE
  8
CSLAYER1
  6
CONTINUOUS
 62
     3
 10
846.304753
 20
1239.113406
 11
847.304753
 21
1240.113406
  0
LINE
  8
CSLAYER1
  6
CONTINUOUS
 62
     3
 10
890.304753
 20
1240.113406
 11
891.304753
 21
1239.113406
  0
POINT
  8
CSLAYER1
 62
     3
 10
868.804753
 20
1226.513406
  0
LINE
  8
CSLAYER1
  6
CONTINUOUS
 62
     3
 10
892.304753
 20
1234.513406
 11
891.304753
 21
1234.513406
  0
LINE
  8
CSLAYER1
  6
CONTINUOUS
 62
     3
 10
846.304753
 20
1234.513406
 11
845.304753
 21
1234.513406
  0
LINE
  8
CSLAYER1
  6
CONTINUOUS
 62
     3
 10
886.804753
 20
1049.439488
 11
886.804753
 21
1214.848286
  0
LINE
  8
CSLAYER1
  6
CONTINUOUS
 62
     3
 10
886.804753
 20
1214.848286
 11
886.736257
 21
1215.608857
  0
LINE
  8
CSLAYER1
  6
CONTINUOUS
 62
     3
 10
886.736257
 20
1215.608857
 11
886.531292
 21
1216.363640
  0
LINE
  8
CSLAYER1
  6
CONTINUOUS
 62
     3
 10
886.531292
 20
1216.363640
 11
886.191418
 21
1217.106889
  0
LINE
  8
CSLAYER1
  6
CONTINUOUS
 62
     3
 10
886.191418
 20
1217.106889
 11
885.719220
 21
1217.832950
  0
LINE
  8
CSLAYER1
  6
CONTINUOUS
 62
     3
 10
885.719220
 20
1217.832950
 11
885.118293
 21
1218.536295
  0
LINE
  8
CSLAYER1
  6
CONTINUOUS
 62
     3
 10
885.118293
 20
1218.536295
 11
884.393210
 21
1219.211573
  0
LINE
  8
CSLAYER1
  6
CONTINUOUS
 62
     3
 10
884.393210
 20
1219.211573
 11
883.549490
 21
1219.853643
  0
LINE
  8
CSLAYER1
  6
CONTINUOUS
 62
     3
 10
883.549490
 20
1219.853643
 11
882.593553
 21
1220.457619
  0
LINE
  8
CSLAYER1
  6
CONTINUOUS
 62
     3
 10
882.593553
 20
1220.457619
 11
881.532675
 21
1221.018905
  0
LINE
  8
CSLAYER1
  6
CONTINUOUS
 62
     3
 10
881.532675
 20
1221.018905
 11
880.374930
 21
1221.533229
  0
LINE
  8
CSLAYER1
  6
CONTINUOUS
 62
     3
 10
880.374930
 20
1221.533229
 11
879.129129
 21
1221.996676
  0
LINE
  8
CSLAYER1
  6
CONTINUOUS
 62
     3
 10
879.129129
 20
1221.996676
 11
877.804753
 21
1222.405720
  0
LINE
  8
CSLAYER1
  6
CONTINUOUS
 62
     3
 10
877.804753
 20
1222.405720
 11
876.411882
 21
1222.757247
  0
LINE
  8
CSLAYER1
  6
CONTINUOUS
 62
     3
 10
876.411882
 20
1222.757247
 11
874.961115
 21
1223.048582
  0
LINE
  8
CSLAYER1
  6
CONTINUOUS
 62
     3
 10
874.961115
 20
1223.048582
 11
873.463496
 21
1223.277508
  0
LINE
  8
CSLAYER1
  6
CONTINUOUS
 62
     3
 10
873.463496
 20
1223.277508
 11
871.930420
 21
1223.442283
  0
LINE
  8
CSLAYER1
  6
CONTINUOUS
 62
     3
 10
871.930420
 20
1223.442283
 11
870.373556
 21
1223.541652
  0
LINE
  8
CSLAYER1
  6
CONTINUOUS
 62
     3
 10
870.373556
 20
1223.541652
 11
868.804753
 21
1223.574859
  0
LINE
  8
CSLAYER1
  6
CONTINUOUS
 62
     3
 10
868.804753
 20
1223.574859
 11
867.235950
 21
1223.541652
  0
LINE
  8
CSLAYER1
  6
CONTINUOUS
 62
     3
 10
867.235950
 20
1223.541652
 11
865.679086
 21
1223.442283
  0
LINE
  8
CSLAYER1
  6
CONTINUOUS
 62
     3
 10
865.679086
 20
1223.442283
 11
864.146010
 21
1223.277508
  0
LINE
  8
CSLAYER1
  6
CONTINUOUS
 62
     3
 10
864.146010
 20
1223.277508
 11
862.648390
 21
1223.048582
  0
LINE
  8
CSLAYER1
  6
CONTINUOUS
 62
     3
 10
862.648390
 20
1223.048582
 11
861.197624
 21
1222.757247
  0
LINE
  8
CSLAYER1
  6
CONTINUOUS
 62
     3
 10
861.197624
 20
1222.757247
 11
859.804753
 21
1222.405720
  0
LINE
  8
CSLAYER1
  6
CONTINUOUS
 62
     3
 10
859.804753
 20
1222.405720
 11
858.480377
 21
1221.996676
  0
LINE
  8
CSLAYER1
  6
CONTINUOUS
 62
     3
 10
858.480377
 20
1221.996676
 11
857.234576
 21
1221.533229
  0
LINE
  8
CSLAYER1
  6
CONTINUOUS
 62
     3
 10
857.234576
 20
1221.533229
 11
856.076831
 21
1221.018905
  0
LINE
  8
CSLAYER1
  6
CONTINUOUS
 62
     3
 10
856.076831
 20
1221.018905
 11
855.015953
 21
1220.457619
  0
LINE
  8
CSLAYER1
  6
CONTINUOUS
 62
     3
 10
855.015953
 20
1220.457619
 11
854.060016
 21
1219.853643
  0
LINE
  8
CSLAYER1
  6
CONTINUOUS
 62
     3
 10
854.060016
 20
1219.853643
 11
853.216296
 21
1219.211573
  0
LINE
  8
CSLAYER1
  6
CONTINUOUS
 62
     3
 10
853.216296
 20
1219.211573
 11
852.491213
 21
1218.536295
  0
LINE
  8
CSLAYER1
  6
CONTINUOUS
 62
     3
 10
852.491213
 20
1218.536295
 11
851.890286
 21
1217.832950
  0
LINE
  8
CSLAYER1
  6
CONTINUOUS
 62
     3
 10
851.890286
 20
1217.832950
 11
851.418088
 21
1217.106889
  0
LINE
  8
CSLAYER1
  6
CONTINUOUS
 62
     3
 10
851.418088
 20
1217.106889
 11
851.078213
 21
1216.363640
  0
LINE
  8
CSLAYER1
  6
CONTINUOUS
 62
     3
 10
851.078213
 20
1216.363640
 11
850.873248
 21
1215.608857
  0
LINE
  8
CSLAYER1
  6
CONTINUOUS
 62
     3
 10
850.873248
 20
1215.608857
 11
850.804753
 21
1214.848286
  0
LINE
  8
CSLAYER1
  6
CONTINUOUS
 62
     3
 10
850.804753
 20
1049.478629
 11
850.804753
 21
1214.848286
  0
LINE
  8
CSLAYER1
  6
CENTER
 62
     5
 10
828.804753
 20
863.897026
 11
828.804753
 21
998.895662
  0
LINE
  8
CSLAYER1
  6
CONTINUOUS
 62
     3
 10
835.804753
 20
993.195662
 11
821.804753
 21
993.195662
  0
LINE
  8
CSLAYER1
  6
CONTINUOUS
 62
     3
 10
835.804753
 20
985.395662
 11
821.804753
 21
985.395662
  0
LINE
  8
CSLAYER1
  6
CONTINUOUS
 62
     3
 10
835.236685
 20
980.195662
 11
822.372821
 21
980.195662
  0
LINE
  8
CSLAYER1
  6
CONTINUOUS
 62
     3
 10
834.804753
 20
978.195662
 11
822.804753
 21
978.195662
  0
LINE
  8
CSLAYER1
  6
CONTINUOUS
 62
     3
 10
834.804753
 20
971.195662
 11
822.804753
 21
971.195662
  0
LINE
  8
CSLAYER1
  6
CONTINUOUS
 62
     3
 10
833.687779
 20
946.195662
 11
823.921727
 21
946.195662
  0
LINE
  8
CSLAYER1
  6
CONTINUOUS
 62
     3
 10
834.304753
 20
968.195662
 11
834.304753
 21
971.195662
  0
LINE
  8
CSLAYER1
  6
CONTINUOUS
 62
     3
 10
836.887657
 20
986.020877
 11
836.887657
 21
992.570447
  0
LINE
  8
CSLAYER1
  6
CONTINUOUS
 62
     3
 10
832.846205
 20
986.020877
 11
832.846205
 21
992.570447
  0
ARC
  8
CSLAYER1
  6
CONTINUOUS
 62
     3
 10
806.116983
 20
985.437883
 40
29.587800
 50
345.831727
 51
359.918240
  0
ARC
  8
CSLAYER1
  6
CONTINUOUS
 62
     3
 10
851.492523
 20
985.437883
 40
29.587800
 50
180.081760
 51
194.168273
  0
LINE
  8
CSLAYER1
  6
CONTINUOUS
 62
     3
 10
833.152067
 20
978.195662
 11
833.152067
 21
980.195662
  0
LINE
  8
CSLAYER1
  6
CONTINUOUS
 62
     3
 10
831.170302
 20
978.195662
 11
831.170302
 21
980.195662
  0
LINE
  8
CSLAYER1
  6
CONTINUOUS
 62
     3
 10
824.457439
 20
978.195662
 11
824.457439
 21
980.195662
  0
LINE
  8
CSLAYER1
  6
CONTINUOUS
 62
     3
 10
826.439204
 20
978.195662
 11
826.439204
 21
980.195662
  0
LINE
  8
CSLAYER1
  6
CONTINUOUS
 62
     3
 10
835.804753
 20
993.195662
 11
836.887657
 21
992.570447
  0
ARC
  8
CSLAYER1
  6
CONTINUOUS
 62
     3
 10
834.866931
 20
989.644033
 40
3.556295
 50
64.625569
 51
124.625569
  0
ARC
  8
CSLAYER1
  6
CONTINUOUS
 62
     3
 10
828.804753
 20
979.820877
 40
13.374785
 50
72.412046
 51
107.587954
  0
LINE
  8
CSLAYER1
  6
CONTINUOUS
 62
     3
 10
835.804753
 20
985.395662
 11
836.887657
 21
986.020877
  0
ARC
  8
CSLAYER1
  6
CONTINUOUS
 62
     3
 10
834.866931
 20
988.947291
 40
3.556295
 50
235.374431
 51
295.374431
  0
ARC
  8
CSLAYER1
  6
CONTINUOUS
 62
     3
 10
828.804753
 20
998.770447
 40
13.374785
 50
252.412046
 51
287.587954
  0
LINE
  8
CSLAYER1
  6
CONTINUOUS
 62
     3
 10
820.721849
 20
986.020877
 11
820.721849
 21
992.570447
  0
LINE
  8
CSLAYER1
  6
CONTINUOUS
 62
     3
 10
824.763301
 20
986.020877
 11
824.763301
 21
992.570447
  0
LINE
  8
CSLAYER1
  6
CONTINUOUS
 62
     3
 10
821.804753
 20
993.195662
 11
820.721849
 21
992.570447
  0
ARC
  8
CSLAYER1
  6
CONTINUOUS
 62
     3
 10
822.742575
 20
989.644033
 40
3.556295
 50
55.374431
 51
115.374431
  0
LINE
  8
CSLAYER1
  6
CONTINUOUS
 62
     3
 10
821.804753
 20
985.395662
 11
820.721849
 21
986.020877
  0
ARC
  8
CSLAYER1
  6
CONTINUOUS
 62
     3
 10
822.742575
 20
988.947291
 40
3.556295
 50
244.625569
 51
304.625569
  0
LINE
  8
CSLAYER1
  6
CONTINUOUS
 62
     3
 10
835.732956
 20
971.731560
 11
835.732956
 21
977.459763
  0
LINE
  8
CSLAYER1
  6
CONTINUOUS
 62
     3
 10
832.268855
 20
971.731560
 11
832.268855
 21
977.459763
  0
LINE
  8
CSLAYER1
  6
CONTINUOUS
 62
     3
 10
834.804753
 20
971.195662
 11
835.732956
 21
971.731560
  0
ARC
  8
CSLAYER1
  6
CONTINUOUS
 62
     3
 10
828.804753
 20
982.659763
 40
11.464102
 50
252.178595
 51
287.821405
  0
ARC
  8
CSLAYER1
  6
CONTINUOUS
 62
     3
 10
834.000905
 20
974.261590
 40
3.066114
 50
236.143645
 51
295.804157
  0
LINE
  8
CSLAYER1
  6
CONTINUOUS
 62
     3
 10
834.804753
 20
977.995662
 11
835.732956
 21
977.459763
  0
ARC
  8
CSLAYER1
  6
CONTINUOUS
 62
     3
 10
828.804753
 20
966.531560
 40
11.464102
 50
72.178595
 51
107.821405
  0
ARC
  8
CSLAYER1
  6
CONTINUOUS
 62
     3
 10
834.000905
 20
974.929733
 40
3.066114
 50
64.195843
 51
123.856355
  0
LINE
  8
CSLAYER1
  6
CONTINUOUS
 62
     3
 10
834.804753
 20
977.995662
 11
822.804753
 21
977.995662
  0
LINE
  8
CSLAYER1
  6
CONTINUOUS
 62
     3
 10
832.268855
 20
977.995662
 11
832.268855
 21
978.195662
  0
LINE
  8
CSLAYER1
  6
CONTINUOUS
 62
     3
 10
823.304753
 20
968.195662
 11
823.304753
 21
971.195662
  0
LINE
  8
CSLAYER1
  6
CONTINUOUS
 62
     3
 10
821.876550
 20
971.731560
 11
821.876550
 21
977.459763
  0
LINE
  8
CSLAYER1
  6
CONTINUOUS
 62
     3
 10
825.340651
 20
971.731560
 11
825.340651
 21
977.459763
  0
LINE
  8
CSLAYER1
  6
CONTINUOUS
 62
     3
 10
822.804753
 20
971.195662
 11
821.876550
 21
971.731560
  0
ARC
  8
CSLAYER1
  6
CONTINUOUS
 62
     3
 10
823.608600
 20
974.261590
 40
3.066114
 50
244.195843
 51
303.856355
  0
LINE
  8
CSLAYER1
  6
CONTINUOUS
 62
     3
 10
822.804753
 20
977.995662
 11
821.876550
 21
977.459763
  0
ARC
  8
CSLAYER1
  6
CONTINUOUS
 62
     3
 10
823.608600
 20
974.929733
 40
3.066114
 50
56.143645
 51
115.804157
  0
LINE
  8
CSLAYER1
  6
CONTINUOUS
 62
     3
 10
825.340651
 20
977.995662
 11
825.340651
 21
978.195662
  0
LINE
  8
CSLAYER1
  6
CONTINUOUS
 62
     3
 10
835.732956
 20
959.195662
 11
835.732956
 21
967.659763
  0
LINE
  8
CSLAYER1
  6
CONTINUOUS
 62
     3
 10
832.268855
 20
959.195662
 11
832.268855
 21
967.659763
  0
LINE
  8
CSLAYER1
  6
CONTINUOUS
 62
     3
 10
834.804753
 20
968.195662
 11
835.732956
 21
967.659763
  0
ARC
  8
CSLAYER1
  6
CONTINUOUS
 62
     3
 10
828.804753
 20
956.731560
 40
11.464102
 50
72.178595
 51
107.821405
  0
ARC
  8
CSLAYER1
  6
CONTINUOUS
 62
     3
 10
834.000905
 20
965.129733
 40
3.066114
 50
64.195843
 51
123.856355
  0
LINE
  8
CSLAYER1
  6
CONTINUOUS
 62
     3
 10
834.804753
 20
968.195662
 11
822.804753
 21
968.195662
  0
LINE
  8
CSLAYER1
  6
CONTINUOUS
 62
     3
 10
821.876550
 20
959.195662
 11
821.876550
 21
967.659763
  0
LINE
  8
CSLAYER1
  6
CONTINUOUS
 62
     3
 10
825.340651
 20
959.195662
 11
825.340651
 21
967.659763
  0
LINE
  8
CSLAYER1
  6
CONTINUOUS
 62
     3
 10
822.804753
 20
968.195662
 11
821.876550
 21
967.659763
  0
ARC
  8
CSLAYER1
  6
CONTINUOUS
 62
     3
 10
823.608600
 20
965.129733
 40
3.066114
 50
56.143645
 51
115.804157
  0
LINE
  8
CSLAYER1
  6
CONTINUOUS
 62
     3
 10
834.684034
 20
947.109202
 11
835.732956
 21
959.195662
  0
ARC
  8
CSLAYER1
  6
CONTINUOUS
 62
     3
 10
813.627265
 20
959.195662
 40
18.641590
 50
330.443788
 51
360.000000
  0
ARC
  8
CSLAYER1
  6
CONTINUOUS
 62
     3
 10
828.804753
 20
950.635516
 40
1.217263
 50
210.578468
 51
329.421532
  0
ARC
  8
CSLAYER1
  6
CONTINUOUS
 62
     3
 10
850.910444
 20
959.195662
 40
18.641590
 50
180.000000
 51
209.556212
  0
ARC
  8
CSLAYER1
  6
CONTINUOUS
 62
     3
 10
835.732956
 20
950.635516
 40
1.217263
 50
210.578468
 51
227.594217
  0
ARC
  8
CSLAYER1
  6
CONTINUOUS
 62
     3
 10
833.687779
 20
947.195662
 40
1.000000
 50
270.000000
 51
355.040021
  0
LINE
  8
CSLAYER1
  6
CONTINUOUS
 62
     3
 10
822.925471
 20
947.109202
 11
821.876550
 21
959.195662
  0
ARC
  8
CSLAYER1
  6
CONTINUOUS
 62
     3
 10
843.982241
 20
959.195662
 40
18.641590
 50
180.000000
 51
209.556212
  0
ARC
  8
CSLAYER1
  6
CONTINUOUS
 62
     3
 10
806.699061
 20
959.195662
 40
18.641590
 50
330.443788
 51
360.000000
  0
ARC
  8
CSLAYER1
  6
CONTINUOUS
 62
     3
 10
821.876550
 20
950.635516
 40
1.217263
 50
312.405783
 51
329.421532
  0
ARC
  8
CSLAYER1
  6
CONTINUOUS
 62
     3
 10
823.921727
 20
947.195662
 40
1.000000
 50
184.959979
 51
270.000000
  0
LINE
  8
CSLAYER1
  6
CONTINUOUS
 62
     3
 10
835.804753
 20
1012.895662
 11
823.304753
 21
1012.895662
  0
LINE
  8
CSLAYER1
  6
CENTER
 62
     5
 10
841.304753
 20
1005.895662
 11
835.804753
 21
1005.895662
  0
LINE
  8
CSLAYER1
  6
CONTINUOUS
 62
     3
 10
821.804753
 20
998.895662
 11
821.804753
 21
1011.395662
  0
LINE
  8
CSLAYER1
  6
CONTINUOUS
 62
     3
 10
835.804753
 20
998.895662
 11
821.804753
 21
998.895662
  0
LINE
  8
CSLAYER1
  6
CONTINUOUS
 62
     3
 10
835.804753
 20
998.895662
 11
835.804753
 21
1012.893217
  0
LINE
  8
CSLAYER1
  6
CONTINUOUS
 62
     3
 10
833.404753
 20
993.195662
 11
833.404753
 21
998.895662
  0
LINE
  8
CSLAYER1
  6
CONTINUOUS
 62
     5
 10
832.804753
 20
993.195662
 11
832.804753
 21
997.856431
  0
LINE
  8
CSLAYER1
  6
CONTINUOUS
 62
     5
 10
833.404753
 20
998.895662
 11
832.804753
 21
997.856431
  0
LINE
  8
CSLAYER1
  6
CONTINUOUS
 62
     3
 10
824.204753
 20
993.195662
 11
824.204753
 21
998.895662
  0
LINE
  8
CSLAYER1
  6
CONTINUOUS
 62
     5
 10
824.204753
 20
998.895662
 11
824.804753
 21
997.856431
  0
LINE
  8
CSLAYER1
  6
CONTINUOUS
 62
     5
 10
832.804753
 20
997.856431
 11
824.804753
 21
997.856431
  0
LINE
  8
CSLAYER1
  6
CONTINUOUS
 62
     3
 10
841.304753
 20
1001.043876
 11
835.804753
 21
1000.945662
  0
LINE
  8
CSLAYER1
  6
CONTINUOUS
 62
     5
 10
841.304753
 20
1001.743988
 11
835.792255
 21
1001.645550
  0
LINE
  8
CSLAYER1
  6
CONTINUOUS
 62
     3
 10
841.304753
 20
1010.747448
 11
835.804753
 21
1010.845662
  0
LINE
  8
CSLAYER1
  6
CONTINUOUS
 62
     5
 10
841.304753
 20
1010.047336
 11
835.792255
 21
1010.145773
  0
ARC
  8
CSLAYER1
  6
CONTINUOUS
 62
     3
 10
823.304753
 20
1011.395662
 40
1.500000
 50
90.000000
 51
180.000000
  0
LINE
  8
CSLAYER1
  6
CONTINUOUS
 62
     3
 10
847.304753
 20
1212.913406
 11
850.804753
 21
1212.913406
  0
LINE
  8
CSLAYER1
  6
CONTINUOUS
 62
     3
 10
846.304753
 20
1213.913406
 11
847.304753
 21
1212.913406
  0
LINE
  8
CSLAYER1
  6
CONTINUOUS
 62
     3
 10
890.304753
 20
1212.913406
 11
891.304753
 21
1213.913406
  0
LINE
  8
CSLAYER1
  6
CONTINUOUS
 62
     3
 10
892.304753
 20
1218.513406
 11
891.304753
 21
1218.513406
  0
LINE
  8
CSLAYER1
  6
CONTINUOUS
 62
     3
 10
846.304753
 20
1218.513406
 11
845.304753
 21
1218.513406
  0
LINE
  8
CSLAYER1
  6
CONTINUOUS
 62
     3
 10
833.304753
 20
1243.513406
 11
845.304753
 21
1243.513406
  0
LINE
  8
CSLAYER1
  6
CONTINUOUS
 62
     3
 10
833.304753
 20
1171.757245
 11
845.304753
 21
1171.757245
  0
LINE
  8
CSLAYER1
  6
CONTINUOUS
 62
     3
 10
892.304753
 20
1171.757245
 11
892.304753
 21
1243.513406
  0
LINE
  8
CSLAYER1
  6
CONTINUOUS
 62
     3
 10
845.304753
 20
1171.757245
 11
845.304753
 21
1243.513406
  0
LINE
  8
CSLAYER1
  6
CONTINUOUS
 62
     3
 10
833.304753
 20
1171.757245
 11
833.304753
 21
1243.513406
  0
LINE
  8
CSLAYER1
  6
CONTINUOUS
 62
     3
 10
892.304753
 20
1171.757245
 11
904.304753
 21
1171.757245
  0
LINE
  8
CSLAYER1
  6
CONTINUOUS
 62
     3
 10
892.304753
 20
1243.513406
 11
904.304753
 21
1243.513406
  0
LINE
  8
CSLAYER1
  6
CONTINUOUS
 62
     3
 10
812.304753
 20
1234.513406
 11
833.304753
 21
1234.513406
  0
LINE
  8
CSLAYER1
  6
CONTINUOUS
 62
     3
 10
812.304753
 20
1218.513406
 11
833.304753
 21
1218.513406
  0
LINE
  8
CSLAYER1
  6
CONTINUOUS
 62
     3
 10
904.304753
 20
1317.470455
 11
812.304753
 21
1317.470455
  0
LINE
  8
CSLAYER1
  6
CONTINUOUS
 62
     3
 10
779.804753
 20
1167.263789
 11
780.304753
 21
1167.263789
  0
LINE
  8
CSLAYER1
  6
CONTINUOUS
 62
     3
 10
790.804753
 20
1182.763789
 11
790.804753
 21
1161.763789
  0
LINE
  8
CSLAYER1
  6
CONTINUOUS
 62
     3
 10
778.804753
 20
1168.263789
 11
778.804753
 21
1176.263789
  0
LINE
  8
CSLAYER1
  6
CONTINUOUS
 62
     3
 10
800.304753
 20
1186.263789
 11
803.304753
 21
1186.263789
  0
LINE
  8
CSLAYER1
  6
CONTINUOUS
 62
     3
 10
800.304753
 20
863.897026
 11
800.304753
 21
1509.890436
  0
LINE
  8
CSLAYER1
  6
CONTINUOUS
 62
     3
 10
803.304753
 20
863.897026
 11
803.304753
 21
1522.190436
  0
LINE
  8
CSLAYER1
  6
CONTINUOUS
 62
     3
 10
800.304753
 20
1158.263789
 11
803.304753
 21
1158.263789
  0
LINE
  8
CSLAYER1
  6
CONTINUOUS
 62
     3
 10
788.804753
 20
1182.763789
 11
788.804753
 21
1161.763789
  0
LINE
  8
CSLAYER1
  6
CONTINUOUS
 62
     3
 10
786.304753
 20
1181.463789
 11
786.304753
 21
1163.063789
  0
LINE
  8
CSLAYER1
  6
CONTINUOUS
 62
     3
 10
786.304753
 20
1163.063789
 11
788.804753
 21
1163.063789
  0
LINE
  8
CSLAYER1
  6
CONTINUOUS
 62
     3
 10
788.804753
 20
1161.763789
 11
790.804753
 21
1161.763789
  0
LINE
  8
CSLAYER1
  6
CONTINUOUS
 62
     3
 10
786.304753
 20
1181.463789
 11
788.804753
 21
1181.463789
  0
LINE
  8
CSLAYER1
  6
CONTINUOUS
 62
     3
 10
788.804753
 20
1182.763789
 11
790.804753
 21
1182.763789
  0
LINE
  8
CSLAYER1
  6
CONTINUOUS
 62
     3
 10
780.304753
 20
1180.763789
 11
780.304753
 21
1163.763789
  0
LINE
  8
CSLAYER1
  6
CONTINUOUS
 62
     3
 10
779.804753
 20
1167.263789
 11
778.804753
 21
1168.263789
  0
LINE
  8
CSLAYER1
  6
CONTINUOUS
 62
     3
 10
779.104753
 20
1167.963789
 11
780.304753
 21
1167.963789
  0
LINE
  8
CSLAYER1
  6
CONTINUOUS
 62
     3
 10
779.804753
 20
1167.263789
 11
779.804753
 21
1177.263789
  0
LINE
  8
CSLAYER1
  6
CONTINUOUS
 62
     3
 10
781.063942
 20
1162.448834
 11
785.545564
 21
1162.448834
  0
LINE
  8
CSLAYER1
  6
CONTINUOUS
 62
     3
 10
781.063942
 20
1167.356311
 11
785.545564
 21
1167.356311
  0
LINE
  8
CSLAYER1
  6
CONTINUOUS
 62
     3
 10
780.304753
 20
1163.763789
 11
781.063942
 21
1162.448834
  0
ARC
  8
CSLAYER1
  6
CONTINUOUS
 62
     3
 10
796.545564
 20
1172.263789
 40
16.240811
 50
162.412046
 51
197.587954
  0
ARC
  8
CSLAYER1
  6
CONTINUOUS
 62
     3
 10
784.645677
 20
1164.902573
 40
4.341619
 50
145.586132
 51
207.480777
  0
LINE
  8
CSLAYER1
  6
CONTINUOUS
 62
     3
 10
780.304753
 20
1180.763789
 11
781.063942
 21
1182.078743
  0
ARC
  8
CSLAYER1
  6
CONTINUOUS
 62
     3
 10
784.645677
 20
1179.625005
 40
4.341619
 50
152.519223
 51
214.413868
  0
LINE
  8
CSLAYER1
  6
CONTINUOUS
 62
     3
 10
786.304753
 20
1163.763789
 11
785.545564
 21
1162.448834
  0
ARC
  8
CSLAYER1
  6
CONTINUOUS
 62
     3
 10
770.063942
 20
1172.263789
 40
16.240811
 50
-17.587954
 51
17.587954
  0
ARC
  8
CSLAYER1
  6
CONTINUOUS
 62
     3
 10
781.963829
 20
1164.902573
 40
4.341619
 50
-27.480777
 51
34.413868
  0
LINE
  8
CSLAYER1
  6
CONTINUOUS
 62
     3
 10
786.304753
 20
1180.763789
 11
785.545564
 21
1182.078743
  0
ARC
  8
CSLAYER1
  6
CONTINUOUS
 62
     3
 10
781.963829
 20
1179.625005
 40
4.341619
 50
-34.413868
 51
27.480777
  0
LINE
  8
CSLAYER1
  6
CONTINUOUS
 62
     3
 10
781.063942
 20
1182.078743
 11
785.545564
 21
1182.078743
  0
LINE
  8
CSLAYER1
  6
CONTINUOUS
 62
     3
 10
781.063942
 20
1177.171266
 11
785.545564
 21
1177.171266
  0
LINE
  8
CSLAYER1
  6
CONTINUOUS
 62
     3
 10
779.804753
 20
1177.263789
 11
780.304753
 21
1177.263789
  0
LINE
  8
CSLAYER1
  6
CONTINUOUS
 62
     3
 10
779.804753
 20
1177.263789
 11
778.804753
 21
1176.263789
  0
LINE
  8
CSLAYER1
  6
CONTINUOUS
 62
     3
 10
779.104753
 20
1176.563789
 11
780.304753
 21
1176.563789
  0
LINE
  8
CSLAYER1
  6
CONTINUOUS
 62
     3
 10
788.804753
 20
1174.165236
 11
786.304753
 21
1170.795671
  0
LINE
  8
CSLAYER1
  6
CONTINUOUS
 62
     3
 10
791.304753
 20
1164.763789
 11
790.804753
 21
1164.763789
  0
LINE
  8
CSLAYER1
  6
CONTINUOUS
 62
     3
 10
791.304753
 20
1179.763789
 11
790.804753
 21
1179.763789
  0
LINE
  8
CSLAYER1
  6
CONTINUOUS
 62
     3
 10
802.304753
 20
1511.740436
 11
803.304753
 21
1511.740436
  0
LINE
  8
CSLAYER1
  6
CONTINUOUS
 62
     3
 10
801.304753
 20
1522.190436
 11
801.304753
 21
1512.740436
  0
LINE
  8
CSLAYER1
  6
CONTINUOUS
 62
     3
 10
801.304753
 20
1512.740436
 11
802.304753
 21
1511.740436
  0
LINE
  8
CSLAYER1
  6
CONTINUOUS
 62
     3
 10
802.304753
 20
1522.190436
 11
802.304753
 21
1511.740436
  0
LINE
  8
CSLAYER1
  6
CONTINUOUS
 62
     3
 10
800.804753
 20
1509.890436
 11
794.804753
 21
1509.890436
  0
LINE
  8
CSLAYER1
  6
CONTINUOUS
 62
     3
 10
794.804753
 20
1522.190436
 11
794.804753
 21
1509.640436
  0
LINE
  8
CSLAYER1
  6
CONTINUOUS
 62
     3
 10
800.804753
 20
1522.190436
 11
800.804753
 21
1509.890436
  0
LINE
  8
CSLAYER1
  6
CONTINUOUS
 62
     3
 10
791.804753
 20
1509.420781
 11
791.804753
 21
1522.190436
  0
LINE
  8
CSLAYER1
  6
CONTINUOUS
 62
     3
 10
794.804753
 20
1509.640436
 11
791.804753
 21
1509.640436
  0
LINE
  8
CSLAYER1
  6
CONTINUOUS
 62
     3
 10
794.804753
 20
1518.878239
 11
791.965727
 21
1522.190436
  0
LINE
  8
CSLAYER1
  6
CONTINUOUS
 62
     3
 10
783.804753
 20
1522.190436
 11
783.804753
 21
1511.390436
  0
ARC
  8
CSLAYER1
  6
CONTINUOUS
 62
     3
 10
797.600497
 20
1520.390436
 40
13.795744
 50
172.502957
 51
203.426598
  0
LINE
  8
CSLAYER1
  6
CONTINUOUS
 62
     3
 10
791.804753
 20
1514.905608
 11
784.941934
 21
1514.905608
  0
LINE
  8
CSLAYER1
  6
CONTINUOUS
 62
     3
 10
791.804753
 20
1509.420781
 11
784.941934
 21
1509.420781
  0
LINE
  8
CSLAYER1
  6
CONTINUOUS
 62
     3
 10
783.804753
 20
1511.390436
 11
784.941934
 21
1509.420781
  0
ARC
  8
CSLAYER1
  6
CONTINUOUS
 62
     3
 10
787.584797
 20
1512.163195
 40
3.808617
 50
133.940972
 51
174.338367
  0
LINE
  8
CSLAYER1
  6
CONTINUOUS
 62
     3
 10
812.304753
 20
863.897026
 11
812.304753
 21
1522.190436
  0
LINE
  8
CSLAYER1
  6
CONTINUOUS
 62
     3
 10
791.304753
 20
863.897026
 11
791.304753
 21
1509.420781
  0
LINE
  8
CSLAYER1
  6
CONTINUOUS
 62
     3
 10
773.304753
 20
1507.890436
 11
773.304753
 21
1522.190436
  0
LINE
  8
CSLAYER1
  6
CONTINUOUS
 62
     3
 10
777.804753
 20
1507.890436
 11
777.804753
 21
1522.190436
  0
LINE
  8
CSLAYER1
  6
CONTINUOUS
 62
     3
 10
773.304753
 20
1507.890436
 11
777.804753
 21
1507.890436
  0
LINE
  8
CSLAYER1
  6
CONTINUOUS
 62
     3
 10
943.304753
 20
1507.890436
 11
943.304753
 21
1522.190436
  0
LINE
  8
CSLAYER1
  6
CONTINUOUS
 62
     3
 10
938.804753
 20
1507.890436
 11
938.804753
 21
1522.190436
  0
LINE
  8
CSLAYER1
  6
CONTINUOUS
 62
     3
 10
943.304753
 20
1507.890436
 11
938.804753
 21
1507.890436
  0
LINE
  8
CSLAYER1
  6
CONTINUOUS
 62
     3
 10
886.804753
 20
1212.913406
 11
890.304753
 21
1212.913406
  0
LINE
  8
CSLAYER1
  6
CONTINUOUS
 62
     3
 10
812.304753
 20
1198.232968
 11
833.304753
 21
1198.232968
  0
LINE
  8
CSLAYER1
  6
CONTINUOUS
 62
     3
 10
812.304753
 20
1149.632968
 11
850.804753
 21
1149.632968
  0
LINE
  8
CSLAYER1
  6
CONTINUOUS
 62
     3
 10
812.304753
 20
1456.753922
 11
904.304753
 21
1456.753922
  0
LINE
  8
CSLAYER1
  6
CONTINUOUS
 62
     3
 10
845.304753
 20
1198.232968
 11
850.804753
 21
1198.232968
  0
LINE
  8
CSLAYER1
  6
CONTINUOUS
 62
     3
 10
886.804753
 20
1198.232968
 11
892.304753
 21
1198.232968
  0
LINE
  8
CSLAYER1
  6
CONTINUOUS
 62
     3
 10
886.804753
 20
1149.632968
 11
904.304753
 21
1149.632968
  0
LINE
  8
CSLAYER1
  6
CENTER
 62
     5
 10
839.804753
 20
913.520824
 11
897.804753
 21
913.520824
  0
LINE
  8
CSLAYER1
  6
CONTINUOUS
 62
     3
 10
891.717231
 20
1043.484556
 11
896.200107
 21
1026.195329
  0
LINE
  8
CSLAYER1
  6
CONTINUOUS
 62
     3
 10
891.717231
 20
1043.484556
 11
891.455331
 21
1044.449000
  0
LINE
  8
CSLAYER1
  6
CONTINUOUS
 62
     3
 10
891.455331
 20
1044.449000
 11
891.021047
 21
1045.398708
  0
LINE
  8
CSLAYER1
  6
CONTINUOUS
 62
     3
 10
891.021047
 20
1045.398708
 11
890.417683
 21
1046.326452
  0
LINE
  8
CSLAYER1
  6
CONTINUOUS
 62
     3
 10
890.417683
 20
1046.326452
 11
889.649832
 21
1047.225171
  0
LINE
  8
CSLAYER1
  6
CONTINUOUS
 62
     3
 10
889.649832
 20
1047.225171
 11
888.723337
 21
1048.088025
  0
LINE
  8
CSLAYER1
  6
CONTINUOUS
 62
     3
 10
888.723337
 20
1048.088025
 11
887.645250
 21
1048.908448
  0
LINE
  8
CSLAYER1
  6
CONTINUOUS
 62
     3
 10
887.645250
 20
1048.908448
 11
886.423775
 21
1049.680196
  0
LINE
  8
CSLAYER1
  6
CONTINUOUS
 62
     3
 10
886.423775
 20
1049.680196
 11
885.068209
 21
1050.397395
  0
LINE
  8
CSLAYER1
  6
CONTINUOUS
 62
     3
 10
885.068209
 20
1050.397395
 11
883.588868
 21
1051.054586
  0
LINE
  8
CSLAYER1
  6
CONTINUOUS
 62
     3
 10
883.588868
 20
1051.054586
 11
881.997011
 21
1051.646769
  0
LINE
  8
CSLAYER1
  6
CONTINUOUS
 62
     3
 10
881.997011
 20
1051.646769
 11
880.304753
 21
1052.169436
  0
LINE
  8
CSLAYER1
  6
CONTINUOUS
 62
     3
 10
880.304753
 20
1052.169436
 11
878.524973
 21
1052.618610
  0
LINE
  8
CSLAYER1
  6
CONTINUOUS
 62
     3
 10
878.524973
 20
1052.618610
 11
876.671216
 21
1052.990871
  0
LINE
  8
CSLAYER1
  6
CONTINUOUS
 62
     3
 10
876.671216
 20
1052.990871
 11
874.757591
 21
1053.283388
  0
LINE
  8
CSLAYER1
  6
CONTINUOUS
 62
     3
 10
874.757591
 20
1053.283388
 11
872.798661
 21
1053.493933
  0
LINE
  8
CSLAYER1
  6
CONTINUOUS
 62
     3
 10
872.798661
 20
1053.493933
 11
870.809335
 21
1053.620905
  0
LINE
  8
CSLAYER1
  6
CONTINUOUS
 62
     3
 10
870.809335
 20
1053.620905
 11
868.804753
 21
1053.663336
  0
LINE
  8
CSLAYER1
  6
CONTINUOUS
 62
     3
 10
845.892275
 20
1043.484556
 11
841.409399
 21
1026.195329
  0
LINE
  8
CSLAYER1
  6
CONTINUOUS
 62
     3
 10
845.892275
 20
1043.484556
 11
846.154175
 21
1044.449000
  0
LINE
  8
CSLAYER1
  6
CONTINUOUS
 62
     3
 10
846.154175
 20
1044.449000
 11
846.588459
 21
1045.398708
  0
LINE
  8
CSLAYER1
  6
CONTINUOUS
 62
     3
 10
846.588459
 20
1045.398708
 11
847.191823
 21
1046.326452
  0
LINE
  8
CSLAYER1
  6
CONTINUOUS
 62
     3
 10
847.191823
 20
1046.326452
 11
847.959674
 21
1047.225171
  0
LINE
  8
CSLAYER1
  6
CONTINUOUS
 62
     3
 10
847.959674
 20
1047.225171
 11
848.886169
 21
1048.088025
  0
LINE
  8
CSLAYER1
  6
CONTINUOUS
 62
     3
 10
848.886169
 20
1048.088025
 11
849.964256
 21
1048.908448
  0
LINE
  8
CSLAYER1
  6
CONTINUOUS
 62
     3
 10
849.964256
 20
1048.908448
 11
851.185731
 21
1049.680196
  0
LINE
  8
CSLAYER1
  6
CONTINUOUS
 62
     3
 10
851.185731
 20
1049.680196
 11
852.541297
 21
1050.397395
  0
LINE
  8
CSLAYER1
  6
CONTINUOUS
 62
     3
 10
852.541297
 20
1050.397395
 11
854.020638
 21
1051.054586
  0
LINE
  8
CSLAYER1
  6
CONTINUOUS
 62
     3
 10
854.020638
 20
1051.054586
 11
855.612495
 21
1051.646769
  0
LINE
  8
CSLAYER1
  6
CONTINUOUS
 62
     3
 10
855.612495
 20
1051.646769
 11
857.304753
 21
1052.169436
  0
LINE
  8
CSLAYER1
  6
CONTINUOUS
 62
     3
 10
857.304753
 20
1052.169436
 11
859.084533
 21
1052.618610
  0
LINE
  8
CSLAYER1
  6
CONTINUOUS
 62
     3
 10
859.084533
 20
1052.618610
 11
860.938290
 21
1052.990871
  0
LINE
  8
CSLAYER1
  6
CONTINUOUS
 62
     3
 10
860.938290
 20
1052.990871
 11
862.851915
 21
1053.283388
  0
LINE
  8
CSLAYER1
  6
CONTINUOUS
 62
     3
 10
862.851915
 20
1053.283388
 11
864.810845
 21
1053.493933
  0
LINE
  8
CSLAYER1
  6
CONTINUOUS
 62
     3
 10
864.810845
 20
1053.493933
 11
866.800171
 21
1053.620905
  0
LINE
  8
CSLAYER1
  6
CONTINUOUS
 62
     3
 10
866.800171
 20
1053.620905
 11
868.804753
 21
1053.663336
  0
LINE
  8
CSLAYER1
  6
CONTINUOUS
 62
     3
 10
896.304753
 20
1025.033346
 11
896.304753
 21
994.444450
  0
LINE
  8
CSLAYER1
  6
CONTINUOUS
 62
     3
 10
896.304753
 20
1025.033346
 11
896.200107
 21
1026.195329
  0
LINE
  8
CSLAYER1
  6
CONTINUOUS
 62
     3
 10
896.200107
 20
1026.195329
 11
895.886966
 21
1027.348469
  0
LINE
  8
CSLAYER1
  6
CONTINUOUS
 62
     3
 10
895.886966
 20
1027.348469
 11
895.367713
 21
1028.483990
  0
LINE
  8
CSLAYER1
  6
CONTINUOUS
 62
     3
 10
895.367713
 20
1028.483990
 11
894.646300
 21
1029.593249
  0
LINE
  8
CSLAYER1
  6
CONTINUOUS
 62
     3
 10
894.646300
 20
1029.593249
 11
893.728217
 21
1030.667804
  0
LINE
  8
CSLAYER1
  6
CONTINUOUS
 62
     3
 10
893.728217
 20
1030.667804
 11
892.620452
 21
1031.699478
  0
LINE
  8
CSLAYER1
  6
CONTINUOUS
 62
     3
 10
892.620452
 20
1031.699478
 11
891.331434
 21
1032.680419
  0
LINE
  8
CSLAYER1
  6
CONTINUOUS
 62
     3
 10
891.331434
 20
1032.680419
 11
889.870975
 21
1033.603160
  0
LINE
  8
CSLAYER1
  6
CONTINUOUS
 62
     3
 10
889.870975
 20
1033.603160
 11
888.250189
 21
1034.460680
  0
LINE
  8
CSLAYER1
  6
CONTINUOUS
 62
     3
 10
888.250189
 20
1034.460680
 11
886.481412
 21
1035.246453
  0
LINE
  8
CSLAYER1
  6
CONTINUOUS
 62
     3
 10
886.481412
 20
1035.246453
 11
884.578105
 21
1035.954498
  0
LINE
  8
CSLAYER1
  6
CONTINUOUS
 62
     3
 10
884.578105
 20
1035.954498
 11
882.554753
 21
1036.579426
  0
LINE
  8
CSLAYER1
  6
CONTINUOUS
 62
     3
 10
882.554753
 20
1036.579426
 11
880.426755
 21
1037.116481
  0
LINE
  8
CSLAYER1
  6
CONTINUOUS
 62
     3
 10
880.426755
 20
1037.116481
 11
878.210307
 21
1037.561576
  0
LINE
  8
CSLAYER1
  6
CONTINUOUS
 62
     3
 10
878.210307
 20
1037.561576
 11
875.922277
 21
1037.911324
  0
LINE
  8
CSLAYER1
  6
CONTINUOUS
 62
     3
 10
875.922277
 20
1037.911324
 11
873.580078
 21
1038.163063
  0
LINE
  8
CSLAYER1
  6
CONTINUOUS
 62
     3
 10
873.580078
 20
1038.163063
 11
871.201536
 21
1038.314877
  0
LINE
  8
CSLAYER1
  6
CONTINUOUS
 62
     3
 10
871.201536
 20
1038.314877
 11
868.804753
 21
1038.365610
  0
LINE
  8
CSLAYER1
  6
CONTINUOUS
 62
     3
 10
868.804753
 20
1038.365610
 11
866.407970
 21
1038.314877
  0
LINE
  8
CSLAYER1
  6
CONTINUOUS
 62
     3
 10
866.407970
 20
1038.314877
 11
864.029428
 21
1038.163063
  0
LINE
  8
CSLAYER1
  6
CONTINUOUS
 62
     3
 10
864.029428
 20
1038.163063
 11
861.687229
 21
1037.911324
  0
LINE
  8
CSLAYER1
  6
CONTINUOUS
 62
     3
 10
861.687229
 20
1037.911324
 11
859.399199
 21
1037.561576
  0
LINE
  8
CSLAYER1
  6
CONTINUOUS
 62
     3
 10
859.399199
 20
1037.561576
 11
857.182751
 21
1037.116481
  0
LINE
  8
CSLAYER1
  6
CONTINUOUS
 62
     3
 10
857.182751
 20
1037.116481
 11
855.054753
 21
1036.579426
  0
LINE
  8
CSLAYER1
  6
CONTINUOUS
 62
     3
 10
855.054753
 20
1036.579426
 11
853.031401
 21
1035.954498
  0
LINE
  8
CSLAYER1
  6
CONTINUOUS
 62
     3
 10
853.031401
 20
1035.954498
 11
851.128094
 21
1035.246453
  0
LINE
  8
CSLAYER1
  6
CONTINUOUS
 62
     3
 10
851.128094
 20
1035.246453
 11
849.359316
 21
1034.460680
  0
LINE
  8
CSLAYER1
  6
CONTINUOUS
 62
     3
 10
849.359316
 20
1034.460680
 11
847.738531
 21
1033.603160
  0
LINE
  8
CSLAYER1
  6
CONTINUOUS
 62
     3
 10
847.738531
 20
1033.603160
 11
846.278072
 21
1032.680419
  0
LINE
  8
CSLAYER1
  6
CONTINUOUS
 62
     3
 10
846.278072
 20
1032.680419
 11
844.989054
 21
1031.699478
  0
LINE
  8
CSLAYER1
  6
CONTINUOUS
 62
     3
 10
844.989054
 20
1031.699478
 11
843.881289
 21
1030.667804
  0
LINE
  8
CSLAYER1
  6
CONTINUOUS
 62
     3
 10
843.881289
 20
1030.667804
 11
842.963206
 21
1029.593249
  0
LINE
  8
CSLAYER1
  6
CONTINUOUS
 62
     3
 10
842.963206
 20
1029.593249
 11
842.241793
 21
1028.483990
  0
LINE
  8
CSLAYER1
  6
CONTINUOUS
 62
     3
 10
842.241793
 20
1028.483990
 11
841.722540
 21
1027.348469
  0
LINE
  8
CSLAYER1
  6
CONTINUOUS
 62
     3
 10
841.722540
 20
1027.348469
 11
841.409399
 21
1026.195329
  0
LINE
  8
CSLAYER1
  6
CONTINUOUS
 62
     3
 10
841.409399
 20
1026.195329
 11
841.304753
 21
1025.033346
  0
LINE
  8
CSLAYER1
  6
CONTINUOUS
 62
     3
 10
841.304753
 20
1025.033346
 11
841.304753
 21
994.444450
  0
LINE
  8
CSLAYER1
  6
CONTINUOUS
 62
     3
 10
893.104753
 20
931.626633
 11
893.104753
 21
994.444450
  0
LINE
  8
CSLAYER1
  6
CONTINUOUS
 62
     3
 10
896.304753
 20
994.444450
 11
896.200107
 21
995.606433
  0
LINE
  8
CSLAYER1
  6
CONTINUOUS
 62
     3
 10
896.200107
 20
995.606433
 11
895.886966
 21
996.759573
  0
LINE
  8
CSLAYER1
  6
CONTINUOUS
 62
     3
 10
895.886966
 20
996.759573
 11
895.367713
 21
997.895094
  0
LINE
  8
CSLAYER1
  6
CONTINUOUS
 62
     3
 10
895.367713
 20
997.895094
 11
894.646300
 21
999.004353
  0
LINE
  8
CSLAYER1
  6
CONTINUOUS
 62
     3
 10
894.646300
 20
999.004353
 11
893.728217
 21
1000.078908
  0
LINE
  8
CSLAYER1
  6
CONTINUOUS
 62
     3
 10
893.728217
 20
1000.078908
 11
892.620452
 21
1001.110582
  0
LINE
  8
CSLAYER1
  6
CONTINUOUS
 62
     3
 10
892.620452
 20
1001.110582
 11
891.331434
 21
1002.091523
  0
LINE
  8
CSLAYER1
  6
CONTINUOUS
 62
     3
 10
891.331434
 20
1002.091523
 11
889.870975
 21
1003.014264
  0
LINE
  8
CSLAYER1
  6
CONTINUOUS
 62
     3
 10
889.870975
 20
1003.014264
 11
888.250189
 21
1003.871784
  0
LINE
  8
CSLAYER1
  6
CONTINUOUS
 62
     3
 10
888.250189
 20
1003.871784
 11
886.481412
 21
1004.657557
  0
LINE
  8
CSLAYER1
  6
CONTINUOUS
 62
     3
 10
886.481412
 20
1004.657557
 11
884.578105
 21
1005.365602
  0
LINE
  8
CSLAYER1
  6
CONTINUOUS
 62
     3
 10
884.578105
 20
1005.365602
 11
882.554753
 21
1005.990530
  0
LINE
  8
CSLAYER1
  6
CONTINUOUS
 62
     3
 10
882.554753
 20
1005.990530
 11
880.426755
 21
1006.527585
  0
LINE
  8
CSLAYER1
  6
CONTINUOUS
 62
     3
 10
880.426755
 20
1006.527585
 11
878.210307
 21
1006.972680
  0
LINE
  8
CSLAYER1
  6
CONTINUOUS
 62
     3
 10
878.210307
 20
1006.972680
 11
875.922277
 21
1007.322428
  0
LINE
  8
CSLAYER1
  6
CONTINUOUS
 62
     3
 10
875.922277
 20
1007.322428
 11
873.580078
 21
1007.574167
  0
LINE
  8
CSLAYER1
  6
CONTINUOUS
 62
     3
 10
873.580078
 20
1007.574167
 11
871.201536
 21
1007.725981
  0
LINE
  8
CSLAYER1
  6
CONTINUOUS
 62
     3
 10
871.201536
 20
1007.725981
 11
868.804753
 21
1007.776714
  0
LINE
  8
CSLAYER1
  6
CONTINUOUS
 62
     3
 10
868.804753
 20
1007.776714
 11
866.407970
 21
1007.725981
  0
LINE
  8
CSLAYER1
  6
CONTINUOUS
 62
     3
 10
866.407970
 20
1007.725981
 11
864.029428
 21
1007.574167
  0
LINE
  8
CSLAYER1
  6
CONTINUOUS
 62
     3
 10
864.029428
 20
1007.574167
 11
861.687229
 21
1007.322428
  0
LINE
  8
CSLAYER1
  6
CONTINUOUS
 62
     3
 10
861.687229
 20
1007.322428
 11
859.399199
 21
1006.972680
  0
LINE
  8
CSLAYER1
  6
CONTINUOUS
 62
     3
 10
859.399199
 20
1006.972680
 11
857.182751
 21
1006.527585
  0
LINE
  8
CSLAYER1
  6
CONTINUOUS
 62
     3
 10
857.182751
 20
1006.527585
 11
855.054753
 21
1005.990530
  0
LINE
  8
CSLAYER1
  6
CONTINUOUS
 62
     3
 10
855.054753
 20
1005.990530
 11
853.031401
 21
1005.365602
  0
LINE
  8
CSLAYER1
  6
CONTINUOUS
 62
     3
 10
853.031401
 20
1005.365602
 11
851.128094
 21
1004.657557
  0
LINE
  8
CSLAYER1
  6
CONTINUOUS
 62
     3
 10
851.128094
 20
1004.657557
 11
849.359316
 21
1003.871784
  0
LINE
  8
CSLAYER1
  6
CONTINUOUS
 62
     3
 10
849.359316
 20
1003.871784
 11
847.738531
 21
1003.014264
  0
LINE
  8
CSLAYER1
  6
CONTINUOUS
 62
     3
 10
847.738531
 20
1003.014264
 11
846.278072
 21
1002.091523
  0
LINE
  8
CSLAYER1
  6
CONTINUOUS
 62
     3
 10
846.278072
 20
1002.091523
 11
844.989054
 21
1001.110582
  0
LINE
  8
CSLAYER1
  6
CONTINUOUS
 62
     3
 10
844.989054
 20
1001.110582
 11
843.881289
 21
1000.078908
  0
LINE
  8
CSLAYER1
  6
CONTINUOUS
 62
     3
 10
843.881289
 20
1000.078908
 11
842.963206
 21
999.004353
  0
LINE
  8
CSLAYER1
  6
CONTINUOUS
 62
     3
 10
842.963206
 20
999.004353
 11
842.241793
 21
997.895094
  0
LINE
  8
CSLAYER1
  6
CONTINUOUS
 62
     3
 10
842.241793
 20
997.895094
 11
841.722540
 21
996.759573
  0
LINE
  8
CSLAYER1
  6
CONTINUOUS
 62
     3
 10
841.722540
 20
996.759573
 11
841.409399
 21
995.606433
  0
LINE
  8
CSLAYER1
  6
CONTINUOUS
 62
     3
 10
841.409399
 20
995.606433
 11
841.304753
 21
994.444450
  0
LINE
  8
CSLAYER1
  6
CONTINUOUS
 62
     3
 10
841.304753
 20
994.444450
 11
841.409399
 21
993.282466
  0
LINE
  8
CSLAYER1
  6
CONTINUOUS
 62
     3
 10
841.409399
 20
993.282466
 11
841.722540
 21
992.129326
  0
LINE
  8
CSLAYER1
  6
CONTINUOUS
 62
     3
 10
841.722540
 20
992.129326
 11
842.241793
 21
990.993806
  0
LINE
  8
CSLAYER1
  6
CONTINUOUS
 62
     3
 10
842.241793
 20
990.993806
 11
842.963206
 21
989.884547
  0
LINE
  8
CSLAYER1
  6
CONTINUOUS
 62
     3
 10
842.963206
 20
989.884547
 11
843.881289
 21
988.809991
  0
LINE
  8
CSLAYER1
  6
CONTINUOUS
 62
     3
 10
843.881289
 20
988.809991
 11
844.504753
 21
988.229353
  0
LINE
  8
CSLAYER1
  6
CONTINUOUS
 62
     3
 10
893.104753
 20
988.229353
 11
893.728217
 21
988.809991
  0
LINE
  8
CSLAYER1
  6
CONTINUOUS
 62
     3
 10
893.728217
 20
988.809991
 11
894.646300
 21
989.884547
  0
LINE
  8
CSLAYER1
  6
CONTINUOUS
 62
     3
 10
894.646300
 20
989.884547
 11
895.367713
 21
990.993806
  0
LINE
  8
CSLAYER1
  6
CONTINUOUS
 62
     3
 10
895.367713
 20
990.993806
 11
895.886966
 21
992.129326
  0
LINE
  8
CSLAYER1
  6
CONTINUOUS
 62
     3
 10
895.886966
 20
992.129326
 11
896.200107
 21
993.282466
  0
LINE
  8
CSLAYER1
  6
CONTINUOUS
 62
     3
 10
896.200107
 20
993.282466
 11
896.304753
 21
994.444450
  0
LINE
  8
CSLAYER1
  6
CONTINUOUS
 62
     3
 10
893.104753
 20
994.444450
 11
893.012284
 21
995.471221
  0
LINE
  8
CSLAYER1
  6
CONTINUOUS
 62
     3
 10
893.012284
 20
995.471221
 11
892.735581
 21
996.490177
  0
LINE
  8
CSLAYER1
  6
CONTINUOUS
 62
     3
 10
892.735581
 20
996.490177
 11
892.276750
 21
997.493564
  0
LINE
  8
CSLAYER1
  6
CONTINUOUS
 62
     3
 10
892.276750
 20
997.493564
 11
891.639284
 21
998.473746
  0
LINE
  8
CSLAYER1
  6
CONTINUOUS
 62
     3
 10
891.639284
 20
998.473746
 11
890.828032
 21
999.423262
  0
LINE
  8
CSLAYER1
  6
CONTINUOUS
 62
     3
 10
890.828032
 20
999.423262
 11
889.849170
 21
1000.334887
  0
LINE
  8
CSLAYER1
  6
CONTINUOUS
 62
     3
 10
889.849170
 20
1000.334887
 11
888.710148
 21
1001.201681
  0
LINE
  8
CSLAYER1
  6
CONTINUOUS
 62
     3
 10
888.710148
 20
1001.201681
 11
887.419633
 21
1002.017050
  0
LINE
  8
CSLAYER1
  6
CONTINUOUS
 62
     3
 10
887.419633
 20
1002.017050
 11
885.987448
 21
1002.774786
  0
LINE
  8
CSLAYER1
  6
CONTINUOUS
 62
     3
 10
885.987448
 20
1002.774786
 11
884.424492
 21
1003.469123
  0
LINE
  8
CSLAYER1
  6
CONTINUOUS
 62
     3
 10
884.424492
 20
1003.469123
 11
882.742660
 21
1004.094777
  0
LINE
  8
CSLAYER1
  6
CONTINUOUS
 62
     3
 10
882.742660
 20
1004.094777
 11
880.954753
 21
1004.646986
  0
LINE
  8
CSLAYER1
  6
CONTINUOUS
 62
     3
 10
880.954753
 20
1004.646986
 11
879.074377
 21
1005.121547
  0
LINE
  8
CSLAYER1
  6
CONTINUOUS
 62
     3
 10
879.074377
 20
1005.121547
 11
877.115842
 21
1005.514850
  0
LINE
  8
CSLAYER1
  6
CONTINUOUS
 62
     3
 10
877.115842
 20
1005.514850
 11
875.094056
 21
1005.823900
  0
LINE
  8
CSLAYER1
  6
CONTINUOUS
 62
     3
 10
875.094056
 20
1005.823900
 11
873.024404
 21
1006.046346
  0
LINE
  8
CSLAYER1
  6
CONTINUOUS
 62
     3
 10
873.024404
 20
1006.046346
 11
870.922637
 21
1006.180494
  0
LINE
  8
CSLAYER1
  6
CONTINUOUS
 62
     3
 10
870.922637
 20
1006.180494
 11
868.804753
 21
1006.225324
  0
LINE
  8
CSLAYER1
  6
CONTINUOUS
 62
     3
 10
868.804753
 20
1006.225324
 11
866.686868
 21
1006.180494
  0
LINE
  8
CSLAYER1
  6
CONTINUOUS
 62
     3
 10
866.686868
 20
1006.180494
 11
864.585102
 21
1006.046346
  0
LINE
  8
CSLAYER1
  6
CONTINUOUS
 62
     3
 10
864.585102
 20
1006.046346
 11
862.515450
 21
1005.823900
  0
LINE
  8
CSLAYER1
  6
CONTINUOUS
 62
     3
 10
862.515450
 20
1005.823900
 11
860.493663
 21
1005.514850
  0
LINE
  8
CSLAYER1
  6
CONTINUOUS
 62
     3
 10
860.493663
 20
1005.514850
 11
858.535129
 21
1005.121547
  0
LINE
  8
CSLAYER1
  6
CONTINUOUS
 62
     3
 10
858.535129
 20
1005.121547
 11
856.654753
 21
1004.646986
  0
LINE
  8
CSLAYER1
  6
CONTINUOUS
 62
     3
 10
856.654753
 20
1004.646986
 11
854.866846
 21
1004.094777
  0
LINE
  8
CSLAYER1
  6
CONTINUOUS
 62
     3
 10
854.866846
 20
1004.094777
 11
853.185014
 21
1003.469123
  0
LINE
  8
CSLAYER1
  6
CONTINUOUS
 62
     3
 10
853.185014
 20
1003.469123
 11
851.622058
 21
1002.774786
  0
LINE
  8
CSLAYER1
  6
CONTINUOUS
 62
     3
 10
851.622058
 20
1002.774786
 11
850.189873
 21
1002.017050
  0
LINE
  8
CSLAYER1
  6
CONTINUOUS
 62
     3
 10
850.189873
 20
1002.017050
 11
848.899358
 21
1001.201681
  0
LINE
  8
CSLAYER1
  6
CONTINUOUS
 62
     3
 10
848.899358
 20
1001.201681
 11
847.760336
 21
1000.334887
  0
LINE
  8
CSLAYER1
  6
CONTINUOUS
 62
     3
 10
847.760336
 20
1000.334887
 11
846.781474
 21
999.423262
  0
LINE
  8
CSLAYER1
  6
CONTINUOUS
 62
     3
 10
846.781474
 20
999.423262
 11
845.970222
 21
998.473746
  0
LINE
  8
CSLAYER1
  6
CONTINUOUS
 62
     3
 10
845.970222
 20
998.473746
 11
845.332755
 21
997.493564
  0
LINE
  8
CSLAYER1
  6
CONTINUOUS
 62
     3
 10
845.332755
 20
997.493564
 11
844.873925
 21
996.490177
  0
LINE
  8
CSLAYER1
  6
CONTINUOUS
 62
     3
 10
844.873925
 20
996.490177
 11
844.597222
 21
995.471221
  0
LINE
  8
CSLAYER1
  6
CONTINUOUS
 62
     3
 10
844.597222
 20
995.471221
 11
844.504753
 21
994.444450
  0
LINE
  8
CSLAYER1
  6
CONTINUOUS
 62
     3
 10
844.504753
 20
931.626633
 11
844.504753
 21
994.444450
  0
LINE
  8
CSLAYER1
  6
CONTINUOUS
 62
     3
 10
891.304753
 20
901.037737
 11
891.304753
 21
931.626633
  0
LINE
  8
CSLAYER1
  6
CONTINUOUS
 62
     3
 10
891.304753
 20
931.626633
 11
891.219134
 21
932.577347
  0
LINE
  8
CSLAYER1
  6
CONTINUOUS
 62
     3
 10
891.219134
 20
932.577347
 11
890.962927
 21
933.520825
  0
LINE
  8
CSLAYER1
  6
CONTINUOUS
 62
     3
 10
890.962927
 20
933.520825
 11
890.538084
 21
934.449887
  0
LINE
  8
CSLAYER1
  6
CONTINUOUS
 62
     3
 10
890.538084
 20
934.449887
 11
889.947837
 21
935.357463
  0
LINE
  8
CSLAYER1
  6
CONTINUOUS
 62
     3
 10
889.947837
 20
935.357463
 11
889.196678
 21
936.236645
  0
LINE
  8
CSLAYER1
  6
CONTINUOUS
 62
     3
 10
889.196678
 20
936.236645
 11
888.290324
 21
937.080741
  0
LINE
  8
CSLAYER1
  6
CONTINUOUS
 62
     3
 10
888.290324
 20
937.080741
 11
887.235674
 21
937.883329
  0
LINE
  8
CSLAYER1
  6
CONTINUOUS
 62
     3
 10
887.235674
 20
937.883329
 11
886.040753
 21
938.638300
  0
LINE
  8
CSLAYER1
  6
CONTINUOUS
 62
     3
 10
886.040753
 20
938.638300
 11
884.714655
 21
939.339907
  0
LINE
  8
CSLAYER1
  6
CONTINUOUS
 62
     3
 10
884.714655
 20
939.339907
 11
883.267474
 21
939.982812
  0
LINE
  8
CSLAYER1
  6
CONTINUOUS
 62
     3
 10
883.267474
 20
939.982812
 11
881.710223
 21
940.562121
  0
LINE
  8
CSLAYER1
  6
CONTINUOUS
 62
     3
 10
881.710223
 20
940.562121
 11
880.054753
 21
941.073426
  0
LINE
  8
CSLAYER1
  6
CONTINUOUS
 62
     3
 10
880.054753
 20
941.073426
 11
878.313664
 21
941.512835
  0
LINE
  8
CSLAYER1
  6
CONTINUOUS
 62
     3
 10
878.313664
 20
941.512835
 11
876.500206
 21
941.877004
  0
LINE
  8
CSLAYER1
  6
CONTINUOUS
 62
     3
 10
876.500206
 20
941.877004
 11
874.628181
 21
942.163161
  0
LINE
  8
CSLAYER1
  6
CONTINUOUS
 62
     3
 10
874.628181
 20
942.163161
 11
872.711837
 21
942.369129
  0
LINE
  8
CSLAYER1
  6
CONTINUOUS
 62
     3
 10
872.711837
 20
942.369129
 11
870.765757
 21
942.493341
  0
LINE
  8
CSLAYER1
  6
CONTINUOUS
 62
     3
 10
870.765757
 20
942.493341
 11
868.804753
 21
942.534850
  0
LINE
  8
CSLAYER1
  6
CONTINUOUS
 62
     3
 10
868.804753
 20
942.534850
 11
866.843749
 21
942.493341
  0
LINE
  8
CSLAYER1
  6
CONTINUOUS
 62
     3
 10
866.843749
 20
942.493341
 11
864.897669
 21
942.369129
  0
LINE
  8
CSLAYER1
  6
CONTINUOUS
 62
     3
 10
864.897669
 20
942.369129
 11
862.981324
 21
942.163161
  0
LINE
  8
CSLAYER1
  6
CONTINUOUS
 62
     3
 10
862.981324
 20
942.163161
 11
861.109300
 21
941.877004
  0
LINE
  8
CSLAYER1
  6
CONTINUOUS
 62
     3
 10
861.109300
 20
941.877004
 11
859.295842
 21
941.512835
  0
LINE
  8
CSLAYER1
  6
CONTINUOUS
 62
     3
 10
859.295842
 20
941.512835
 11
857.554753
 21
941.073426
  0
LINE
  8
CSLAYER1
  6
CONTINUOUS
 62
     3
 10
857.554753
 20
941.073426
 11
855.899283
 21
940.562121
  0
LINE
  8
CSLAYER1
  6
CONTINUOUS
 62
     3
 10
855.899283
 20
940.562121
 11
854.342032
 21
939.982812
  0
LINE
  8
CSLAYER1
  6
CONTINUOUS
 62
     3
 10
854.342032
 20
939.982812
 11
852.894850
 21
939.339907
  0
LINE
  8
CSLAYER1
  6
CONTINUOUS
 62
     3
 10
852.894850
 20
939.339907
 11
851.568753
 21
938.638300
  0
LINE
  8
CSLAYER1
  6
CONTINUOUS
 62
     3
 10
851.568753
 20
938.638300
 11
850.373832
 21
937.883329
  0
LINE
  8
CSLAYER1
  6
CONTINUOUS
 62
     3
 10
850.373832
 20
937.883329
 11
849.319181
 21
937.080741
  0
LINE
  8
CSLAYER1
  6
CONTINUOUS
 62
     3
 10
849.319181
 20
937.080741
 11
848.412828
 21
936.236645
  0
LINE
  8
CSLAYER1
  6
CONTINUOUS
 62
     3
 10
848.412828
 20
936.236645
 11
847.661669
 21
935.357463
  0
LINE
  8
CSLAYER1
  6
CONTINUOUS
 62
     3
 10
847.661669
 20
935.357463
 11
847.071422
 21
934.449887
  0
LINE
  8
CSLAYER1
  6
CONTINUOUS
 62
     3
 10
847.071422
 20
934.449887
 11
846.646578
 21
933.520825
  0
LINE
  8
CSLAYER1
  6
CONTINUOUS
 62
     3
 10
846.646578
 20
933.520825
 11
846.390372
 21
932.577347
  0
LINE
  8
CSLAYER1
  6
CONTINUOUS
 62
     3
 10
846.390372
 20
932.577347
 11
846.304753
 21
931.626633
  0
LINE
  8
CSLAYER1
  6
CONTINUOUS
 62
     3
 10
846.304753
 20
931.626633
 11
846.390372
 21
930.675919
  0
LINE
  8
CSLAYER1
  6
CONTINUOUS
 62
     3
 10
893.104753
 20
931.626633
 11
893.012284
 21
932.653404
  0
LINE
  8
CSLAYER1
  6
CONTINUOUS
 62
     3
 10
893.012284
 20
932.653404
 11
892.735581
 21
933.672360
  0
LINE
  8
CSLAYER1
  6
CONTINUOUS
 62
     3
 10
892.735581
 20
933.672360
 11
892.276750
 21
934.675748
  0
LINE
  8
CSLAYER1
  6
CONTINUOUS
 62
     3
 10
892.276750
 20
934.675748
 11
891.639284
 21
935.655929
  0
LINE
  8
CSLAYER1
  6
CONTINUOUS
 62
     3
 10
891.639284
 20
935.655929
 11
890.828032
 21
936.605446
  0
LINE
  8
CSLAYER1
  6
CONTINUOUS
 62
     3
 10
890.828032
 20
936.605446
 11
889.849170
 21
937.517070
  0
LINE
  8
CSLAYER1
  6
CONTINUOUS
 62
     3
 10
889.849170
 20
937.517070
 11
888.710148
 21
938.383865
  0
LINE
  8
CSLAYER1
  6
CONTINUOUS
 62
     3
 10
888.710148
 20
938.383865
 11
887.419633
 21
939.199233
  0
LINE
  8
CSLAYER1
  6
CONTINUOUS
 62
     3
 10
887.419633
 20
939.199233
 11
885.987448
 21
939.956969
  0
LINE
  8
CSLAYER1
  6
CONTINUOUS
 62
     3
 10
885.987448
 20
939.956969
 11
884.424492
 21
940.651306
  0
LINE
  8
CSLAYER1
  6
CONTINUOUS
 62
     3
 10
884.424492
 20
940.651306
 11
882.742660
 21
941.276960
  0
LINE
  8
CSLAYER1
  6
CONTINUOUS
 62
     3
 10
882.742660
 20
941.276960
 11
880.954753
 21
941.829169
  0
LINE
  8
CSLAYER1
  6
CONTINUOUS
 62
     3
 10
880.954753
 20
941.829169
 11
879.074377
 21
942.303731
  0
LINE
  8
CSLAYER1
  6
CONTINUOUS
 62
     3
 10
879.074377
 20
942.303731
 11
877.115842
 21
942.697033
  0
LINE
  8
CSLAYER1
  6
CONTINUOUS
 62
     3
 10
877.115842
 20
942.697033
 11
875.094056
 21
943.006083
  0
LINE
  8
CSLAYER1
  6
CONTINUOUS
 62
     3
 10
875.094056
 20
943.006083
 11
873.024404
 21
943.228529
  0
LINE
  8
CSLAYER1
  6
CONTINUOUS
 62
     3
 10
873.024404
 20
943.228529
 11
870.922637
 21
943.362677
  0
LINE
  8
CSLAYER1
  6
CONTINUOUS
 62
     3
 10
870.922637
 20
943.362677
 11
868.804753
 21
943.407507
  0
LINE
  8
CSLAYER1
  6
CONTINUOUS
 62
     3
 10
868.804753
 20
943.407507
 11
866.686868
 21
943.362677
  0
LINE
  8
CSLAYER1
  6
CONTINUOUS
 62
     3
 10
866.686868
 20
943.362677
 11
864.585102
 21
943.228529
  0
LINE
  8
CSLAYER1
  6
CONTINUOUS
 62
     3
 10
864.585102
 20
943.228529
 11
862.515450
 21
943.006083
  0
LINE
  8
CSLAYER1
  6
CONTINUOUS
 62
     3
 10
862.515450
 20
943.006083
 11
860.493663
 21
942.697033
  0
LINE
  8
CSLAYER1
  6
CONTINUOUS
 62
     3
 10
860.493663
 20
942.697033
 11
858.535129
 21
942.303731
  0
LINE
  8
CSLAYER1
  6
CONTINUOUS
 62
     3
 10
858.535129
 20
942.303731
 11
856.654753
 21
941.829169
  0
LINE
  8
CSLAYER1
  6
CONTINUOUS
 62
     3
 10
856.654753
 20
941.829169
 11
854.866846
 21
941.276960
  0
LINE
  8
CSLAYER1
  6
CONTINUOUS
 62
     3
 10
854.866846
 20
941.276960
 11
853.185014
 21
940.651306
  0
LINE
  8
CSLAYER1
  6
CONTINUOUS
 62
     3
 10
853.185014
 20
940.651306
 11
851.622058
 21
939.956969
  0
LINE
  8
CSLAYER1
  6
CONTINUOUS
 62
     3
 10
851.622058
 20
939.956969
 11
850.189873
 21
939.199233
  0
LINE
  8
CSLAYER1
  6
CONTINUOUS
 62
     3
 10
850.189873
 20
939.199233
 11
848.899358
 21
938.383865
  0
LINE
  8
CSLAYER1
  6
CONTINUOUS
 62
     3
 10
848.899358
 20
938.383865
 11
847.760336
 21
937.517070
  0
LINE
  8
CSLAYER1
  6
CONTINUOUS
 62
     3
 10
847.760336
 20
937.517070
 11
846.781474
 21
936.605446
  0
LINE
  8
CSLAYER1
  6
CONTINUOUS
 62
     3
 10
846.781474
 20
936.605446
 11
845.970222
 21
935.655929
  0
LINE
  8
CSLAYER1
  6
CONTINUOUS
 62
     3
 10
845.970222
 20
935.655929
 11
845.332755
 21
934.675748
  0
LINE
  8
CSLAYER1
  6
CONTINUOUS
 62
     3
 10
845.332755
 20
934.675748
 11
844.873925
 21
933.672360
  0
LINE
  8
CSLAYER1
  6
CONTINUOUS
 62
     3
 10
844.873925
 20
933.672360
 11
844.597222
 21
932.653404
  0
LINE
  8
CSLAYER1
  6
CONTINUOUS
 62
     3
 10
844.597222
 20
932.653404
 11
844.504753
 21
931.626633
  0
LINE
  8
CSLAYER1
  6
CONTINUOUS
 62
     3
 10
844.504753
 20
931.626633
 11
844.597222
 21
930.599862
  0
LINE
  8
CSLAYER1
  6
CONTINUOUS
 62
     3
 10
844.597222
 20
930.599862
 11
844.890240
 21
929.520824
  0
LINE
  8
CSLAYER1
  6
CONTINUOUS
 62
     3
 10
845.804753
 20
927.851766
 11
846.304753
 21
927.205791
  0
LINE
  8
CSLAYER1
  6
CONTINUOUS
 62
     3
 10
892.719266
 20
929.520824
 11
893.012284
 21
930.599862
  0
LINE
  8
CSLAYER1
  6
CONTINUOUS
 62
     3
 10
893.012284
 20
930.599862
 11
893.104753
 21
931.626633
  0
LINE
  8
CSLAYER1
  6
CONTINUOUS
 62
     3
 10
846.304753
 20
901.037737
 11
846.304753
 21
931.626633
  0
LINE
  8
CSLAYER1
  6
CONTINUOUS
 62
     3
 10
891.304753
 20
901.037737
 11
891.219134
 21
901.988451
  0
LINE
  8
CSLAYER1
  6
CONTINUOUS
 62
     3
 10
891.219134
 20
901.988451
 11
890.962927
 21
902.931929
  0
LINE
  8
CSLAYER1
  6
CONTINUOUS
 62
     3
 10
890.962927
 20
902.931929
 11
890.538084
 21
903.860991
  0
LINE
  8
CSLAYER1
  6
CONTINUOUS
 62
     3
 10
890.538084
 20
903.860991
 11
889.947837
 21
904.768567
  0
LINE
  8
CSLAYER1
  6
CONTINUOUS
 62
     3
 10
889.947837
 20
904.768567
 11
889.196678
 21
905.647749
  0
LINE
  8
CSLAYER1
  6
CONTINUOUS
 62
     3
 10
889.196678
 20
905.647749
 11
888.290324
 21
906.491845
  0
LINE
  8
CSLAYER1
  6
CONTINUOUS
 62
     3
 10
888.290324
 20
906.491845
 11
887.235674
 21
907.294433
  0
LINE
  8
CSLAYER1
  6
CONTINUOUS
 62
     3
 10
887.235674
 20
907.294433
 11
886.040753
 21
908.049404
  0
LINE
  8
CSLAYER1
  6
CONTINUOUS
 62
     3
 10
886.040753
 20
908.049404
 11
884.714655
 21
908.751011
  0
LINE
  8
CSLAYER1
  6
CONTINUOUS
 62
     3
 10
884.714655
 20
908.751011
 11
883.267474
 21
909.393916
  0
LINE
  8
CSLAYER1
  6
CONTINUOUS
 62
     3
 10
883.267474
 20
909.393916
 11
881.710223
 21
909.973225
  0
LINE
  8
CSLAYER1
  6
CONTINUOUS
 62
     3
 10
881.710223
 20
909.973225
 11
880.054753
 21
910.484530
  0
LINE
  8
CSLAYER1
  6
CONTINUOUS
 62
     3
 10
880.054753
 20
910.484530
 11
878.313664
 21
910.923939
  0
LINE
  8
CSLAYER1
  6
CONTINUOUS
 62
     3
 10
878.313664
 20
910.923939
 11
876.500206
 21
911.288108
  0
LINE
  8
CSLAYER1
  6
CONTINUOUS
 62
     3
 10
876.500206
 20
911.288108
 11
874.628181
 21
911.574265
  0
LINE
  8
CSLAYER1
  6
CONTINUOUS
 62
     3
 10
874.628181
 20
911.574265
 11
872.711837
 21
911.780233
  0
LINE
  8
CSLAYER1
  6
CONTINUOUS
 62
     3
 10
872.711837
 20
911.780233
 11
870.765757
 21
911.904445
  0
LINE
  8
CSLAYER1
  6
CONTINUOUS
 62
     3
 10
870.765757
 20
911.904445
 11
868.804753
 21
911.945954
  0
LINE
  8
CSLAYER1
  6
CONTINUOUS
 62
     3
 10
868.804753
 20
911.945954
 11
866.843749
 21
911.904445
  0
LINE
  8
CSLAYER1
  6
CONTINUOUS
 62
     3
 10
866.843749
 20
911.904445
 11
864.897669
 21
911.780233
  0
LINE
  8
CSLAYER1
  6
CONTINUOUS
 62
     3
 10
864.897669
 20
911.780233
 11
862.981324
 21
911.574265
  0
LINE
  8
CSLAYER1
  6
CONTINUOUS
 62
     3
 10
862.981324
 20
911.574265
 11
861.109300
 21
911.288108
  0
LINE
  8
CSLAYER1
  6
CONTINUOUS
 62
     3
 10
861.109300
 20
911.288108
 11
859.295842
 21
910.923939
  0
LINE
  8
CSLAYER1
  6
CONTINUOUS
 62
     3
 10
859.295842
 20
910.923939
 11
857.554753
 21
910.484530
  0
LINE
  8
CSLAYER1
  6
CONTINUOUS
 62
     3
 10
857.554753
 20
910.484530
 11
855.899283
 21
909.973225
  0
LINE
  8
CSLAYER1
  6
CONTINUOUS
 62
     3
 10
855.899283
 20
909.973225
 11
854.342032
 21
909.393916
  0
LINE
  8
CSLAYER1
  6
CONTINUOUS
 62
     3
 10
854.342032
 20
909.393916
 11
852.894850
 21
908.751011
  0
LINE
  8
CSLAYER1
  6
CONTINUOUS
 62
     3
 10
852.894850
 20
908.751011
 11
851.568753
 21
908.049404
  0
LINE
  8
CSLAYER1
  6
CONTINUOUS
 62
     3
 10
851.568753
 20
908.049404
 11
850.373832
 21
907.294433
  0
LINE
  8
CSLAYER1
  6
CONTINUOUS
 62
     3
 10
850.373832
 20
907.294433
 11
849.319181
 21
906.491845
  0
LINE
  8
CSLAYER1
  6
CONTINUOUS
 62
     3
 10
849.319181
 20
906.491845
 11
848.412828
 21
905.647749
  0
LINE
  8
CSLAYER1
  6
CONTINUOUS
 62
     3
 10
848.412828
 20
905.647749
 11
847.661669
 21
904.768567
  0
LINE
  8
CSLAYER1
  6
CONTINUOUS
 62
     3
 10
847.661669
 20
904.768567
 11
847.071422
 21
903.860991
  0
LINE
  8
CSLAYER1
  6
CONTINUOUS
 62
     3
 10
847.071422
 20
903.860991
 11
846.646578
 21
902.931929
  0
LINE
  8
CSLAYER1
  6
CONTINUOUS
 62
     3
 10
846.646578
 20
902.931929
 11
846.390372
 21
901.988451
  0
LINE
  8
CSLAYER1
  6
CONTINUOUS
 62
     3
 10
846.390372
 20
901.988451
 11
846.304753
 21
901.037737
  0
LINE
  8
CSLAYER1
  6
CONTINUOUS
 62
     3
 10
846.304753
 20
901.037737
 11
846.390372
 21
900.087024
  0
LINE
  8
CSLAYER1
  6
CONTINUOUS
 62
     3
 10
846.390372
 20
900.087024
 11
846.646578
 21
899.143545
  0
LINE
  8
CSLAYER1
  6
CONTINUOUS
 62
     3
 10
846.646578
 20
899.143545
 11
847.071422
 21
898.214483
  0
LINE
  8
CSLAYER1
  6
CONTINUOUS
 62
     3
 10
847.071422
 20
898.214483
 11
847.661669
 21
897.306908
  0
LINE
  8
CSLAYER1
  6
CONTINUOUS
 62
     3
 10
847.661669
 20
897.306908
 11
848.412828
 21
896.427726
  0
LINE
  8
CSLAYER1
  6
CONTINUOUS
 62
     3
 10
848.412828
 20
896.427726
 11
849.301247
 21
895.600332
  0
LINE
  8
CSLAYER1
  6
CONTINUOUS
 62
     3
 10
888.308259
 20
895.600332
 11
889.196678
 21
896.427726
  0
LINE
  8
CSLAYER1
  6
CONTINUOUS
 62
     3
 10
889.196678
 20
896.427726
 11
889.947837
 21
897.306908
  0
LINE
  8
CSLAYER1
  6
CONTINUOUS
 62
     3
 10
889.947837
 20
897.306908
 11
890.538084
 21
898.214483
  0
LINE
  8
CSLAYER1
  6
CONTINUOUS
 62
     3
 10
890.538084
 20
898.214483
 11
890.962927
 21
899.143545
  0
LINE
  8
CSLAYER1
  6
CONTINUOUS
 62
     3
 10
890.962927
 20
899.143545
 11
891.219134
 21
900.087024
  0
LINE
  8
CSLAYER1
  6
CONTINUOUS
 62
     3
 10
891.219134
 20
900.087024
 11
891.304753
 21
901.037737
  0
LINE
  8
CSLAYER1
  6
CENTER
 62
     5
 10
834.756759
 20
904.106341
 11
845.804753
 21
904.106341
  0
LINE
  8
CSLAYER1
  6
CONTINUOUS
 62
     3
 10
839.804753
 20
929.520824
 11
845.804753
 21
929.520824
  0
LINE
  8
CSLAYER1
  6
CONTINUOUS
 62
     3
 10
839.804753
 20
875.977343
 11
845.804753
 21
875.977343
  0
LINE
  8
CSLAYER1
  6
CONTINUOUS
 62
     3
 10
800.304753
 20
895.440094
 11
803.304753
 21
895.440094
  0
LINE
  8
CSLAYER1
  6
CONTINUOUS
 62
     3
 10
891.804753
 20
927.851766
 11
891.304753
 21
927.205791
  0
LINE
  8
CSLAYER1
  6
CONTINUOUS
 62
     3
 10
891.804753
 20
929.520824
 11
897.804753
 21
929.520824
  0
LINE
  8
CSLAYER1
  6
CONTINUOUS
 62
     3
 10
891.804753
 20
875.977343
 11
897.804753
 21
875.977343
  0
LINE
  8
CSLAYER1
  6
CONTINUOUS
 62
     3
 10
812.304753
 20
895.440094
 11
824.654753
 21
895.440094
  0
LINE
  8
CSLAYER1
  6
CONTINUOUS
 62
     3
 10
845.804753
 20
895.440094
 11
891.804753
 21
895.440094
  0
LINE
  8
CSLAYER1
  6
CONTINUOUS
 62
     3
 10
913.304753
 20
895.440094
 11
916.304753
 21
895.440094
  0
LINE
  8
CSLAYER1
  6
CONTINUOUS
 62
     3
 10
897.804753
 20
895.440094
 11
904.304753
 21
895.440094
  0
LINE
  8
CSLAYER1
  6
CONTINUOUS
 62
     3
 10
812.304753
 20
1065.431685
 11
850.804753
 21
1065.431685
  0
LINE
  8
CSLAYER1
  6
CONTINUOUS
 62
     3
 10
812.304753
 20
1063.423262
 11
850.804753
 21
1063.423262
  0
LINE
  8
CSLAYER1
  6
CONTINUOUS
 62
     3
 10
886.804753
 20
1065.431685
 11
904.304753
 21
1065.431685
  0
LINE
  8
CSLAYER1
  6
CONTINUOUS
 62
     3
 10
886.804753
 20
1063.423262
 11
904.304753
 21
1063.423262
  0
LINE
  8
CSLAYER1
  6
CONTINUOUS
 62
     3
 10
824.654753
 20
863.897026
 11
824.654753
 21
946.195662
  0
LINE
  8
CSLAYER1
  6
CONTINUOUS
 62
     3
 10
832.954753
 20
863.897026
 11
832.954753
 21
946.195662
  0
LINE
  8
CSLAYER1
  6
CONTINUOUS
 62
     3
 10
832.954753
 20
895.440094
 11
839.804753
 21
895.440094
  0
LINE
  8
CSLAYER1
  6
CENTER
 62
     5
 10
1501.236653
 20
913.520824
 11
1709.771670
 21
1226.513406
  0
ARC
  8
CSLAYER1
  6
CONTINUOUS
 62
     3
 10
1709.771670
 20
1226.513406
 40
8.000000
 50
32.176883
 51
250.071831
  0
POINT
  8
CSLAYER1
 62
     3
 10
1709.771670
 20
1226.513406
  0
LINE
  8
CSLAYER1
  6
CONTINUOUS
 62
     3
 10
1572.199326
 20
1052.493120
 11
1673.709609
 21
1204.851060
  0
CIRCLE
  8
CSLAYER1
  6
CONTINUOUS
 62
     4
 10
1718.825895
 20
1172.263789
 40
8.500000
  0
LINE
  8
CSLAYER1
  6
CONTINUOUS
 62
     4
 10
1718.803173
 20
1182.078717
 11
1710.314557
 21
1177.151575
  0
LINE
  8
CSLAYER1
  6
CONTINUOUS
 62
     4
 10
1710.314557
 20
1177.151575
 11
1710.337278
 21
1167.336647
  0
LINE
  8
CSLAYER1
  6
CONTINUOUS
 62
     4
 10
1710.337278
 20
1167.336647
 11
1718.848617
 21
1162.448860
  0
LINE
  8
CSLAYER1
  6
CONTINUOUS
 62
     4
 10
1718.848617
 20
1162.448860
 11
1727.337233
 21
1167.376002
  0
LINE
  8
CSLAYER1
  6
CONTINUOUS
 62
     4
 10
1727.337233
 20
1167.376002
 11
1727.314511
 21
1177.190930
  0
LINE
  8
CSLAYER1
  6
CONTINUOUS
 62
     4
 10
1727.314511
 20
1177.190930
 11
1718.803173
 21
1182.078717
  0
CIRCLE
  8
CSLAYER1
  6
CONTINUOUS
 62
     5
 10
1718.825895
 20
1172.263789
 40
5.000000
  0
CIRCLE
  8
CSLAYER1
  6
CONTINUOUS
 62
     4
 10
1718.825895
 20
1172.263789
 40
4.300000
  0
POINT
  8
CSLAYER1
 62
     4
 10
1718.825895
 20
1172.263789
  0
LINE
  8
CSLAYER1
  6
CONTINUOUS
 62
     4
 10
1771.323756
 20
1219.855537
 11
1762.274408
 21
1201.460992
  0
LINE
  8
CSLAYER1
  6
CONTINUOUS
 62
     4
 10
1771.323756
 20
1219.855537
 11
1962.751566
 21
1457.301096
  0
LINE
  8
CSLAYER1
  6
CONTINUOUS
 62
     4
 10
1962.751566
 20
1457.301096
 11
1972.876863
 21
1507.890436
  0
LINE
  8
CSLAYER1
  6
CONTINUOUS
 62
     4
 10
1466.043841
 20
920.056566
 11
1939.953526
 21
1507.890436
  0
LINE
  8
CSLAYER1
  6
CONTINUOUS
 62
     4
 10
1505.572854
 20
883.050389
 11
1762.274408
 21
1201.460992
  0
LINE
  8
CSLAYER1
  6
CONTINUOUS
 62
     4
 10
1466.043841
 20
920.056566
 11
1444.493784
 21
858.963972
  0
LINE
  8
CSLAYER1
  6
CONTINUOUS
 62
     4
 10
1486.920214
 20
863.897026
 11
1499.860785
 21
879.948409
  0
LINE
  8
CSLAYER1
  6
CONTINUOUS
 62
     4
 10
1499.860785
 20
879.948409
 11
1505.572854
 21
883.050389
  0
POINT
  8
CSLAYER1
 62
     4
 10
1452.082225
 20
841.397026
  0
LINE
  8
CSLAYER1
  6
CONTINUOUS
 62
     4
 10
1506.200486
 20
883.828899
 11
1506.589741
 21
883.515083
  0
CIRCLE
  8
CSLAYER1
  6
CONTINUOUS
 62
     4
 10
1501.236653
 20
913.520824
 40
8.000000
  0
LINE
  8
CSLAYER1
  6
CONTINUOUS
 62
     4
 10
1511.278768
 20
925.976984
 11
1518.674613
 21
920.014478
  0
ARC
  8
CSLAYER1
  6
CONTINUOUS
 62
     4
 10
1501.236653
 20
913.520824
 40
16.000000
 50
51.124357
 51
102.499524
  0
POINT
  8
CSLAYER1
 62
     4
 10
1501.236653
 20
913.520824
  0
LINE
  8
CSLAYER1
  6
CONTINUOUS
 62
     4
 10
1506.589741
 20
883.515083
 11
1490.773729
 21
863.897026
  0
POINT
  8
CSLAYER1
 62
     7
 10
1709.771670
 20
1226.513406
  0
LINE
  8
CSLAYER1
  6
CONTINUOUS
 62
     7
 10
1754.196536
 20
1110.864133
 11
1953.300585
 21
863.897026
  0
CIRCLE
  8
CSLAYER1
  6
DASHED
 62
     5
 10
1985.569564
 20
841.397026
 40
13.000000
  0
POINT
  8
CSLAYER1
 62
     7
 10
1985.569564
 20
841.397026
  0
POINT
  8
CSLAYER1
 62
     7
 10
1718.825895
 20
1172.263789
  0
LINE
  8
CSLAYER1
  6
CONTINUOUS
 62
     7
 10
1984.160592
 20
904.486366
 11
1992.284420
 21
863.897026
  0
LINE
  8
CSLAYER1
  6
CONTINUOUS
 62
     7
 10
1492.128051
 20
1514.799684
 11
1718.825895
 21
1233.605451
  0
LINE
  8
CSLAYER1
  6
CONTINUOUS
 62
     7
 10
1497.532100
 20
1452.920080
 11
1464.548736
 21
1509.890436
  0
ARC
  8
CSLAYER1
  6
CONTINUOUS
 62
     7
 10
1488.877872
 20
1447.909658
 40
10.000000
 50
2.933531
 51
30.068979
  0
LINE
  8
CSLAYER1
  6
CONTINUOUS
 62
     7
 10
1498.864768
 20
1448.421432
 11
1499.839510
 21
1429.400057
  0
ARC
  8
CSLAYER1
  6
CONTINUOUS
 62
     7
 10
1509.826406
 20
1429.911832
 40
10.000000
 50
182.933531
 51
218.875643
  0
LINE
  8
CSLAYER1
  6
CONTINUOUS
 62
     7
 10
1675.377381
 20
1201.460992
 11
1684.144261
 21
1190.586623
  0
LINE
  8
CSLAYER1
  6
CONTINUOUS
 62
     7
 10
1754.196536
 20
1110.864133
 11
1738.140597
 21
1123.609989
  0
LINE
  8
CSLAYER1
  6
CONTINUOUS
 62
     7
 10
1666.328033
 20
1219.855537
 11
1675.377381
 21
1201.460992
  0
LINE
  8
CSLAYER1
  6
CONTINUOUS
 62
     7
 10
1666.328033
 20
1219.855537
 11
1502.041305
 21
1423.635510
  0
CIRCLE
  8
CSLAYER1
  6
CONTINUOUS
 62
     7
 10
1718.825895
 20
1172.263789
 40
7.500000
  0
ARC
  8
CSLAYER1
  6
CONTINUOUS
 62
     7
 10
1709.771670
 20
1226.513406
 40
17.000000
 50
42.335098
 51
86.307189
  0
POINT
  8
CSLAYER1
 62
     5
 10
1709.771670
 20
1226.513406
  0
CIRCLE
  8
CSLAYER1
  6
CONTINUOUS
 62
     2
 10
1501.236653
 20
913.520824
 40
8.250000
  0
LINE
  8
CSLAYER1
  6
CONTINUOUS
 62
     4
 10
1568.038297
 20
1055.265454
 11
1572.599041
 21
1052.226804
  0
LINE
  8
CSLAYER1
  6
CONTINUOUS
 62
     4
 10
1534.629895
 20
1011.434773
 11
1537.936526
 21
1009.231691
  0
LINE
  8
CSLAYER1
  6
CONTINUOUS
 62
     4
 10
1534.352156
 20
1012.821445
 11
1553.204032
 21
1041.116441
  0
LINE
  8
CSLAYER1
  6
CONTINUOUS
 62
     4
 10
1553.204032
 20
1041.116441
 11
1568.038297
 21
1055.265454
  0
LINE
  8
CSLAYER1
  6
CONTINUOUS
 62
     2
 10
1558.337652
 20
1031.687976
 11
1568.484397
 21
1046.917341
  0
LINE
  8
CSLAYER1
  6
CONTINUOUS
 62
     4
 10
1534.352156
 20
1012.821445
 11
1534.629895
 21
1011.434773
  0
LINE
  8
CSLAYER1
  6
CONTINUOUS
 62
     4
 10
1525.660017
 20
994.004006
 11
1536.460748
 21
1010.214945
  0
POINT
  8
CSLAYER1
 62
     5
 10
1501.236653
 20
913.520824
  0
CIRCLE
  8
CSLAYER1
  6
CONTINUOUS
 62
     3
 10
1452.082225
 20
841.397026
 40
9.500000
  0
LINE
  8
CSLAYER1
  6
CONTINUOUS
 62
     3
 10
1461.582225
 20
846.881853
 11
1452.082225
 21
852.366681
  0
LINE
  8
CSLAYER1
  6
CONTINUOUS
 62
     3
 10
1452.082225
 20
852.366681
 11
1442.582225
 21
846.881853
  0
LINE
  8
CSLAYER1
  6
CONTINUOUS
 62
     3
 10
1442.582225
 20
846.881853
 11
1442.582225
 21
835.912198
  0
LINE
  8
CSLAYER1
  6
CONTINUOUS
 62
     3
 10
1442.582225
 20
835.912198
 11
1452.082225
 21
830.427371
  0
LINE
  8
CSLAYER1
  6
CONTINUOUS
 62
     3
 10
1452.082225
 20
830.427371
 11
1461.582225
 21
835.912198
  0
LINE
  8
CSLAYER1
  6
CONTINUOUS
 62
     3
 10
1461.582225
 20
835.912198
 11
1461.582225
 21
846.881853
  0
POINT
  8
CSLAYER1
 62
     3
 10
1452.082225
 20
841.397026
  0
LINE
  8
CSLAYER1
  6
CONTINUOUS
 62
     3
 10
1427.082225
 20
863.897026
 11
1427.082225
 21
823.897026
  0
LINE
  8
CSLAYER1
  6
CONTINUOUS
 62
     3
 10
2330.082225
 20
863.897026
 11
2330.082225
 21
823.897026
  0
LINE
  8
CSLAYER1
  6
CONTINUOUS
 62
     3
 10
1427.082225
 20
863.897026
 11
1440.625786
 21
863.897026
  0
LINE
  8
CSLAYER1
  6
CONTINUOUS
 62
     3
 10
1463.538664
 20
863.897026
 11
2330.082225
 21
863.897026
  0
ARC
  8
CSLAYER1
  6
CONTINUOUS
 62
     3
 10
1452.082225
 20
868.897026
 40
12.500000
 50
203.578178
 51
336.421822
  0
LINE
  8
CSLAYER1
  6
CONTINUOUS
 62
     7
 10
1753.507529
 20
1190.586623
 11
1984.160592
 21
904.486366
  0
LINE
  8
CSLAYER1
  6
CONTINUOUS
 62
     7
 10
1718.825895
 20
1147.567795
 11
1738.140597
 21
1123.609989
  0
LINE
  8
CSLAYER1
  6
CONTINUOUS
 62
     4
 10
1487.111853
 20
915.916655
 11
1505.313185
 21
938.493446
  0
ARC
  8
CSLAYER1
  6
CONTINUOUS
 62
     4
 10
1489.447383
 20
914.033759
 40
3.000000
 50
141.124357
 51
231.124357
  0
LINE
  8
CSLAYER1
  6
CONTINUOUS
 62
     4
 10
1487.564486
 20
911.698229
 11
1500.020647
 21
901.656114
  0
ARC
  8
CSLAYER1
  6
CONTINUOUS
 62
     4
 10
1501.903543
 20
903.991644
 40
3.000000
 50
231.124357
 51
321.124357
  0
LINE
  8
CSLAYER1
  6
CONTINUOUS
 62
     4
 10
1504.239073
 20
902.108748
 11
1522.440406
 21
924.685539
  0
ARC
  8
CSLAYER1
  6
CONTINUOUS
 62
     4
 10
1520.104876
 20
926.568435
 40
3.000000
 50
-38.875643
 51
51.124357
  0
LINE
  8
CSLAYER1
  6
CONTINUOUS
 62
     4
 10
1509.531612
 20
938.946080
 11
1521.987773
 21
928.903965
  0
ARC
  8
CSLAYER1
  6
CONTINUOUS
 62
     4
 10
1507.648716
 20
936.610550
 40
3.000000
 50
51.124357
 51
141.124357
  0
CIRCLE
  8
CSLAYER1
  6
CONTINUOUS
 62
     3
 10
828.304753
 20
835.547026
 40
4.150000
  0
LINE
  8
CSLAYER1
  6
CENTER
 62
     5
 10
1452.082225
 20
876.108907
 11
1452.082225
 21
826.966395
  0
LINE
  8
CSLAYER1
  6
CENTER
 62
     5
 10
1439.522034
 20
841.397026
 11
1465.128422
 21
841.397026
  0
LINE
  8
CSLAYER1
  6
CENTER
 62
     5
 10
1491.357768
 20
913.520824
 11
1511.557432
 21
913.520824
  0
LINE
  8
CSLAYER1
  6
CENTER
 62
     5
 10
1501.236653
 20
923.738828
 11
1501.236653
 21
903.667009
  0
LINE
  8
CSLAYER1
  6
CENTER
 62
     5
 10
1985.569564
 20
857.249620
 11
1985.569564
 21
825.320668
  0
LINE
  8
CSLAYER1
  6
CENTER
 62
     5
 10
1970.052630
 20
841.397026
 11
2001.823518
 21
841.397026
  0
LINE
  8
CSLAYER1
  6
CENTER
 62
     5
 10
1708.122644
 20
1172.263789
 11
1729.639306
 21
1172.263789
  0
LINE
  8
CSLAYER1
  6
CENTER
 62
     5
 10
1718.825895
 20
1182.575613
 11
1718.825895
 21
1161.058952
  0
LINE
  8
CSLAYER1
  6
CENTER
 62
     5
 10
1700.270576
 20
1226.513406
 11
1717.478767
 21
1226.513406
  0
LINE
  8
CSLAYER1
  6
CENTER
 62
     5
 10
1709.771670
 20
1236.268906
 11
1709.771670
 21
1217.313690
  0
LINE
  8
CSLAYER1
  6
CONTINUOUS
 62
     5
 10
824.804753
 20
993.195662
 11
824.804753
 21
997.856431
  0
LINE
  8
CSLAYER1
  6
CONTINUOUS
 62
     3
 10
1173.586371
 20
2132.579856
 11
1429.782225
 21
2132.579856
  0
LINE
  8
CSLAYER1
  6
CONTINUOUS
 62
     3
 10
1173.586371
 20
2124.279856
 11
1429.782225
 21
2124.279856
  0
LINE
  8
CSLAYER1
  6
CONTINUOUS
 62
     3
 10
1427.082225
 20
2132.579856
 11
1427.082225
 21
2238.429856
  0
LINE
  8
CSLAYER1
  6
CENTER
 62
     5
 10
1170.699784
 20
839.968510
 11
1427.082225
 21
839.968510
  0
LINE
  8
CSLAYER1
  6
CONTINUOUS
 62
     3
 10
1170.699784
 20
844.118510
 11
1427.082225
 21
844.118510
  0
LINE
  8
CSLAYER1
  6
CONTINUOUS
 62
     3
 10
1170.699784
 20
835.818510
 11
1427.082225
 21
835.818510
  0
INSERT
  8
CSLAYER1
  2
BLKF0009
 10
0.0
 20
0.0
 30
0.0
  0
ARC
  8
CSLAYER1
  6
PHANTOM
 62
     5
 10
1452.082225
 20
869.097026
 40
9.500000
 50
-190.922071
 51
10.922071
  0
LINE
  8
CSLAYER1
  6
PHANTOM
 62
     5
 10
1442.582225
 20
870.897026
 11
1442.582225
 21
863.612198
  0
LINE
  8
CSLAYER1
  6
PHANTOM
 62
     5
 10
1442.582225
 20
863.612198
 11
1452.082225
 21
858.127371
  0
LINE
  8
CSLAYER1
  6
PHANTOM
 62
     5
 10
1452.082225
 20
858.127371
 11
1461.582225
 21
863.612198
  0
LINE
  8
CSLAYER1
  6
PHANTOM
 62
     5
 10
1461.582225
 20
863.612198
 11
1461.582225
 21
870.897026
  0
POINT
  8
CSLAYER1
 62
     5
 10
1452.082225
 20
869.097026
  0
LINE
  8
CSLAYER1
  6
PHANTOM
 62
     5
 10
1429.782225
 20
888.897026
 11
1429.782225
 21
870.897026
  0
LINE
  8
CSLAYER1
  6
PHANTOM
 62
     5
 10
2329.782225
 20
888.897026
 11
2329.782225
 21
870.897026
  0
LINE
  8
CSLAYER1
  6
PHANTOM
 62
     5
 10
1429.782225
 20
888.897026
 11
2329.782225
 21
888.897026
  0
LINE
  8
CSLAYER1
  6
PHANTOM
 62
     5
 10
1429.782225
 20
870.897026
 11
2329.782225
 21
870.897026
  0
LINE
  8
CSLAYER1
  6
PHANTOM
 62
     5
 10
1432.082225
 20
870.897026
 11
1432.082225
 21
863.897026
  0
LINE
  8
CSLAYER1
  6
PHANTOM
 62
     5
 10
1444.999853
 20
858.597026
 11
1451.268759
 21
858.597026
  0
LINE
  8
CSLAYER1
  6
PHANTOM
 62
     5
 10
2312.082225
 20
870.897026
 11
2312.082225
 21
863.897026
  0
LINE
  8
CSLAYER1
  6
PHANTOM
 62
     5
 10
1482.082225
 20
867.597026
 11
1471.804447
 21
863.897026
  0
LINE
  8
CSLAYER1
  6
PHANTOM
 62
     5
 10
1482.082225
 20
870.897026
 11
1482.082225
 21
863.897026
  0
LINE
  8
CSLAYER1
  6
PHANTOM
 62
     5
 10
1452.895692
 20
858.597026
 11
1457.082225
 21
858.597026
  0
LINE
  8
CSLAYER1
  6
PHANTOM
 62
     5
 10
1452.082225
 20
879.697099
 11
1452.082225
 21
857.044391
  0
LINE
  8
CSLAYER1
  6
PHANTOM
 62
     5
 10
1439.895422
 20
869.097026
 11
1463.327627
 21
869.097026
  0
LINE
  8
CSLAYER1
  6
PHANTOM
 62
     5
 10
1460.794544
 20
859.933460
 11
1457.082225
 21
858.597026
  0
DIMENSION
  8
CSLAYER1
 62
     3
  2
*D0000
 10
2471.191251
 20
1540.190436
 11
2461.191406
 21
1214.543579
 13
2350.049177
 23
888.897026
 14
2350.049177
 24
1540.190436
 50
90.000000
 70
1
  0
DIMENSION
  8
CSLAYER1
 62
     3
  2
*D0001
 10
2561.191251
 20
823.897026
 11
2551.191406
 21
1182.043701
 13
2561.191251
 23
1540.190436
 14
2561.191251
 24
823.897026
 50
90.000000
 70
1
  0
DIMENSION
  8
CSLAYER1
 62
     3
  2
*D0002
 10
1341.828165
 20
2223.429856
 11
1333.576294
 21
2072.876953
 13
1440.819424
 23
1973.429856
 14
1440.819424
 24
2223.429856
 50
90.000000
 70
1
  0
INSERT
  8
CSLAYER1
  2
EASYDRAWDIM0003
 10
0.0
 20
0.0
 30
0.0
  0
INSERT
  8
CSLAYER1
  2
EASYDRAWDIM0004
 10
0.0
 20
0.0
 30
0.0
  0
DIMENSION
  8
CSLAYER1
 62
     3
  2
*D0003
 10
1074.803424
 20
829.897026
 11
1064.803467
 21
856.711365
 13
1008.304753
 23
823.897026
 14
1008.304753
 24
829.897026
 50
90.000000
 70
1
  0
INSERT
  8
CSLAYER1
  2
EASYDRAWDIM0005
 10
0.0
 20
0.0
 30
0.0
  0
LINE
  8
CSLAYER1
  6
CONTINUOUS
 62
     4
 10
1429.782225
 20
2248.429856
 11
2329.782225
 21
2248.429856
  0
ARC
  8
CSLAYER1
  6
CONTINUOUS
 62
     3
 10
1452.082225
 20
2223.429856
 40
6.500000
 50
65.224333
 51
120.576653
  0
ARC
  8
CSLAYER1
  6
CONTINUOUS
 62
     3
 10
1452.082225
 20
2223.429856
 40
6.500000
 50
-29.249163
 51
22.624606
  0
ARC
  8
CSLAYER1
  6
CONTINUOUS
 62
     3
 10
1452.082225
 20
2223.429856
 40
6.500000
 50
243.232757
 51
294.045087
  0
LINE
  8
CSLAYER1
  6
DASHED
 62
     4
 10
1429.782225
 20
1998.429856
 11
2329.782225
 21
1998.429856
  0
ARC
  8
CSLAYER1
  6
CONTINUOUS
 62
     4
 10
1467.082225
 20
1958.429856
 40
10.000000
 50
270.000000
 51
360.000000
  0
LINE
  8
CSLAYER1
  6
CONTINUOUS
 62
     3
 10
1437.082225
 20
1948.429856
 11
1467.082225
 21
1948.429856
  0
ARC
  8
CSLAYER1
  6
CONTINUOUS
 62
     3
 10
1437.082225
 20
1958.429856
 40
10.000000
 50
180.000000
 51
223.113606
  0
LINE
  8
CSLAYER1
  6
DASHED
 62
     4
 10
1477.082225
 20
1958.429856
 11
1477.082225
 21
1998.429856
  0
LINE
  8
CSLAYER1
  6
CENTER
 62
     5
 10
1452.082225
 20
1984.692658
 11
1452.082225
 21
1962.167055
  0
LINE
  8
CSLAYER1
  6
CENTER
 62
     5
 10
1440.819424
 20
1973.429856
 11
1463.345027
 21
1973.429856
  0
ARC
  8
CSLAYER1
  6
CONTINUOUS
 62
     3
 10
1452.082225
 20
1973.429856
 40
6.500000
 50
155.078812
 51
201.335212
  0
LINE
  8
CSLAYER1
  6
CONTINUOUS
 62
     4
 10
1429.782225
 20
1948.429856
 11
2329.782225
 21
1948.429856
  0
ARC
  8
CSLAYER1
  6
CONTINUOUS
 62
     3
 10
1452.082225
 20
1973.429856
 40
6.500000
 50
239.423347
 51
294.775667
  0
ARC
  8
CSLAYER1
  6
CONTINUOUS
 62
     3
 10
1452.082225
 20
1973.429856
 40
6.500000
 50
-22.624606
 51
29.249163
  0
ARC
  8
CSLAYER1
  6
CONTINUOUS
 62
     3
 10
1452.082225
 20
1973.429856
 40
6.500000
 50
65.954913
 51
116.767243
  0
DIMENSION
  8
CSLAYER1
 62
     3
  2
*D0004
 10
2471.523021
 20
2248.429856
 11
2461.523193
 21
2098.429932
 13
2329.782225
 23
1948.429856
 14
2329.782225
 24
2248.429856
 50
90.000000
 70
1
  0
LINE
  8
CSLAYER1
  6
CONTINUOUS
 62
     3
 10
708.304753
 20
1540.190436
 11
708.304753
 21
1522.190436
  0
LINE
  8
CSLAYER1
  6
CONTINUOUS
 62
     3
 10
1008.304753
 20
1540.190436
 11
1008.304753
 21
1522.190436
  0
INSERT
  8
CSLAYER1
  2
BLKF0010
 10
0.0
 20
0.0
 30
0.0
  0
INSERT
  8
CSLAYER1
  2
BLKF0011
 10
0.0
 20
0.0
 30
0.0
  0
TEXT
  8
CSLAYER1
 62
     7
 10
1433.902588
 20
2319.629639
 40
40.000000
 41
0.843750
  1
下降時
 50
0.000000
 51
0.000000
  7
EASYDRAW_FONT
 72
     5
 11
1523.902588
 21
2319.629639
  0
LINE
  8
CSLAYER1
  6
CONTINUOUS
 62
     5
 10
1420.296241
 20
2366.059608
 11
1543.254251
 21
2366.059608
  0
LINE
  8
CSLAYER1
  6
CONTINUOUS
 62
     5
 10
1543.254251
 20
2366.059608
 11
1543.254251
 21
2313.199155
  0
LINE
  8
CSLAYER1
  6
CONTINUOUS
 62
     5
 10
1543.254251
 20
2313.199155
 11
1420.296241
 21
2313.199155
  0
LINE
  8
CSLAYER1
  6
CONTINUOUS
 62
     5
 10
1420.296241
 20
2313.199155
 11
1420.296241
 21
2366.059608
  0
LINE
  8
CSLAYER1
  6
CENTER
 62
     5
 10
2807.004545
 20
868.897026
 11
2956.004545
 21
868.897026
  0
LINE
  8
CSLAYER1
  6
CONTINUOUS
 62
     3
 10
3031.504545
 20
888.697026
 11
2731.504545
 21
888.697026
  0
LINE
  8
CSLAYER1
  6
CONTINUOUS
 62
     3
 10
3031.504545
 20
870.697026
 11
2731.504545
 21
870.697026
  0
LINE
  8
CSLAYER1
  6
CONTINUOUS
 62
     3
 10
2938.504545
 20
870.697026
 11
2938.504545
 21
863.897026
  0
LINE
  8
CSLAYER1
  6
CONTINUOUS
 62
     3
 10
2937.504545
 20
870.697026
 11
2937.504545
 21
863.897026
  0
LINE
  8
CSLAYER1
  6
CONTINUOUS
 62
     3
 10
2945.004545
 20
870.697026
 11
2945.004545
 21
863.897026
  0
LINE
  8
CSLAYER1
  6
CONTINUOUS
 62
     3
 10
2939.004545
 20
870.697026
 11
2939.004545
 21
863.897026
  0
LINE
  8
CSLAYER1
  6
CONTINUOUS
 62
     3
 10
2948.004545
 20
863.897026
 11
2948.004545
 21
870.697026
  0
LINE
  8
CSLAYER1
  6
CONTINUOUS
 62
     3
 10
2945.004545
 20
867.384829
 11
2947.843571
 21
870.697026
  0
LINE
  8
CSLAYER1
  6
CONTINUOUS
 62
     3
 10
2956.004545
 20
870.697026
 11
2956.004545
 21
863.897026
  0
ARC
  8
CSLAYER1
  6
CONTINUOUS
 62
     3
 10
2942.208801
 20
868.897026
 40
13.795744
 50
-21.249544
 51
7.497043
  0
LINE
  8
CSLAYER1
  6
CONTINUOUS
 62
     3
 10
2824.504545
 20
870.697026
 11
2824.504545
 21
863.897026
  0
LINE
  8
CSLAYER1
  6
CONTINUOUS
 62
     3
 10
2825.504545
 20
870.697026
 11
2825.504545
 21
863.897026
  0
LINE
  8
CSLAYER1
  6
CONTINUOUS
 62
     3
 10
2818.004545
 20
870.697026
 11
2818.004545
 21
863.897026
  0
LINE
  8
CSLAYER1
  6
CONTINUOUS
 62
     3
 10
2824.004545
 20
870.697026
 11
2824.004545
 21
863.897026
  0
LINE
  8
CSLAYER1
  6
CONTINUOUS
 62
     3
 10
2815.004545
 20
863.897026
 11
2815.004545
 21
870.697026
  0
LINE
  8
CSLAYER1
  6
CONTINUOUS
 62
     3
 10
2818.004545
 20
867.384829
 11
2815.165519
 21
870.697026
  0
LINE
  8
CSLAYER1
  6
CONTINUOUS
 62
     3
 10
2807.004545
 20
870.697026
 11
2807.004545
 21
863.897026
  0
ARC
  8
CSLAYER1
  6
CONTINUOUS
 62
     3
 10
2820.800289
 20
868.897026
 40
13.795744
 50
172.502957
 51
201.249544
  0
LINE
  8
CSLAYER1
  6
CONTINUOUS
 62
     3
 10
2796.504545
 20
863.897026
 11
2796.504545
 21
870.697026
  0
LINE
  8
CSLAYER1
  6
CONTINUOUS
 62
     3
 10
2801.004545
 20
863.897026
 11
2801.004545
 21
870.697026
  0
LINE
  8
CSLAYER1
  6
CONTINUOUS
 62
     3
 10
2966.504545
 20
863.897026
 11
2966.504545
 21
870.697026
  0
LINE
  8
CSLAYER1
  6
CONTINUOUS
 62
     3
 10
2962.004545
 20
863.897026
 11
2962.004545
 21
870.697026
  0
LINE
  8
CSLAYER1
  6
CONTINUOUS
 62
     3
 10
3031.504545
 20
870.697026
 11
3031.504545
 21
888.697026
  0
LINE
  8
CSLAYER1
  6
CONTINUOUS
 62
     3
 10
2731.504545
 20
870.697026
 11
2731.504545
 21
888.697026
  0
TEXT
  8
CSLAYER1
 62
     5
 10
3120.249968
 20
831.416981
 40
31.844261
 41
0.920655
  1
Ｆ.Ｌ
 50
0.000000
 51
0.000000
  7
EASYDRAW_FONT
 72
     5
 11
3198.430208
 21
831.416981
  0
LINE
  8
CSLAYER1
  6
CONTINUOUS
 62
     3
 10
2731.504545
 20
823.897026
 11
3031.504545
 21
823.897026
  0
LINE
  8
CSLAYER1
  6
CENTER
 62
     5
 10
3006.504545
 20
814.967665
 11
3006.504545
 21
839.177626
  0
LINE
  8
CSLAYER1
  6
CENTER
 62
     5
 10
2756.504545
 20
814.967665
 11
2756.504545
 21
839.177626
  0
LINE
  8
CSLAYER1
  6
CONTINUOUS
 62
     3
 10
2781.504545
 20
863.897026
 11
2981.504545
 21
863.897026
  0
LINE
  8
CSLAYER1
  6
CONTINUOUS
 62
     3
 10
2781.504545
 20
863.897026
 11
2781.504545
 21
829.897026
  0
LINE
  8
CSLAYER1
  6
CONTINUOUS
 62
     3
 10
2981.504545
 20
863.897026
 11
2981.504545
 21
829.897026
  0
LINE
  8
CSLAYER1
  6
CONTINUOUS
 62
     3
 10
3031.504545
 20
823.897026
 11
3031.504545
 21
829.897026
  0
LINE
  8
CSLAYER1
  6
CONTINUOUS
 62
     3
 10
3031.504545
 20
829.897026
 11
2981.504545
 21
829.897026
  0
LINE
  8
CSLAYER1
  6
CONTINUOUS
 62
     3
 10
2731.504545
 20
823.897026
 11
2731.504545
 21
829.897026
  0
LINE
  8
CSLAYER1
  6
CONTINUOUS
 62
     3
 10
2731.504545
 20
829.897026
 11
2781.504545
 21
829.897026
  0
POINT
  8
CSLAYER1
 62
     3
 10
2881.504545
 20
888.697026
  0
POINT
  8
CSLAYER1
 62
     3
 10
2881.504545
 20
863.897026
  0
LINE
  8
CSLAYER1
  6
CENTER
 62
     5
 10
2881.504545
 20
928.697026
 11
2881.504545
 21
783.897026
  0
TEXT
  8
CSLAYER1
 62
     7
 10
2840.586426
 20
985.394165
 40
40.000000
 41
0.843750
  1
下降時
 50
0.000000
 51
0.000000
  7
EASYDRAW_FONT
 72
     5
 11
2930.586426
 21
985.394165
  0
LINE
  8
CSLAYER1
  6
CONTINUOUS
 62
     5
 10
2826.980136
 20
1031.824282
 11
2949.938145
 21
1031.824282
  0
LINE
  8
CSLAYER1
  6
CONTINUOUS
 62
     5
 10
2949.938145
 20
1031.824282
 11
2949.938145
 21
978.963829
  0
LINE
  8
CSLAYER1
  6
CONTINUOUS
 62
     5
 10
2949.938145
 20
978.963829
 11
2826.980136
 21
978.963829
  0
LINE
  8
CSLAYER1
  6
CONTINUOUS
 62
     5
 10
2826.980136
 20
978.963829
 11
2826.980136
 21
1031.824282
  0
DIMENSION
  8
CSLAYER1
 62
     3
  2
*D0006
 10
2651.191251
 20
888.697026
 11
2641.191162
 21
856.297058
 13
2675.097398
 23
823.897026
 14
2725.638551
 24
888.697026
 50
90.000000
  0
LINE
  8
CSLAYER1
  6
CONTINUOUS
 62
     5
 10
3240.848364
 20
823.897026
 11
3031.504545
 21
823.897026
  0
LINE
  8
CSLAYER1
  6
CONTINUOUS
 62
     3
 10
2781.504545
 20
837.066520
 11
2781.504545
 21
823.897026
  0
LINE
  8
CSLAYER1
  6
CONTINUOUS
 62
     3
 10
2981.504545
 20
830.888635
 11
2981.504545
 21
823.897026
  0
DIMENSION
  8
CSLAYER1
 62
     3
  2
*D0007
 10
1008.304753
 20
1640.190436
 11
858.304932
 21
1650.190430
 13
708.304753
 23
1540.190436
 14
1008.304753
 24
1540.190436
 70
1
  0
LINE
  8
CSLAYER1
  6
CONTINUOUS
 62
     3
 10
708.304753
 20
823.897026
 11
1008.304753
 21
823.897026
  0
LINE
  8
CSLAYER1
  6
CONTINUOUS
 62
     5
 10
1008.304753
 20
823.897026
 11
1427.082225
 21
823.897026
  0
LINE
  8
CSLAYER1
  6
CONTINUOUS
 62
     3
 10
1427.082225
 20
823.897026
 11
2330.082225
 21
823.897026
  0
LINE
  8
CSLAYER1
  6
CONTINUOUS
 62
     5
 10
2330.082225
 20
823.897026
 11
2731.504545
 21
823.897026
  0
INSERT
  8
CSLAYER1
  2
EASYDRAWDIM0007
 10
0.0
 20
0.0
 30
0.0
  0
LINE
  8
CSLAYER1
  6
CONTINUOUS
 62
     5
 10
1086.340346
 20
663.114414
 11
1343.537464
 21
663.114414
  0
TEXT
  8
CSLAYER1
 62
     3
 10
1121.594238
 20
670.923218
 40
40.000000
 41
0.787500
  1
(アンカー穴)
 50
0.000000
 51
0.000000
  7
EASYDRAW_FONT
 72
     5
 11
1331.594238
 21
670.923218
  0
LINE
  8
CSLAYER1
  6
CONTINUOUS
 62
     5
 10
983.304753
 20
823.897026
 11
1086.340346
 21
663.114414
  0
LINE
  8
CSLAYER1
  6
CONTINUOUS
 62
     5
 10
983.304753
 20
823.897026
 11
1005.477218
 21
803.688567
  0
LINE
  8
CSLAYER1
  6
CONTINUOUS
 62
     5
 10
983.304753
 20
823.897026
 11
992.402441
 21
795.309755
  0
LINE
  8
CSLAYER1
  6
CONTINUOUS
 62
     5
 10
1451.126224
 20
823.897026
 11
1343.537464
 21
663.114414
  0
LINE
  8
CSLAYER1
  6
CONTINUOUS
 62
     5
 10
1451.126224
 20
823.897026
 11
1441.463842
 21
795.495646
  0
LINE
  8
CSLAYER1
  6
CONTINUOUS
 62
     5
 10
1451.126224
 20
823.897026
 11
1428.557666
 21
804.131900
  0
DIMENSION
  8
CSLAYER1
 62
     3
  2
*D0008
 10
1452.082225
 20
1828.429856
 11
1367.082275
 21
1838.429810
 13
1427.082225
 23
1958.429856
 14
1452.082225
 24
1962.167055
 52
270.000000
  0
DIMENSION
  8
CSLAYER1
 62
     3
  2
*D0009
 10
1477.082225
 20
1738.429856
 11
1367.082275
 21
1748.429932
 13
1427.082225
 23
1958.429856
 14
1477.082225
 24
1958.429856
 52
270.000000
 70
1
  0
DIMENSION
  8
CSLAYER1
 62
     3
  2
*D0010
 10
2351.191251
 20
1640.190436
 11
1901.191284
 21
1650.190552
 13
1451.191251
 23
1540.190436
 14
2351.191251
 24
1540.190436
 70
1
  0
DIMENSION
  8
CSLAYER1
 62
     3
  2
*D0011
 10
2471.191251
 20
888.897026
 11
2461.191406
 21
856.397034
 13
2329.782225
 23
823.897026
 14
2329.782225
 24
888.897026
 50
90.000000
 70
1
  0
DIMENSION
  8
CSLAYER1
 62
     3
  2
*D0012
 10
1452.082225
 20
703.897026
 11
1512.082275
 21
713.897034
 13
1427.082225
 23
823.897026
 14
1452.082225
 24
826.966395
 52
270.000000
  0
DIMENSION
  8
CSLAYER1
 62
     3
  2
*D0013
 10
2330.082225
 20
613.897026
 11
1878.582275
 21
623.897034
 13
1427.082225
 23
823.897026
 14
2330.082225
 24
823.897026
 52
270.000000
 70
1
  0
DIMENSION
  8
CSLAYER1
 62
     3
  2
*D0014
 10
1008.304753
 20
613.897026
 11
858.304749
 21
623.896973
 13
708.304753
 23
823.897026
 14
1008.304753
 24
823.897026
 52
270.000000
 70
1
  0
DIMENSION
  8
CSLAYER1
 62
     3
  2
*D0015
 10
983.304753
 20
703.897026
 11
858.304749
 21
713.897034
 13
733.304753
 23
814.967665
 14
983.304753
 24
814.967665
 52
270.000000
 70
1
  0
LINE
  8
CSLAYER1
  6
CONTINUOUS
 62
     5
 10
1452.082225
 20
1973.429856
 11
1536.417804
 21
1828.429856
  0
LINE
  8
CSLAYER1
  6
CONTINUOUS
 62
     5
 10
1452.082225
 20
1973.429856
 11
1473.363200
 21
1952.284641
  0
LINE
  8
CSLAYER1
  6
CONTINUOUS
 62
     5
 10
1452.082225
 20
1973.429856
 11
1459.939482
 21
1944.477076
  0
TEXT
  8
CSLAYER1
 62
     3
 10
3145.586182
 20
1784.596191
 40
40.000000
 41
0.859091
  1
約 50
 50
0.000000
 51
0.000000
  7
EASYDRAW_FONT
 72
     5
 11
3271.586182
 21
1784.596191
  0
ENDSEC
  0
EOF
