  0
SECTION
  2
HEADER
  9
$ACADVER
  1
AC1006
  9
$INSBASE
 10
0.000000
 20
0.000000
 30
0.0
  9
$EXTMIN
 10
0.000000
 20
0.000000
  9
$EXTMAX
 10
3640.000000
 20
2570.000000
  9
$LIMMIN
 10
0.000000
 20
0.000000
  9
$LIMMAX
 10
3640.000000
 20
2570.000000
  9
$VIEWCTR
 10
1820.000000
 20
1285.000000
  9
$VIEWSIZE
 40
2570.000000
  9
$SNAPMODE
 70
     0
  9
$SNAPUNIT
 10
1.0
 20
1.0
  9
$SNAPBASE
 10
0.0
 20
0.0
  9
$SNAPANG
 50
0.0
  9
$SNAPSTYLE
 70
     0
  9
$SNAPISOPAIR
 70
     0
  9
$GRIDMODE
 70
     0
  9
$GRIDUNIT
 10
0.0
 20
0.0
  9
$ORTHOMODE
 70
     0
  9
$REGENMODE
 70
     1
  9
$FILLMODE
 70
     1
  9
$QTEXTMODE
 70
     0
  9
$DRAGMODE
 70
     2
  9
$LTSCALE
 40
15.000000
  9
$OSMODE
 70
     0
  9
$ATTMODE
 70
     1
  9
$TEXTSIZE
 40
0.2
  9
$TRACEWID
 40
0.05
  9
$TEXTSTYLE
  7
STANDARD
  9
$CLAYER
  8
CSLAYER1
  9
$CELTYPE
  6
BYLAYER
  9
$CECOLOR
 62
   256
  9
$DIMSCALE
 40
1.0
  9
$DIMASZ
 40
0.18
  9
$DIMEXO
 40
0.0625
  9
$DIMDLI
 40
0.38
  9
$DIMRND
 40
0.0
  9
$DIMDLE
 40
0.0
  9
$DIMEXE
 40
0.18
  9
$DIMTP
 40
0.0
  9
$DIMTM
 40
0.0
  9
$DIMTXT
 40
0.18
  9
$DIMCEN
 40
0.09
  9
$DIMTSZ
 40
0.0
  9
$DIMTOL
 70
     0
  9
$DIMLIM
 70
     0
  9
$DIMTIH
 70
     1
  9
$DIMTOH
 70
     1
  9
$DIMSE1
 70
     0
  9
$DIMSE2
 70
     0
  9
$DIMTAD
 70
     0
  9
$DIMZIN
 70
     0
  9
$DIMBLK
  1

  9
$LUNITS
 70
     2
  9
$LUPREC
 70
     4
  9
$AXISMODE
 70
     0
  9
$AXISUNIT
 10
0.0
 20
0.0
  9
$SKETCHINC
 40
0.1
  9
$FILLETRAD
 40
0.0
  9
$AUNITS
 70
     0
  9
$AUPREC
 70
     0
  9
$MENU
  1
ACAD
  9
$ELEVATION
 40
0.0
  9
$THICKNESS
 40
0.0
  9
$VIEWDIR
 10
0.0
 20
0.0
 30
1.0
  9
$LIMCHECK
 70
     0
  9
$BLIPMODE
 70
     1
  9
$CHAMFERA
 40
0.0
  9
$CHAMFERB
 40
0.0
  9
$FASTZOOM
 70
     1
  9
$SKPOLY
 70
     0
  9
$TDCREATE
 40
2456676.000000
  9
$TDUPDATE
 40
2456676.000000
  9
$TDINDWG
 40
0.0
  9
$TDUSRTIMER
 40
0.0
  9
$USRTIMER
 70
     1
  9
$ANGBASE
 50
0.0
  9
$ANGDIR
 70
     0
  9
$PDMODE
 70
     0
  9
$PDSIZE
 40
0.0
  9
$PLINEWID
 40
0.0
  9
$COORDS
 70
     0
  9
$USERI1
 70
     0
  9
$USERI2
 70
     0
  9
$USERI3
 70
     0
  9
$USERI4
 70
     0
  9
$USERI5
 70
     0
  9
$USERR1
 40
0.0
  9
$USERR2
 40
0.0
  9
$USERR3
 40
0.0
  9
$USERR4
 40
0.0
  9
$USERR5
 40
0.0
  0
ENDSEC
  0
SECTION
  2
TABLES
  0
TABLE
  2
LTYPE
 70
     9
  0
LTYPE
  2
CONTINUOUS
 70
    64
  3
Solid line
 72
    65
 73
     0
 40
0.0
  0
LTYPE
  2
DASHED
 70
    64
  3
__ __ __ __ __ __ __ __ __ __ __ __ __ __ __
 72
    65
 73
     2
 40
0.75
 49
0.5
 49
-0.25
  0
LTYPE
  2
HIDDEN
 70
    64
  3
_ _ _ _ _ _ _ _ _ _ _ _ _ _ _ _ _ _ _ _ _ _ _
 72
    65
 73
     2
 40
0.375
 49
0.25
 49
-0.125
  0
LTYPE
  2
DOT
 70
    64
  3
...............................................
 72
    65
 73
     2
 40
0.25
 49
0.0
 49
-0.25
  0
LTYPE
  2
DASHDOT
 70
    64
  3
__ . __ . __ . __ . __ . __ . __ . __ . __ . __
 72
    65
 73
     4
 40
1.0
 49
0.5
 49
-0.25
 49
0.0
 49
-0.25
  0
LTYPE
  2
DIVIDE
 70
    64
  3
__ . . __ . . __ . . __ . . __ . . __ . . __
 72
    65
 73
     6
 40
1.25
 49
0.5
 49
-0.25
 49
0.0
 49
-0.25
 49
0.0
 49
-0.25
  0
LTYPE
  2
CENTER
 70
    64
  3
____ _ ____ _ ____ _ ____ _ ____ _ ____ _ ____ 
 72
    65
 73
     4
 40
2.0
 49
1.25
 49
-0.25
 49
0.25
 49
-0.25
  0
LTYPE
  2
PHANTOM
 70
    64
  3
______  __  __  ______  __  __  ______  __  __ 
 72
    65
 73
     6
 40
2.5
 49
1.25
 49
-0.25
 49
0.25
 49
-0.25
 49
0.25
 49
-0.25
  0
LTYPE
  2
BORDER
 70
    64
  3
__ __ . __ __ . __ __ . __ __ . __ __ . __ __ .
 72
    65
 73
     6
 40
1.75
 49
0.5
 49
-0.25
 49
0.5
 49
-0.25
 49
0.0
 49
-0.25
  0
ENDTAB
  0
TABLE
  2
LAYER
 70
    16
  0
LAYER
  2
CSLAYER1
 70
    64
 62
     7
  6
CONTINUOUS
  0
LAYER
  2
CSLAYER2
 70
    64
 62
     7
  6
CONTINUOUS
  0
LAYER
  2
CSLAYER3
 70
    64
 62
     7
  6
CONTINUOUS
  0
LAYER
  2
CSLAYER4
 70
    64
 62
     7
  6
CONTINUOUS
  0
LAYER
  2
CSLAYER5
 70
    64
 62
     7
  6
CONTINUOUS
  0
LAYER
  2
CSLAYER6
 70
    64
 62
     7
  6
CONTINUOUS
  0
LAYER
  2
CSLAYER7
 70
    64
 62
     7
  6
CONTINUOUS
  0
LAYER
  2
CSLAYER8
 70
    64
 62
     7
  6
CONTINUOUS
  0
LAYER
  2
CSLAYER9
 70
    64
 62
     7
  6
CONTINUOUS
  0
LAYER
  2
CSLAYER10
 70
    64
 62
     7
  6
CONTINUOUS
  0
LAYER
  2
CSLAYER11
 70
    64
 62
     7
  6
CONTINUOUS
  0
LAYER
  2
CSLAYER12
 70
    64
 62
     7
  6
CONTINUOUS
  0
LAYER
  2
CSLAYER13
 70
    64
 62
     7
  6
CONTINUOUS
  0
LAYER
  2
CSLAYER14
 70
    64
 62
     7
  6
CONTINUOUS
  0
LAYER
  2
CSLAYER15
 70
    64
 62
     7
  6
CONTINUOUS
  0
LAYER
  2
CSLAYER16
 70
    64
 62
     7
  6
CONTINUOUS
  0
ENDTAB
  0
TABLE
  2
STYLE
 70
     1
  0
STYLE
  2
EASYDRAW_FONT
 70
     0
 40
1.0
 41
1.0
 50
0.0
 71
     0
 42
1.0
  3
monotxt
  4
bigfont
  0
ENDTAB
  0
TABLE
  2
VIEW
 70
     0
  0
ENDTAB
  0
ENDSEC
  0
SECTION
  2
BLOCKS
  0
BLOCK
  8
CSLAYER1
  2
*D0000
 70
    65
 10
0.0
 20
0.0
 30
0.0
  0
TEXT
  8
CSLAYER1
 62
     3
 10
1369.861084
 20
1929.724121
 40
40.000000
 41
0.843750
  1
250
 50
90.000000
 51
0.000000
  7
EASYDRAW_FONT
 72
     5
 11
1369.861084
 21
2019.724121
  0
LINE
  8
CSLAYER1
  6
CONTINUOUS
 62
     5
 10
1467.104588
 20
1875.276935
 11
1368.113329
 21
1875.276935
  0
LINE
  8
CSLAYER1
  6
CONTINUOUS
 62
     5
 10
1488.367389
 20
2125.276935
 11
1368.113329
 21
2125.276935
  0
LINE
  8
CSLAYER1
  6
CONTINUOUS
 62
     5
 10
1378.113329
 20
1875.276935
 11
1378.113329
 21
2125.276935
  0
LINE
  8
CSLAYER1
  6
CONTINUOUS
 62
     5
 10
1378.113329
 20
1875.276935
 11
1370.348757
 21
1904.254710
  0
LINE
  8
CSLAYER1
  6
CONTINUOUS
 62
     5
 10
1378.113329
 20
1875.276935
 11
1385.877900
 21
1904.254710
  0
LINE
  8
CSLAYER1
  6
CONTINUOUS
 62
     5
 10
1378.113329
 20
2125.276935
 11
1370.348757
 21
2096.299161
  0
LINE
  8
CSLAYER1
  6
CONTINUOUS
 62
     5
 10
1378.113329
 20
2125.276935
 11
1385.877900
 21
2096.299161
  0
ENDBLK
  8
0
  0
BLOCK
  8
CSLAYER1
  2
EASYDRAWDIM0000
 70
   64
 10
0.0
 20
0.0
 30
0.0
  0
TEXT
  8
CSLAYER1
 62
     3
 10
1578.947632
 20
1740.276733
 40
40.000000
 41
0.771429
  1
2-%%c13(アンカー穴)
 50
0.000000
 51
0.000000
  7
EASYDRAW_FONT
 72
     5
 11
1938.947632
 21
1740.276733
  0
LINE
  8
CSLAYER1
  6
CONTINUOUS
 62
     5
 10
1574.606535
 20
1730.276935
 11
1948.947788
 21
1730.276935
  0
ENDBLK
  8
0
  0
BLOCK
  8
CSLAYER1
  2
EASYDRAWDIM0001
 70
   64
 10
0.0
 20
0.0
 30
0.0
  0
TEXT
  8
CSLAYER1
 62
     3
 10
1419.099854
 20
1898.176735
 40
33.155758
 41
0.767879
  1
穴ヒﾟッチ
 50
90.000000
 51
0.000000
  7
EASYDRAW_FONT
 72
     5
 11
1419.099854
 21
2016.988304
  0
ENDBLK
  8
0
  0
BLOCK
  8
CSLAYER1
  2
*D0001
 70
    65
 10
0.0
 20
0.0
 30
0.0
  0
TEXT
  8
CSLAYER1
 62
     3
 10
2403.502930
 20
1134.736450
 40
40.000000
 41
0.843750
  1
500
 50
90.000000
 51
0.000000
  7
EASYDRAW_FONT
 72
     5
 11
2403.502930
 21
1224.736450
  0
LINE
  8
CSLAYER1
  6
CONTINUOUS
 62
     5
 10
2303.503092
 20
1440.622103
 11
2523.896166
 21
1440.622103
  0
LINE
  8
CSLAYER1
  6
CONTINUOUS
 62
     5
 10
2413.503092
 20
918.850501
 11
2413.503092
 21
1440.622103
  0
LINE
  8
CSLAYER1
  6
CONTINUOUS
 62
     5
 10
2413.503092
 20
918.850501
 11
2405.738521
 21
947.828276
  0
LINE
  8
CSLAYER1
  6
CONTINUOUS
 62
     5
 10
2413.503092
 20
918.850501
 11
2421.267664
 21
947.828276
  0
LINE
  8
CSLAYER1
  6
CONTINUOUS
 62
     5
 10
2413.503092
 20
1440.622103
 11
2405.738521
 21
1411.644328
  0
LINE
  8
CSLAYER1
  6
CONTINUOUS
 62
     5
 10
2413.503092
 20
1440.622103
 11
2421.267664
 21
1411.644328
  0
ENDBLK
  8
0
  0
BLOCK
  8
CSLAYER1
  2
*D0002
 70
    65
 10
0.0
 20
0.0
 30
0.0
  0
TEXT
  8
CSLAYER1
 62
     3
 10
2493.502930
 20
1084.736450
 40
40.000000
 41
0.843750
  1
600
 50
90.000000
 51
0.000000
  7
EASYDRAW_FONT
 72
     5
 11
2493.502930
 21
1174.736450
  0
LINE
  8
CSLAYER1
  6
CONTINUOUS
 62
     5
 10
2503.503092
 20
818.850501
 11
2503.503092
 21
1440.622103
  0
LINE
  8
CSLAYER1
  6
CONTINUOUS
 62
     5
 10
2503.503092
 20
818.850501
 11
2495.738521
 21
847.828276
  0
LINE
  8
CSLAYER1
  6
CONTINUOUS
 62
     5
 10
2503.503092
 20
818.850501
 11
2511.267664
 21
847.828276
  0
LINE
  8
CSLAYER1
  6
CONTINUOUS
 62
     5
 10
2503.503092
 20
1440.622103
 11
2495.738521
 21
1411.644328
  0
LINE
  8
CSLAYER1
  6
CONTINUOUS
 62
     5
 10
2503.503092
 20
1440.622103
 11
2511.267664
 21
1411.644328
  0
ENDBLK
  8
0
  0
BLOCK
  8
CSLAYER1
  2
*D0003
 70
    65
 10
0.0
 20
0.0
 30
0.0
  0
TEXT
  8
CSLAYER1
 62
     3
 10
1848.503052
 20
1550.621948
 40
40.000000
 41
0.843750
  1
800
 50
0.000000
 51
0.000000
  7
EASYDRAW_FONT
 72
     5
 11
1938.503052
 21
1550.621948
  0
LINE
  8
CSLAYER1
  6
CONTINUOUS
 62
     5
 10
1493.503092
 20
1450.622103
 11
1493.503092
 21
1550.622103
  0
LINE
  8
CSLAYER1
  6
CONTINUOUS
 62
     5
 10
2293.503092
 20
1450.622103
 11
2293.503092
 21
1550.622103
  0
LINE
  8
CSLAYER1
  6
CONTINUOUS
 62
     5
 10
1493.503092
 20
1540.622103
 11
2293.503092
 21
1540.622103
  0
LINE
  8
CSLAYER1
  6
CONTINUOUS
 62
     5
 10
1493.503092
 20
1540.622103
 11
1522.480867
 21
1548.386674
  0
LINE
  8
CSLAYER1
  6
CONTINUOUS
 62
     5
 10
1493.503092
 20
1540.622103
 11
1522.480867
 21
1532.857531
  0
LINE
  8
CSLAYER1
  6
CONTINUOUS
 62
     5
 10
2293.503092
 20
1540.622103
 11
2264.525318
 21
1548.386674
  0
LINE
  8
CSLAYER1
  6
CONTINUOUS
 62
     5
 10
2293.503092
 20
1540.622103
 11
2264.525318
 21
1532.857531
  0
ENDBLK
  8
0
  0
BLOCK
  8
CSLAYER1
  2
*D0004
 70
    65
 10
0.0
 20
0.0
 30
0.0
  0
TEXT
  8
CSLAYER1
 62
     3
 10
1293.961914
 20
1265.598755
 40
40.000000
 41
0.794118
  1
MAX 27
 50
0.000000
 51
0.000000
  7
EASYDRAW_FONT
 72
     5
 11
1473.961914
 21
1265.598755
  0
LINE
  8
CSLAYER1
  6
CONTINUOUS
 62
     5
 10
1466.067389
 20
928.850501
 11
1466.067389
 21
1252.128133
  0
LINE
  8
CSLAYER1
  6
CONTINUOUS
 62
     5
 10
1493.503092
 20
1395.622103
 11
1493.503092
 21
1232.128133
  0
LINE
  8
CSLAYER1
  6
CONTINUOUS
 62
     5
 10
1466.067389
 20
1242.128133
 11
1422.235265
 21
1242.128133
  0
LINE
  8
CSLAYER1
  6
CONTINUOUS
 62
     5
 10
1466.067389
 20
1242.128133
 11
1437.089615
 21
1249.892704
  0
LINE
  8
CSLAYER1
  6
CONTINUOUS
 62
     5
 10
1466.067389
 20
1242.128133
 11
1437.089615
 21
1234.363562
  0
LINE
  8
CSLAYER1
  6
CONTINUOUS
 62
     5
 10
1493.503092
 20
1242.128133
 11
1543.503092
 21
1242.128133
  0
LINE
  8
CSLAYER1
  6
CONTINUOUS
 62
     5
 10
1493.503092
 20
1242.128133
 11
1522.480867
 21
1249.892704
  0
LINE
  8
CSLAYER1
  6
CONTINUOUS
 62
     5
 10
1493.503092
 20
1242.128133
 11
1522.480867
 21
1234.363562
  0
LINE
  8
CSLAYER1
  6
CONTINUOUS
 62
     5
 10
1466.067389
 20
1242.128133
 11
1493.503092
 21
1242.128133
  0
ENDBLK
  8
0
  0
BLOCK
  8
CSLAYER1
  2
EASYDRAWDIM0002
 70
   64
 10
0.0
 20
0.0
 30
0.0
  0
TEXT
  8
CSLAYER1
 62
     3
 10
1158.923340
 20
1175.389771
 40
40.000000
 41
0.787500
  1
油圧シリンダー
 50
0.000000
 51
0.000000
  7
EASYDRAW_FONT
 72
     5
 11
1368.923340
 21
1175.389771
  0
LINE
  8
CSLAYER1
  6
CONTINUOUS
 62
     5
 10
1369.888000
 20
1165.389655
 11
1148.923258
 21
1165.389655
  0
ENDBLK
  8
0
  0
BLOCK
  8
CSLAYER1
  2
EASYDRAWDIM0003
 70
   64
 10
0.0
 20
0.0
 30
0.0
  0
TEXT
  8
CSLAYER1
 62
     3
 10
1171.169922
 20
973.390686
 40
40.000000
 41
0.803571
  1
高圧ホース
 50
0.000000
 51
0.000000
  7
EASYDRAW_FONT
 72
     5
 11
1321.169922
 21
973.390686
  0
LINE
  8
CSLAYER1
  6
CONTINUOUS
 62
     5
 10
1387.715654
 20
844.559094
 11
1321.169985
 21
963.390645
  0
LINE
  8
CSLAYER1
  6
CONTINUOUS
 62
     5
 10
1387.715654
 20
844.559094
 11
1366.782381
 21
866.048581
  0
LINE
  8
CSLAYER1
  6
CONTINUOUS
 62
     5
 10
1387.715654
 20
844.559094
 11
1380.331651
 21
873.636172
  0
LINE
  8
CSLAYER1
  6
CONTINUOUS
 62
     5
 10
1321.169985
 20
963.390645
 11
1161.169985
 21
963.390645
  0
ENDBLK
  8
0
  0
BLOCK
  8
CSLAYER1
  2
*D0005
 70
    65
 10
0.0
 20
0.0
 30
0.0
  0
TEXT
  8
CSLAYER1
 62
     3
 10
1819.717285
 20
618.850708
 40
40.000000
 41
0.843750
  1
803
 50
0.000000
 51
0.000000
  7
EASYDRAW_FONT
 72
     5
 11
1909.717285
 21
618.850708
  0
LINE
  8
CSLAYER1
  6
CONTINUOUS
 62
     5
 10
1463.367389
 20
808.850501
 11
1463.367389
 21
598.850501
  0
LINE
  8
CSLAYER1
  6
CONTINUOUS
 62
     5
 10
2266.067389
 20
808.850501
 11
2266.067389
 21
598.850501
  0
LINE
  8
CSLAYER1
  6
CONTINUOUS
 62
     5
 10
1463.367389
 20
608.850501
 11
2266.067389
 21
608.850501
  0
LINE
  8
CSLAYER1
  6
CONTINUOUS
 62
     5
 10
1463.367389
 20
608.850501
 11
1492.345164
 21
616.615073
  0
LINE
  8
CSLAYER1
  6
CONTINUOUS
 62
     5
 10
1463.367389
 20
608.850501
 11
1492.345164
 21
601.085930
  0
LINE
  8
CSLAYER1
  6
CONTINUOUS
 62
     5
 10
2266.067389
 20
608.850501
 11
2237.089615
 21
616.615073
  0
LINE
  8
CSLAYER1
  6
CONTINUOUS
 62
     5
 10
2266.067389
 20
608.850501
 11
2237.089615
 21
601.085930
  0
ENDBLK
  8
0
  0
BLOCK
  8
CSLAYER1
  2
*D0006
 70
    65
 10
0.0
 20
0.0
 30
0.0
  0
TEXT
  8
CSLAYER1
 62
     3
 10
2583.503174
 20
823.850403
 40
40.000000
 41
0.843750
  1
100
 50
90.000000
 51
0.000000
  7
EASYDRAW_FONT
 72
     5
 11
2583.503174
 21
913.850403
  0
LINE
  8
CSLAYER1
  6
CONTINUOUS
 62
     5
 10
2702.383249
 20
918.850501
 11
2583.503092
 21
918.850501
  0
LINE
  8
CSLAYER1
  6
CONTINUOUS
 62
     5
 10
2593.503092
 20
818.850501
 11
2593.503092
 21
918.850501
  0
LINE
  8
CSLAYER1
  6
CONTINUOUS
 62
     5
 10
2593.503092
 20
818.850501
 11
2585.738521
 21
847.828276
  0
LINE
  8
CSLAYER1
  6
CONTINUOUS
 62
     5
 10
2593.503092
 20
818.850501
 11
2601.267664
 21
847.828276
  0
LINE
  8
CSLAYER1
  6
CONTINUOUS
 62
     5
 10
2593.503092
 20
918.850501
 11
2585.738521
 21
889.872727
  0
LINE
  8
CSLAYER1
  6
CONTINUOUS
 62
     5
 10
2593.503092
 20
918.850501
 11
2601.267664
 21
889.872727
  0
ENDBLK
  8
0
  0
BLOCK
  8
CSLAYER1
  2
*D0007
 70
    65
 10
0.0
 20
0.0
 30
0.0
  0
TEXT
  8
CSLAYER1
 62
     3
 10
1164.799316
 20
827.715393
 40
40.000000
 41
1.125000
  1
6
 50
90.000000
 51
0.000000
  7
EASYDRAW_FONT
 72
     5
 11
1164.799316
 21
857.715393
  0
LINE
  8
CSLAYER1
  6
CONTINUOUS
 62
     5
 10
1055.545918
 20
818.850501
 11
1121.932515
 21
818.850501
  0
LINE
  8
CSLAYER1
  6
CONTINUOUS
 62
     5
 10
1055.545918
 20
824.850501
 11
1121.932515
 21
824.850501
  0
LINE
  8
CSLAYER1
  6
CONTINUOUS
 62
     5
 10
1111.932515
 20
818.850501
 11
1111.932515
 21
768.850501
  0
LINE
  8
CSLAYER1
  6
CONTINUOUS
 62
     5
 10
1111.932515
 20
818.850501
 11
1104.167944
 21
789.872727
  0
LINE
  8
CSLAYER1
  6
CONTINUOUS
 62
     5
 10
1111.932515
 20
818.850501
 11
1119.697086
 21
789.872727
  0
LINE
  8
CSLAYER1
  6
CONTINUOUS
 62
     5
 10
1111.932515
 20
824.850501
 11
1111.932515
 21
858.949464
  0
LINE
  8
CSLAYER1
  6
CONTINUOUS
 62
     5
 10
1111.932515
 20
824.850501
 11
1104.167944
 21
853.828276
  0
LINE
  8
CSLAYER1
  6
CONTINUOUS
 62
     5
 10
1111.932515
 20
824.850501
 11
1119.697086
 21
853.828276
  0
LINE
  8
CSLAYER1
  6
CONTINUOUS
 62
     5
 10
1111.932515
 20
818.850501
 11
1111.932515
 21
824.850501
  0
ENDBLK
  8
0
  0
BLOCK
  8
CSLAYER1
  2
*D0008
 70
    65
 10
0.0
 20
0.0
 30
0.0
  0
TEXT
  8
CSLAYER1
 62
     3
 10
2403.502930
 20
1955.276855
 40
40.000000
 41
0.843750
  1
200
 50
90.000000
 51
0.000000
  7
EASYDRAW_FONT
 72
     5
 11
2403.502930
 21
2045.276855
  0
LINE
  8
CSLAYER1
  6
CONTINUOUS
 62
     5
 10
2303.503092
 20
1900.276935
 11
2423.503092
 21
1900.276935
  0
LINE
  8
CSLAYER1
  6
CONTINUOUS
 62
     5
 10
2303.503092
 20
2100.276935
 11
2423.503092
 21
2100.276935
  0
LINE
  8
CSLAYER1
  6
CONTINUOUS
 62
     5
 10
2413.503092
 20
1900.276935
 11
2413.503092
 21
2100.276935
  0
LINE
  8
CSLAYER1
  6
CONTINUOUS
 62
     5
 10
2413.503092
 20
1900.276935
 11
2405.738521
 21
1929.254710
  0
LINE
  8
CSLAYER1
  6
CONTINUOUS
 62
     5
 10
2413.503092
 20
1900.276935
 11
2421.267664
 21
1929.254710
  0
LINE
  8
CSLAYER1
  6
CONTINUOUS
 62
     5
 10
2413.503092
 20
2100.276935
 11
2405.738521
 21
2071.299161
  0
LINE
  8
CSLAYER1
  6
CONTINUOUS
 62
     5
 10
2413.503092
 20
2100.276935
 11
2421.267664
 21
2071.299161
  0
ENDBLK
  8
0
  0
BLOCK
  8
CSLAYER1
  2
*D0009
 70
    65
 10
0.0
 20
0.0
 30
0.0
  0
TEXT
  8
CSLAYER1
 62
     3
 10
1483.951416
 20
639.953491
 40
40.000000
 41
0.900000
  1
25
 50
0.000000
 51
0.000000
  7
EASYDRAW_FONT
 72
     5
 11
1543.951416
 21
639.953491
  0
LINE
  8
CSLAYER1
  6
CONTINUOUS
 62
     5
 10
1463.367389
 20
808.850501
 11
1463.367389
 21
688.850501
  0
LINE
  8
CSLAYER1
  6
CONTINUOUS
 62
     5
 10
1488.367389
 20
808.850501
 11
1488.367389
 21
688.850501
  0
LINE
  8
CSLAYER1
  6
CONTINUOUS
 62
     5
 10
1463.367389
 20
698.850501
 11
1488.367389
 21
698.850501
  0
LINE
  8
CSLAYER1
  6
CONTINUOUS
 62
     5
 10
1413.367389
 20
698.850501
 11
1463.367389
 21
698.850501
  0
LINE
  8
CSLAYER1
  6
CONTINUOUS
 62
     5
 10
1463.367389
 20
698.850501
 11
1434.389615
 21
706.615073
  0
LINE
  8
CSLAYER1
  6
CONTINUOUS
 62
     5
 10
1463.367389
 20
698.850501
 11
1434.389615
 21
691.085930
  0
LINE
  8
CSLAYER1
  6
CONTINUOUS
 62
     5
 10
1488.367389
 20
698.850501
 11
1538.367389
 21
698.850501
  0
LINE
  8
CSLAYER1
  6
CONTINUOUS
 62
     5
 10
1488.367389
 20
698.850501
 11
1517.345164
 21
706.615073
  0
LINE
  8
CSLAYER1
  6
CONTINUOUS
 62
     5
 10
1488.367389
 20
698.850501
 11
1517.345164
 21
691.085930
  0
ENDBLK
  8
0
  0
BLOCK
  8
CSLAYER1
  2
*D0010
 70
    65
 10
0.0
 20
0.0
 30
0.0
  0
TEXT
  8
CSLAYER1
 62
     3
 10
850.545898
 20
616.850525
 40
40.000000
 41
0.843750
  1
300
 50
0.000000
 51
0.000000
  7
EASYDRAW_FONT
 72
     5
 11
940.545898
 21
616.850525
  0
LINE
  8
CSLAYER1
  6
CONTINUOUS
 62
     5
 10
745.545918
 20
810.850501
 11
745.545918
 21
600.850501
  0
LINE
  8
CSLAYER1
  6
CONTINUOUS
 62
     5
 10
1045.545918
 20
810.850501
 11
1045.545918
 21
600.850501
  0
LINE
  8
CSLAYER1
  6
CONTINUOUS
 62
     5
 10
745.545918
 20
608.850501
 11
1045.545918
 21
608.850501
  0
LINE
  8
CSLAYER1
  6
CONTINUOUS
 62
     5
 10
745.545918
 20
608.850501
 11
774.523693
 21
616.615073
  0
LINE
  8
CSLAYER1
  6
CONTINUOUS
 62
     5
 10
745.545918
 20
608.850501
 11
774.523693
 21
601.085930
  0
LINE
  8
CSLAYER1
  6
CONTINUOUS
 62
     5
 10
1045.545918
 20
608.850501
 11
1016.568144
 21
616.615073
  0
LINE
  8
CSLAYER1
  6
CONTINUOUS
 62
     5
 10
1045.545918
 20
608.850501
 11
1016.568144
 21
601.085930
  0
ENDBLK
  8
0
  0
BLOCK
  8
CSLAYER1
  2
*D0011
 70
    65
 10
0.0
 20
0.0
 30
0.0
  0
TEXT
  8
CSLAYER1
 62
     3
 10
850.545898
 20
706.850464
 40
40.000000
 41
0.843750
  1
250
 50
0.000000
 51
0.000000
  7
EASYDRAW_FONT
 72
     5
 11
940.545898
 21
706.850464
  0
LINE
  8
CSLAYER1
  6
CONTINUOUS
 62
     5
 10
770.545918
 20
810.850501
 11
770.545918
 21
690.850501
  0
LINE
  8
CSLAYER1
  6
CONTINUOUS
 62
     5
 10
1020.545918
 20
810.850501
 11
1020.545918
 21
690.850501
  0
LINE
  8
CSLAYER1
  6
CONTINUOUS
 62
     5
 10
770.545918
 20
698.850501
 11
1020.545918
 21
698.850501
  0
LINE
  8
CSLAYER1
  6
CONTINUOUS
 62
     5
 10
770.545918
 20
698.850501
 11
799.523693
 21
706.615073
  0
LINE
  8
CSLAYER1
  6
CONTINUOUS
 62
     5
 10
770.545918
 20
698.850501
 11
799.523693
 21
691.085930
  0
LINE
  8
CSLAYER1
  6
CONTINUOUS
 62
     5
 10
1020.545918
 20
698.850501
 11
991.568144
 21
706.615073
  0
LINE
  8
CSLAYER1
  6
CONTINUOUS
 62
     5
 10
1020.545918
 20
698.850501
 11
991.568144
 21
691.085930
  0
ENDBLK
  8
0
  0
BLOCK
  8
CSLAYER1
  2
*D0012
 70
    65
 10
0.0
 20
0.0
 30
0.0
  0
TEXT
  8
CSLAYER1
 62
     3
 10
850.545898
 20
1550.622192
 40
40.000000
 41
0.843750
  1
200
 50
0.000000
 51
0.000000
  7
EASYDRAW_FONT
 72
     5
 11
940.545898
 21
1550.622192
  0
LINE
  8
CSLAYER1
  6
CONTINUOUS
 62
     5
 10
795.545918
 20
1450.622103
 11
795.545918
 21
1550.622103
  0
LINE
  8
CSLAYER1
  6
CONTINUOUS
 62
     5
 10
995.545918
 20
1450.622103
 11
995.545918
 21
1550.622103
  0
LINE
  8
CSLAYER1
  6
CONTINUOUS
 62
     5
 10
795.545918
 20
1540.622103
 11
995.545918
 21
1540.622103
  0
LINE
  8
CSLAYER1
  6
CONTINUOUS
 62
     5
 10
795.545918
 20
1540.622103
 11
824.523693
 21
1548.386674
  0
LINE
  8
CSLAYER1
  6
CONTINUOUS
 62
     5
 10
795.545918
 20
1540.622103
 11
824.523693
 21
1532.857531
  0
LINE
  8
CSLAYER1
  6
CONTINUOUS
 62
     5
 10
995.545918
 20
1540.622103
 11
966.568144
 21
1548.386674
  0
LINE
  8
CSLAYER1
  6
CONTINUOUS
 62
     5
 10
995.545918
 20
1540.622103
 11
966.568144
 21
1532.857531
  0
ENDBLK
  8
0
  0
BLOCK
  8
CSLAYER1
  2
EASYDRAWDIM0004
 70
   64
 10
0.0
 20
0.0
 30
0.0
  0
TEXT
  8
CSLAYER1
 62
     3
 10
268.818909
 20
2236.188965
 40
48.000000
 41
0.787500
  1
昇降切替バルブ
 50
0.000000
 51
0.000000
  7
EASYDRAW_FONT
 72
     5
 11
520.818909
 21
2236.188965
  0
LINE
  8
CSLAYER1
  6
CONTINUOUS
 62
     7
 10
620.715174
 20
2085.467364
 11
520.819374
 21
2226.188720
  0
LINE
  8
CSLAYER1
  6
CONTINUOUS
 62
     7
 10
620.715174
 20
2085.467364
 11
597.609685
 21
2104.602054
  0
LINE
  8
CSLAYER1
  6
CONTINUOUS
 62
     7
 10
620.715174
 20
2085.467364
 11
610.272578
 21
2113.591237
  0
LINE
  8
CSLAYER1
  6
CONTINUOUS
 62
     7
 10
520.819374
 20
2226.188720
 11
260.819374
 21
2226.188720
  0
ENDBLK
  8
0
  0
BLOCK
  8
CSLAYER1
  2
EASYDRAWDIM0005
 70
   64
 10
0.0
 20
0.0
 30
0.0
  0
TEXT
  8
CSLAYER1
 62
     3
 10
292.566467
 20
2146.941406
 40
48.000000
 41
0.794118
  1
ポンプペタル
 50
0.000000
 51
0.000000
  7
EASYDRAW_FONT
 72
     5
 11
508.566467
 21
2146.941406
  0
LINE
  8
CSLAYER1
  6
CONTINUOUS
 62
     7
 10
574.172018
 20
2057.126961
 11
510.518301
 21
2136.941023
  0
LINE
  8
CSLAYER1
  6
CONTINUOUS
 62
     7
 10
574.172018
 20
2057.126961
 11
550.033522
 21
2074.940804
  0
LINE
  8
CSLAYER1
  6
CONTINUOUS
 62
     7
 10
574.172018
 20
2057.126961
 11
562.174389
 21
2084.623450
  0
LINE
  8
CSLAYER1
  6
CONTINUOUS
 62
     7
 10
510.518301
 20
2136.941023
 11
280.518301
 21
2136.941023
  0
ENDBLK
  8
0
  0
BLOCK
  8
CSLAYER1
  2
EASYDRAWDIM0006
 70
   64
 10
0.0
 20
0.0
 30
0.0
  0
TEXT
  8
CSLAYER1
 62
     3
 10
647.286682
 20
2242.062500
 40
48.000000
 41
0.787500
  1
高圧ホース２m
 50
0.000000
 51
0.000000
  7
EASYDRAW_FONT
 72
     5
 11
899.286682
 21
2242.062500
  0
LINE
  8
CSLAYER1
  6
CONTINUOUS
 62
     7
 10
974.602971
 20
2102.217054
 11
907.337939
 21
2232.062345
  0
LINE
  8
CSLAYER1
  6
CONTINUOUS
 62
     7
 10
974.602971
 20
2102.217054
 11
954.379330
 21
2124.375672
  0
LINE
  8
CSLAYER1
  6
CONTINUOUS
 62
     7
 10
974.602971
 20
2102.217054
 11
968.168093
 21
2131.518801
  0
LINE
  8
CSLAYER1
  6
CONTINUOUS
 62
     7
 10
907.337939
 20
2232.062345
 11
637.337939
 21
2232.062345
  0
ENDBLK
  8
0
  0
BLOCK
  8
CSLAYER1
  2
EASYDRAWDIM0007
 70
   64
 10
0.0
 20
0.0
 30
0.0
  0
TEXT
  8
CSLAYER1
 62
     3
 10
1122.987061
 20
704.116028
 40
40.000000
 41
0.803571
  1
2-φ13
 50
0.000000
 51
0.000000
  7
EASYDRAW_FONT
 72
     5
 11
1272.987061
 21
704.116028
  0
ENDBLK
  8
0
  0
BLOCK
  8
CSLAYER1
  2
*D0013
 70
    65
 10
0.0
 20
0.0
 30
0.0
  0
LINE
  8
CSLAYER1
  6
CONTINUOUS
 62
     5
 10
1463.367389
 20
1850.276935
 11
1463.367389
 21
1720.276935
  0
LINE
  8
CSLAYER1
  6
CONTINUOUS
 62
     5
 10
1488.367389
 20
1854.014134
 11
1488.367389
 21
1720.276935
  0
LINE
  8
CSLAYER1
  6
CONTINUOUS
 62
     5
 10
1463.367389
 20
1730.276935
 11
1488.367389
 21
1730.276935
  0
LINE
  8
CSLAYER1
  6
CONTINUOUS
 62
     5
 10
1383.060906
 20
1730.276935
 11
1463.367389
 21
1730.276935
  0
LINE
  8
CSLAYER1
  6
CONTINUOUS
 62
     5
 10
1463.367389
 20
1730.276935
 11
1434.389615
 21
1738.041507
  0
LINE
  8
CSLAYER1
  6
CONTINUOUS
 62
     5
 10
1463.367389
 20
1730.276935
 11
1434.389615
 21
1722.512364
  0
LINE
  8
CSLAYER1
  6
CONTINUOUS
 62
     5
 10
1488.367389
 20
1730.276935
 11
1538.367389
 21
1730.276935
  0
LINE
  8
CSLAYER1
  6
CONTINUOUS
 62
     5
 10
1488.367389
 20
1730.276935
 11
1517.345164
 21
1738.041507
  0
LINE
  8
CSLAYER1
  6
CONTINUOUS
 62
     5
 10
1488.367389
 20
1730.276935
 11
1517.345164
 21
1722.512364
  0
TEXT
  8
CSLAYER1
 62
     3
 10
1386.332397
 20
1740.276855
 40
40.000000
 41
0.900000
  1
25
 50
0.000000
 51
0.000000
  7
EASYDRAW_FONT
 72
     5
 11
1446.332397
 21
1740.276855
  0
ENDBLK
  8
0
  0
BLOCK
  8
CSLAYER1
  2
*D0014
 70
    65
 10
0.0
 20
0.0
 30
0.0
  0
LINE
  8
CSLAYER1
  6
CONTINUOUS
 62
     5
 10
1463.367389
 20
1850.276935
 11
1463.367389
 21
1630.276935
  0
LINE
  8
CSLAYER1
  6
CONTINUOUS
 62
     5
 10
1513.367389
 20
1850.276935
 11
1513.367389
 21
1630.276935
  0
LINE
  8
CSLAYER1
  6
CONTINUOUS
 62
     5
 10
1463.367389
 20
1640.276935
 11
1513.367389
 21
1640.276935
  0
LINE
  8
CSLAYER1
  6
CONTINUOUS
 62
     5
 10
1383.060906
 20
1640.276935
 11
1463.367389
 21
1640.276935
  0
LINE
  8
CSLAYER1
  6
CONTINUOUS
 62
     5
 10
1463.367389
 20
1640.276935
 11
1434.389615
 21
1648.041507
  0
LINE
  8
CSLAYER1
  6
CONTINUOUS
 62
     5
 10
1463.367389
 20
1640.276935
 11
1434.389615
 21
1632.512364
  0
LINE
  8
CSLAYER1
  6
CONTINUOUS
 62
     5
 10
1513.367389
 20
1640.276935
 11
1563.367389
 21
1640.276935
  0
LINE
  8
CSLAYER1
  6
CONTINUOUS
 62
     5
 10
1513.367389
 20
1640.276935
 11
1542.345164
 21
1648.041507
  0
LINE
  8
CSLAYER1
  6
CONTINUOUS
 62
     5
 10
1513.367389
 20
1640.276935
 11
1542.345164
 21
1632.512364
  0
TEXT
  8
CSLAYER1
 62
     3
 10
1386.168213
 20
1650.276978
 40
40.000000
 41
0.900000
  1
50
 50
0.000000
 51
0.000000
  7
EASYDRAW_FONT
 72
     5
 11
1446.168213
 21
1650.276978
  0
ENDBLK
  8
0
  0
BLOCK
  8
CSLAYER1
  2
*D0015
 70
    65
 10
0.0
 20
0.0
 30
0.0
  0
LINE
  8
CSLAYER1
  6
CONTINUOUS
 62
     5
 10
2407.262981
 20
818.850501
 11
2403.503092
 21
818.850501
  0
LINE
  8
CSLAYER1
  6
CONTINUOUS
 62
     5
 10
2276.067389
 20
918.850501
 11
2423.503092
 21
918.850501
  0
LINE
  8
CSLAYER1
  6
CONTINUOUS
 62
     5
 10
2413.503092
 20
818.850501
 11
2413.503092
 21
918.850501
  0
LINE
  8
CSLAYER1
  6
CONTINUOUS
 62
     5
 10
2413.503092
 20
818.850501
 11
2405.738521
 21
847.828276
  0
LINE
  8
CSLAYER1
  6
CONTINUOUS
 62
     5
 10
2413.503092
 20
818.850501
 11
2421.267664
 21
847.828276
  0
LINE
  8
CSLAYER1
  6
CONTINUOUS
 62
     5
 10
2413.503092
 20
918.850501
 11
2405.738521
 21
889.872727
  0
LINE
  8
CSLAYER1
  6
CONTINUOUS
 62
     5
 10
2413.503092
 20
918.850501
 11
2421.267664
 21
889.872727
  0
TEXT
  8
CSLAYER1
 62
     3
 10
2403.503174
 20
823.850525
 40
40.000000
 41
0.843750
  1
100
 50
90.000000
 51
0.000000
  7
EASYDRAW_FONT
 72
     5
 11
2403.503174
 21
913.850525
  0
ENDBLK
  8
0
  0
BLOCK
  8
CSLAYER1
  2
BLKF0000
 70
   64
 10
0.0
 20
0.0
 30
0.0
  0
LINE
  8
CSLAYER1
  6
CONTINUOUS
 62
     7
 10
1535.617248
 20
903.386677
 11
1547.019099
 21
892.161802
  0
LINE
  8
CSLAYER1
  6
CONTINUOUS
 62
     7
 10
1560.171661
 20
928.328225
 11
1571.573511
 21
917.103351
  0
LINE
  8
CSLAYER1
  6
CONTINUOUS
 62
     7
 10
1551.261610
 20
892.194985
 11
1571.606694
 21
912.860840
  0
LINE
  8
CSLAYER1
  6
CONTINUOUS
 62
     7
 10
1535.584065
 20
907.629188
 11
1555.929150
 21
928.295042
  0
ARC
  8
CSLAYER1
  6
CONTINUOUS
 62
     7
 10
1537.721912
 20
905.524524
 40
3.000000
 50
135.448133
 51
225.448133
  0
ARC
  8
CSLAYER1
  6
CONTINUOUS
 62
     7
 10
1558.066997
 20
926.190378
 40
3.000000
 50
45.448133
 51
135.448133
  0
ARC
  8
CSLAYER1
  6
CONTINUOUS
 62
     7
 10
1549.123763
 20
894.299649
 40
3.000000
 50
225.448133
 51
315.448133
  0
ARC
  8
CSLAYER1
  6
CONTINUOUS
 62
     7
 10
1569.468847
 20
914.965504
 40
3.000000
 50
-44.551867
 51
45.448133
  0
ENDBLK
  8
0
  0
BLOCK
  8
CSLAYER1
  2
BLKF0001
 70
   64
 10
0.0
 20
0.0
 30
0.0
  0
POINT
  8
CSLAYER1
 62
     7
 10
1515.803092
 20
1403.322103
  0
POINT
  8
CSLAYER1
 62
     4
 10
1987.097668
 20
1403.322103
  0
LINE
  8
CSLAYER1
  6
CENTER
 62
     5
 10
1963.939745
 20
1403.322103
 11
2005.597668
 21
1403.322103
  0
LINE
  8
CSLAYER1
  6
CENTER
 62
     5
 10
1501.750493
 20
1403.322103
 11
1531.029186
 21
1403.322103
  0
LINE
  8
CSLAYER1
  6
CONTINUOUS
 62
     3
 10
2293.503092
 20
1440.622103
 11
2293.503092
 21
1405.622103
  0
ARC
  8
CSLAYER1
  6
CONTINUOUS
 62
     3
 10
1515.803092
 20
1403.322103
 40
9.500000
 50
-194.010828
 51
14.010828
  0
LINE
  8
CSLAYER1
  6
CONTINUOUS
 62
     3
 10
1506.303092
 20
1405.622103
 11
1506.303092
 21
1397.837275
  0
LINE
  8
CSLAYER1
  6
CONTINUOUS
 62
     3
 10
1506.303092
 20
1397.837275
 11
1515.803092
 21
1392.352447
  0
LINE
  8
CSLAYER1
  6
CONTINUOUS
 62
     3
 10
1515.803092
 20
1392.352447
 11
1525.303092
 21
1397.837275
  0
LINE
  8
CSLAYER1
  6
CONTINUOUS
 62
     3
 10
1525.303092
 20
1397.837275
 11
1525.303092
 21
1405.622103
  0
POINT
  8
CSLAYER1
 62
     3
 10
1515.803092
 20
1403.322103
  0
POINT
  8
CSLAYER1
 62
     3
 10
1515.803092
 20
1403.322103
  0
ARC
  8
CSLAYER1
  6
CONTINUOUS
 62
     3
 10
1505.803092
 20
1402.322103
 40
10.000000
 50
180.000000
 51
270.000000
  0
LINE
  8
CSLAYER1
  6
CONTINUOUS
 62
     3
 10
1505.803092
 20
1392.322103
 11
1535.803092
 21
1392.322103
  0
ARC
  8
CSLAYER1
  6
CONTINUOUS
 62
     3
 10
1535.803092
 20
1402.322103
 40
10.000000
 50
270.000000
 51
360.000000
  0
LINE
  8
CSLAYER1
  6
CONTINUOUS
 62
     3
 10
1545.803092
 20
1405.622103
 11
1545.803092
 21
1402.322103
  0
LINE
  8
CSLAYER1
  6
CONTINUOUS
 62
     3
 10
1495.803092
 20
1405.622103
 11
1495.803092
 21
1402.322103
  0
LINE
  8
CSLAYER1
  6
CONTINUOUS
 62
     3
 10
1493.503092
 20
1440.622103
 11
2293.503092
 21
1440.622103
  0
LINE
  8
CSLAYER1
  6
CONTINUOUS
 62
     3
 10
1493.503092
 20
1440.622103
 11
1493.503092
 21
1405.622103
  0
LINE
  8
CSLAYER1
  6
CONTINUOUS
 62
     3
 10
1493.503092
 20
1405.622103
 11
2293.503092
 21
1405.622103
  0
ENDBLK
  8
0
  0
BLOCK
  8
CSLAYER1
  2
BLKF0002
 70
   64
 10
0.0
 20
0.0
 30
0.0
  0
POINT
  8
CSLAYER1
 62
     5
 10
1488.367389
 20
881.550501
  0
POINT
  8
CSLAYER1
 62
     5
 10
1959.661965
 20
881.550501
  0
LINE
  8
CSLAYER1
  6
PHANTOM
 62
     5
 10
1936.504042
 20
881.550501
 11
1978.161965
 21
881.550501
  0
LINE
  8
CSLAYER1
  6
PHANTOM
 62
     5
 10
1474.314790
 20
881.550501
 11
1503.593483
 21
881.550501
  0
LINE
  8
CSLAYER1
  6
PHANTOM
 62
     5
 10
2266.067389
 20
918.850501
 11
2266.067389
 21
883.850501
  0
ARC
  8
CSLAYER1
  6
PHANTOM
 62
     5
 10
1488.367389
 20
881.550501
 40
9.500000
 50
-194.010828
 51
14.010828
  0
LINE
  8
CSLAYER1
  6
PHANTOM
 62
     5
 10
1478.867389
 20
883.850501
 11
1478.867389
 21
876.065674
  0
LINE
  8
CSLAYER1
  6
PHANTOM
 62
     5
 10
1478.867389
 20
876.065674
 11
1488.367389
 21
870.580846
  0
LINE
  8
CSLAYER1
  6
PHANTOM
 62
     5
 10
1488.367389
 20
870.580846
 11
1497.867389
 21
876.065674
  0
LINE
  8
CSLAYER1
  6
PHANTOM
 62
     5
 10
1497.867389
 20
876.065674
 11
1497.867389
 21
883.850501
  0
POINT
  8
CSLAYER1
 62
     5
 10
1488.367389
 20
881.550501
  0
POINT
  8
CSLAYER1
 62
     5
 10
1488.367389
 20
881.550501
  0
ARC
  8
CSLAYER1
  6
PHANTOM
 62
     5
 10
1478.367389
 20
880.550501
 40
10.000000
 50
180.000000
 51
270.000000
  0
LINE
  8
CSLAYER1
  6
PHANTOM
 62
     5
 10
1478.367389
 20
870.550501
 11
1508.367389
 21
870.550501
  0
ARC
  8
CSLAYER1
  6
PHANTOM
 62
     5
 10
1508.367389
 20
880.550501
 40
10.000000
 50
270.000000
 51
360.000000
  0
LINE
  8
CSLAYER1
  6
PHANTOM
 62
     5
 10
1518.367389
 20
883.850501
 11
1518.367389
 21
880.550501
  0
LINE
  8
CSLAYER1
  6
PHANTOM
 62
     5
 10
1468.367389
 20
883.850501
 11
1468.367389
 21
880.550501
  0
LINE
  8
CSLAYER1
  6
PHANTOM
 62
     5
 10
1466.067389
 20
918.850501
 11
2266.067389
 21
918.850501
  0
LINE
  8
CSLAYER1
  6
PHANTOM
 62
     5
 10
1466.067389
 20
918.850501
 11
1466.067389
 21
883.850501
  0
LINE
  8
CSLAYER1
  6
PHANTOM
 62
     5
 10
1466.067389
 20
883.850501
 11
2266.067389
 21
883.850501
  0
ENDBLK
  8
0
  0
BLOCK
  8
CSLAYER1
  2
BLKF0003
 70
   64
 10
0.0
 20
0.0
 30
0.0
  0
LINE
  8
CSLAYER1
  6
CONTINUOUS
 62
     5
 10
3498.702111
 20
1728.390817
 11
2618.702111
 21
1728.390817
  0
TEXT
  8
CSLAYER1
 62
     3
 10
3096.085205
 20
1734.041016
 40
40.000000
 41
0.832500
  1
１０Ｒ４／１３
 50
0.000000
 51
0.000000
  7
EASYDRAW_FONT
 72
     5
 11
3318.085205
 21
1734.041016
  0
ENDBLK
  8
0
  0
BLOCK
  8
CSLAYER1
  2
BLKF0004
 70
   64
 10
0.0
 20
0.0
 30
0.0
  0
LINE
  8
CSLAYER1
  6
CONTINUOUS
 62
     7
 10
815.409447
 20
2058.034086
 11
828.916473
 21
2065.133189
  0
LINE
  8
CSLAYER1
  6
CONTINUOUS
 62
     7
 10
828.916473
 20
2065.133189
 11
843.450820
 21
2071.530056
  0
LINE
  8
CSLAYER1
  6
CONTINUOUS
 62
     7
 10
843.450820
 20
2071.530056
 11
858.901871
 21
2077.176001
  0
LINE
  8
CSLAYER1
  6
CONTINUOUS
 62
     7
 10
858.901871
 20
2077.176001
 11
875.152036
 21
2082.028057
  0
LINE
  8
CSLAYER1
  6
CONTINUOUS
 62
     7
 10
875.152036
 20
2082.028057
 11
892.077641
 21
2086.049295
  0
LINE
  8
CSLAYER1
  6
CONTINUOUS
 62
     7
 10
892.077641
 20
2086.049295
 11
909.549872
 21
2089.209112
  0
LINE
  8
CSLAYER1
  6
CONTINUOUS
 62
     7
 10
909.549872
 20
2089.209112
 11
927.435754
 21
2091.483460
  0
LINE
  8
CSLAYER1
  6
CONTINUOUS
 62
     7
 10
927.435754
 20
2091.483460
 11
945.599165
 21
2092.855029
  0
LINE
  8
CSLAYER1
  6
CONTINUOUS
 62
     7
 10
945.599165
 20
2092.855029
 11
963.901871
 21
2093.313382
  0
LINE
  8
CSLAYER1
  6
CONTINUOUS
 62
     7
 10
963.901871
 20
2093.313382
 11
982.204577
 21
2092.855029
  0
LINE
  8
CSLAYER1
  6
CONTINUOUS
 62
     7
 10
982.204577
 20
2092.855029
 11
1000.367989
 21
2091.483460
  0
LINE
  8
CSLAYER1
  6
CONTINUOUS
 62
     7
 10
1000.367989
 20
2091.483460
 11
1018.253871
 21
2089.209112
  0
LINE
  8
CSLAYER1
  6
CONTINUOUS
 62
     7
 10
1018.253871
 20
2089.209112
 11
1035.726101
 21
2086.049295
  0
LINE
  8
CSLAYER1
  6
CONTINUOUS
 62
     7
 10
1035.726101
 20
2086.049295
 11
1051.422931
 21
2082.319993
  0
LINE
  8
CSLAYER1
  6
CONTINUOUS
 62
     7
 10
806.499902
 20
2063.144391
 11
820.817349
 21
2070.669441
  0
LINE
  8
CSLAYER1
  6
CONTINUOUS
 62
     7
 10
820.817349
 20
2070.669441
 11
836.223756
 21
2077.450119
  0
LINE
  8
CSLAYER1
  6
CONTINUOUS
 62
     7
 10
836.223756
 20
2077.450119
 11
852.601871
 21
2083.434821
  0
LINE
  8
CSLAYER1
  6
CONTINUOUS
 62
     7
 10
852.601871
 20
2083.434821
 11
869.827046
 21
2088.578000
  0
LINE
  8
CSLAYER1
  6
CONTINUOUS
 62
     7
 10
869.827046
 20
2088.578000
 11
887.768187
 21
2092.840513
  0
LINE
  8
CSLAYER1
  6
CONTINUOUS
 62
     7
 10
887.768187
 20
2092.840513
 11
906.288752
 21
2096.189919
  0
LINE
  8
CSLAYER1
  6
CONTINUOUS
 62
     7
 10
906.288752
 20
2096.189919
 11
925.247787
 21
2098.600728
  0
LINE
  8
CSLAYER1
  6
CONTINUOUS
 62
     7
 10
925.247787
 20
2098.600728
 11
944.501003
 21
2100.054591
  0
LINE
  8
CSLAYER1
  6
CONTINUOUS
 62
     7
 10
944.501003
 20
2100.054591
 11
963.901871
 21
2100.540445
  0
LINE
  8
CSLAYER1
  6
CONTINUOUS
 62
     7
 10
963.901871
 20
2100.540445
 11
983.302740
 21
2100.054591
  0
LINE
  8
CSLAYER1
  6
CONTINUOUS
 62
     7
 10
983.302740
 20
2100.054591
 11
1002.555956
 21
2098.600728
  0
LINE
  8
CSLAYER1
  6
CONTINUOUS
 62
     7
 10
1002.555956
 20
2098.600728
 11
1021.514991
 21
2096.189919
  0
LINE
  8
CSLAYER1
  6
CONTINUOUS
 62
     7
 10
1021.514991
 20
2096.189919
 11
1040.035555
 21
2092.840513
  0
LINE
  8
CSLAYER1
  6
CONTINUOUS
 62
     7
 10
1040.035555
 20
2092.840513
 11
1051.422931
 21
2090.135064
  0
LINE
  8
CSLAYER1
  6
CONTINUOUS
 62
     7
 10
789.946152
 20
2042.109492
 11
815.544019
 21
2058.104815
  0
LINE
  8
CSLAYER1
  6
CONTINUOUS
 62
     7
 10
789.946152
 20
2052.786298
 11
806.642548
 21
2063.219364
  0
ENDBLK
  8
0
  0
BLOCK
  8
CSLAYER1
  2
BLKF0005
 70
   64
 10
0.0
 20
0.0
 30
0.0
  0
LINE
  8
CSLAYER1
  6
CONTINUOUS
 62
     7
 10
658.375539
 20
2057.075200
 11
658.603219
 21
2057.226088
  0
LINE
  8
CSLAYER1
  6
CONTINUOUS
 62
     7
 10
658.603219
 20
2057.226088
 11
658.812332
 21
2057.404984
  0
LINE
  8
CSLAYER1
  6
CONTINUOUS
 62
     7
 10
658.812332
 20
2057.404984
 11
659.001288
 21
2057.610525
  0
LINE
  8
CSLAYER1
  6
CONTINUOUS
 62
     7
 10
659.001288
 20
2057.610525
 11
659.168649
 21
2057.841149
  0
LINE
  8
CSLAYER1
  6
CONTINUOUS
 62
     7
 10
659.168649
 20
2057.841149
 11
659.313140
 21
2058.095099
  0
LINE
  8
CSLAYER1
  6
CONTINUOUS
 62
     7
 10
659.313140
 20
2058.095099
 11
659.433662
 21
2058.370443
  0
LINE
  8
CSLAYER1
  6
CONTINUOUS
 62
     7
 10
659.433662
 20
2058.370443
 11
659.529299
 21
2058.665085
  0
LINE
  8
CSLAYER1
  6
CONTINUOUS
 62
     7
 10
659.529299
 20
2058.665085
 11
659.599321
 21
2058.976783
  0
LINE
  8
CSLAYER1
  6
CONTINUOUS
 62
     7
 10
659.599321
 20
2058.976783
 11
659.643196
 21
2059.303165
  0
LINE
  8
CSLAYER1
  6
CONTINUOUS
 62
     7
 10
659.643196
 20
2059.303165
 11
659.660591
 21
2059.641747
  0
LINE
  8
CSLAYER1
  6
CONTINUOUS
 62
     7
 10
659.660591
 20
2059.641747
 11
659.651372
 21
2059.989951
  0
LINE
  8
CSLAYER1
  6
CONTINUOUS
 62
     7
 10
659.651372
 20
2059.989951
 11
659.615611
 21
2060.345129
  0
LINE
  8
CSLAYER1
  6
CONTINUOUS
 62
     7
 10
659.615611
 20
2060.345129
 11
659.553578
 21
2060.704576
  0
LINE
  8
CSLAYER1
  6
CONTINUOUS
 62
     7
 10
659.553578
 20
2060.704576
 11
659.465747
 21
2061.065557
  0
LINE
  8
CSLAYER1
  6
CONTINUOUS
 62
     7
 10
659.465747
 20
2061.065557
 11
659.352785
 21
2061.425326
  0
LINE
  8
CSLAYER1
  6
CONTINUOUS
 62
     7
 10
659.352785
 20
2061.425326
 11
659.215553
 21
2061.781143
  0
LINE
  8
CSLAYER1
  6
CONTINUOUS
 62
     7
 10
659.215553
 20
2061.781143
 11
659.055095
 21
2062.130301
  0
LINE
  8
CSLAYER1
  6
CONTINUOUS
 62
     7
 10
659.055095
 20
2062.130301
 11
658.872631
 21
2062.470142
  0
LINE
  8
CSLAYER1
  6
CONTINUOUS
 62
     7
 10
658.872631
 20
2062.470142
 11
658.669552
 21
2062.798081
  0
LINE
  8
CSLAYER1
  6
CONTINUOUS
 62
     7
 10
658.669552
 20
2062.798081
 11
658.447401
 21
2063.111621
  0
LINE
  8
CSLAYER1
  6
CONTINUOUS
 62
     7
 10
658.447401
 20
2063.111621
 11
658.207871
 21
2063.408376
  0
LINE
  8
CSLAYER1
  6
CONTINUOUS
 62
     7
 10
658.207871
 20
2063.408376
 11
657.952783
 21
2063.686088
  0
LINE
  8
CSLAYER1
  6
CONTINUOUS
 62
     7
 10
657.952783
 20
2063.686088
 11
657.684079
 21
2063.942643
  0
LINE
  8
CSLAYER1
  6
CONTINUOUS
 62
     7
 10
657.684079
 20
2063.942643
 11
657.403805
 21
2064.176088
  0
LINE
  8
CSLAYER1
  6
CONTINUOUS
 62
     7
 10
657.403805
 20
2064.176088
 11
657.114093
 21
2064.384648
  0
LINE
  8
CSLAYER1
  6
CONTINUOUS
 62
     7
 10
657.114093
 20
2064.384648
 11
656.817149
 21
2064.566733
  0
LINE
  8
CSLAYER1
  6
CONTINUOUS
 62
     7
 10
656.817149
 20
2064.566733
 11
656.515231
 21
2064.720960
  0
LINE
  8
CSLAYER1
  6
CONTINUOUS
 62
     7
 10
656.515231
 20
2064.720960
 11
656.210638
 21
2064.846154
  0
LINE
  8
CSLAYER1
  6
CONTINUOUS
 62
     7
 10
656.210638
 20
2064.846154
 11
655.905689
 21
2064.941362
  0
LINE
  8
CSLAYER1
  6
CONTINUOUS
 62
     7
 10
655.905689
 20
2064.941362
 11
655.602703
 21
2065.005859
  0
LINE
  8
CSLAYER1
  6
CONTINUOUS
 62
     7
 10
655.602703
 20
2065.005859
 11
655.303987
 21
2065.039156
  0
LINE
  8
CSLAYER1
  6
CONTINUOUS
 62
     7
 10
655.303987
 20
2065.039156
 11
655.011814
 21
2065.040998
  0
LINE
  8
CSLAYER1
  6
CONTINUOUS
 62
     7
 10
655.011814
 20
2065.040998
 11
654.728408
 21
2065.011371
  0
LINE
  8
CSLAYER1
  6
CONTINUOUS
 62
     7
 10
654.728408
 20
2065.011371
 11
654.455926
 21
2064.950501
  0
LINE
  8
CSLAYER1
  6
CONTINUOUS
 62
     7
 10
654.455926
 20
2064.950501
 11
654.196441
 21
2064.858851
  0
LINE
  8
CSLAYER1
  6
CONTINUOUS
 62
     7
 10
654.196441
 20
2064.858851
 11
653.951928
 21
2064.737119
  0
ENDBLK
  8
0
  0
BLOCK
  8
CSLAYER1
  2
BLKF0006
 70
   64
 10
0.0
 20
0.0
 30
0.0
  0
LINE
  8
CSLAYER1
  6
CONTINUOUS
 62
     7
 10
651.005036
 20
2063.035730
 11
650.777357
 21
2062.884842
  0
LINE
  8
CSLAYER1
  6
CONTINUOUS
 62
     7
 10
650.777357
 20
2062.884842
 11
650.568243
 21
2062.705947
  0
LINE
  8
CSLAYER1
  6
CONTINUOUS
 62
     7
 10
650.568243
 20
2062.705947
 11
650.379287
 21
2062.500405
  0
LINE
  8
CSLAYER1
  6
CONTINUOUS
 62
     7
 10
650.379287
 20
2062.500405
 11
650.211927
 21
2062.269782
  0
LINE
  8
CSLAYER1
  6
CONTINUOUS
 62
     7
 10
650.211927
 20
2062.269782
 11
650.067436
 21
2062.015832
  0
LINE
  8
CSLAYER1
  6
CONTINUOUS
 62
     7
 10
650.067436
 20
2062.015832
 11
649.946913
 21
2061.740488
  0
LINE
  8
CSLAYER1
  6
CONTINUOUS
 62
     7
 10
649.946913
 20
2061.740488
 11
649.851277
 21
2061.445846
  0
LINE
  8
CSLAYER1
  6
CONTINUOUS
 62
     7
 10
649.851277
 20
2061.445846
 11
649.781255
 21
2061.134147
  0
LINE
  8
CSLAYER1
  6
CONTINUOUS
 62
     7
 10
649.781255
 20
2061.134147
 11
649.737379
 21
2060.807766
  0
LINE
  8
CSLAYER1
  6
CONTINUOUS
 62
     7
 10
649.737379
 20
2060.807766
 11
649.719985
 21
2060.469184
  0
LINE
  8
CSLAYER1
  6
CONTINUOUS
 62
     7
 10
649.719985
 20
2060.469184
 11
649.729203
 21
2060.120979
  0
LINE
  8
CSLAYER1
  6
CONTINUOUS
 62
     7
 10
649.729203
 20
2060.120979
 11
649.764965
 21
2059.765802
  0
LINE
  8
CSLAYER1
  6
CONTINUOUS
 62
     7
 10
649.764965
 20
2059.765802
 11
649.826998
 21
2059.406355
  0
LINE
  8
CSLAYER1
  6
CONTINUOUS
 62
     7
 10
649.826998
 20
2059.406355
 11
649.914829
 21
2059.045373
  0
LINE
  8
CSLAYER1
  6
CONTINUOUS
 62
     7
 10
649.914829
 20
2059.045373
 11
650.027790
 21
2058.685605
  0
LINE
  8
CSLAYER1
  6
CONTINUOUS
 62
     7
 10
650.027790
 20
2058.685605
 11
650.165023
 21
2058.329788
  0
LINE
  8
CSLAYER1
  6
CONTINUOUS
 62
     7
 10
650.165023
 20
2058.329788
 11
650.325481
 21
2057.980630
  0
LINE
  8
CSLAYER1
  6
CONTINUOUS
 62
     7
 10
650.325481
 20
2057.980630
 11
650.507944
 21
2057.640788
  0
LINE
  8
CSLAYER1
  6
CONTINUOUS
 62
     7
 10
650.507944
 20
2057.640788
 11
650.711024
 21
2057.312849
  0
LINE
  8
CSLAYER1
  6
CONTINUOUS
 62
     7
 10
650.711024
 20
2057.312849
 11
650.933175
 21
2056.999309
  0
LINE
  8
CSLAYER1
  6
CONTINUOUS
 62
     7
 10
650.933175
 20
2056.999309
 11
651.172705
 21
2056.702554
  0
LINE
  8
CSLAYER1
  6
CONTINUOUS
 62
     7
 10
651.172705
 20
2056.702554
 11
651.427793
 21
2056.424842
  0
LINE
  8
CSLAYER1
  6
CONTINUOUS
 62
     7
 10
651.427793
 20
2056.424842
 11
651.696496
 21
2056.168288
  0
LINE
  8
CSLAYER1
  6
CONTINUOUS
 62
     7
 10
651.696496
 20
2056.168288
 11
651.976771
 21
2055.934842
  0
LINE
  8
CSLAYER1
  6
CONTINUOUS
 62
     7
 10
651.976771
 20
2055.934842
 11
652.266482
 21
2055.726283
  0
LINE
  8
CSLAYER1
  6
CONTINUOUS
 62
     7
 10
652.266482
 20
2055.726283
 11
652.563427
 21
2055.544197
  0
LINE
  8
CSLAYER1
  6
CONTINUOUS
 62
     7
 10
652.563427
 20
2055.544197
 11
652.865345
 21
2055.389971
  0
LINE
  8
CSLAYER1
  6
CONTINUOUS
 62
     7
 10
652.865345
 20
2055.389971
 11
653.169937
 21
2055.264777
  0
LINE
  8
CSLAYER1
  6
CONTINUOUS
 62
     7
 10
653.169937
 20
2055.264777
 11
653.474887
 21
2055.169569
  0
LINE
  8
CSLAYER1
  6
CONTINUOUS
 62
     7
 10
653.474887
 20
2055.169569
 11
653.777873
 21
2055.105071
  0
LINE
  8
CSLAYER1
  6
CONTINUOUS
 62
     7
 10
653.777873
 20
2055.105071
 11
654.076589
 21
2055.071775
  0
LINE
  8
CSLAYER1
  6
CONTINUOUS
 62
     7
 10
654.076589
 20
2055.071775
 11
654.368762
 21
2055.069933
  0
LINE
  8
CSLAYER1
  6
CONTINUOUS
 62
     7
 10
654.368762
 20
2055.069933
 11
654.652168
 21
2055.099560
  0
LINE
  8
CSLAYER1
  6
CONTINUOUS
 62
     7
 10
654.652168
 20
2055.099560
 11
654.924650
 21
2055.160429
  0
LINE
  8
CSLAYER1
  6
CONTINUOUS
 62
     7
 10
654.924650
 20
2055.160429
 11
655.184135
 21
2055.252079
  0
LINE
  8
CSLAYER1
  6
CONTINUOUS
 62
     7
 10
655.184135
 20
2055.252079
 11
655.428647
 21
2055.373811
  0
LINE
  8
CSLAYER1
  6
CONTINUOUS
 62
     7
 10
655.428647
 20
2055.373811
 11
655.656327
 21
2055.524699
  0
LINE
  8
CSLAYER1
  6
CONTINUOUS
 62
     7
 10
655.656327
 20
2055.524699
 11
655.865440
 21
2055.703595
  0
LINE
  8
CSLAYER1
  6
CONTINUOUS
 62
     7
 10
655.865440
 20
2055.703595
 11
656.054396
 21
2055.909137
  0
LINE
  8
CSLAYER1
  6
CONTINUOUS
 62
     7
 10
656.054396
 20
2055.909137
 11
656.221757
 21
2056.139760
  0
LINE
  8
CSLAYER1
  6
CONTINUOUS
 62
     7
 10
656.221757
 20
2056.139760
 11
656.366248
 21
2056.393710
  0
LINE
  8
CSLAYER1
  6
CONTINUOUS
 62
     7
 10
656.366248
 20
2056.393710
 11
656.486770
 21
2056.669054
  0
LINE
  8
CSLAYER1
  6
CONTINUOUS
 62
     7
 10
656.486770
 20
2056.669054
 11
656.582407
 21
2056.963696
  0
LINE
  8
CSLAYER1
  6
CONTINUOUS
 62
     7
 10
656.582407
 20
2056.963696
 11
656.652429
 21
2057.275394
  0
LINE
  8
CSLAYER1
  6
CONTINUOUS
 62
     7
 10
656.652429
 20
2057.275394
 11
656.696304
 21
2057.601776
  0
LINE
  8
CSLAYER1
  6
CONTINUOUS
 62
     7
 10
656.696304
 20
2057.601776
 11
656.713699
 21
2057.940358
  0
LINE
  8
CSLAYER1
  6
CONTINUOUS
 62
     7
 10
656.713699
 20
2057.940358
 11
656.704480
 21
2058.288562
  0
LINE
  8
CSLAYER1
  6
CONTINUOUS
 62
     7
 10
656.704480
 20
2058.288562
 11
656.668719
 21
2058.643740
  0
LINE
  8
CSLAYER1
  6
CONTINUOUS
 62
     7
 10
656.668719
 20
2058.643740
 11
656.606686
 21
2059.003187
  0
LINE
  8
CSLAYER1
  6
CONTINUOUS
 62
     7
 10
656.606686
 20
2059.003187
 11
656.518855
 21
2059.364168
  0
LINE
  8
CSLAYER1
  6
CONTINUOUS
 62
     7
 10
656.518855
 20
2059.364168
 11
656.405893
 21
2059.723937
  0
LINE
  8
CSLAYER1
  6
CONTINUOUS
 62
     7
 10
656.405893
 20
2059.723937
 11
656.268661
 21
2060.079754
  0
LINE
  8
CSLAYER1
  6
CONTINUOUS
 62
     7
 10
656.268661
 20
2060.079754
 11
656.108203
 21
2060.428912
  0
LINE
  8
CSLAYER1
  6
CONTINUOUS
 62
     7
 10
656.108203
 20
2060.428912
 11
655.925739
 21
2060.768754
  0
LINE
  8
CSLAYER1
  6
CONTINUOUS
 62
     7
 10
655.925739
 20
2060.768754
 11
655.722660
 21
2061.096692
  0
LINE
  8
CSLAYER1
  6
CONTINUOUS
 62
     7
 10
655.722660
 20
2061.096692
 11
655.500509
 21
2061.410232
  0
LINE
  8
CSLAYER1
  6
CONTINUOUS
 62
     7
 10
655.500509
 20
2061.410232
 11
655.260979
 21
2061.706987
  0
LINE
  8
CSLAYER1
  6
CONTINUOUS
 62
     7
 10
655.260979
 20
2061.706987
 11
655.005891
 21
2061.984699
  0
LINE
  8
CSLAYER1
  6
CONTINUOUS
 62
     7
 10
655.005891
 20
2061.984699
 11
654.737187
 21
2062.241254
  0
LINE
  8
CSLAYER1
  6
CONTINUOUS
 62
     7
 10
654.737187
 20
2062.241254
 11
654.456913
 21
2062.474699
  0
LINE
  8
CSLAYER1
  6
CONTINUOUS
 62
     7
 10
654.456913
 20
2062.474699
 11
654.167201
 21
2062.683259
  0
LINE
  8
CSLAYER1
  6
CONTINUOUS
 62
     7
 10
654.167201
 20
2062.683259
 11
653.870257
 21
2062.865344
  0
LINE
  8
CSLAYER1
  6
CONTINUOUS
 62
     7
 10
653.870257
 20
2062.865344
 11
653.568339
 21
2063.019571
  0
LINE
  8
CSLAYER1
  6
CONTINUOUS
 62
     7
 10
653.568339
 20
2063.019571
 11
653.263746
 21
2063.144765
  0
LINE
  8
CSLAYER1
  6
CONTINUOUS
 62
     7
 10
653.263746
 20
2063.144765
 11
652.958797
 21
2063.239973
  0
LINE
  8
CSLAYER1
  6
CONTINUOUS
 62
     7
 10
652.958797
 20
2063.239973
 11
652.655811
 21
2063.304471
  0
LINE
  8
CSLAYER1
  6
CONTINUOUS
 62
     7
 10
652.655811
 20
2063.304471
 11
652.357095
 21
2063.337767
  0
LINE
  8
CSLAYER1
  6
CONTINUOUS
 62
     7
 10
652.357095
 20
2063.337767
 11
652.064922
 21
2063.339609
  0
LINE
  8
CSLAYER1
  6
CONTINUOUS
 62
     7
 10
652.064922
 20
2063.339609
 11
651.781516
 21
2063.309982
  0
LINE
  8
CSLAYER1
  6
CONTINUOUS
 62
     7
 10
651.781516
 20
2063.309982
 11
651.509034
 21
2063.249112
  0
LINE
  8
CSLAYER1
  6
CONTINUOUS
 62
     7
 10
651.509034
 20
2063.249112
 11
651.249549
 21
2063.157463
  0
LINE
  8
CSLAYER1
  6
CONTINUOUS
 62
     7
 10
651.249549
 20
2063.157463
 11
651.005036
 21
2063.035730
  0
ENDBLK
  8
0
  0
BLOCK
  8
CSLAYER1
  2
BLKF0007
 70
   64
 10
0.0
 20
0.0
 30
0.0
  0
LINE
  8
CSLAYER1
  6
CONTINUOUS
 62
     7
 10
659.631122
 20
2055.555892
 11
659.916855
 21
2055.800335
  0
LINE
  8
CSLAYER1
  6
CONTINUOUS
 62
     7
 10
659.916855
 20
2055.800335
 11
660.175046
 21
2056.081189
  0
LINE
  8
CSLAYER1
  6
CONTINUOUS
 62
     7
 10
660.175046
 20
2056.081189
 11
660.403728
 21
2056.396314
  0
LINE
  8
CSLAYER1
  6
CONTINUOUS
 62
     7
 10
660.403728
 20
2056.396314
 11
660.601162
 21
2056.743312
  0
LINE
  8
CSLAYER1
  6
CONTINUOUS
 62
     7
 10
660.601162
 20
2056.743312
 11
660.765844
 21
2057.119543
  0
LINE
  8
CSLAYER1
  6
CONTINUOUS
 62
     7
 10
660.765844
 20
2057.119543
 11
660.896522
 21
2057.522144
  0
LINE
  8
CSLAYER1
  6
CONTINUOUS
 62
     7
 10
660.896522
 20
2057.522144
 11
660.992201
 21
2057.948050
  0
LINE
  8
CSLAYER1
  6
CONTINUOUS
 62
     7
 10
660.992201
 20
2057.948050
 11
661.052152
 21
2058.394020
  0
LINE
  8
CSLAYER1
  6
CONTINUOUS
 62
     7
 10
661.052152
 20
2058.394020
 11
661.075920
 21
2058.856659
  0
LINE
  8
CSLAYER1
  6
CONTINUOUS
 62
     7
 10
661.075920
 20
2058.856659
 11
661.063324
 21
2059.332448
  0
LINE
  8
CSLAYER1
  6
CONTINUOUS
 62
     7
 10
661.063324
 20
2059.332448
 11
661.014459
 21
2059.817764
  0
LINE
  8
CSLAYER1
  6
CONTINUOUS
 62
     7
 10
661.014459
 20
2059.817764
 11
660.929698
 21
2060.308915
  0
LINE
  8
CSLAYER1
  6
CONTINUOUS
 62
     7
 10
660.929698
 20
2060.308915
 11
660.809684
 21
2060.802162
  0
LINE
  8
CSLAYER1
  6
CONTINUOUS
 62
     7
 10
660.809684
 20
2060.802162
 11
660.655333
 21
2061.293751
  0
LINE
  8
CSLAYER1
  6
CONTINUOUS
 62
     7
 10
660.655333
 20
2061.293751
 11
660.467818
 21
2061.779941
  0
LINE
  8
CSLAYER1
  6
CONTINUOUS
 62
     7
 10
660.467818
 20
2061.779941
 11
660.248567
 21
2062.257032
  0
LINE
  8
CSLAYER1
  6
CONTINUOUS
 62
     7
 10
660.248567
 20
2062.257032
 11
659.999248
 21
2062.721394
  0
LINE
  8
CSLAYER1
  6
CONTINUOUS
 62
     7
 10
659.999248
 20
2062.721394
 11
659.721759
 21
2063.169491
  0
LINE
  8
CSLAYER1
  6
CONTINUOUS
 62
     7
 10
659.721759
 20
2063.169491
 11
659.418212
 21
2063.597913
  0
LINE
  8
CSLAYER1
  6
CONTINUOUS
 62
     7
 10
659.418212
 20
2063.597913
 11
659.090916
 21
2064.003401
  0
LINE
  8
CSLAYER1
  6
CONTINUOUS
 62
     7
 10
659.090916
 20
2064.003401
 11
658.742363
 21
2064.382868
  0
LINE
  8
CSLAYER1
  6
CONTINUOUS
 62
     7
 10
658.742363
 20
2064.382868
 11
658.375205
 21
2064.733426
  0
LINE
  8
CSLAYER1
  6
CONTINUOUS
 62
     7
 10
658.375205
 20
2064.733426
 11
657.992237
 21
2065.052407
  0
LINE
  8
CSLAYER1
  6
CONTINUOUS
 62
     7
 10
657.992237
 20
2065.052407
 11
657.596373
 21
2065.337383
  0
LINE
  8
CSLAYER1
  6
CONTINUOUS
 62
     7
 10
657.596373
 20
2065.337383
 11
657.190626
 21
2065.586186
  0
LINE
  8
CSLAYER1
  6
CONTINUOUS
 62
     7
 10
657.190626
 20
2065.586186
 11
656.778085
 21
2065.796922
  0
LINE
  8
CSLAYER1
  6
CONTINUOUS
 62
     7
 10
656.778085
 20
2065.796922
 11
656.361888
 21
2065.967987
  0
LINE
  8
CSLAYER1
  6
CONTINUOUS
 62
     7
 10
656.361888
 20
2065.967987
 11
655.945203
 21
2066.098080
  0
LINE
  8
CSLAYER1
  6
CONTINUOUS
 62
     7
 10
655.945203
 20
2066.098080
 11
655.531202
 21
2066.186210
  0
LINE
  8
CSLAYER1
  6
CONTINUOUS
 62
     7
 10
655.531202
 20
2066.186210
 11
655.123035
 21
2066.231707
  0
LINE
  8
CSLAYER1
  6
CONTINUOUS
 62
     7
 10
655.123035
 20
2066.231707
 11
654.723808
 21
2066.234223
  0
LINE
  8
CSLAYER1
  6
CONTINUOUS
 62
     7
 10
654.723808
 20
2066.234223
 11
654.336561
 21
2066.193741
  0
LINE
  8
CSLAYER1
  6
CONTINUOUS
 62
     7
 10
654.336561
 20
2066.193741
 11
653.964240
 21
2066.110568
  0
LINE
  8
CSLAYER1
  6
CONTINUOUS
 62
     7
 10
653.964240
 20
2066.110568
 11
653.609678
 21
2065.985338
  0
LINE
  8
CSLAYER1
  6
CONTINUOUS
 62
     7
 10
653.609678
 20
2065.985338
 11
653.275575
 21
2065.819002
  0
LINE
  8
CSLAYER1
  6
CONTINUOUS
 62
     7
 10
653.275575
 20
2065.819002
 11
652.964473
 21
2065.612828
  0
LINE
  8
CSLAYER1
  6
CONTINUOUS
 62
     7
 10
652.964473
 20
2065.612828
 11
652.678739
 21
2065.368384
  0
LINE
  8
CSLAYER1
  6
CONTINUOUS
 62
     7
 10
652.678739
 20
2065.368384
 11
652.420549
 21
2065.087531
  0
LINE
  8
CSLAYER1
  6
CONTINUOUS
 62
     7
 10
652.420549
 20
2065.087531
 11
652.191866
 21
2064.772406
  0
LINE
  8
CSLAYER1
  6
CONTINUOUS
 62
     7
 10
652.191866
 20
2064.772406
 11
651.994433
 21
2064.425407
  0
LINE
  8
CSLAYER1
  6
CONTINUOUS
 62
     7
 10
651.994433
 20
2064.425407
 11
651.829750
 21
2064.049176
  0
LINE
  8
CSLAYER1
  6
CONTINUOUS
 62
     7
 10
651.829750
 20
2064.049176
 11
651.699073
 21
2063.646576
  0
LINE
  8
CSLAYER1
  6
CONTINUOUS
 62
     7
 10
651.699073
 20
2063.646576
 11
651.644829
 21
2063.405115
  0
LINE
  8
CSLAYER1
  6
CONTINUOUS
 62
     7
 10
655.596196
 20
2055.484850
 11
655.817510
 21
2055.371798
  0
LINE
  8
CSLAYER1
  6
CONTINUOUS
 62
     7
 10
655.817510
 20
2055.371798
 11
656.233707
 21
2055.200732
  0
LINE
  8
CSLAYER1
  6
CONTINUOUS
 62
     7
 10
656.233707
 20
2055.200732
 11
656.650392
 21
2055.070640
  0
LINE
  8
CSLAYER1
  6
CONTINUOUS
 62
     7
 10
656.650392
 20
2055.070640
 11
657.064393
 21
2054.982510
  0
LINE
  8
CSLAYER1
  6
CONTINUOUS
 62
     7
 10
657.064393
 20
2054.982510
 11
657.472560
 21
2054.937013
  0
LINE
  8
CSLAYER1
  6
CONTINUOUS
 62
     7
 10
657.472560
 20
2054.937013
 11
657.871786
 21
2054.934496
  0
LINE
  8
CSLAYER1
  6
CONTINUOUS
 62
     7
 10
657.871786
 20
2054.934496
 11
658.259034
 21
2054.974978
  0
LINE
  8
CSLAYER1
  6
CONTINUOUS
 62
     7
 10
658.259034
 20
2054.974978
 11
658.631355
 21
2055.058151
  0
LINE
  8
CSLAYER1
  6
CONTINUOUS
 62
     7
 10
658.631355
 20
2055.058151
 11
658.962242
 21
2055.175020
  0
ENDBLK
  8
0
  0
BLOCK
  8
CSLAYER1
  2
BLKF0008
 70
   64
 10
0.0
 20
0.0
 30
0.0
  0
LINE
  8
CSLAYER1
  6
CONTINUOUS
 62
     7
 10
661.062958
 20
2056.352588
 11
661.456456
 21
2056.689224
  0
LINE
  8
CSLAYER1
  6
CONTINUOUS
 62
     7
 10
661.456456
 20
2056.689224
 11
661.714646
 21
2056.970077
  0
LINE
  8
CSLAYER1
  6
CONTINUOUS
 62
     7
 10
661.714646
 20
2056.970077
 11
661.943329
 21
2057.285202
  0
LINE
  8
CSLAYER1
  6
CONTINUOUS
 62
     7
 10
661.943329
 20
2057.285202
 11
662.140762
 21
2057.632201
  0
LINE
  8
CSLAYER1
  6
CONTINUOUS
 62
     7
 10
662.140762
 20
2057.632201
 11
662.305445
 21
2058.008432
  0
LINE
  8
CSLAYER1
  6
CONTINUOUS
 62
     7
 10
662.305445
 20
2058.008432
 11
662.436123
 21
2058.411033
  0
LINE
  8
CSLAYER1
  6
CONTINUOUS
 62
     7
 10
662.436123
 20
2058.411033
 11
662.531801
 21
2058.836939
  0
LINE
  8
CSLAYER1
  6
CONTINUOUS
 62
     7
 10
662.531801
 20
2058.836939
 11
662.591753
 21
2059.282909
  0
LINE
  8
CSLAYER1
  6
CONTINUOUS
 62
     7
 10
662.591753
 20
2059.282909
 11
662.615521
 21
2059.745548
  0
LINE
  8
CSLAYER1
  6
CONTINUOUS
 62
     7
 10
662.615521
 20
2059.745548
 11
662.602925
 21
2060.221337
  0
LINE
  8
CSLAYER1
  6
CONTINUOUS
 62
     7
 10
662.602925
 20
2060.221337
 11
662.554060
 21
2060.706653
  0
LINE
  8
CSLAYER1
  6
CONTINUOUS
 62
     7
 10
662.554060
 20
2060.706653
 11
662.469298
 21
2061.197804
  0
LINE
  8
CSLAYER1
  6
CONTINUOUS
 62
     7
 10
662.469298
 20
2061.197804
 11
662.349285
 21
2061.691050
  0
LINE
  8
CSLAYER1
  6
CONTINUOUS
 62
     7
 10
662.349285
 20
2061.691050
 11
662.194934
 21
2062.182640
  0
LINE
  8
CSLAYER1
  6
CONTINUOUS
 62
     7
 10
662.194934
 20
2062.182640
 11
662.007419
 21
2062.668830
  0
LINE
  8
CSLAYER1
  6
CONTINUOUS
 62
     7
 10
662.007419
 20
2062.668830
 11
661.788168
 21
2063.145921
  0
LINE
  8
CSLAYER1
  6
CONTINUOUS
 62
     7
 10
661.788168
 20
2063.145921
 11
661.538849
 21
2063.610283
  0
LINE
  8
CSLAYER1
  6
CONTINUOUS
 62
     7
 10
661.538849
 20
2063.610283
 11
661.261360
 21
2064.058380
  0
LINE
  8
CSLAYER1
  6
CONTINUOUS
 62
     7
 10
661.261360
 20
2064.058380
 11
660.957812
 21
2064.486802
  0
LINE
  8
CSLAYER1
  6
CONTINUOUS
 62
     7
 10
660.957812
 20
2064.486802
 11
660.630517
 21
2064.892290
  0
LINE
  8
CSLAYER1
  6
CONTINUOUS
 62
     7
 10
660.630517
 20
2064.892290
 11
660.281963
 21
2065.271757
  0
LINE
  8
CSLAYER1
  6
CONTINUOUS
 62
     7
 10
660.281963
 20
2065.271757
 11
659.914806
 21
2065.622315
  0
LINE
  8
CSLAYER1
  6
CONTINUOUS
 62
     7
 10
659.914806
 20
2065.622315
 11
659.531838
 21
2065.941295
  0
LINE
  8
CSLAYER1
  6
CONTINUOUS
 62
     7
 10
659.531838
 20
2065.941295
 11
659.135974
 21
2066.226272
  0
LINE
  8
CSLAYER1
  6
CONTINUOUS
 62
     7
 10
659.135974
 20
2066.226272
 11
658.730227
 21
2066.475075
  0
LINE
  8
CSLAYER1
  6
CONTINUOUS
 62
     7
 10
658.730227
 20
2066.475075
 11
658.317685
 21
2066.685811
  0
LINE
  8
CSLAYER1
  6
CONTINUOUS
 62
     7
 10
658.317685
 20
2066.685811
 11
657.901488
 21
2066.856876
  0
LINE
  8
CSLAYER1
  6
CONTINUOUS
 62
     7
 10
657.901488
 20
2066.856876
 11
657.484804
 21
2066.986969
  0
LINE
  8
CSLAYER1
  6
CONTINUOUS
 62
     7
 10
657.484804
 20
2066.986969
 11
657.070802
 21
2067.075099
  0
LINE
  8
CSLAYER1
  6
CONTINUOUS
 62
     7
 10
657.070802
 20
2067.075099
 11
656.662635
 21
2067.120595
  0
LINE
  8
CSLAYER1
  6
CONTINUOUS
 62
     7
 10
656.662635
 20
2067.120595
 11
656.263409
 21
2067.123112
  0
LINE
  8
CSLAYER1
  6
CONTINUOUS
 62
     7
 10
656.263409
 20
2067.123112
 11
655.876161
 21
2067.082630
  0
LINE
  8
CSLAYER1
  6
CONTINUOUS
 62
     7
 10
655.876161
 20
2067.082630
 11
655.503840
 21
2066.999457
  0
LINE
  8
CSLAYER1
  6
CONTINUOUS
 62
     7
 10
655.503840
 20
2066.999457
 11
655.149279
 21
2066.874227
  0
ENDBLK
  8
0
  0
BLOCK
  8
CSLAYER1
  2
BLKF0009
 70
   64
 10
0.0
 20
0.0
 30
0.0
  0
LINE
  8
CSLAYER1
  6
CONTINUOUS
 62
     7
 10
674.993559
 20
2068.899879
 11
674.977069
 21
2069.166935
  0
LINE
  8
CSLAYER1
  6
CONTINUOUS
 62
     7
 10
674.977069
 20
2069.166935
 11
674.927726
 21
2069.431959
  0
LINE
  8
CSLAYER1
  6
CONTINUOUS
 62
     7
 10
674.927726
 20
2069.431959
 11
674.845904
 21
2069.692934
  0
LINE
  8
CSLAYER1
  6
CONTINUOUS
 62
     7
 10
674.845904
 20
2069.692934
 11
674.732227
 21
2069.947873
  0
LINE
  8
CSLAYER1
  6
CONTINUOUS
 62
     7
 10
674.732227
 20
2069.947873
 11
674.587559
 21
2070.194836
  0
LINE
  8
CSLAYER1
  6
CONTINUOUS
 62
     7
 10
674.587559
 20
2070.194836
 11
674.413002
 21
2070.431944
  0
LINE
  8
CSLAYER1
  6
CONTINUOUS
 62
     7
 10
674.413002
 20
2070.431944
 11
674.209884
 21
2070.657391
  0
LINE
  8
CSLAYER1
  6
CONTINUOUS
 62
     7
 10
674.209884
 20
2070.657391
 11
673.979752
 21
2070.869463
  0
LINE
  8
CSLAYER1
  6
CONTINUOUS
 62
     7
 10
673.979752
 20
2070.869463
 11
673.724355
 21
2071.066546
  0
LINE
  8
CSLAYER1
  6
CONTINUOUS
 62
     7
 10
673.724355
 20
2071.066546
 11
673.445639
 21
2071.247138
  0
LINE
  8
CSLAYER1
  6
CONTINUOUS
 62
     7
 10
673.445639
 20
2071.247138
 11
673.145723
 21
2071.409867
  0
LINE
  8
CSLAYER1
  6
CONTINUOUS
 62
     7
 10
673.145723
 20
2071.409867
 11
672.826892
 21
2071.553493
  0
LINE
  8
CSLAYER1
  6
CONTINUOUS
 62
     7
 10
672.826892
 20
2071.553493
 11
672.491571
 21
2071.676923
  0
LINE
  8
CSLAYER1
  6
CONTINUOUS
 62
     7
 10
672.491571
 20
2071.676923
 11
672.142313
 21
2071.779219
  0
LINE
  8
CSLAYER1
  6
CONTINUOUS
 62
     7
 10
672.142313
 20
2071.779219
 11
671.781775
 21
2071.859601
  0
LINE
  8
CSLAYER1
  6
CONTINUOUS
 62
     7
 10
671.781775
 20
2071.859601
 11
671.412701
 21
2071.917457
  0
LINE
  8
CSLAYER1
  6
CONTINUOUS
 62
     7
 10
671.412701
 20
2071.917457
 11
671.037900
 21
2071.952348
  0
LINE
  8
CSLAYER1
  6
CONTINUOUS
 62
     7
 10
671.037900
 20
2071.952348
 11
670.660226
 21
2071.964008
  0
LINE
  8
CSLAYER1
  6
CONTINUOUS
 62
     7
 10
670.660226
 20
2071.964008
 11
670.282551
 21
2071.952348
  0
LINE
  8
CSLAYER1
  6
CONTINUOUS
 62
     7
 10
670.282551
 20
2071.952348
 11
669.907750
 21
2071.917457
  0
LINE
  8
CSLAYER1
  6
CONTINUOUS
 62
     7
 10
669.907750
 20
2071.917457
 11
669.538676
 21
2071.859601
  0
LINE
  8
CSLAYER1
  6
CONTINUOUS
 62
     7
 10
669.538676
 20
2071.859601
 11
669.178138
 21
2071.779219
  0
LINE
  8
CSLAYER1
  6
CONTINUOUS
 62
     7
 10
669.178138
 20
2071.779219
 11
668.828880
 21
2071.676923
  0
LINE
  8
CSLAYER1
  6
CONTINUOUS
 62
     7
 10
668.828880
 20
2071.676923
 11
668.493559
 21
2071.553493
  0
LINE
  8
CSLAYER1
  6
CONTINUOUS
 62
     7
 10
668.493559
 20
2071.553493
 11
668.174728
 21
2071.409867
  0
LINE
  8
CSLAYER1
  6
CONTINUOUS
 62
     7
 10
668.174728
 20
2071.409867
 11
667.874813
 21
2071.247138
  0
LINE
  8
CSLAYER1
  6
CONTINUOUS
 62
     7
 10
667.874813
 20
2071.247138
 11
667.596096
 21
2071.066546
  0
LINE
  8
CSLAYER1
  6
CONTINUOUS
 62
     7
 10
667.596096
 20
2071.066546
 11
667.340700
 21
2070.869463
  0
LINE
  8
CSLAYER1
  6
CONTINUOUS
 62
     7
 10
667.340700
 20
2070.869463
 11
667.110567
 21
2070.657391
  0
LINE
  8
CSLAYER1
  6
CONTINUOUS
 62
     7
 10
667.110567
 20
2070.657391
 11
666.907449
 21
2070.431944
  0
LINE
  8
CSLAYER1
  6
CONTINUOUS
 62
     7
 10
666.907449
 20
2070.431944
 11
666.732892
 21
2070.194836
  0
LINE
  8
CSLAYER1
  6
CONTINUOUS
 62
     7
 10
666.732892
 20
2070.194836
 11
666.588224
 21
2069.947873
  0
LINE
  8
CSLAYER1
  6
CONTINUOUS
 62
     7
 10
666.588224
 20
2069.947873
 11
666.474547
 21
2069.692934
  0
LINE
  8
CSLAYER1
  6
CONTINUOUS
 62
     7
 10
666.474547
 20
2069.692934
 11
666.392725
 21
2069.431959
  0
LINE
  8
CSLAYER1
  6
CONTINUOUS
 62
     7
 10
666.392725
 20
2069.431959
 11
666.343382
 21
2069.166935
  0
LINE
  8
CSLAYER1
  6
CONTINUOUS
 62
     7
 10
666.343382
 20
2069.166935
 11
666.326892
 21
2068.899879
  0
LINE
  8
CSLAYER1
  6
CONTINUOUS
 62
     7
 10
666.326892
 20
2068.899879
 11
666.343382
 21
2068.632822
  0
LINE
  8
CSLAYER1
  6
CONTINUOUS
 62
     7
 10
666.343382
 20
2068.632822
 11
666.392725
 21
2068.367798
  0
LINE
  8
CSLAYER1
  6
CONTINUOUS
 62
     7
 10
666.392725
 20
2068.367798
 11
666.474547
 21
2068.106824
  0
LINE
  8
CSLAYER1
  6
CONTINUOUS
 62
     7
 10
666.474547
 20
2068.106824
 11
666.588224
 21
2067.851885
  0
LINE
  8
CSLAYER1
  6
CONTINUOUS
 62
     7
 10
666.588224
 20
2067.851885
 11
666.732892
 21
2067.604922
  0
LINE
  8
CSLAYER1
  6
CONTINUOUS
 62
     7
 10
666.732892
 20
2067.604922
 11
666.907449
 21
2067.367814
  0
LINE
  8
CSLAYER1
  6
CONTINUOUS
 62
     7
 10
666.907449
 20
2067.367814
 11
667.110567
 21
2067.142366
  0
LINE
  8
CSLAYER1
  6
CONTINUOUS
 62
     7
 10
667.110567
 20
2067.142366
 11
667.340700
 21
2066.930294
  0
LINE
  8
CSLAYER1
  6
CONTINUOUS
 62
     7
 10
667.340700
 20
2066.930294
 11
667.596096
 21
2066.733212
  0
LINE
  8
CSLAYER1
  6
CONTINUOUS
 62
     7
 10
667.596096
 20
2066.733212
 11
667.874813
 21
2066.552620
  0
LINE
  8
CSLAYER1
  6
CONTINUOUS
 62
     7
 10
667.874813
 20
2066.552620
 11
668.174728
 21
2066.389891
  0
LINE
  8
CSLAYER1
  6
CONTINUOUS
 62
     7
 10
668.174728
 20
2066.389891
 11
668.493559
 21
2066.246265
  0
LINE
  8
CSLAYER1
  6
CONTINUOUS
 62
     7
 10
668.493559
 20
2066.246265
 11
668.828880
 21
2066.122835
  0
LINE
  8
CSLAYER1
  6
CONTINUOUS
 62
     7
 10
668.828880
 20
2066.122835
 11
669.178138
 21
2066.020539
  0
LINE
  8
CSLAYER1
  6
CONTINUOUS
 62
     7
 10
669.178138
 20
2066.020539
 11
669.538676
 21
2065.940157
  0
LINE
  8
CSLAYER1
  6
CONTINUOUS
 62
     7
 10
669.538676
 20
2065.940157
 11
669.907750
 21
2065.882300
  0
LINE
  8
CSLAYER1
  6
CONTINUOUS
 62
     7
 10
669.907750
 20
2065.882300
 11
670.282551
 21
2065.847409
  0
LINE
  8
CSLAYER1
  6
CONTINUOUS
 62
     7
 10
670.282551
 20
2065.847409
 11
670.660226
 21
2065.835749
  0
LINE
  8
CSLAYER1
  6
CONTINUOUS
 62
     7
 10
670.660226
 20
2065.835749
 11
671.037900
 21
2065.847409
  0
LINE
  8
CSLAYER1
  6
CONTINUOUS
 62
     7
 10
671.037900
 20
2065.847409
 11
671.412701
 21
2065.882300
  0
LINE
  8
CSLAYER1
  6
CONTINUOUS
 62
     7
 10
671.412701
 20
2065.882300
 11
671.781775
 21
2065.940157
  0
LINE
  8
CSLAYER1
  6
CONTINUOUS
 62
     7
 10
671.781775
 20
2065.940157
 11
672.142313
 21
2066.020539
  0
LINE
  8
CSLAYER1
  6
CONTINUOUS
 62
     7
 10
672.142313
 20
2066.020539
 11
672.491571
 21
2066.122835
  0
LINE
  8
CSLAYER1
  6
CONTINUOUS
 62
     7
 10
672.491571
 20
2066.122835
 11
672.826892
 21
2066.246265
  0
LINE
  8
CSLAYER1
  6
CONTINUOUS
 62
     7
 10
672.826892
 20
2066.246265
 11
673.145723
 21
2066.389891
  0
LINE
  8
CSLAYER1
  6
CONTINUOUS
 62
     7
 10
673.145723
 20
2066.389891
 11
673.445639
 21
2066.552620
  0
LINE
  8
CSLAYER1
  6
CONTINUOUS
 62
     7
 10
673.445639
 20
2066.552620
 11
673.724355
 21
2066.733212
  0
LINE
  8
CSLAYER1
  6
CONTINUOUS
 62
     7
 10
673.724355
 20
2066.733212
 11
673.979752
 21
2066.930294
  0
LINE
  8
CSLAYER1
  6
CONTINUOUS
 62
     7
 10
673.979752
 20
2066.930294
 11
674.209884
 21
2067.142366
  0
LINE
  8
CSLAYER1
  6
CONTINUOUS
 62
     7
 10
674.209884
 20
2067.142366
 11
674.413002
 21
2067.367814
  0
LINE
  8
CSLAYER1
  6
CONTINUOUS
 62
     7
 10
674.413002
 20
2067.367814
 11
674.587559
 21
2067.604922
  0
LINE
  8
CSLAYER1
  6
CONTINUOUS
 62
     7
 10
674.587559
 20
2067.604922
 11
674.732227
 21
2067.851885
  0
LINE
  8
CSLAYER1
  6
CONTINUOUS
 62
     7
 10
674.732227
 20
2067.851885
 11
674.845904
 21
2068.106824
  0
LINE
  8
CSLAYER1
  6
CONTINUOUS
 62
     7
 10
674.845904
 20
2068.106824
 11
674.927726
 21
2068.367798
  0
LINE
  8
CSLAYER1
  6
CONTINUOUS
 62
     7
 10
674.927726
 20
2068.367798
 11
674.977069
 21
2068.632822
  0
LINE
  8
CSLAYER1
  6
CONTINUOUS
 62
     7
 10
674.977069
 20
2068.632822
 11
674.993559
 21
2068.899879
  0
ENDBLK
  8
0
  0
BLOCK
  8
CSLAYER1
  2
BLKF0010
 70
   64
 10
0.0
 20
0.0
 30
0.0
  0
LINE
  8
CSLAYER1
  6
CONTINUOUS
 62
     7
 10
609.203415
 20
2066.388451
 11
610.310250
 21
2067.080079
  0
LINE
  8
CSLAYER1
  6
CONTINUOUS
 62
     7
 10
610.715218
 20
2077.170381
 11
637.282659
 21
2093.771560
  0
LINE
  8
CSLAYER1
  6
CONTINUOUS
 62
     7
 10
608.749991
 20
2074.073403
 11
608.749991
 21
2069.255361
  0
LINE
  8
CSLAYER1
  6
CONTINUOUS
 62
     7
 10
608.749991
 20
2074.073403
 11
608.781955
 21
2074.493323
  0
LINE
  8
CSLAYER1
  6
CONTINUOUS
 62
     7
 10
608.781955
 20
2074.493323
 11
608.877606
 21
2074.910047
  0
LINE
  8
CSLAYER1
  6
CONTINUOUS
 62
     7
 10
608.877606
 20
2074.910047
 11
609.036214
 21
2075.320404
  0
LINE
  8
CSLAYER1
  6
CONTINUOUS
 62
     7
 10
609.036214
 20
2075.320404
 11
609.256573
 21
2075.721270
  0
LINE
  8
CSLAYER1
  6
CONTINUOUS
 62
     7
 10
609.256573
 20
2075.721270
 11
609.537006
 21
2076.109595
  0
LINE
  8
CSLAYER1
  6
CONTINUOUS
 62
     7
 10
609.537006
 20
2076.109595
 11
609.875378
 21
2076.482424
  0
LINE
  8
CSLAYER1
  6
CONTINUOUS
 62
     7
 10
609.875378
 20
2076.482424
 11
610.269114
 21
2076.836918
  0
LINE
  8
CSLAYER1
  6
CONTINUOUS
 62
     7
 10
610.269114
 20
2076.836918
 11
610.715218
 21
2077.170381
  0
LINE
  8
CSLAYER1
  6
CONTINUOUS
 62
     7
 10
623.089688
 20
2070.666533
 11
622.549407
 21
2070.382569
  0
LINE
  8
CSLAYER1
  6
CONTINUOUS
 62
     7
 10
622.549407
 20
2070.382569
 11
621.968033
 21
2070.126694
  0
LINE
  8
CSLAYER1
  6
CONTINUOUS
 62
     7
 10
621.968033
 20
2070.126694
 11
621.349991
 21
2069.900856
  0
LINE
  8
CSLAYER1
  6
CONTINUOUS
 62
     7
 10
621.349991
 20
2069.900856
 11
620.699984
 21
2069.706774
  0
LINE
  8
CSLAYER1
  6
CONTINUOUS
 62
     7
 10
620.699984
 20
2069.706774
 11
620.022960
 21
2069.545924
  0
LINE
  8
CSLAYER1
  6
CONTINUOUS
 62
     7
 10
620.022960
 20
2069.545924
 11
619.324071
 21
2069.419532
  0
LINE
  8
CSLAYER1
  6
CONTINUOUS
 62
     7
 10
619.324071
 20
2069.419532
 11
618.608636
 21
2069.328558
  0
LINE
  8
CSLAYER1
  6
CONTINUOUS
 62
     7
 10
618.608636
 20
2069.328558
 11
617.882099
 21
2069.273695
  0
LINE
  8
CSLAYER1
  6
CONTINUOUS
 62
     7
 10
617.882099
 20
2069.273695
 11
617.149991
 21
2069.255361
  0
LINE
  8
CSLAYER1
  6
CONTINUOUS
 62
     7
 10
617.149991
 20
2069.255361
 11
616.417883
 21
2069.273695
  0
LINE
  8
CSLAYER1
  6
CONTINUOUS
 62
     7
 10
616.417883
 20
2069.273695
 11
615.691346
 21
2069.328558
  0
LINE
  8
CSLAYER1
  6
CONTINUOUS
 62
     7
 10
615.691346
 20
2069.328558
 11
614.975911
 21
2069.419532
  0
LINE
  8
CSLAYER1
  6
CONTINUOUS
 62
     7
 10
614.975911
 20
2069.419532
 11
614.277022
 21
2069.545924
  0
LINE
  8
CSLAYER1
  6
CONTINUOUS
 62
     7
 10
614.277022
 20
2069.545924
 11
613.599998
 21
2069.706774
  0
LINE
  8
CSLAYER1
  6
CONTINUOUS
 62
     7
 10
613.599998
 20
2069.706774
 11
612.949991
 21
2069.900856
  0
LINE
  8
CSLAYER1
  6
CONTINUOUS
 62
     7
 10
612.949991
 20
2069.900856
 11
612.331949
 21
2070.126694
  0
LINE
  8
CSLAYER1
  6
CONTINUOUS
 62
     7
 10
612.331949
 20
2070.126694
 11
611.750575
 21
2070.382569
  0
LINE
  8
CSLAYER1
  6
CONTINUOUS
 62
     7
 10
611.750575
 20
2070.382569
 11
611.210294
 21
2070.666533
  0
LINE
  8
CSLAYER1
  6
CONTINUOUS
 62
     7
 10
611.210294
 20
2070.666533
 11
610.715218
 21
2070.976425
  0
LINE
  8
CSLAYER1
  6
CONTINUOUS
 62
     7
 10
610.715218
 20
2070.976425
 11
610.269114
 21
2071.309888
  0
LINE
  8
CSLAYER1
  6
CONTINUOUS
 62
     7
 10
610.269114
 20
2071.309888
 11
609.875378
 21
2071.664382
  0
LINE
  8
CSLAYER1
  6
CONTINUOUS
 62
     7
 10
609.875378
 20
2071.664382
 11
609.537006
 21
2072.037210
  0
LINE
  8
CSLAYER1
  6
CONTINUOUS
 62
     7
 10
609.537006
 20
2072.037210
 11
609.256573
 21
2072.425535
  0
LINE
  8
CSLAYER1
  6
CONTINUOUS
 62
     7
 10
609.256573
 20
2072.425535
 11
609.036214
 21
2072.826402
  0
LINE
  8
CSLAYER1
  6
CONTINUOUS
 62
     7
 10
609.036214
 20
2072.826402
 11
608.877606
 21
2073.236759
  0
LINE
  8
CSLAYER1
  6
CONTINUOUS
 62
     7
 10
608.877606
 20
2073.236759
 11
608.781955
 21
2073.653483
  0
LINE
  8
CSLAYER1
  6
CONTINUOUS
 62
     7
 10
608.781955
 20
2073.653483
 11
608.749991
 21
2074.073403
  0
LINE
  8
CSLAYER1
  6
CONTINUOUS
 62
     7
 10
623.584764
 20
2066.158383
 11
623.089688
 21
2065.848491
  0
LINE
  8
CSLAYER1
  6
CONTINUOUS
 62
     7
 10
623.089688
 20
2065.848491
 11
622.549407
 21
2065.564527
  0
LINE
  8
CSLAYER1
  6
CONTINUOUS
 62
     7
 10
622.549407
 20
2065.564527
 11
621.968033
 21
2065.308652
  0
LINE
  8
CSLAYER1
  6
CONTINUOUS
 62
     7
 10
621.968033
 20
2065.308652
 11
621.349991
 21
2065.082814
  0
LINE
  8
CSLAYER1
  6
CONTINUOUS
 62
     7
 10
621.349991
 20
2065.082814
 11
620.699984
 21
2064.888732
  0
LINE
  8
CSLAYER1
  6
CONTINUOUS
 62
     7
 10
620.699984
 20
2064.888732
 11
620.022960
 21
2064.727882
  0
LINE
  8
CSLAYER1
  6
CONTINUOUS
 62
     7
 10
620.022960
 20
2064.727882
 11
619.324071
 21
2064.601490
  0
LINE
  8
CSLAYER1
  6
CONTINUOUS
 62
     7
 10
619.324071
 20
2064.601490
 11
618.608636
 21
2064.510516
  0
LINE
  8
CSLAYER1
  6
CONTINUOUS
 62
     7
 10
618.608636
 20
2064.510516
 11
617.882099
 21
2064.455653
  0
LINE
  8
CSLAYER1
  6
CONTINUOUS
 62
     7
 10
617.882099
 20
2064.455653
 11
617.149991
 21
2064.437319
  0
LINE
  8
CSLAYER1
  6
CONTINUOUS
 62
     7
 10
617.149991
 20
2064.437319
 11
616.417883
 21
2064.455653
  0
LINE
  8
CSLAYER1
  6
CONTINUOUS
 62
     7
 10
616.417883
 20
2064.455653
 11
615.691346
 21
2064.510516
  0
LINE
  8
CSLAYER1
  6
CONTINUOUS
 62
     7
 10
615.691346
 20
2064.510516
 11
614.975911
 21
2064.601490
  0
LINE
  8
CSLAYER1
  6
CONTINUOUS
 62
     7
 10
614.975911
 20
2064.601490
 11
614.277022
 21
2064.727882
  0
LINE
  8
CSLAYER1
  6
CONTINUOUS
 62
     7
 10
614.277022
 20
2064.727882
 11
613.599998
 21
2064.888732
  0
LINE
  8
CSLAYER1
  6
CONTINUOUS
 62
     7
 10
613.599998
 20
2064.888732
 11
612.949991
 21
2065.082814
  0
LINE
  8
CSLAYER1
  6
CONTINUOUS
 62
     7
 10
612.949991
 20
2065.082814
 11
612.331949
 21
2065.308652
  0
LINE
  8
CSLAYER1
  6
CONTINUOUS
 62
     7
 10
612.331949
 20
2065.308652
 11
611.750575
 21
2065.564527
  0
LINE
  8
CSLAYER1
  6
CONTINUOUS
 62
     7
 10
611.750575
 20
2065.564527
 11
611.210294
 21
2065.848491
  0
LINE
  8
CSLAYER1
  6
CONTINUOUS
 62
     7
 10
611.210294
 20
2065.848491
 11
610.715218
 21
2066.158383
  0
LINE
  8
CSLAYER1
  6
CONTINUOUS
 62
     7
 10
610.715218
 20
2066.158383
 11
610.269114
 21
2066.491845
  0
LINE
  8
CSLAYER1
  6
CONTINUOUS
 62
     7
 10
610.269114
 20
2066.491845
 11
609.875378
 21
2066.846340
  0
LINE
  8
CSLAYER1
  6
CONTINUOUS
 62
     7
 10
609.875378
 20
2066.846340
 11
609.537006
 21
2067.219168
  0
LINE
  8
CSLAYER1
  6
CONTINUOUS
 62
     7
 10
609.537006
 20
2067.219168
 11
609.256573
 21
2067.607493
  0
LINE
  8
CSLAYER1
  6
CONTINUOUS
 62
     7
 10
609.256573
 20
2067.607493
 11
609.036214
 21
2068.008360
  0
LINE
  8
CSLAYER1
  6
CONTINUOUS
 62
     7
 10
609.036214
 20
2068.008360
 11
608.877606
 21
2068.418717
  0
LINE
  8
CSLAYER1
  6
CONTINUOUS
 62
     7
 10
608.877606
 20
2068.418717
 11
608.781955
 21
2068.835441
  0
LINE
  8
CSLAYER1
  6
CONTINUOUS
 62
     7
 10
608.781955
 20
2068.835441
 11
608.749991
 21
2069.255361
  0
LINE
  8
CSLAYER1
  6
CONTINUOUS
 62
     7
 10
610.582028
 20
2073.725923
 11
640.681827
 21
2092.534364
  0
LINE
  8
CSLAYER1
  6
CONTINUOUS
 62
     7
 10
613.134412
 20
2071.959597
 11
644.080995
 21
2091.297168
  0
LINE
  8
CSLAYER1
  6
CONTINUOUS
 62
     7
 10
623.089688
 20
2065.848491
 11
651.786410
 21
2083.780193
  0
LINE
  8
CSLAYER1
  6
CONTINUOUS
 62
     7
 10
623.089688
 20
2070.666533
 11
651.679610
 21
2088.531499
  0
LINE
  8
CSLAYER1
  6
CONTINUOUS
 62
     7
 10
624.477097
 20
2072.324830
 11
650.879331
 21
2088.822777
  0
LINE
  8
CSLAYER1
  6
CONTINUOUS
 62
     7
 10
617.330273
 20
2071.220230
 11
647.480163
 21
2090.059973
  0
LINE
  8
CSLAYER1
  6
CONTINUOUS
 62
     7
 10
643.819514
 20
2097.218441
 11
643.843807
 21
2097.537580
  0
LINE
  8
CSLAYER1
  6
CONTINUOUS
 62
     7
 10
643.843807
 20
2097.537580
 11
643.916501
 21
2097.854291
  0
LINE
  8
CSLAYER1
  6
CONTINUOUS
 62
     7
 10
643.916501
 20
2097.854291
 11
644.037043
 21
2098.166162
  0
LINE
  8
CSLAYER1
  6
CONTINUOUS
 62
     7
 10
644.037043
 20
2098.166162
 11
644.204516
 21
2098.470820
  0
LINE
  8
CSLAYER1
  6
CONTINUOUS
 62
     7
 10
644.204516
 20
2098.470820
 11
644.417645
 21
2098.765947
  0
LINE
  8
CSLAYER1
  6
CONTINUOUS
 62
     7
 10
644.417645
 20
2098.765947
 11
644.674807
 21
2099.049297
  0
LINE
  8
CSLAYER1
  6
CONTINUOUS
 62
     7
 10
644.674807
 20
2099.049297
 11
644.974047
 21
2099.318713
  0
LINE
  8
CSLAYER1
  6
CONTINUOUS
 62
     7
 10
644.974047
 20
2099.318713
 11
645.313086
 21
2099.572144
  0
LINE
  8
CSLAYER1
  6
CONTINUOUS
 62
     7
 10
645.313086
 20
2099.572144
 11
645.689344
 21
2099.807662
  0
LINE
  8
CSLAYER1
  6
CONTINUOUS
 62
     7
 10
645.689344
 20
2099.807662
 11
646.099957
 21
2100.023475
  0
LINE
  8
CSLAYER1
  6
CONTINUOUS
 62
     7
 10
646.099957
 20
2100.023475
 11
646.541802
 21
2100.217940
  0
LINE
  8
CSLAYER1
  6
CONTINUOUS
 62
     7
 10
646.541802
 20
2100.217940
 11
647.011514
 21
2100.389577
  0
LINE
  8
CSLAYER1
  6
CONTINUOUS
 62
     7
 10
647.011514
 20
2100.389577
 11
647.505519
 21
2100.537079
  0
LINE
  8
CSLAYER1
  6
CONTINUOUS
 62
     7
 10
647.505519
 20
2100.537079
 11
648.020057
 21
2100.659325
  0
LINE
  8
CSLAYER1
  6
CONTINUOUS
 62
     7
 10
648.020057
 20
2100.659325
 11
648.551213
 21
2100.755383
  0
LINE
  8
CSLAYER1
  6
CONTINUOUS
 62
     7
 10
648.551213
 20
2100.755383
 11
649.094944
 21
2100.824523
  0
LINE
  8
CSLAYER1
  6
CONTINUOUS
 62
     7
 10
649.094944
 20
2100.824523
 11
649.647111
 21
2100.866219
  0
LINE
  8
CSLAYER1
  6
CONTINUOUS
 62
     7
 10
649.647111
 20
2100.866219
 11
650.203514
 21
2100.880153
  0
LINE
  8
CSLAYER1
  6
CONTINUOUS
 62
     7
 10
650.203514
 20
2100.880153
 11
650.759916
 21
2100.866219
  0
LINE
  8
CSLAYER1
  6
CONTINUOUS
 62
     7
 10
650.759916
 20
2100.866219
 11
651.312084
 21
2100.824523
  0
LINE
  8
CSLAYER1
  6
CONTINUOUS
 62
     7
 10
651.312084
 20
2100.824523
 11
651.855814
 21
2100.755383
  0
LINE
  8
CSLAYER1
  6
CONTINUOUS
 62
     7
 10
651.855814
 20
2100.755383
 11
652.386970
 21
2100.659325
  0
LINE
  8
CSLAYER1
  6
CONTINUOUS
 62
     7
 10
652.386970
 20
2100.659325
 11
652.901509
 21
2100.537079
  0
LINE
  8
CSLAYER1
  6
CONTINUOUS
 62
     7
 10
652.901509
 20
2100.537079
 11
653.395514
 21
2100.389577
  0
LINE
  8
CSLAYER1
  6
CONTINUOUS
 62
     7
 10
653.395514
 20
2100.389577
 11
653.865226
 21
2100.217940
  0
LINE
  8
CSLAYER1
  6
CONTINUOUS
 62
     7
 10
653.865226
 20
2100.217940
 11
654.307070
 21
2100.023475
  0
LINE
  8
CSLAYER1
  6
CONTINUOUS
 62
     7
 10
654.307070
 20
2100.023475
 11
654.717683
 21
2099.807662
  0
LINE
  8
CSLAYER1
  6
CONTINUOUS
 62
     7
 10
654.717683
 20
2099.807662
 11
655.093941
 21
2099.572144
  0
LINE
  8
CSLAYER1
  6
CONTINUOUS
 62
     7
 10
655.093941
 20
2099.572144
 11
655.432980
 21
2099.318713
  0
LINE
  8
CSLAYER1
  6
CONTINUOUS
 62
     7
 10
655.432980
 20
2099.318713
 11
655.732220
 21
2099.049297
  0
LINE
  8
CSLAYER1
  6
CONTINUOUS
 62
     7
 10
655.732220
 20
2099.049297
 11
655.989382
 21
2098.765947
  0
LINE
  8
CSLAYER1
  6
CONTINUOUS
 62
     7
 10
655.989382
 20
2098.765947
 11
656.202511
 21
2098.470820
  0
LINE
  8
CSLAYER1
  6
CONTINUOUS
 62
     7
 10
656.202511
 20
2098.470820
 11
656.369984
 21
2098.166162
  0
LINE
  8
CSLAYER1
  6
CONTINUOUS
 62
     7
 10
656.369984
 20
2098.166162
 11
656.490526
 21
2097.854291
  0
LINE
  8
CSLAYER1
  6
CONTINUOUS
 62
     7
 10
656.490526
 20
2097.854291
 11
656.563221
 21
2097.537580
  0
LINE
  8
CSLAYER1
  6
CONTINUOUS
 62
     7
 10
656.563221
 20
2097.537580
 11
656.587514
 21
2097.218441
  0
LINE
  8
CSLAYER1
  6
CONTINUOUS
 62
     7
 10
656.587514
 20
2097.218441
 11
656.563221
 21
2096.899302
  0
LINE
  8
CSLAYER1
  6
CONTINUOUS
 62
     7
 10
656.563221
 20
2096.899302
 11
656.490526
 21
2096.582591
  0
LINE
  8
CSLAYER1
  6
CONTINUOUS
 62
     7
 10
656.490526
 20
2096.582591
 11
656.369984
 21
2096.270720
  0
LINE
  8
CSLAYER1
  6
CONTINUOUS
 62
     7
 10
656.369984
 20
2096.270720
 11
656.202511
 21
2095.966062
  0
LINE
  8
CSLAYER1
  6
CONTINUOUS
 62
     7
 10
656.202511
 20
2095.966062
 11
655.989382
 21
2095.670935
  0
LINE
  8
CSLAYER1
  6
CONTINUOUS
 62
     7
 10
655.989382
 20
2095.670935
 11
655.732220
 21
2095.387585
  0
LINE
  8
CSLAYER1
  6
CONTINUOUS
 62
     7
 10
655.732220
 20
2095.387585
 11
655.432980
 21
2095.118169
  0
LINE
  8
CSLAYER1
  6
CONTINUOUS
 62
     7
 10
655.432980
 20
2095.118169
 11
655.093941
 21
2094.864738
  0
LINE
  8
CSLAYER1
  6
CONTINUOUS
 62
     7
 10
655.093941
 20
2094.864738
 11
654.717683
 21
2094.629220
  0
LINE
  8
CSLAYER1
  6
CONTINUOUS
 62
     7
 10
654.717683
 20
2094.629220
 11
654.307070
 21
2094.413407
  0
LINE
  8
CSLAYER1
  6
CONTINUOUS
 62
     7
 10
654.307070
 20
2094.413407
 11
653.865226
 21
2094.218942
  0
LINE
  8
CSLAYER1
  6
CONTINUOUS
 62
     7
 10
653.865226
 20
2094.218942
 11
653.395514
 21
2094.047305
  0
LINE
  8
CSLAYER1
  6
CONTINUOUS
 62
     7
 10
653.395514
 20
2094.047305
 11
652.901509
 21
2093.899803
  0
LINE
  8
CSLAYER1
  6
CONTINUOUS
 62
     7
 10
652.901509
 20
2093.899803
 11
652.386970
 21
2093.777557
  0
LINE
  8
CSLAYER1
  6
CONTINUOUS
 62
     7
 10
652.386970
 20
2093.777557
 11
651.855814
 21
2093.681499
  0
LINE
  8
CSLAYER1
  6
CONTINUOUS
 62
     7
 10
651.855814
 20
2093.681499
 11
651.312084
 21
2093.612359
  0
LINE
  8
CSLAYER1
  6
CONTINUOUS
 62
     7
 10
651.312084
 20
2093.612359
 11
650.759916
 21
2093.570663
  0
LINE
  8
CSLAYER1
  6
CONTINUOUS
 62
     7
 10
650.759916
 20
2093.570663
 11
650.203514
 21
2093.556729
  0
LINE
  8
CSLAYER1
  6
CONTINUOUS
 62
     7
 10
650.203514
 20
2093.556729
 11
649.647111
 21
2093.570663
  0
LINE
  8
CSLAYER1
  6
CONTINUOUS
 62
     7
 10
649.647111
 20
2093.570663
 11
649.094944
 21
2093.612359
  0
LINE
  8
CSLAYER1
  6
CONTINUOUS
 62
     7
 10
649.094944
 20
2093.612359
 11
648.551213
 21
2093.681499
  0
LINE
  8
CSLAYER1
  6
CONTINUOUS
 62
     7
 10
648.551213
 20
2093.681499
 11
648.020057
 21
2093.777557
  0
LINE
  8
CSLAYER1
  6
CONTINUOUS
 62
     7
 10
648.020057
 20
2093.777557
 11
647.505519
 21
2093.899803
  0
LINE
  8
CSLAYER1
  6
CONTINUOUS
 62
     7
 10
647.505519
 20
2093.899803
 11
647.011514
 21
2094.047305
  0
LINE
  8
CSLAYER1
  6
CONTINUOUS
 62
     7
 10
647.011514
 20
2094.047305
 11
646.541802
 21
2094.218942
  0
LINE
  8
CSLAYER1
  6
CONTINUOUS
 62
     7
 10
646.541802
 20
2094.218942
 11
646.099957
 21
2094.413407
  0
LINE
  8
CSLAYER1
  6
CONTINUOUS
 62
     7
 10
646.099957
 20
2094.413407
 11
645.689344
 21
2094.629220
  0
LINE
  8
CSLAYER1
  6
CONTINUOUS
 62
     7
 10
645.689344
 20
2094.629220
 11
645.313086
 21
2094.864738
  0
LINE
  8
CSLAYER1
  6
CONTINUOUS
 62
     7
 10
645.313086
 20
2094.864738
 11
644.974047
 21
2095.118169
  0
LINE
  8
CSLAYER1
  6
CONTINUOUS
 62
     7
 10
644.974047
 20
2095.118169
 11
644.674807
 21
2095.387585
  0
LINE
  8
CSLAYER1
  6
CONTINUOUS
 62
     7
 10
644.674807
 20
2095.387585
 11
644.417645
 21
2095.670935
  0
LINE
  8
CSLAYER1
  6
CONTINUOUS
 62
     7
 10
644.417645
 20
2095.670935
 11
644.204516
 21
2095.966062
  0
LINE
  8
CSLAYER1
  6
CONTINUOUS
 62
     7
 10
644.204516
 20
2095.966062
 11
644.037043
 21
2096.270720
  0
LINE
  8
CSLAYER1
  6
CONTINUOUS
 62
     7
 10
644.037043
 20
2096.270720
 11
643.916501
 21
2096.582591
  0
LINE
  8
CSLAYER1
  6
CONTINUOUS
 62
     7
 10
643.916501
 20
2096.582591
 11
643.843807
 21
2096.899302
  0
LINE
  8
CSLAYER1
  6
CONTINUOUS
 62
     7
 10
643.843807
 20
2096.899302
 11
643.819514
 21
2097.218441
  0
LINE
  8
CSLAYER1
  6
CONTINUOUS
 62
     7
 10
646.843514
 20
2097.218441
 11
646.856299
 21
2097.386409
  0
LINE
  8
CSLAYER1
  6
CONTINUOUS
 62
     7
 10
646.856299
 20
2097.386409
 11
646.894559
 21
2097.553099
  0
LINE
  8
CSLAYER1
  6
CONTINUOUS
 62
     7
 10
646.894559
 20
2097.553099
 11
646.958003
 21
2097.717241
  0
LINE
  8
CSLAYER1
  6
CONTINUOUS
 62
     7
 10
646.958003
 20
2097.717241
 11
647.046146
 21
2097.877588
  0
LINE
  8
CSLAYER1
  6
CONTINUOUS
 62
     7
 10
647.046146
 20
2097.877588
 11
647.158319
 21
2098.032918
  0
LINE
  8
CSLAYER1
  6
CONTINUOUS
 62
     7
 10
647.158319
 20
2098.032918
 11
647.293668
 21
2098.182049
  0
LINE
  8
CSLAYER1
  6
CONTINUOUS
 62
     7
 10
647.293668
 20
2098.182049
 11
647.451163
 21
2098.323847
  0
LINE
  8
CSLAYER1
  6
CONTINUOUS
 62
     7
 10
647.451163
 20
2098.323847
 11
647.629604
 21
2098.457232
  0
LINE
  8
CSLAYER1
  6
CONTINUOUS
 62
     7
 10
647.629604
 20
2098.457232
 11
647.827635
 21
2098.581189
  0
LINE
  8
CSLAYER1
  6
CONTINUOUS
 62
     7
 10
647.827635
 20
2098.581189
 11
648.043747
 21
2098.694775
  0
LINE
  8
CSLAYER1
  6
CONTINUOUS
 62
     7
 10
648.043747
 20
2098.694775
 11
648.276297
 21
2098.797125
  0
LINE
  8
CSLAYER1
  6
CONTINUOUS
 62
     7
 10
648.276297
 20
2098.797125
 11
648.523514
 21
2098.887460
  0
LINE
  8
CSLAYER1
  6
CONTINUOUS
 62
     7
 10
648.523514
 20
2098.887460
 11
648.783516
 21
2098.965093
  0
LINE
  8
CSLAYER1
  6
CONTINUOUS
 62
     7
 10
648.783516
 20
2098.965093
 11
649.054326
 21
2099.029433
  0
LINE
  8
CSLAYER1
  6
CONTINUOUS
 62
     7
 10
649.054326
 20
2099.029433
 11
649.333882
 21
2099.079990
  0
LINE
  8
CSLAYER1
  6
CONTINUOUS
 62
     7
 10
649.333882
 20
2099.079990
 11
649.620056
 21
2099.116379
  0
LINE
  8
CSLAYER1
  6
CONTINUOUS
 62
     7
 10
649.620056
 20
2099.116379
 11
649.910670
 21
2099.138324
  0
LINE
  8
CSLAYER1
  6
CONTINUOUS
 62
     7
 10
649.910670
 20
2099.138324
 11
650.203514
 21
2099.145658
  0
LINE
  8
CSLAYER1
  6
CONTINUOUS
 62
     7
 10
650.203514
 20
2099.145658
 11
650.496357
 21
2099.138324
  0
LINE
  8
CSLAYER1
  6
CONTINUOUS
 62
     7
 10
650.496357
 20
2099.138324
 11
650.786971
 21
2099.116379
  0
LINE
  8
CSLAYER1
  6
CONTINUOUS
 62
     7
 10
650.786971
 20
2099.116379
 11
651.073146
 21
2099.079990
  0
LINE
  8
CSLAYER1
  6
CONTINUOUS
 62
     7
 10
651.073146
 20
2099.079990
 11
651.352701
 21
2099.029433
  0
LINE
  8
CSLAYER1
  6
CONTINUOUS
 62
     7
 10
651.352701
 20
2099.029433
 11
651.623511
 21
2098.965093
  0
LINE
  8
CSLAYER1
  6
CONTINUOUS
 62
     7
 10
651.623511
 20
2098.965093
 11
651.883514
 21
2098.887460
  0
LINE
  8
CSLAYER1
  6
CONTINUOUS
 62
     7
 10
651.883514
 20
2098.887460
 11
652.130730
 21
2098.797125
  0
LINE
  8
CSLAYER1
  6
CONTINUOUS
 62
     7
 10
652.130730
 20
2098.797125
 11
652.363280
 21
2098.694775
  0
LINE
  8
CSLAYER1
  6
CONTINUOUS
 62
     7
 10
652.363280
 20
2098.694775
 11
652.579392
 21
2098.581189
  0
LINE
  8
CSLAYER1
  6
CONTINUOUS
 62
     7
 10
652.579392
 20
2098.581189
 11
652.777423
 21
2098.457232
  0
LINE
  8
CSLAYER1
  6
CONTINUOUS
 62
     7
 10
652.777423
 20
2098.457232
 11
652.955864
 21
2098.323847
  0
LINE
  8
CSLAYER1
  6
CONTINUOUS
 62
     7
 10
652.955864
 20
2098.323847
 11
653.113359
 21
2098.182049
  0
LINE
  8
CSLAYER1
  6
CONTINUOUS
 62
     7
 10
653.113359
 20
2098.182049
 11
653.248708
 21
2098.032918
  0
LINE
  8
CSLAYER1
  6
CONTINUOUS
 62
     7
 10
653.248708
 20
2098.032918
 11
653.360881
 21
2097.877588
  0
LINE
  8
CSLAYER1
  6
CONTINUOUS
 62
     7
 10
653.360881
 20
2097.877588
 11
653.449024
 21
2097.717241
  0
LINE
  8
CSLAYER1
  6
CONTINUOUS
 62
     7
 10
653.449024
 20
2097.717241
 11
653.512468
 21
2097.553099
  0
LINE
  8
CSLAYER1
  6
CONTINUOUS
 62
     7
 10
653.512468
 20
2097.553099
 11
653.550728
 21
2097.386409
  0
LINE
  8
CSLAYER1
  6
CONTINUOUS
 62
     7
 10
653.550728
 20
2097.386409
 11
653.563514
 21
2097.218441
  0
LINE
  8
CSLAYER1
  6
CONTINUOUS
 62
     7
 10
653.563514
 20
2097.218441
 11
653.550728
 21
2097.050473
  0
LINE
  8
CSLAYER1
  6
CONTINUOUS
 62
     7
 10
653.550728
 20
2097.050473
 11
653.512468
 21
2096.883783
  0
LINE
  8
CSLAYER1
  6
CONTINUOUS
 62
     7
 10
653.512468
 20
2096.883783
 11
653.449024
 21
2096.719641
  0
LINE
  8
CSLAYER1
  6
CONTINUOUS
 62
     7
 10
653.449024
 20
2096.719641
 11
653.360881
 21
2096.559294
  0
LINE
  8
CSLAYER1
  6
CONTINUOUS
 62
     7
 10
653.360881
 20
2096.559294
 11
653.248708
 21
2096.403964
  0
LINE
  8
CSLAYER1
  6
CONTINUOUS
 62
     7
 10
653.248708
 20
2096.403964
 11
653.113359
 21
2096.254833
  0
LINE
  8
CSLAYER1
  6
CONTINUOUS
 62
     7
 10
653.113359
 20
2096.254833
 11
652.955864
 21
2096.113035
  0
LINE
  8
CSLAYER1
  6
CONTINUOUS
 62
     7
 10
652.955864
 20
2096.113035
 11
652.777423
 21
2095.979650
  0
LINE
  8
CSLAYER1
  6
CONTINUOUS
 62
     7
 10
652.777423
 20
2095.979650
 11
652.579392
 21
2095.855693
  0
LINE
  8
CSLAYER1
  6
CONTINUOUS
 62
     7
 10
652.579392
 20
2095.855693
 11
652.363280
 21
2095.742107
  0
LINE
  8
CSLAYER1
  6
CONTINUOUS
 62
     7
 10
652.363280
 20
2095.742107
 11
652.130730
 21
2095.639757
  0
LINE
  8
CSLAYER1
  6
CONTINUOUS
 62
     7
 10
652.130730
 20
2095.639757
 11
651.883514
 21
2095.549422
  0
LINE
  8
CSLAYER1
  6
CONTINUOUS
 62
     7
 10
651.883514
 20
2095.549422
 11
651.623511
 21
2095.471789
  0
LINE
  8
CSLAYER1
  6
CONTINUOUS
 62
     7
 10
651.623511
 20
2095.471789
 11
651.352701
 21
2095.407450
  0
LINE
  8
CSLAYER1
  6
CONTINUOUS
 62
     7
 10
651.352701
 20
2095.407450
 11
651.073146
 21
2095.356893
  0
LINE
  8
CSLAYER1
  6
CONTINUOUS
 62
     7
 10
651.073146
 20
2095.356893
 11
650.786971
 21
2095.320503
  0
LINE
  8
CSLAYER1
  6
CONTINUOUS
 62
     7
 10
650.786971
 20
2095.320503
 11
650.496357
 21
2095.298558
  0
LINE
  8
CSLAYER1
  6
CONTINUOUS
 62
     7
 10
650.496357
 20
2095.298558
 11
650.203514
 21
2095.291224
  0
LINE
  8
CSLAYER1
  6
CONTINUOUS
 62
     7
 10
650.203514
 20
2095.291224
 11
649.910670
 21
2095.298558
  0
LINE
  8
CSLAYER1
  6
CONTINUOUS
 62
     7
 10
649.910670
 20
2095.298558
 11
649.620056
 21
2095.320503
  0
LINE
  8
CSLAYER1
  6
CONTINUOUS
 62
     7
 10
649.620056
 20
2095.320503
 11
649.333882
 21
2095.356893
  0
LINE
  8
CSLAYER1
  6
CONTINUOUS
 62
     7
 10
649.333882
 20
2095.356893
 11
649.054326
 21
2095.407450
  0
LINE
  8
CSLAYER1
  6
CONTINUOUS
 62
     7
 10
649.054326
 20
2095.407450
 11
648.783516
 21
2095.471789
  0
LINE
  8
CSLAYER1
  6
CONTINUOUS
 62
     7
 10
648.783516
 20
2095.471789
 11
648.523514
 21
2095.549422
  0
LINE
  8
CSLAYER1
  6
CONTINUOUS
 62
     7
 10
648.523514
 20
2095.549422
 11
648.276297
 21
2095.639757
  0
LINE
  8
CSLAYER1
  6
CONTINUOUS
 62
     7
 10
648.276297
 20
2095.639757
 11
648.043747
 21
2095.742107
  0
LINE
  8
CSLAYER1
  6
CONTINUOUS
 62
     7
 10
648.043747
 20
2095.742107
 11
647.827635
 21
2095.855693
  0
LINE
  8
CSLAYER1
  6
CONTINUOUS
 62
     7
 10
647.827635
 20
2095.855693
 11
647.629604
 21
2095.979650
  0
LINE
  8
CSLAYER1
  6
CONTINUOUS
 62
     7
 10
647.629604
 20
2095.979650
 11
647.451163
 21
2096.113035
  0
LINE
  8
CSLAYER1
  6
CONTINUOUS
 62
     7
 10
647.451163
 20
2096.113035
 11
647.293668
 21
2096.254833
  0
LINE
  8
CSLAYER1
  6
CONTINUOUS
 62
     7
 10
647.293668
 20
2096.254833
 11
647.158319
 21
2096.403964
  0
LINE
  8
CSLAYER1
  6
CONTINUOUS
 62
     7
 10
647.158319
 20
2096.403964
 11
647.046146
 21
2096.559294
  0
LINE
  8
CSLAYER1
  6
CONTINUOUS
 62
     7
 10
647.046146
 20
2096.559294
 11
646.958003
 21
2096.719641
  0
LINE
  8
CSLAYER1
  6
CONTINUOUS
 62
     7
 10
646.958003
 20
2096.719641
 11
646.894559
 21
2096.883783
  0
LINE
  8
CSLAYER1
  6
CONTINUOUS
 62
     7
 10
646.894559
 20
2096.883783
 11
646.856299
 21
2097.050473
  0
LINE
  8
CSLAYER1
  6
CONTINUOUS
 62
     7
 10
646.856299
 20
2097.050473
 11
646.843514
 21
2097.218441
  0
LINE
  8
CSLAYER1
  6
CONTINUOUS
 62
     7
 10
656.587514
 20
2097.218441
 11
656.587514
 21
2093.589702
  0
LINE
  8
CSLAYER1
  6
CONTINUOUS
 62
     7
 10
643.819514
 20
2097.218441
 11
643.819514
 21
2093.589702
  0
LINE
  8
CSLAYER1
  6
CONTINUOUS
 62
     7
 10
653.739399
 20
2094.172964
 11
653.739399
 21
2090.544225
  0
LINE
  8
CSLAYER1
  6
CONTINUOUS
 62
     7
 10
646.420312
 20
2094.272412
 11
646.420312
 21
2090.643673
  0
LINE
  8
CSLAYER1
  6
CONTINUOUS
 62
     7
 10
656.587514
 20
2093.589702
 11
656.563221
 21
2093.270562
  0
LINE
  8
CSLAYER1
  6
CONTINUOUS
 62
     7
 10
656.563221
 20
2093.270562
 11
656.490526
 21
2092.953852
  0
LINE
  8
CSLAYER1
  6
CONTINUOUS
 62
     7
 10
656.490526
 20
2092.953852
 11
656.369984
 21
2092.641981
  0
LINE
  8
CSLAYER1
  6
CONTINUOUS
 62
     7
 10
656.369984
 20
2092.641981
 11
656.202511
 21
2092.337322
  0
LINE
  8
CSLAYER1
  6
CONTINUOUS
 62
     7
 10
656.202511
 20
2092.337322
 11
655.989382
 21
2092.042195
  0
LINE
  8
CSLAYER1
  6
CONTINUOUS
 62
     7
 10
655.989382
 20
2092.042195
 11
655.732220
 21
2091.758846
  0
LINE
  8
CSLAYER1
  6
CONTINUOUS
 62
     7
 10
655.732220
 20
2091.758846
 11
655.432980
 21
2091.489430
  0
LINE
  8
CSLAYER1
  6
CONTINUOUS
 62
     7
 10
655.432980
 20
2091.489430
 11
655.093941
 21
2091.235998
  0
LINE
  8
CSLAYER1
  6
CONTINUOUS
 62
     7
 10
655.093941
 20
2091.235998
 11
654.717683
 21
2091.000480
  0
LINE
  8
CSLAYER1
  6
CONTINUOUS
 62
     7
 10
654.717683
 20
2091.000480
 11
654.307070
 21
2090.784667
  0
LINE
  8
CSLAYER1
  6
CONTINUOUS
 62
     7
 10
654.307070
 20
2090.784667
 11
653.865226
 21
2090.590203
  0
LINE
  8
CSLAYER1
  6
CONTINUOUS
 62
     7
 10
653.865226
 20
2090.590203
 11
653.395514
 21
2090.418566
  0
LINE
  8
CSLAYER1
  6
CONTINUOUS
 62
     7
 10
653.395514
 20
2090.418566
 11
652.901509
 21
2090.271063
  0
LINE
  8
CSLAYER1
  6
CONTINUOUS
 62
     7
 10
652.901509
 20
2090.271063
 11
652.386970
 21
2090.148818
  0
LINE
  8
CSLAYER1
  6
CONTINUOUS
 62
     7
 10
652.386970
 20
2090.148818
 11
651.855814
 21
2090.052759
  0
LINE
  8
CSLAYER1
  6
CONTINUOUS
 62
     7
 10
651.855814
 20
2090.052759
 11
651.312084
 21
2089.983619
  0
LINE
  8
CSLAYER1
  6
CONTINUOUS
 62
     7
 10
651.312084
 20
2089.983619
 11
650.759916
 21
2089.941924
  0
LINE
  8
CSLAYER1
  6
CONTINUOUS
 62
     7
 10
650.759916
 20
2089.941924
 11
650.203514
 21
2089.927990
  0
LINE
  8
CSLAYER1
  6
CONTINUOUS
 62
     7
 10
650.203514
 20
2089.927990
 11
649.647111
 21
2089.941924
  0
LINE
  8
CSLAYER1
  6
CONTINUOUS
 62
     7
 10
649.647111
 20
2089.941924
 11
649.094944
 21
2089.983619
  0
LINE
  8
CSLAYER1
  6
CONTINUOUS
 62
     7
 10
649.094944
 20
2089.983619
 11
648.551213
 21
2090.052759
  0
LINE
  8
CSLAYER1
  6
CONTINUOUS
 62
     7
 10
648.551213
 20
2090.052759
 11
648.020057
 21
2090.148818
  0
LINE
  8
CSLAYER1
  6
CONTINUOUS
 62
     7
 10
648.020057
 20
2090.148818
 11
647.505519
 21
2090.271063
  0
LINE
  8
CSLAYER1
  6
CONTINUOUS
 62
     7
 10
647.505519
 20
2090.271063
 11
647.011514
 21
2090.418566
  0
LINE
  8
CSLAYER1
  6
CONTINUOUS
 62
     7
 10
647.011514
 20
2090.418566
 11
646.541802
 21
2090.590203
  0
LINE
  8
CSLAYER1
  6
CONTINUOUS
 62
     7
 10
646.541802
 20
2090.590203
 11
646.099957
 21
2090.784667
  0
LINE
  8
CSLAYER1
  6
CONTINUOUS
 62
     7
 10
646.099957
 20
2090.784667
 11
645.689344
 21
2091.000480
  0
LINE
  8
CSLAYER1
  6
CONTINUOUS
 62
     7
 10
645.689344
 20
2091.000480
 11
645.313086
 21
2091.235998
  0
LINE
  8
CSLAYER1
  6
CONTINUOUS
 62
     7
 10
645.313086
 20
2091.235998
 11
644.974047
 21
2091.489430
  0
LINE
  8
CSLAYER1
  6
CONTINUOUS
 62
     7
 10
644.974047
 20
2091.489430
 11
644.674807
 21
2091.758846
  0
LINE
  8
CSLAYER1
  6
CONTINUOUS
 62
     7
 10
644.674807
 20
2091.758846
 11
644.417645
 21
2092.042195
  0
LINE
  8
CSLAYER1
  6
CONTINUOUS
 62
     7
 10
644.417645
 20
2092.042195
 11
644.204516
 21
2092.337322
  0
LINE
  8
CSLAYER1
  6
CONTINUOUS
 62
     7
 10
644.204516
 20
2092.337322
 11
644.037043
 21
2092.641981
  0
LINE
  8
CSLAYER1
  6
CONTINUOUS
 62
     7
 10
644.037043
 20
2092.641981
 11
643.916501
 21
2092.953852
  0
LINE
  8
CSLAYER1
  6
CONTINUOUS
 62
     7
 10
643.916501
 20
2092.953852
 11
643.843807
 21
2093.270562
  0
LINE
  8
CSLAYER1
  6
CONTINUOUS
 62
     7
 10
643.843807
 20
2093.270562
 11
643.819514
 21
2093.589702
  0
LINE
  8
CSLAYER1
  6
CONTINUOUS
 62
     7
 10
646.420312
 20
2080.427082
 11
646.420312
 21
2079.878033
  0
LINE
  8
CSLAYER1
  6
CONTINUOUS
 62
     7
 10
656.587514
 20
2082.824062
 11
656.563221
 21
2082.504923
  0
LINE
  8
CSLAYER1
  6
CONTINUOUS
 62
     7
 10
656.563221
 20
2082.504923
 11
656.490526
 21
2082.188212
  0
LINE
  8
CSLAYER1
  6
CONTINUOUS
 62
     7
 10
656.490526
 20
2082.188212
 11
656.369984
 21
2081.876341
  0
LINE
  8
CSLAYER1
  6
CONTINUOUS
 62
     7
 10
656.369984
 20
2081.876341
 11
656.202511
 21
2081.571682
  0
LINE
  8
CSLAYER1
  6
CONTINUOUS
 62
     7
 10
656.202511
 20
2081.571682
 11
655.989382
 21
2081.276555
  0
LINE
  8
CSLAYER1
  6
CONTINUOUS
 62
     7
 10
655.989382
 20
2081.276555
 11
655.732220
 21
2080.993206
  0
LINE
  8
CSLAYER1
  6
CONTINUOUS
 62
     7
 10
655.732220
 20
2080.993206
 11
655.432980
 21
2080.723790
  0
LINE
  8
CSLAYER1
  6
CONTINUOUS
 62
     7
 10
655.432980
 20
2080.723790
 11
655.093941
 21
2080.470359
  0
LINE
  8
CSLAYER1
  6
CONTINUOUS
 62
     7
 10
655.093941
 20
2080.470359
 11
654.717683
 21
2080.234840
  0
LINE
  8
CSLAYER1
  6
CONTINUOUS
 62
     7
 10
654.717683
 20
2080.234840
 11
654.307070
 21
2080.019028
  0
LINE
  8
CSLAYER1
  6
CONTINUOUS
 62
     7
 10
654.307070
 20
2080.019028
 11
653.865226
 21
2079.824563
  0
LINE
  8
CSLAYER1
  6
CONTINUOUS
 62
     7
 10
653.865226
 20
2079.824563
 11
653.395514
 21
2079.652926
  0
LINE
  8
CSLAYER1
  6
CONTINUOUS
 62
     7
 10
653.395514
 20
2079.652926
 11
652.901509
 21
2079.505424
  0
LINE
  8
CSLAYER1
  6
CONTINUOUS
 62
     7
 10
652.901509
 20
2079.505424
 11
652.386970
 21
2079.383178
  0
LINE
  8
CSLAYER1
  6
CONTINUOUS
 62
     7
 10
652.386970
 20
2079.383178
 11
651.855814
 21
2079.287120
  0
LINE
  8
CSLAYER1
  6
CONTINUOUS
 62
     7
 10
651.855814
 20
2079.287120
 11
651.312084
 21
2079.217979
  0
LINE
  8
CSLAYER1
  6
CONTINUOUS
 62
     7
 10
651.312084
 20
2079.217979
 11
650.759916
 21
2079.176284
  0
LINE
  8
CSLAYER1
  6
CONTINUOUS
 62
     7
 10
650.759916
 20
2079.176284
 11
650.203514
 21
2079.162350
  0
LINE
  8
CSLAYER1
  6
CONTINUOUS
 62
     7
 10
650.203514
 20
2079.162350
 11
649.647111
 21
2079.176284
  0
LINE
  8
CSLAYER1
  6
CONTINUOUS
 62
     7
 10
649.647111
 20
2079.176284
 11
649.094944
 21
2079.217979
  0
LINE
  8
CSLAYER1
  6
CONTINUOUS
 62
     7
 10
649.094944
 20
2079.217979
 11
648.551213
 21
2079.287120
  0
LINE
  8
CSLAYER1
  6
CONTINUOUS
 62
     7
 10
648.551213
 20
2079.287120
 11
648.020057
 21
2079.383178
  0
LINE
  8
CSLAYER1
  6
CONTINUOUS
 62
     7
 10
648.020057
 20
2079.383178
 11
647.505519
 21
2079.505424
  0
LINE
  8
CSLAYER1
  6
CONTINUOUS
 62
     7
 10
647.505519
 20
2079.505424
 11
647.011514
 21
2079.652926
  0
LINE
  8
CSLAYER1
  6
CONTINUOUS
 62
     7
 10
647.011514
 20
2079.652926
 11
646.541802
 21
2079.824563
  0
LINE
  8
CSLAYER1
  6
CONTINUOUS
 62
     7
 10
646.541802
 20
2079.824563
 11
646.099957
 21
2080.019028
  0
LINE
  8
CSLAYER1
  6
CONTINUOUS
 62
     7
 10
646.099957
 20
2080.019028
 11
645.919268
 21
2080.113996
  0
LINE
  8
CSLAYER1
  6
CONTINUOUS
 62
     7
 10
656.587514
 20
2087.870942
 11
656.587514
 21
2082.824062
  0
LINE
  8
CSLAYER1
  6
CONTINUOUS
 62
     7
 10
653.563514
 20
2075.239536
 11
653.563514
 21
2079.714315
  0
LINE
  8
CSLAYER1
  6
CONTINUOUS
 62
     7
 10
646.843514
 20
2075.239536
 11
646.843514
 21
2079.714315
  0
LINE
  8
CSLAYER1
  6
CONTINUOUS
 62
     7
 10
653.563514
 20
2075.239536
 11
653.550728
 21
2075.071568
  0
LINE
  8
CSLAYER1
  6
CONTINUOUS
 62
     7
 10
653.550728
 20
2075.071568
 11
653.512468
 21
2074.904878
  0
LINE
  8
CSLAYER1
  6
CONTINUOUS
 62
     7
 10
653.512468
 20
2074.904878
 11
653.449024
 21
2074.740736
  0
LINE
  8
CSLAYER1
  6
CONTINUOUS
 62
     7
 10
653.449024
 20
2074.740736
 11
653.360881
 21
2074.580389
  0
LINE
  8
CSLAYER1
  6
CONTINUOUS
 62
     7
 10
653.360881
 20
2074.580389
 11
653.248708
 21
2074.425059
  0
LINE
  8
CSLAYER1
  6
CONTINUOUS
 62
     7
 10
653.248708
 20
2074.425059
 11
653.113359
 21
2074.275928
  0
LINE
  8
CSLAYER1
  6
CONTINUOUS
 62
     7
 10
653.113359
 20
2074.275928
 11
652.955864
 21
2074.134130
  0
LINE
  8
CSLAYER1
  6
CONTINUOUS
 62
     7
 10
652.955864
 20
2074.134130
 11
652.777423
 21
2074.000745
  0
LINE
  8
CSLAYER1
  6
CONTINUOUS
 62
     7
 10
652.777423
 20
2074.000745
 11
652.579392
 21
2073.876788
  0
LINE
  8
CSLAYER1
  6
CONTINUOUS
 62
     7
 10
652.579392
 20
2073.876788
 11
652.363280
 21
2073.763202
  0
LINE
  8
CSLAYER1
  6
CONTINUOUS
 62
     7
 10
652.363280
 20
2073.763202
 11
652.130730
 21
2073.660853
  0
LINE
  8
CSLAYER1
  6
CONTINUOUS
 62
     7
 10
652.130730
 20
2073.660853
 11
651.883514
 21
2073.570517
  0
LINE
  8
CSLAYER1
  6
CONTINUOUS
 62
     7
 10
651.883514
 20
2073.570517
 11
651.623511
 21
2073.492885
  0
LINE
  8
CSLAYER1
  6
CONTINUOUS
 62
     7
 10
651.623511
 20
2073.492885
 11
651.352701
 21
2073.428545
  0
LINE
  8
CSLAYER1
  6
CONTINUOUS
 62
     7
 10
651.352701
 20
2073.428545
 11
651.073146
 21
2073.377988
  0
LINE
  8
CSLAYER1
  6
CONTINUOUS
 62
     7
 10
651.073146
 20
2073.377988
 11
650.786971
 21
2073.341598
  0
LINE
  8
CSLAYER1
  6
CONTINUOUS
 62
     7
 10
650.786971
 20
2073.341598
 11
650.496357
 21
2073.319653
  0
LINE
  8
CSLAYER1
  6
CONTINUOUS
 62
     7
 10
650.496357
 20
2073.319653
 11
650.203514
 21
2073.312319
  0
LINE
  8
CSLAYER1
  6
CONTINUOUS
 62
     7
 10
650.203514
 20
2073.312319
 11
649.910670
 21
2073.319653
  0
LINE
  8
CSLAYER1
  6
CONTINUOUS
 62
     7
 10
649.910670
 20
2073.319653
 11
649.620056
 21
2073.341598
  0
LINE
  8
CSLAYER1
  6
CONTINUOUS
 62
     7
 10
649.620056
 20
2073.341598
 11
649.333882
 21
2073.377988
  0
LINE
  8
CSLAYER1
  6
CONTINUOUS
 62
     7
 10
649.333882
 20
2073.377988
 11
649.054326
 21
2073.428545
  0
LINE
  8
CSLAYER1
  6
CONTINUOUS
 62
     7
 10
649.054326
 20
2073.428545
 11
648.783516
 21
2073.492885
  0
LINE
  8
CSLAYER1
  6
CONTINUOUS
 62
     7
 10
648.783516
 20
2073.492885
 11
648.523514
 21
2073.570517
  0
LINE
  8
CSLAYER1
  6
CONTINUOUS
 62
     7
 10
648.523514
 20
2073.570517
 11
648.276297
 21
2073.660853
  0
LINE
  8
CSLAYER1
  6
CONTINUOUS
 62
     7
 10
648.276297
 20
2073.660853
 11
648.043747
 21
2073.763202
  0
LINE
  8
CSLAYER1
  6
CONTINUOUS
 62
     7
 10
648.043747
 20
2073.763202
 11
647.827635
 21
2073.876788
  0
LINE
  8
CSLAYER1
  6
CONTINUOUS
 62
     7
 10
647.827635
 20
2073.876788
 11
647.629604
 21
2074.000745
  0
LINE
  8
CSLAYER1
  6
CONTINUOUS
 62
     7
 10
647.629604
 20
2074.000745
 11
647.451163
 21
2074.134130
  0
LINE
  8
CSLAYER1
  6
CONTINUOUS
 62
     7
 10
647.451163
 20
2074.134130
 11
647.293668
 21
2074.275928
  0
LINE
  8
CSLAYER1
  6
CONTINUOUS
 62
     7
 10
647.293668
 20
2074.275928
 11
647.158319
 21
2074.425059
  0
LINE
  8
CSLAYER1
  6
CONTINUOUS
 62
     7
 10
647.158319
 20
2074.425059
 11
647.046146
 21
2074.580389
  0
LINE
  8
CSLAYER1
  6
CONTINUOUS
 62
     7
 10
647.046146
 20
2074.580389
 11
646.958003
 21
2074.740736
  0
LINE
  8
CSLAYER1
  6
CONTINUOUS
 62
     7
 10
646.958003
 20
2074.740736
 11
646.894559
 21
2074.904878
  0
LINE
  8
CSLAYER1
  6
CONTINUOUS
 62
     7
 10
646.894559
 20
2074.904878
 11
646.856299
 21
2075.071568
  0
LINE
  8
CSLAYER1
  6
CONTINUOUS
 62
     7
 10
646.856299
 20
2075.071568
 11
646.843514
 21
2075.239536
  0
LINE
  8
CSLAYER1
  6
CONTINUOUS
 62
     7
 10
651.786410
 20
2088.492627
 11
637.282659
 21
2093.771560
  0
LINE
  8
CSLAYER1
  6
CONTINUOUS
 62
     7
 10
651.786410
 20
2088.492627
 11
651.786410
 21
2083.780193
  0
LINE
  8
CSLAYER1
  6
CONTINUOUS
 62
     7
 10
639.072263
 20
2093.120198
 11
643.819514
 21
2096.086609
  0
LINE
  8
CSLAYER1
  6
CONTINUOUS
 62
     7
 10
651.786410
 20
2087.292688
 11
659.019319
 21
2091.812311
  0
LINE
  8
CSLAYER1
  6
CONTINUOUS
 62
     7
 10
651.786410
 20
2084.870879
 11
658.355580
 21
2088.975752
  0
ARC
  8
CSLAYER1
  6
CONTINUOUS
 62
     7
 10
652.608199
 20
2088.282473
 40
7.403380
 50
30.339165
 51
57.486408
  0
ARC
  8
CSLAYER1
  6
CONTINUOUS
 62
     7
 10
654.267521
 20
2091.428271
 40
4.767292
 50
-30.960488
 51
7.154948
  0
ENDBLK
  8
0
  0
BLOCK
  8
CSLAYER1
  2
BLKF0011
 70
   64
 10
0.0
 20
0.0
 30
0.0
  0
ARC
  8
CSLAYER1
  6
CONTINUOUS
 62
     5
 10
2863.986501
 20
137.271921
 40
3.549225
 50
6.429109
 51
73.182034
  0
ARC
  8
CSLAYER1
  6
CONTINUOUS
 62
     5
 10
2860.525531
 20
136.113528
 40
6.907754
 50
310.517970
 51
330.092764
  0
ARC
  8
CSLAYER1
  6
CONTINUOUS
 62
     5
 10
2860.464881
 20
136.479046
 40
7.148321
 50
-32.205059
 51
9.585194
  0
ARC
  8
CSLAYER1
  6
CONTINUOUS
 62
     5
 10
2863.757609
 20
133.718048
 40
4.767514
 50
180.000000
 51
218.514150
  0
ARC
  8
CSLAYER1
  6
CONTINUOUS
 62
     5
 10
2862.470889
 20
133.040907
 40
3.348282
 50
222.781148
 51
319.406906
  0
ARC
  8
CSLAYER1
  6
CONTINUOUS
 62
     5
 10
2865.536530
 20
134.130800
 40
6.559434
 50
94.574282
 51
183.607718
  0
LINE
  8
CSLAYER1
  6
CONTINUOUS
 62
     5
 10
2878.980437
 20
129.013967
 11
2878.123401
 21
125.975385
  0
LINE
  8
CSLAYER1
  6
CONTINUOUS
 62
     5
 10
2880.772422
 20
148.881625
 11
2878.668787
 21
151.608558
  0
LINE
  8
CSLAYER1
  6
CONTINUOUS
 62
     5
 10
2878.668787
 20
151.608558
 11
2871.915433
 21
155.366470
  0
LINE
  8
CSLAYER1
  6
CONTINUOUS
 62
     5
 10
2871.915433
 20
155.366470
 11
2865.013406
 21
156.169341
  0
LINE
  8
CSLAYER1
  6
CONTINUOUS
 62
     5
 10
2846.724180
 20
142.790667
 11
2848.870875
 21
147.754898
  0
LINE
  8
CSLAYER1
  6
CONTINUOUS
 62
     5
 10
2848.833877
 20
147.669341
 11
2851.017569
 21
150.304097
  0
LINE
  8
CSLAYER1
  6
CONTINUOUS
 62
     5
 10
2851.017569
 20
150.304097
 11
2854.321991
 21
152.669341
  0
LINE
  8
CSLAYER1
  6
CONTINUOUS
 62
     5
 10
2865.013406
 20
156.169341
 11
2863.495230
 21
155.402497
  0
LINE
  8
CSLAYER1
  6
CONTINUOUS
 62
     5
 10
2863.495230
 20
155.402497
 11
2860.006852
 21
155.402497
  0
LINE
  8
CSLAYER1
  6
CONTINUOUS
 62
     5
 10
2860.006852
 20
155.402497
 11
2856.451389
 21
153.457055
  0
LINE
  8
CSLAYER1
  6
CONTINUOUS
 62
     5
 10
2856.451389
 20
153.457055
 11
2854.321991
 21
152.669341
  0
LINE
  8
CSLAYER1
  6
CONTINUOUS
 62
     5
 10
2846.724180
 20
142.790667
 11
2845.206633
 21
135.242064
  0
LINE
  8
CSLAYER1
  6
CONTINUOUS
 62
     5
 10
2845.206633
 20
135.242064
 11
2845.013406
 21
132.669341
  0
LINE
  8
CSLAYER1
  6
CONTINUOUS
 62
     5
 10
2847.722788
 20
124.829558
 11
2845.013406
 21
130.925670
  0
LINE
  8
CSLAYER1
  6
CONTINUOUS
 62
     5
 10
2845.013406
 20
130.925670
 11
2845.013406
 21
132.669341
  0
LINE
  8
CSLAYER1
  6
CONTINUOUS
 62
     5
 10
2878.123401
 20
125.975385
 11
2876.437613
 21
122.972378
  0
LINE
  8
CSLAYER1
  6
CONTINUOUS
 62
     5
 10
2876.437613
 20
122.972378
 11
2875.013406
 21
121.653667
  0
ARC
  8
CSLAYER1
  6
CONTINUOUS
 62
     5
 10
2862.821461
 20
133.206102
 40
17.266626
 50
208.054813
 51
260.640470
  0
ARC
  8
CSLAYER1
  6
CONTINUOUS
 62
     5
 10
2857.628066
 20
145.948571
 40
29.874611
 50
274.579659
 51
305.587364
  0
ARC
  8
CSLAYER1
  6
CONTINUOUS
 62
     5
 10
2868.600415
 20
139.964848
 40
15.088627
 50
313.467013
 51
331.085078
  0
LINE
  8
CSLAYER1
  6
CONTINUOUS
 62
     5
 10
2883.391747
 20
136.182762
 11
2883.689041
 21
139.964848
  0
LINE
  8
CSLAYER1
  6
CONTINUOUS
 62
     5
 10
2883.689041
 20
139.964848
 11
2882.397044
 21
146.073832
  0
LINE
  8
CSLAYER1
  6
CONTINUOUS
 62
     5
 10
2883.391747
 20
136.182762
 11
2881.808072
 21
132.669341
  0
ARC
  8
CSLAYER1
  6
CONTINUOUS
 62
     5
 10
2868.600415
 20
139.964848
 40
15.088627
 50
23.883193
 51
36.225170
  0
LINE
  8
CSLAYER1
  6
CONTINUOUS
 62
     5
 10
2829.013406
 20
167.669341
 11
2830.013406
 21
168.761985
  0
LINE
  8
CSLAYER1
  6
CONTINUOUS
 62
     5
 10
2829.013406
 20
167.669341
 11
2830.590363
 21
166.224308
  0
LINE
  8
CSLAYER1
  6
CONTINUOUS
 62
     5
 10
2832.129576
 20
164.115016
 11
2832.155844
 21
161.946897
  0
LINE
  8
CSLAYER1
  6
CONTINUOUS
 62
     5
 10
2832.155844
 20
161.946897
 11
2832.363242
 21
161.186438
  0
LINE
  8
CSLAYER1
  6
CONTINUOUS
 62
     5
 10
2832.363242
 20
161.186438
 11
2832.950870
 21
160.460545
  0
LINE
  8
CSLAYER1
  6
CONTINUOUS
 62
     5
 10
2832.950870
 20
160.460545
 11
2833.538498
 21
160.529678
  0
LINE
  8
CSLAYER1
  6
CONTINUOUS
 62
     5
 10
2833.538498
 20
160.529678
 11
2834.160692
 21
160.702509
  0
LINE
  8
CSLAYER1
  6
CONTINUOUS
 62
     5
 10
2834.160692
 20
160.702509
 11
2834.575488
 21
160.529678
  0
LINE
  8
CSLAYER1
  6
CONTINUOUS
 62
     5
 10
2834.575488
 20
160.529678
 11
2835.474212
 21
160.080315
  0
LINE
  8
CSLAYER1
  6
CONTINUOUS
 62
     5
 10
2835.474212
 20
160.080315
 11
2836.250264
 21
159.669341
  0
LINE
  8
CSLAYER1
  6
CONTINUOUS
 62
     5
 10
2836.250264
 20
159.669341
 11
2836.753167
 21
159.700086
  0
LINE
  8
CSLAYER1
  6
CONTINUOUS
 62
     5
 10
2836.753167
 20
159.700086
 11
2839.561038
 21
161.146565
  0
LINE
  8
CSLAYER1
  6
CONTINUOUS
 62
     5
 10
2830.013406
 20
168.761985
 11
2830.346257
 21
170.235693
  0
LINE
  8
CSLAYER1
  6
CONTINUOUS
 62
     5
 10
2830.346257
 20
170.235693
 11
2831.799663
 21
170.386045
  0
LINE
  8
CSLAYER1
  6
CONTINUOUS
 62
     5
 10
2833.293421
 20
173.154504
 11
2835.047594
 21
173.311594
  0
LINE
  8
CSLAYER1
  6
CONTINUOUS
 62
     5
 10
2835.047594
 20
173.311594
 11
2838.582122
 21
174.149408
  0
LINE
  8
CSLAYER1
  6
CONTINUOUS
 62
     5
 10
2838.582122
 20
174.149408
 11
2840.013406
 21
174.481047
  0
LINE
  8
CSLAYER1
  6
CONTINUOUS
 62
     5
 10
2833.293421
 20
173.154504
 11
2831.360530
 21
173.313371
  0
LINE
  8
CSLAYER1
  6
CONTINUOUS
 62
     5
 10
2830.624407
 20
172.444684
 11
2830.717932
 21
172.073523
  0
LINE
  8
CSLAYER1
  6
CONTINUOUS
 62
     5
 10
2830.717932
 20
172.073523
 11
2831.209526
 21
171.535842
  0
LINE
  8
CSLAYER1
  6
CONTINUOUS
 62
     5
 10
2831.209526
 20
171.535842
 11
2831.885468
 21
171.028885
  0
LINE
  8
CSLAYER1
  6
CONTINUOUS
 62
     5
 10
2831.885468
 20
171.028885
 11
2832.008793
 21
170.864452
  0
LINE
  8
CSLAYER1
  6
CONTINUOUS
 62
     5
 10
2830.590363
 20
166.224308
 11
2832.129576
 21
164.115016
  0
ARC
  8
CSLAYER1
  6
CONTINUOUS
 62
     5
 10
2875.000106
 20
-3.989312
 40
180.727463
 50
80.438896
 51
96.353582
  0
ARC
  8
CSLAYER1
  6
CONTINUOUS
 62
     5
 10
2850.101193
 20
141.258588
 40
34.720242
 50
81.866516
 51
106.890578
  0
LINE
  8
CSLAYER1
  6
CONTINUOUS
 62
     5
 10
2909.207667
 20
173.436011
 11
2911.454750
 21
172.414610
  0
LINE
  8
CSLAYER1
  6
CONTINUOUS
 62
     5
 10
2915.029654
 20
170.831438
 11
2911.454750
 21
172.414610
  0
LINE
  8
CSLAYER1
  6
CONTINUOUS
 62
     5
 10
2909.207667
 20
173.436011
 11
2905.013406
 21
174.228582
  0
LINE
  8
CSLAYER1
  6
CONTINUOUS
 62
     5
 10
2915.013406
 20
170.838634
 11
2916.884981
 21
169.270157
  0
LINE
  8
CSLAYER1
  6
CONTINUOUS
 62
     5
 10
2898.256662
 20
171.875485
 11
2899.155936
 21
173.328159
  0
LINE
  8
CSLAYER1
  6
CONTINUOUS
 62
     5
 10
2899.155936
 20
173.328159
 11
2903.831535
 21
172.208650
  0
LINE
  8
CSLAYER1
  6
CONTINUOUS
 62
     5
 10
2903.831535
 20
172.208650
 11
2920.573921
 21
167.669341
  0
LINE
  8
CSLAYER1
  6
CONTINUOUS
 62
     5
 10
2923.513406
 20
167.669341
 11
2916.884981
 21
169.270157
  0
LINE
  8
CSLAYER1
  6
CONTINUOUS
 62
     5
 10
2920.573921
 20
167.669341
 11
2923.513406
 21
167.669341
  0
LINE
  8
CSLAYER1
  6
CONTINUOUS
 62
     5
 10
2865.013406
 20
172.134282
 11
2885.013406
 21
172.669341
  0
LINE
  8
CSLAYER1
  6
CONTINUOUS
 62
     5
 10
2885.013406
 20
172.669341
 11
2898.256662
 21
171.875485
  0
LINE
  8
CSLAYER1
  6
CONTINUOUS
 62
     5
 10
2899.859643
 20
169.815005
 11
2885.013406
 21
171.169341
  0
LINE
  8
CSLAYER1
  6
CONTINUOUS
 62
     5
 10
2885.013406
 20
171.169341
 11
2869.964196
 21
171.577993
  0
LINE
  8
CSLAYER1
  6
CONTINUOUS
 62
     5
 10
2870.013406
 20
171.576657
 11
2865.013406
 21
171.671951
  0
LINE
  8
CSLAYER1
  6
CONTINUOUS
 62
     5
 10
2865.013406
 20
172.134282
 11
2865.013406
 21
171.671951
  0
LINE
  8
CSLAYER1
  6
CONTINUOUS
 62
     5
 10
2922.513406
 20
164.169341
 11
2913.670847
 21
166.480003
  0
LINE
  8
CSLAYER1
  6
CONTINUOUS
 62
     5
 10
2899.859643
 20
169.815005
 11
2910.013406
 21
167.842621
  0
LINE
  8
CSLAYER1
  6
CONTINUOUS
 62
     5
 10
2910.013406
 20
167.842621
 11
2913.670847
 21
166.480003
  0
LINE
  8
CSLAYER1
  6
CONTINUOUS
 62
     5
 10
2922.513406
 20
164.169341
 11
2922.220788
 21
163.330235
  0
LINE
  8
CSLAYER1
  6
CONTINUOUS
 62
     5
 10
2932.013406
 20
158.669341
 11
2931.707378
 21
159.898322
  0
LINE
  8
CSLAYER1
  6
CONTINUOUS
 62
     5
 10
2922.220788
 20
163.330235
 11
2931.707378
 21
159.898322
  0
LINE
  8
CSLAYER1
  6
CONTINUOUS
 62
     5
 10
2868.513406
 20
164.169341
 11
2870.936444
 21
164.169341
  0
LINE
  8
CSLAYER1
  6
CONTINUOUS
 62
     5
 10
2891.013406
 20
164.601836
 11
2891.013406
 21
164.169341
  0
LINE
  8
CSLAYER1
  6
CONTINUOUS
 62
     5
 10
2890.013406
 20
165.136277
 11
2888.302126
 21
165.773456
  0
LINE
  8
CSLAYER1
  6
CONTINUOUS
 62
     5
 10
2888.302126
 20
165.773456
 11
2887.192070
 21
165.823913
  0
LINE
  8
CSLAYER1
  6
CONTINUOUS
 62
     5
 10
2887.192070
 20
165.823913
 11
2886.712728
 21
165.571627
  0
LINE
  8
CSLAYER1
  6
CONTINUOUS
 62
     5
 10
2886.712728
 20
165.571627
 11
2886.611814
 21
165.167971
  0
LINE
  8
CSLAYER1
  6
CONTINUOUS
 62
     5
 10
2886.611814
 20
165.167971
 11
2887.065928
 21
164.865228
  0
LINE
  8
CSLAYER1
  6
CONTINUOUS
 62
     5
 10
2887.065928
 20
164.865228
 11
2888.705783
 21
164.713857
  0
LINE
  8
CSLAYER1
  6
CONTINUOUS
 62
     5
 10
2888.705783
 20
164.713857
 11
2891.013406
 21
164.601836
  0
LINE
  8
CSLAYER1
  6
CONTINUOUS
 62
     5
 10
2932.013406
 20
158.669341
 11
2929.037863
 21
159.855922
  0
LINE
  8
CSLAYER1
  6
CONTINUOUS
 62
     5
 10
2929.037863
 20
159.855922
 11
2918.982173
 21
161.698798
  0
LINE
  8
CSLAYER1
  6
CONTINUOUS
 62
     5
 10
2918.982173
 20
161.698798
 11
2913.956393
 21
162.858593
  0
LINE
  8
CSLAYER1
  6
CONTINUOUS
 62
     5
 10
2891.547627
 20
165.169341
 11
2903.313293
 21
165.169341
  0
LINE
  8
CSLAYER1
  6
CONTINUOUS
 62
     5
 10
2890.013406
 20
165.136277
 11
2890.538065
 21
164.827810
  0
LINE
  8
CSLAYER1
  6
CONTINUOUS
 62
     5
 10
2890.538065
 20
164.827810
 11
2890.834877
 21
164.738767
  0
LINE
  8
CSLAYER1
  6
CONTINUOUS
 62
     5
 10
2890.834877
 20
164.738767
 11
2891.013406
 21
164.763937
  0
LINE
  8
CSLAYER1
  6
CONTINUOUS
 62
     5
 10
2891.013406
 20
164.763937
 11
2891.547627
 21
165.169341
  0
LINE
  8
CSLAYER1
  6
CONTINUOUS
 62
     5
 10
2903.313293
 20
165.169341
 11
2907.763561
 21
164.140515
  0
LINE
  8
CSLAYER1
  6
CONTINUOUS
 62
     5
 10
2907.763561
 20
164.140515
 11
2911.916753
 21
162.975367
  0
LINE
  8
CSLAYER1
  6
CONTINUOUS
 62
     5
 10
2911.916753
 20
162.975367
 11
2913.956393
 21
162.858593
  0
LINE
  8
CSLAYER1
  6
CONTINUOUS
 62
     5
 10
2867.513406
 20
163.169341
 11
2867.513406
 21
162.669341
  0
LINE
  8
CSLAYER1
  6
CONTINUOUS
 62
     5
 10
2865.013406
 20
162.669341
 11
2867.513406
 21
162.669341
  0
ARC
  8
CSLAYER1
  6
CONTINUOUS
 62
     5
 10
2868.513406
 20
163.169341
 40
1.000000
 50
90.000000
 51
180.000000
  0
LINE
  8
CSLAYER1
  6
CONTINUOUS
 62
     5
 10
2870.936444
 20
164.169341
 11
2871.634000
 21
163.597344
  0
LINE
  8
CSLAYER1
  6
CONTINUOUS
 62
     5
 10
2872.236369
 20
163.573384
 11
2873.093965
 21
164.169341
  0
LINE
  8
CSLAYER1
  6
CONTINUOUS
 62
     5
 10
2874.672361
 20
164.169341
 11
2876.339487
 21
163.511265
  0
LINE
  8
CSLAYER1
  6
CONTINUOUS
 62
     5
 10
2876.763196
 20
163.537777
 11
2877.916683
 21
164.169341
  0
LINE
  8
CSLAYER1
  6
CONTINUOUS
 62
     5
 10
2873.093965
 20
164.169341
 11
2874.672361
 21
164.169341
  0
LINE
  8
CSLAYER1
  6
CONTINUOUS
 62
     5
 10
2877.916683
 20
164.169341
 11
2891.013406
 21
164.169341
  0
LINE
  8
CSLAYER1
  6
CONTINUOUS
 62
     5
 10
2843.562389
 20
161.060515
 11
2865.013406
 21
162.669341
  0
LINE
  8
CSLAYER1
  6
CONTINUOUS
 62
     5
 10
2839.561038
 20
161.146565
 11
2843.562389
 21
161.060515
  0
ARC
  8
CSLAYER1
  6
CONTINUOUS
 62
     5
 10
2871.951040
 20
163.983978
 40
0.500000
 50
230.648247
 51
304.796026
  0
ARC
  8
CSLAYER1
  6
CONTINUOUS
 62
     5
 10
2876.523070
 20
163.976343
 40
0.500000
 50
248.459024
 51
298.701829
  0
ARC
  8
CSLAYER1
  6
CONTINUOUS
 62
     5
 10
2831.768793
 20
170.684452
 40
0.300000
 50
-84.093859
 51
36.869898
  0
ARC
  8
CSLAYER1
  6
CONTINUOUS
 62
     5
 10
2831.303189
 20
172.615724
 40
0.700000
 50
85.301319
 51
194.142980
  0
LINE
  8
CSLAYER1
  6
CONTINUOUS
 62
     3
 10
2863.495230
 20
155.402497
 11
2871.605726
 21
155.402497
  0
LINE
  8
CSLAYER1
  6
CONTINUOUS
 62
     3
 10
2857.082714
 20
153.802497
 11
2874.726054
 21
153.802497
  0
LINE
  8
CSLAYER1
  6
CONTINUOUS
 62
     3
 10
2853.669775
 20
152.202497
 11
2877.601419
 21
152.202497
  0
LINE
  8
CSLAYER1
  6
CONTINUOUS
 62
     3
 10
2851.434455
 20
150.602497
 11
2879.444892
 21
150.602497
  0
LINE
  8
CSLAYER1
  6
CONTINUOUS
 62
     3
 10
2849.938799
 20
149.002497
 11
2880.679178
 21
149.002497
  0
LINE
  8
CSLAYER1
  6
CONTINUOUS
 62
     3
 10
2848.718485
 20
147.402497
 11
2881.728554
 21
147.402497
  0
LINE
  8
CSLAYER1
  6
CONTINUOUS
 62
     3
 10
2848.026593
 20
145.802497
 11
2882.454429
 21
145.802497
  0
LINE
  8
CSLAYER1
  6
CONTINUOUS
 62
     3
 10
2847.334701
 20
144.202497
 11
2882.792815
 21
144.202497
  0
LINE
  8
CSLAYER1
  6
CONTINUOUS
 62
     3
 10
2846.686351
 20
142.602497
 11
2883.131201
 21
142.602497
  0
LINE
  8
CSLAYER1
  6
CONTINUOUS
 62
     3
 10
2846.364692
 20
141.002497
 11
2883.469588
 21
141.002497
  0
LINE
  8
CSLAYER1
  6
CONTINUOUS
 62
     3
 10
2846.043033
 20
139.402497
 11
2861.633276
 21
139.402497
  0
LINE
  8
CSLAYER1
  6
CONTINUOUS
 62
     3
 10
2845.721374
 20
137.802497
 11
2860.101015
 21
137.802497
  0
LINE
  8
CSLAYER1
  6
CONTINUOUS
 62
     3
 10
2845.399715
 20
136.202497
 11
2859.312846
 21
136.202497
  0
LINE
  8
CSLAYER1
  6
CONTINUOUS
 62
     3
 10
2845.158598
 20
134.602497
 11
2858.994078
 21
134.602497
  0
LINE
  8
CSLAYER1
  6
CONTINUOUS
 62
     3
 10
2845.038428
 20
133.002497
 11
2859.044099
 21
133.002497
  0
LINE
  8
CSLAYER1
  6
CONTINUOUS
 62
     3
 10
2845.013406
 20
131.402497
 11
2859.590186
 21
131.402497
  0
LINE
  8
CSLAYER1
  6
CONTINUOUS
 62
     3
 10
2845.512594
 20
129.802497
 11
2861.620189
 21
129.802497
  0
LINE
  8
CSLAYER1
  6
CONTINUOUS
 62
     3
 10
2846.223705
 20
128.202497
 11
2878.751560
 21
128.202497
  0
LINE
  8
CSLAYER1
  6
CONTINUOUS
 62
     3
 10
2846.934816
 20
126.602497
 11
2878.300278
 21
126.602497
  0
LINE
  8
CSLAYER1
  6
CONTINUOUS
 62
     3
 10
2847.645927
 20
125.002497
 11
2877.577254
 21
125.002497
  0
LINE
  8
CSLAYER1
  6
CONTINUOUS
 62
     3
 10
2848.607886
 20
123.402497
 11
2876.679067
 21
123.402497
  0
LINE
  8
CSLAYER1
  6
CONTINUOUS
 62
     3
 10
2849.856347
 20
121.802497
 11
2875.174141
 21
121.802497
  0
LINE
  8
CSLAYER1
  6
CONTINUOUS
 62
     3
 10
2851.461767
 20
120.202497
 11
2872.781681
 21
120.202497
  0
LINE
  8
CSLAYER1
  6
CONTINUOUS
 62
     3
 10
2853.608909
 20
118.602497
 11
2869.656557
 21
118.602497
  0
LINE
  8
CSLAYER1
  6
CONTINUOUS
 62
     3
 10
2856.856599
 20
117.002497
 11
2865.018408
 21
117.002497
  0
LINE
  8
CSLAYER1
  6
CONTINUOUS
 62
     3
 10
2866.825100
 20
139.402497
 11
2883.644837
 21
139.402497
  0
LINE
  8
CSLAYER1
  6
CONTINUOUS
 62
     3
 10
2867.495844
 20
137.802497
 11
2883.519068
 21
137.802497
  0
LINE
  8
CSLAYER1
  6
CONTINUOUS
 62
     3
 10
2867.607851
 20
136.202497
 11
2883.393298
 21
136.202497
  0
LINE
  8
CSLAYER1
  6
CONTINUOUS
 62
     3
 10
2867.362494
 20
134.602497
 11
2882.679442
 21
134.602497
  0
LINE
  8
CSLAYER1
  6
CONTINUOUS
 62
     3
 10
2866.710848
 20
133.002497
 11
2881.958242
 21
133.002497
  0
LINE
  8
CSLAYER1
  6
CONTINUOUS
 62
     3
 10
2865.577585
 20
131.402497
 11
2881.024294
 21
131.402497
  0
LINE
  8
CSLAYER1
  6
CONTINUOUS
 62
     3
 10
2863.321589
 20
129.802497
 11
2879.753587
 21
129.802497
  0
TEXT
  8
CSLAYER1
 62
     5
 10
2884.185331
 20
137.413662
 40
4.713448
 41
1.951056
  1
M
 50
0.000000
 51
0.000000
  7
EASYDRAW_FONT
 72
     5
 11
2890.316133
 21
137.413662
  0
TEXT
  8
CSLAYER1
 62
     5
 10
2893.836719
 20
137.355391
 40
4.626621
 41
0.778201
  1
T
 50
0.000000
 51
0.000000
  7
EASYDRAW_FONT
 72
     5
 11
2896.237012
 21
137.355391
  0
TEXT
  8
CSLAYER1
 62
     5
 10
2896.602281
 20
137.390190
 40
4.696183
 41
1.055553
  1
E
 50
0.000000
 51
0.000000
  7
EASYDRAW_FONT
 72
     5
 11
2899.906996
 21
137.390190
  0
TEXT
  8
CSLAYER1
 62
     5
 10
2899.718462
 20
139.006034
 40
0.348283
 41
9.375319
  1
-
 50
0.000000
 51
0.000000
  7
EASYDRAW_FONT
 72
     5
 11
2901.895307
 21
139.006034
  0
TEXT
  8
CSLAYER1
 62
     5
 10
2901.532672
 20
137.358843
 40
4.861659
 41
1.298502
  1
H
 50
0.000000
 51
0.000000
  7
EASYDRAW_FONT
 72
     5
 11
2905.741254
 21
137.358843
  0
TEXT
  8
CSLAYER1
 62
     5
 10
2905.608687
 20
137.389222
 40
4.843139
 41
1.269236
  1
A
 50
0.000000
 51
0.000000
  7
EASYDRAW_FONT
 72
     5
 11
2909.706743
 21
137.389222
  0
TEXT
  8
CSLAYER1
 62
     5
 10
2909.314843
 20
137.347695
 40
4.825362
 41
1.490144
  1
N
 50
0.000000
 51
0.000000
  7
EASYDRAW_FONT
 72
     5
 11
2914.108497
 21
137.347695
  0
TEXT
  8
CSLAYER1
 62
     5
 10
2890.106300
 20
137.325122
 40
4.982325
 41
1.177443
  1
A
 50
0.000000
 51
0.000000
  7
EASYDRAW_FONT
 72
     5
 11
2894.017235
 21
137.325122
  0
TEXT
  8
CSLAYER1
 62
     5
 10
2884.552345
 20
130.329883
 40
4.982325
 41
1.177443
  1
A
 50
0.000000
 51
0.000000
  7
EASYDRAW_FONT
 72
     5
 11
2888.463280
 21
130.329883
  0
TEXT
  8
CSLAYER1
 62
     5
 10
2897.336769
 20
130.358203
 40
4.982325
 41
1.177443
  1
A
 50
0.000000
 51
0.000000
  7
EASYDRAW_FONT
 72
     5
 11
2901.247704
 21
130.358203
  0
TEXT
  8
CSLAYER1
 62
     5
 10
2901.097313
 20
130.415200
 40
4.825362
 41
1.490144
  1
N
 50
0.000000
 51
0.000000
  7
EASYDRAW_FONT
 72
     5
 11
2905.890968
 21
130.415200
  0
TEXT
  8
CSLAYER1
 62
     5
 10
2909.999649
 20
130.423595
 40
4.841775
 41
1.184218
  1
E
 50
0.000000
 51
0.000000
  7
EASYDRAW_FONT
 72
     5
 11
2913.822128
 21
130.423595
  0
TEXT
  8
CSLAYER1
 62
     5
 10
2888.832899
 20
130.328558
 40
4.947865
 41
1.093992
  1
D
 50
0.000000
 51
0.000000
  7
EASYDRAW_FONT
 72
     5
 11
2892.441515
 21
130.328558
  0
TEXT
  8
CSLAYER1
 62
     5
 10
2893.235257
 20
130.323173
 40
4.924210
 41
1.228195
  1
V
 50
0.000000
 51
0.000000
  7
EASYDRAW_FONT
 72
     5
 11
2897.267184
 21
130.323173
  0
TEXT
  8
CSLAYER1
 62
     5
 10
2905.460458
 20
130.343905
 40
5.032894
 41
1.481023
  1
C
 50
0.000000
 51
0.000000
  7
EASYDRAW_FONT
 72
     5
 11
2910.429678
 21
130.343905
  0
LINE
  8
CSLAYER1
  6
CONTINUOUS
 62
     5
 10
2896.090742
 20
141.404313
 11
2895.078681
 21
141.404313
  0
LINE
  8
CSLAYER1
  6
CONTINUOUS
 62
     3
 10
2845.188981
 20
175.629584
 11
2894.986807
 21
175.629584
  0
LINE
  8
CSLAYER1
  6
CONTINUOUS
 62
     3
 10
2838.076617
 20
174.029584
 11
2906.066498
 21
174.029584
  0
LINE
  8
CSLAYER1
  6
CONTINUOUS
 62
     3
 10
2830.628212
 20
172.429584
 11
2876.051522
 21
172.429584
  0
LINE
  8
CSLAYER1
  6
CONTINUOUS
 62
     3
 10
2889.013072
 20
172.429584
 11
2898.599676
 21
172.429584
  0
LINE
  8
CSLAYER1
  6
CONTINUOUS
 62
     3
 10
2902.908809
 20
172.429584
 11
2911.421806
 21
172.429584
  0
LINE
  8
CSLAYER1
  6
CONTINUOUS
 62
     3
 10
2832.031351
 20
170.829584
 11
2888.737820
 21
170.829584
  0
LINE
  8
CSLAYER1
  6
CONTINUOUS
 62
     3
 10
2908.917959
 20
170.829584
 11
2915.024204
 21
170.829584
  0
LINE
  8
CSLAYER1
  6
CONTINUOUS
 62
     3
 10
2830.119018
 20
169.229584
 11
2902.873368
 21
169.229584
  0
LINE
  8
CSLAYER1
  6
CONTINUOUS
 62
     3
 10
2914.819257
 20
169.229584
 11
2917.052979
 21
169.229584
  0
LINE
  8
CSLAYER1
  6
CONTINUOUS
 62
     3
 10
2829.056792
 20
167.629584
 11
2910.585225
 21
167.629584
  0
LINE
  8
CSLAYER1
  6
CONTINUOUS
 62
     3
 10
2830.732459
 20
166.029584
 11
2915.394533
 21
166.029584
  0
LINE
  8
CSLAYER1
  6
CONTINUOUS
 62
     3
 10
2831.900027
 20
164.429584
 11
2891.013406
 21
164.429584
  0
LINE
  8
CSLAYER1
  6
CONTINUOUS
 62
     3
 10
2906.513171
 20
164.429584
 11
2921.517494
 21
164.429584
  0
LINE
  8
CSLAYER1
  6
CONTINUOUS
 62
     3
 10
2832.145150
 20
162.829584
 11
2867.513406
 21
162.829584
  0
LINE
  8
CSLAYER1
  6
CONTINUOUS
 62
     3
 10
2914.082099
 20
162.829584
 11
2923.604702
 21
162.829584
  0
LINE
  8
CSLAYER1
  6
CONTINUOUS
 62
     3
 10
2832.351475
 20
161.229584
 11
2845.816649
 21
161.229584
  0
LINE
  8
CSLAYER1
  6
CONTINUOUS
 62
     3
 10
2921.542448
 20
161.229584
 11
2928.027467
 21
161.229584
  0
LINE
  8
CSLAYER1
  6
CONTINUOUS
 62
     3
 10
2929.605442
 20
159.629584
 11
2931.774296
 21
159.629584
  0
ENDBLK
  8
0
  0
ENDSEC
  0
SECTION
  2
ENTITIES
  0
LINE
  8
CSLAYER1
  6
CONTINUOUS
 62
     3
 10
200.128800
 20
2458.390820
 11
200.128800
 21
109.843890
  0
LINE
  8
CSLAYER1
  6
CONTINUOUS
 62
     3
 10
3522.702111
 20
2458.390820
 11
200.128800
 21
2458.390820
  0
LINE
  8
CSLAYER1
  6
CONTINUOUS
 62
     3
 10
3522.702111
 20
2458.390820
 11
3522.702111
 21
109.843890
  0
LINE
  8
CSLAYER1
  6
CONTINUOUS
 62
     3
 10
3522.702111
 20
109.843890
 11
200.128800
 21
109.843890
  0
LINE
  8
CSLAYER1
  6
CONTINUOUS
 62
     5
 10
150.128800
 20
1269.843890
 11
100.128800
 21
1269.843890
  0
TEXT
  8
CSLAYER1
 62
     5
 10
3021.904997
 20
822.457813
 40
31.844261
 41
0.920655
  1
Ｆ.Ｌ
 50
0.000000
 51
0.000000
  7
EASYDRAW_FONT
 72
     5
 11
3100.085238
 21
822.457813
  0
LINE
  8
CSLAYER1
  6
CENTER
 62
     5
 10
1423.367389
 20
2000.276935
 11
2333.503092
 21
2000.276935
  0
LINE
  8
CSLAYER1
  6
CONTINUOUS
 62
     4
 10
1466.067389
 20
2100.276935
 11
1466.067389
 21
1900.276935
  0
LINE
  8
CSLAYER1
  6
CONTINUOUS
 62
     4
 10
2293.503092
 20
2100.276935
 11
2293.503092
 21
1900.276935
  0
LINE
  8
CSLAYER1
  6
CONTINUOUS
 62
     3
 10
1463.367389
 20
2026.126935
 11
1463.367389
 21
1860.276935
  0
LINE
  8
CSLAYER1
  6
CONTINUOUS
 62
     3
 10
1513.367389
 20
2140.276935
 11
1513.367389
 21
2100.276935
  0
LINE
  8
CSLAYER1
  6
CONTINUOUS
 62
     3
 10
1473.367389
 20
2150.276935
 11
1503.367389
 21
2150.276935
  0
ARC
  8
CSLAYER1
  6
CONTINUOUS
 62
     3
 10
1503.367389
 20
2140.276935
 40
10.000000
 50
0.000000
 51
90.000000
  0
LINE
  8
CSLAYER1
  6
CENTER
 62
     5
 10
1488.367389
 20
2114.014134
 11
1488.367389
 21
2136.539737
  0
LINE
  8
CSLAYER1
  6
CENTER
 62
     5
 10
1477.104588
 20
2125.276935
 11
1499.630191
 21
2125.276935
  0
LINE
  8
CSLAYER1
  6
CENTER
 62
     5
 10
1238.671230
 20
2030.276935
 11
1466.067389
 21
2030.276935
  0
LINE
  8
CSLAYER1
  6
CONTINUOUS
 62
     3
 10
1463.367389
 20
2074.776935
 11
1466.067389
 21
2074.776935
  0
LINE
  8
CSLAYER1
  6
CONTINUOUS
 62
     3
 10
1238.671230
 20
2034.426935
 11
1466.067389
 21
2034.426935
  0
LINE
  8
CSLAYER1
  6
CONTINUOUS
 62
     3
 10
1238.671230
 20
2026.126935
 11
1466.067389
 21
2026.126935
  0
LINE
  8
CSLAYER1
  6
CONTINUOUS
 62
     3
 10
1463.367389
 20
2034.426935
 11
1463.367389
 21
2140.276935
  0
DIMENSION
  8
CSLAYER1
 62
     3
  2
*D0000
 10
1378.113329
 20
2125.276935
 11
1369.861084
 21
1974.724121
 13
1477.104588
 23
1875.276935
 14
1498.367389
 24
2125.276935
 50
90.000000
  0
INSERT
  8
CSLAYER1
  2
EASYDRAWDIM0000
 10
0.0
 20
0.0
 30
0.0
  0
INSERT
  8
CSLAYER1
  2
EASYDRAWDIM0001
 10
0.0
 20
0.0
 30
0.0
  0
LINE
  8
CSLAYER1
  6
CENTER
 62
     5
 10
1488.367389
 20
856.714541
 11
1488.367389
 21
827.937727
  0
POINT
  8
CSLAYER1
 62
     4
 10
1488.367389
 20
841.850501
  0
LINE
  8
CSLAYER1
  6
CONTINUOUS
 62
     3
 10
1463.367389
 20
862.850501
 11
1463.367389
 21
818.850501
  0
LINE
  8
CSLAYER1
  6
CONTINUOUS
 62
     5
 10
598.110634
 20
818.850501
 11
745.545918
 21
818.850501
  0
LINE
  8
CSLAYER1
  6
CONTINUOUS
 62
     3
 10
1513.367389
 20
862.850501
 11
1513.367389
 21
818.850501
  0
LINE
  8
CSLAYER1
  6
CONTINUOUS
 62
     3
 10
1463.367389
 20
824.850501
 11
1513.367389
 21
824.850501
  0
LINE
  8
CSLAYER1
  6
CONTINUOUS
 62
     3
 10
1507.367389
 20
862.850501
 11
1507.367389
 21
824.850501
  0
CIRCLE
  8
CSLAYER1
  6
CONTINUOUS
 62
     3
 10
1488.367389
 20
841.850501
 40
8.650000
  0
CIRCLE
  8
CSLAYER1
  6
CONTINUOUS
 62
     3
 10
1488.367389
 20
841.850501
 40
5.000000
  0
CIRCLE
  8
CSLAYER1
  6
CONTINUOUS
 62
     3
 10
1488.367389
 20
841.850501
 40
9.500000
  0
LINE
  8
CSLAYER1
  6
CONTINUOUS
 62
     3
 10
1497.867389
 20
847.335329
 11
1488.367389
 21
852.820157
  0
LINE
  8
CSLAYER1
  6
CONTINUOUS
 62
     3
 10
1488.367389
 20
852.820157
 11
1478.867389
 21
847.335329
  0
LINE
  8
CSLAYER1
  6
CONTINUOUS
 62
     3
 10
1478.867389
 20
847.335329
 11
1478.867389
 21
836.365674
  0
LINE
  8
CSLAYER1
  6
CONTINUOUS
 62
     3
 10
1478.867389
 20
836.365674
 11
1488.367389
 21
830.880846
  0
LINE
  8
CSLAYER1
  6
CONTINUOUS
 62
     3
 10
1488.367389
 20
830.880846
 11
1497.867389
 21
836.365674
  0
LINE
  8
CSLAYER1
  6
CONTINUOUS
 62
     3
 10
1497.867389
 20
836.365674
 11
1497.867389
 21
847.335329
  0
POINT
  8
CSLAYER1
 62
     3
 10
1488.367389
 20
841.850501
  0
CIRCLE
  8
CSLAYER1
  6
CONTINUOUS
 62
     3
 10
1488.367389
 20
841.850501
 40
6.000000
  0
LINE
  8
CSLAYER1
  6
CONTINUOUS
 62
     3
 10
1463.367389
 20
862.850501
 11
2266.067389
 21
862.850501
  0
LINE
  8
CSLAYER1
  6
CONTINUOUS
 62
     3
 10
2266.067389
 20
862.850501
 11
2266.067389
 21
818.850501
  0
INSERT
  8
CSLAYER1
  2
BLKF0000
 10
0.0
 20
0.0
 30
0.0
  0
CIRCLE
  8
CSLAYER1
  6
CONTINUOUS
 62
     4
 10
1548.333720
 20
904.900396
 40
8.250000
  0
LINE
  8
CSLAYER1
  6
CONTINUOUS
 62
     4
 10
1638.092983
 20
1079.535085
 11
1644.046174
 21
1075.530290
  0
LINE
  8
CSLAYER1
  6
CONTINUOUS
 62
     4
 10
1604.489633
 20
1035.853683
 11
1604.787890
 21
1035.653042
  0
LINE
  8
CSLAYER1
  6
CONTINUOUS
 62
     4
 10
1604.218075
 20
1037.241579
 11
1623.195827
 21
1065.452303
  0
LINE
  8
CSLAYER1
  6
CONTINUOUS
 62
     4
 10
1623.195827
 20
1065.452303
 11
1638.092983
 21
1079.535085
  0
LINE
  8
CSLAYER1
  6
CONTINUOUS
 62
     4
 10
1604.218075
 20
1037.241579
 11
1604.489633
 21
1035.853683
  0
POINT
  8
CSLAYER1
 62
     4
 10
1548.333720
 20
904.900396
  0
CIRCLE
  8
CSLAYER1
  6
CONTINUOUS
 62
     4
 10
1745.423253
 20
1197.877060
 40
8.000000
  0
POINT
  8
CSLAYER1
 62
     4
 10
1745.423253
 20
1197.877060
  0
LINE
  8
CSLAYER1
  6
CONTINUOUS
 62
     4
 10
1642.241618
 20
1076.744240
 11
1691.236634
 21
1149.576095
  0
LINE
  8
CSLAYER1
  6
CENTER
 62
     5
 10
1548.333720
 20
904.900396
 11
1753.014354
 21
1209.161350
  0
CIRCLE
  8
CSLAYER1
  6
CONTINUOUS
 62
     7
 10
1751.450380
 20
1109.081375
 40
10.000000
  0
CIRCLE
  8
CSLAYER1
  6
CONTINUOUS
 62
     7
 10
1745.423253
 20
1197.877060
 40
8.000000
  0
ARC
  8
CSLAYER1
  6
CONTINUOUS
 62
     7
 10
1704.091545
 20
1157.186891
 40
72.000000
 50
33.832141
 51
87.150680
  0
LINE
  8
CSLAYER1
  6
CONTINUOUS
 62
     7
 10
1692.008628
 20
1148.791929
 11
1555.205473
 21
1287.751984
  0
LINE
  8
CSLAYER1
  6
CONTINUOUS
 62
     7
 10
1790.226278
 20
1049.025736
 11
1771.563184
 21
1058.717944
  0
LINE
  8
CSLAYER1
  6
CONTINUOUS
 62
     7
 10
1692.008628
 20
1148.791929
 11
1700.142769
 21
1132.511328
  0
LINE
  8
CSLAYER1
  6
CONTINUOUS
 62
     7
 10
1751.450380
 20
1079.147855
 11
1771.563184
 21
1058.717944
  0
LINE
  8
CSLAYER1
  6
CONTINUOUS
 62
     7
 10
1790.226278
 20
1049.025736
 11
1973.511753
 21
862.850501
  0
POINT
  8
CSLAYER1
 62
     7
 10
2014.533371
 20
841.850501
  0
ARC
  8
CSLAYER1
  6
CONTINUOUS
 62
     7
 10
2014.533371
 20
841.850501
 40
18.500000
 50
65.556769
 51
120.003527
  0
POINT
  8
CSLAYER1
 62
     7
 10
1745.423253
 20
1197.877060
  0
POINT
  8
CSLAYER1
 62
     7
 10
1751.450380
 20
1109.081375
  0
LINE
  8
CSLAYER1
  6
CONTINUOUS
 62
     7
 10
2003.193177
 20
928.915994
 11
2023.299014
 21
862.850501
  0
LINE
  8
CSLAYER1
  6
CONTINUOUS
 62
     7
 10
1543.463404
 20
1395.894069
 11
1707.670631
 21
1229.097879
  0
LINE
  8
CSLAYER1
  6
CONTINUOUS
 62
     7
 10
1555.205473
 20
1287.751984
 11
1504.983596
 21
1392.355738
  0
LINE
  8
CSLAYER1
  6
CONTINUOUS
 62
     7
 10
1802.805429
 20
1132.463143
 11
2003.193177
 21
928.915994
  0
LINE
  8
CSLAYER1
  6
CONTINUOUS
 62
     4
 10
1978.251628
 20
1313.801169
 11
1998.150906
 21
1388.487146
  0
ARC
  8
CSLAYER1
  6
CONTINUOUS
 62
     4
 10
1987.097668
 20
1403.322103
 40
18.500000
 50
-187.141738
 51
7.141738
  0
ARC
  8
CSLAYER1
  6
CONTINUOUS
 62
     4
 10
1987.097668
 20
1403.322103
 40
6.000000
 50
-202.540310
 51
22.540310
  0
POINT
  8
CSLAYER1
 62
     4
 10
1751.450380
 20
1109.081375
  0
LINE
  8
CSLAYER1
  6
CONTINUOUS
 62
     4
 10
1968.704492
 20
1405.307314
 11
1499.707584
 21
928.915994
  0
LINE
  8
CSLAYER1
  6
CONTINUOUS
 62
     4
 10
1978.251628
 20
1313.801169
 11
1806.370741
 21
1139.210331
  0
LINE
  8
CSLAYER1
  6
CONTINUOUS
 62
     4
 10
1806.370741
 20
1139.210331
 11
1801.493041
 21
1129.979511
  0
LINE
  8
CSLAYER1
  6
CONTINUOUS
 62
     4
 10
1731.337577
 20
1058.717944
 11
1801.493041
 21
1129.979511
  0
LINE
  8
CSLAYER1
  6
CONTINUOUS
 62
     4
 10
1722.184184
 20
1053.696452
 11
1731.337577
 21
1058.717944
  0
LINE
  8
CSLAYER1
  6
CONTINUOUS
 62
     4
 10
1534.300491
 20
862.850501
 11
1722.184184
 21
1053.696452
  0
LINE
  8
CSLAYER1
  6
CONTINUOUS
 62
     4
 10
1499.707584
 20
928.915994
 11
1480.843959
 21
862.850501
  0
LINE
  8
CSLAYER1
  6
CONTINUOUS
 62
     7
 10
1548.198632
 20
876.967767
 11
1550.692787
 21
874.512326
  0
CIRCLE
  8
CSLAYER1
  6
CONTINUOUS
 62
     7
 10
1548.333720
 20
904.900396
 40
8.000000
  0
LINE
  8
CSLAYER1
  6
CONTINUOUS
 62
     7
 10
1570.325256
 20
895.879735
 11
1549.980172
 21
875.213881
  0
LINE
  8
CSLAYER1
  6
CONTINUOUS
 62
     7
 10
1559.558594
 20
916.302247
 11
1567.397366
 21
908.585146
  0
ARC
  8
CSLAYER1
  6
CONTINUOUS
 62
     7
 10
1548.333720
 20
904.900396
 40
16.000000
 50
45.448133
 51
88.880670
  0
ARC
  8
CSLAYER1
  6
CONTINUOUS
 62
     7
 10
1565.336947
 20
900.790617
 40
7.000000
 50
-44.551867
 51
5.442932
  0
POINT
  8
CSLAYER1
 62
     7
 10
1548.333720
 20
904.900396
  0
LINE
  8
CSLAYER1
  6
CONTINUOUS
 62
     7
 10
1550.692787
 20
874.512326
 11
1539.211974
 21
862.850501
  0
LINE
  8
CSLAYER1
  6
CONTINUOUS
 62
     4
 10
1623.195827
 20
1065.452303
 11
1629.770434
 21
1061.029472
  0
LINE
  8
CSLAYER1
  6
CENTER
 62
     5
 10
2014.533371
 20
863.479071
 11
2014.533371
 21
820.989491
  0
LINE
  8
CSLAYER1
  6
CENTER
 62
     5
 10
1991.169299
 20
841.850501
 11
2041.625676
 21
841.850501
  0
ARC
  8
CSLAYER1
  6
CONTINUOUS
 62
     7
 10
2014.533371
 20
841.850501
 40
18.500000
 50
158.503526
 51
207.162714
  0
ARC
  8
CSLAYER1
  6
CONTINUOUS
 62
     7
 10
2014.533371
 20
841.850501
 40
18.500000
 50
246.238191
 51
293.124953
  0
ARC
  8
CSLAYER1
  6
CONTINUOUS
 62
     7
 10
2014.533371
 20
841.850501
 40
18.500000
 50
-26.285980
 51
29.355347
  0
LINE
  8
CSLAYER1
  6
CENTER
 62
     5
 10
1733.090595
 20
1109.081375
 11
1770.217197
 21
1109.081375
  0
LINE
  8
CSLAYER1
  6
CENTER
 62
     5
 10
1732.104933
 20
1197.877060
 11
1759.374915
 21
1197.877060
  0
LINE
  8
CSLAYER1
  6
CENTER
 62
     5
 10
1745.423253
 20
1210.225602
 11
1745.423253
 21
1183.941282
  0
LINE
  8
CSLAYER1
  6
CENTER
 62
     5
 10
1751.450380
 20
1127.758549
 11
1751.450380
 21
1091.289055
  0
LINE
  8
CSLAYER1
  6
CENTER
 62
     5
 10
1987.097668
 20
1422.346758
 11
1987.097668
 21
1379.805297
  0
LINE
  8
CSLAYER1
  6
CENTER
 62
     5
 10
1515.803092
 20
1440.622103
 11
1515.803092
 21
1383.878894
  0
LINE
  8
CSLAYER1
  6
CENTER
 62
     5
 10
1471.738187
 20
841.850501
 11
1504.108473
 21
841.850501
  0
INSERT
  8
CSLAYER1
  2
BLKF0001
 10
0.0
 20
0.0
 30
0.0
  0
LINE
  8
CSLAYER1
  6
CENTER
 62
     5
 10
1488.367389
 20
883.850501
 11
1488.367389
 21
862.107293
  0
INSERT
  8
CSLAYER1
  2
BLKF0002
 10
0.0
 20
0.0
 30
0.0
  0
DIMENSION
  8
CSLAYER1
 62
     3
  2
*D0001
 10
2413.503092
 20
1440.622103
 11
2403.502930
 21
1179.736450
 13
2293.110019
 23
918.850501
 14
2293.110019
 24
1440.622103
 50
90.000000
 70
1
  0
DIMENSION
  8
CSLAYER1
 62
     3
  2
*D0002
 10
2503.503092
 20
818.850501
 11
2493.502930
 21
1129.736450
 13
2503.503092
 23
1440.622103
 14
2503.503092
 24
818.850501
 50
90.000000
 70
1
  0
DIMENSION
  8
CSLAYER1
 62
     3
  2
*D0003
 10
2293.503092
 20
1540.622103
 11
1893.503052
 21
1550.621948
 13
1493.503092
 23
1440.622103
 14
2293.503092
 24
1440.622103
 70
1
  0
DIMENSION
  8
CSLAYER1
 62
     3
  2
*D0004
 10
1493.503092
 20
1242.128133
 11
1383.961914
 21
1265.598755
 13
1466.067389
 23
918.850501
 14
1493.503092
 24
1405.622103
  0
INSERT
  8
CSLAYER1
  2
EASYDRAWDIM0002
 10
0.0
 20
0.0
 30
0.0
  0
INSERT
  8
CSLAYER1
  2
EASYDRAWDIM0003
 10
0.0
 20
0.0
 30
0.0
  0
LINE
  8
CSLAYER1
  6
CONTINUOUS
 62
     3
 10
1323.572733
 20
843.000501
 11
1463.367389
 21
843.000501
  0
LINE
  8
CSLAYER1
  6
CENTER
 62
     5
 10
1323.572733
 20
838.850501
 11
1463.367389
 21
838.850501
  0
LINE
  8
CSLAYER1
  6
CONTINUOUS
 62
     3
 10
1323.572733
 20
834.700501
 11
1463.367389
 21
834.700501
  0
LINE
  8
CSLAYER1
  6
CONTINUOUS
 62
     5
 10
1623.195827
 20
1065.452303
 11
1369.888000
 21
1165.389655
  0
LINE
  8
CSLAYER1
  6
CONTINUOUS
 62
     5
 10
1623.195827
 20
1065.452303
 11
1593.390494
 21
1068.864363
  0
LINE
  8
CSLAYER1
  6
CONTINUOUS
 62
     5
 10
1623.195827
 20
1065.452303
 11
1599.089682
 21
1083.309900
  0
DIMENSION
  8
CSLAYER1
 62
     3
  2
*D0005
 10
2266.067389
 20
608.850501
 11
1864.717285
 21
618.850708
 13
1463.367389
 23
818.850501
 14
2266.067389
 24
818.850501
 52
270.000000
 70
1
  0
LINE
  8
CSLAYER1
  6
CENTER
 62
     5
 10
2802.383249
 20
778.850501
 11
2802.383249
 21
958.850501
  0
LINE
  8
CSLAYER1
  6
CENTER
 62
     5
 10
2927.383249
 20
809.921140
 11
2927.383249
 21
834.131102
  0
LINE
  8
CSLAYER1
  6
CENTER
 62
     5
 10
2677.383249
 20
809.921140
 11
2677.383249
 21
834.131102
  0
LINE
  8
CSLAYER1
  6
CENTER
 62
     5
 10
2727.883249
 20
881.550501
 11
2876.883249
 21
881.550501
  0
LINE
  8
CSLAYER1
  6
CONTINUOUS
 62
     3
 10
2702.383249
 20
862.850501
 11
2702.383249
 21
818.850501
  0
LINE
  8
CSLAYER1
  6
CONTINUOUS
 62
     3
 10
2902.383249
 20
862.850501
 11
2902.383249
 21
818.850501
  0
LINE
  8
CSLAYER1
  6
CONTINUOUS
 62
     3
 10
2952.383249
 20
818.850501
 11
2952.383249
 21
824.850501
  0
LINE
  8
CSLAYER1
  6
CONTINUOUS
 62
     3
 10
2952.383249
 20
824.850501
 11
2902.383249
 21
824.850501
  0
LINE
  8
CSLAYER1
  6
CONTINUOUS
 62
     3
 10
2652.383249
 20
818.850501
 11
2652.383249
 21
824.850501
  0
LINE
  8
CSLAYER1
  6
CONTINUOUS
 62
     3
 10
2652.383249
 20
824.850501
 11
2702.383249
 21
824.850501
  0
LINE
  8
CSLAYER1
  6
CONTINUOUS
 62
     3
 10
2848.383249
 20
862.850501
 11
2848.383249
 21
886.550501
  0
LINE
  8
CSLAYER1
  6
CONTINUOUS
 62
     3
 10
2857.383249
 20
862.850501
 11
2857.383249
 21
886.550501
  0
LINE
  8
CSLAYER1
  6
CONTINUOUS
 62
     3
 10
2860.383249
 20
862.850501
 11
2860.383249
 21
886.550501
  0
LINE
  8
CSLAYER1
  6
CONTINUOUS
 62
     3
 10
2869.383249
 20
862.850501
 11
2869.383249
 21
886.550501
  0
LINE
  8
CSLAYER1
  6
CONTINUOUS
 62
     3
 10
2876.883249
 20
886.550501
 11
2876.883249
 21
872.550501
  0
ARC
  8
CSLAYER1
  6
CONTINUOUS
 62
     3
 10
2863.087505
 20
881.550501
 40
13.795744
 50
-23.426598
 51
21.249544
  0
LINE
  8
CSLAYER1
  6
CONTINUOUS
 62
     3
 10
2869.383249
 20
876.065674
 11
2875.746068
 21
876.065674
  0
LINE
  8
CSLAYER1
  6
CONTINUOUS
 62
     3
 10
2869.383249
 20
870.580846
 11
2875.746068
 21
870.580846
  0
LINE
  8
CSLAYER1
  6
CONTINUOUS
 62
     3
 10
2876.883249
 20
872.550501
 11
2875.746068
 21
870.580846
  0
ARC
  8
CSLAYER1
  6
CONTINUOUS
 62
     3
 10
2873.103204
 20
873.323260
 40
3.808617
 50
5.661633
 51
46.059028
  0
LINE
  8
CSLAYER1
  6
CONTINUOUS
 62
     3
 10
2840.383249
 20
886.550501
 11
2840.383249
 21
862.850501
  0
LINE
  8
CSLAYER1
  6
CONTINUOUS
 62
     3
 10
2785.383249
 20
862.850501
 11
2785.383249
 21
886.550501
  0
LINE
  8
CSLAYER1
  6
CENTER
 62
     5
 10
2772.883249
 20
862.850501
 11
2772.883249
 21
886.550501
  0
LINE
  8
CSLAYER1
  6
CONTINUOUS
 62
     3
 10
2702.383249
 20
918.850501
 11
2902.383249
 21
918.850501
  0
LINE
  8
CSLAYER1
  6
CONTINUOUS
 62
     3
 10
2727.883249
 20
886.550501
 11
2727.883249
 21
872.550501
  0
ARC
  8
CSLAYER1
  6
CONTINUOUS
 62
     3
 10
2741.678993
 20
881.550501
 40
13.795744
 50
158.750456
 51
203.426598
  0
LINE
  8
CSLAYER1
  6
CONTINUOUS
 62
     3
 10
2735.383249
 20
876.065674
 11
2729.020430
 21
876.065674
  0
LINE
  8
CSLAYER1
  6
CONTINUOUS
 62
     3
 10
2735.383249
 20
870.580846
 11
2729.020430
 21
870.580846
  0
LINE
  8
CSLAYER1
  6
CONTINUOUS
 62
     3
 10
2727.883249
 20
872.550501
 11
2729.020430
 21
870.580846
  0
ARC
  8
CSLAYER1
  6
CONTINUOUS
 62
     3
 10
2731.663293
 20
873.323260
 40
3.808617
 50
133.940972
 51
174.338367
  0
LINE
  8
CSLAYER1
  6
CONTINUOUS
 62
     3
 10
2756.383249
 20
862.850501
 11
2756.383249
 21
886.550501
  0
LINE
  8
CSLAYER1
  6
CONTINUOUS
 62
     3
 10
2747.383249
 20
862.850501
 11
2747.383249
 21
886.550501
  0
LINE
  8
CSLAYER1
  6
CONTINUOUS
 62
     3
 10
2744.383249
 20
862.850501
 11
2744.383249
 21
886.550501
  0
LINE
  8
CSLAYER1
  6
CONTINUOUS
 62
     3
 10
2735.383249
 20
862.850501
 11
2735.383249
 21
886.550501
  0
LINE
  8
CSLAYER1
  6
CONTINUOUS
 62
     3
 10
2702.383249
 20
886.550501
 11
2902.383249
 21
886.550501
  0
LINE
  8
CSLAYER1
  6
CONTINUOUS
 62
     3
 10
2768.733249
 20
862.850501
 11
2768.733249
 21
886.550501
  0
LINE
  8
CSLAYER1
  6
CONTINUOUS
 62
     3
 10
2777.033249
 20
862.850501
 11
2777.033249
 21
886.550501
  0
LINE
  8
CSLAYER1
  6
CONTINUOUS
 62
     3
 10
2702.383249
 20
862.850501
 11
2902.383249
 21
862.850501
  0
DIMENSION
  8
CSLAYER1
 62
     3
  2
*D0006
 10
2593.503092
 20
918.850501
 11
2583.503174
 21
868.850403
 13
2712.383249
 23
818.850501
 14
2712.383249
 24
918.850501
 50
90.000000
 70
1
  0
TEXT
  8
CSLAYER1
 62
     7
 10
2748.547363
 20
991.882446
 40
40.000000
 41
0.843750
  1
下降時
 50
0.000000
 51
0.000000
  7
EASYDRAW_FONT
 72
     5
 11
2838.547363
 21
991.882446
  0
LINE
  8
CSLAYER1
  6
CONTINUOUS
 62
     5
 10
2734.940866
 20
1038.312706
 11
2857.898875
 21
1038.312706
  0
LINE
  8
CSLAYER1
  6
CONTINUOUS
 62
     5
 10
2857.898875
 20
1038.312706
 11
2857.898875
 21
985.452253
  0
LINE
  8
CSLAYER1
  6
CONTINUOUS
 62
     5
 10
2857.898875
 20
985.452253
 11
2734.940866
 21
985.452253
  0
LINE
  8
CSLAYER1
  6
CONTINUOUS
 62
     5
 10
2734.940866
 20
985.452253
 11
2734.940866
 21
1038.312706
  0
CIRCLE
  8
CSLAYER1
  6
CONTINUOUS
 62
     3
 10
1488.367389
 20
2125.276935
 40
6.500000
  0
ARC
  8
CSLAYER1
  6
CONTINUOUS
 62
     3
 10
1473.367389
 20
2140.276935
 40
10.000000
 50
90.000000
 51
180.000000
  0
TEXT
  8
CSLAYER1
 62
     7
 10
1470.438721
 20
2211.080078
 40
40.000000
 41
0.843750
  1
下降時
 50
0.000000
 51
0.000000
  7
EASYDRAW_FONT
 72
     5
 11
1560.438721
 21
2211.080078
  0
LINE
  8
CSLAYER1
  6
CONTINUOUS
 62
     5
 10
1456.832346
 20
2257.510583
 11
1579.790355
 21
2257.510583
  0
LINE
  8
CSLAYER1
  6
CONTINUOUS
 62
     5
 10
1579.790355
 20
2257.510583
 11
1579.790355
 21
2204.650130
  0
LINE
  8
CSLAYER1
  6
CONTINUOUS
 62
     5
 10
1579.790355
 20
2204.650130
 11
1456.832346
 21
2204.650130
  0
LINE
  8
CSLAYER1
  6
CONTINUOUS
 62
     5
 10
1456.832346
 20
2204.650130
 11
1456.832346
 21
2257.510583
  0
LINE
  8
CSLAYER1
  6
CONTINUOUS
 62
     5
 10
1488.367389
 20
805.724730
 11
1488.367389
 21
827.937727
  0
TEXT
  8
CSLAYER1
 62
     7
 10
1270.065674
 20
1319.310669
 40
40.000000
 41
0.787500
  1
テーブルのズレ
 50
0.000000
 51
0.000000
  7
EASYDRAW_FONT
 72
     5
 11
1480.065674
 21
1319.310669
  0
LINE
  8
CSLAYER1
  6
CENTER
 62
     5
 10
895.545918
 20
1480.622103
 11
895.545918
 21
778.850501
  0
LINE
  8
CSLAYER1
  6
CENTER
 62
     5
 10
1020.545918
 20
809.921140
 11
1020.545918
 21
834.131102
  0
LINE
  8
CSLAYER1
  6
CENTER
 62
     5
 10
770.545918
 20
809.921140
 11
770.545918
 21
834.131102
  0
LINE
  8
CSLAYER1
  6
CENTER
 62
     5
 10
865.545918
 20
822.160938
 11
865.545918
 21
855.424257
  0
LINE
  8
CSLAYER1
  6
CENTER
 62
     5
 10
847.671972
 20
838.850501
 11
884.668929
 21
838.850501
  0
LINE
  8
CSLAYER1
  6
CENTER
 62
     5
 10
821.045918
 20
1403.322103
 11
970.045918
 21
1403.322103
  0
LINE
  8
CSLAYER1
  6
CENTER
 62
     5
 10
816.045918
 20
1109.081375
 11
979.045918
 21
1109.081375
  0
LINE
  8
CSLAYER1
  6
CONTINUOUS
 62
     3
 10
827.045918
 20
858.850501
 11
964.045918
 21
858.850501
  0
LINE
  8
CSLAYER1
  6
CONTINUOUS
 62
     3
 10
795.545918
 20
862.850501
 11
795.545918
 21
824.850501
  0
LINE
  8
CSLAYER1
  6
CONTINUOUS
 62
     3
 10
995.545918
 20
862.850501
 11
995.545918
 21
824.850501
  0
LINE
  8
CSLAYER1
  6
CONTINUOUS
 62
     3
 10
1045.545918
 20
818.850501
 11
1045.545918
 21
824.850501
  0
LINE
  8
CSLAYER1
  6
CONTINUOUS
 62
     3
 10
970.045918
 20
824.850501
 11
970.045918
 21
862.850501
  0
LINE
  8
CSLAYER1
  6
CONTINUOUS
 62
     3
 10
1045.545918
 20
824.850501
 11
964.045918
 21
824.850501
  0
LINE
  8
CSLAYER1
  6
CONTINUOUS
 62
     3
 10
745.545918
 20
818.850501
 11
745.545918
 21
824.850501
  0
LINE
  8
CSLAYER1
  6
CONTINUOUS
 62
     3
 10
745.545918
 20
824.850501
 11
827.045918
 21
824.850501
  0
LINE
  8
CSLAYER1
  6
CONTINUOUS
 62
     3
 10
818.045918
 20
852.820157
 11
818.045918
 21
830.880846
  0
LINE
  8
CSLAYER1
  6
CONTINUOUS
 62
     3
 10
821.045918
 20
831.100501
 11
818.045918
 21
831.100501
  0
LINE
  8
CSLAYER1
  6
CONTINUOUS
 62
     3
 10
821.045918
 20
852.600501
 11
818.045918
 21
852.600501
  0
LINE
  8
CSLAYER1
  6
CONTINUOUS
 62
     3
 10
821.045918
 20
843.362698
 11
818.045918
 21
839.862698
  0
LINE
  8
CSLAYER1
  6
CONTINUOUS
 62
     3
 10
810.045918
 20
832.850501
 11
810.045918
 21
850.850501
  0
LINE
  8
CSLAYER1
  6
CONTINUOUS
 62
     3
 10
818.045918
 20
836.365674
 11
811.183099
 21
836.365674
  0
LINE
  8
CSLAYER1
  6
CONTINUOUS
 62
     3
 10
818.045918
 20
830.880846
 11
811.183099
 21
830.880846
  0
LINE
  8
CSLAYER1
  6
CONTINUOUS
 62
     3
 10
810.045918
 20
832.850501
 11
811.183099
 21
830.880846
  0
ARC
  8
CSLAYER1
  6
CONTINUOUS
 62
     3
 10
813.825963
 20
833.623260
 40
3.808617
 50
133.940972
 51
174.338367
  0
ARC
  8
CSLAYER1
  6
CONTINUOUS
 62
     3
 10
823.841663
 20
841.850501
 40
13.795744
 50
156.573402
 51
203.426598
  0
LINE
  8
CSLAYER1
  6
CONTINUOUS
 62
     3
 10
818.045918
 20
847.335329
 11
811.183099
 21
847.335329
  0
LINE
  8
CSLAYER1
  6
CONTINUOUS
 62
     3
 10
818.045918
 20
852.820157
 11
811.183099
 21
852.820157
  0
LINE
  8
CSLAYER1
  6
CONTINUOUS
 62
     3
 10
810.045918
 20
850.850501
 11
811.183099
 21
852.820157
  0
ARC
  8
CSLAYER1
  6
CONTINUOUS
 62
     3
 10
813.825963
 20
850.077743
 40
3.808617
 50
185.661633
 51
226.059028
  0
LINE
  8
CSLAYER1
  6
CENTER
 62
     5
 10
821.045918
 20
841.850501
 11
810.045918
 21
841.850501
  0
LINE
  8
CSLAYER1
  6
CONTINUOUS
 62
     3
 10
821.045918
 20
824.850501
 11
821.045918
 21
862.850501
  0
CIRCLE
  8
CSLAYER1
  6
CONTINUOUS
 62
     3
 10
865.545918
 20
838.850501
 40
12.500000
  0
LINE
  8
CSLAYER1
  6
CONTINUOUS
 62
     3
 10
995.545918
 20
1440.622103
 11
795.545918
 21
1440.622103
  0
LINE
  8
CSLAYER1
  6
CONTINUOUS
 62
     3
 10
941.545918
 20
858.850501
 11
941.545918
 21
1408.322103
  0
LINE
  8
CSLAYER1
  6
CONTINUOUS
 62
     3
 10
950.545918
 20
858.850501
 11
950.545918
 21
1408.322103
  0
LINE
  8
CSLAYER1
  6
CONTINUOUS
 62
     3
 10
953.545918
 20
858.850501
 11
953.545918
 21
1392.822103
  0
LINE
  8
CSLAYER1
  6
CONTINUOUS
 62
     3
 10
962.545918
 20
858.850501
 11
962.545918
 21
1392.352447
  0
LINE
  8
CSLAYER1
  6
CONTINUOUS
 62
     3
 10
951.545918
 20
1394.672103
 11
950.545918
 21
1394.672103
  0
LINE
  8
CSLAYER1
  6
CONTINUOUS
 62
     3
 10
952.545918
 20
1408.322103
 11
952.545918
 21
1395.672103
  0
LINE
  8
CSLAYER1
  6
CONTINUOUS
 62
     3
 10
952.545918
 20
1395.672103
 11
951.545918
 21
1394.672103
  0
LINE
  8
CSLAYER1
  6
CONTINUOUS
 62
     3
 10
951.545918
 20
1408.322103
 11
951.545918
 21
1394.672103
  0
LINE
  8
CSLAYER1
  6
CONTINUOUS
 62
     3
 10
953.045918
 20
1392.822103
 11
959.045918
 21
1392.822103
  0
LINE
  8
CSLAYER1
  6
CONTINUOUS
 62
     3
 10
959.045918
 20
1408.322103
 11
959.045918
 21
1392.822103
  0
LINE
  8
CSLAYER1
  6
CONTINUOUS
 62
     3
 10
953.045918
 20
1408.322103
 11
953.045918
 21
1392.822103
  0
LINE
  8
CSLAYER1
  6
CONTINUOUS
 62
     3
 10
941.545918
 20
1394.672103
 11
849.545918
 21
1394.672103
  0
LINE
  8
CSLAYER1
  6
CONTINUOUS
 62
     3
 10
962.045918
 20
1392.352447
 11
962.045918
 21
1408.322103
  0
LINE
  8
CSLAYER1
  6
CONTINUOUS
 62
     3
 10
959.045918
 20
1392.572103
 11
962.045918
 21
1392.572103
  0
LINE
  8
CSLAYER1
  6
CONTINUOUS
 62
     3
 10
959.045918
 20
1401.809906
 11
961.884944
 21
1405.122103
  0
LINE
  8
CSLAYER1
  6
CONTINUOUS
 62
     3
 10
970.045918
 20
1408.322103
 11
970.045918
 21
1394.322103
  0
ARC
  8
CSLAYER1
  6
CONTINUOUS
 62
     3
 10
956.250174
 20
1403.322103
 40
13.795744
 50
-23.426598
 51
21.249544
  0
LINE
  8
CSLAYER1
  6
CONTINUOUS
 62
     3
 10
962.045918
 20
1397.837275
 11
968.908737
 21
1397.837275
  0
LINE
  8
CSLAYER1
  6
CONTINUOUS
 62
     3
 10
962.045918
 20
1392.352447
 11
968.908737
 21
1392.352447
  0
LINE
  8
CSLAYER1
  6
CONTINUOUS
 62
     3
 10
970.045918
 20
1394.322103
 11
968.908737
 21
1392.352447
  0
ARC
  8
CSLAYER1
  6
CONTINUOUS
 62
     3
 10
966.265874
 20
1395.094861
 40
3.808617
 50
5.661633
 51
46.059028
  0
LINE
  8
CSLAYER1
  6
CENTER
 62
     5
 10
840.545918
 20
1197.877060
 11
950.545918
 21
1197.877060
  0
LINE
  8
CSLAYER1
  6
CONTINUOUS
 62
     3
 10
849.545918
 20
1142.360714
 11
870.545918
 21
1142.360714
  0
LINE
  8
CSLAYER1
  6
CONTINUOUS
 62
     3
 10
849.545918
 20
1093.760714
 11
888.045918
 21
1093.760714
  0
LINE
  8
CSLAYER1
  6
CONTINUOUS
 62
     3
 10
953.545918
 20
1123.081375
 11
950.545918
 21
1123.081375
  0
LINE
  8
CSLAYER1
  6
CENTER
 62
     5
 10
906.045918
 20
1211.477060
 11
906.045918
 21
887.841864
  0
LINE
  8
CSLAYER1
  6
CONTINUOUS
 62
     3
 10
935.045918
 20
872.132963
 11
935.045918
 21
920.965259
  0
LINE
  8
CSLAYER1
  6
CONTINUOUS
 62
     3
 10
929.045918
 20
872.132963
 11
929.045918
 21
920.965259
  0
LINE
  8
CSLAYER1
  6
CONTINUOUS
 62
     3
 10
877.045918
 20
872.132963
 11
877.045918
 21
920.965259
  0
LINE
  8
CSLAYER1
  6
CONTINUOUS
 62
     3
 10
883.045918
 20
872.132963
 11
883.045918
 21
920.965259
  0
LINE
  8
CSLAYER1
  6
CONTINUOUS
 62
     3
 10
928.545918
 20
1185.277060
 11
928.545918
 21
1210.477060
  0
LINE
  8
CSLAYER1
  6
CONTINUOUS
 62
     3
 10
883.545918
 20
1185.277060
 11
883.545918
 21
1210.477060
  0
LINE
  8
CSLAYER1
  6
CONTINUOUS
 62
     3
 10
884.545918
 20
1211.477060
 11
927.545918
 21
1211.477060
  0
LINE
  8
CSLAYER1
  6
CONTINUOUS
 62
     3
 10
883.545918
 20
1210.477060
 11
884.545918
 21
1211.477060
  0
LINE
  8
CSLAYER1
  6
CONTINUOUS
 62
     3
 10
927.545918
 20
1211.477060
 11
928.545918
 21
1210.477060
  0
POINT
  8
CSLAYER1
 62
     3
 10
906.045918
 20
1197.877060
  0
LINE
  8
CSLAYER1
  6
CONTINUOUS
 62
     3
 10
929.545918
 20
1205.877060
 11
928.545918
 21
1205.877060
  0
LINE
  8
CSLAYER1
  6
CONTINUOUS
 62
     3
 10
883.545918
 20
1205.877060
 11
882.545918
 21
1205.877060
  0
LINE
  8
CSLAYER1
  6
CENTER
 62
     5
 10
877.045918
 20
904.900396
 11
935.045918
 21
904.900396
  0
LINE
  8
CSLAYER1
  6
CONTINUOUS
 62
     3
 10
837.545918
 20
887.841864
 11
840.545918
 21
887.841864
  0
LINE
  8
CSLAYER1
  6
CONTINUOUS
 62
     3
 10
877.045918
 20
872.132963
 11
883.045918
 21
872.132963
  0
LINE
  8
CSLAYER1
  6
CONTINUOUS
 62
     3
 10
877.045918
 20
920.965259
 11
883.045918
 21
920.965259
  0
LINE
  8
CSLAYER1
  6
CONTINUOUS
 62
     3
 10
929.045918
 20
920.965259
 11
935.045918
 21
920.965259
  0
LINE
  8
CSLAYER1
  6
CONTINUOUS
 62
     3
 10
929.045918
 20
872.132963
 11
935.045918
 21
872.132963
  0
LINE
  8
CSLAYER1
  6
CONTINUOUS
 62
     3
 10
883.045918
 20
887.841864
 11
929.045918
 21
887.841864
  0
LINE
  8
CSLAYER1
  6
CONTINUOUS
 62
     3
 10
935.045918
 20
887.841864
 11
941.545918
 21
887.841864
  0
LINE
  8
CSLAYER1
  6
CONTINUOUS
 62
     3
 10
950.545918
 20
887.841864
 11
953.545918
 21
887.841864
  0
LINE
  8
CSLAYER1
  6
CONTINUOUS
 62
     3
 10
928.958396
 20
1065.732750
 11
933.441273
 21
1048.443524
  0
LINE
  8
CSLAYER1
  6
CONTINUOUS
 62
     3
 10
928.958396
 20
1065.732750
 11
928.696497
 21
1066.697195
  0
LINE
  8
CSLAYER1
  6
CONTINUOUS
 62
     3
 10
928.696497
 20
1066.697195
 11
928.262212
 21
1067.646903
  0
LINE
  8
CSLAYER1
  6
CONTINUOUS
 62
     3
 10
928.262212
 20
1067.646903
 11
927.658849
 21
1068.574647
  0
LINE
  8
CSLAYER1
  6
CONTINUOUS
 62
     3
 10
927.658849
 20
1068.574647
 11
926.890997
 21
1069.473366
  0
LINE
  8
CSLAYER1
  6
CONTINUOUS
 62
     3
 10
926.890997
 20
1069.473366
 11
925.964503
 21
1070.336220
  0
LINE
  8
CSLAYER1
  6
CONTINUOUS
 62
     3
 10
925.964503
 20
1070.336220
 11
924.886415
 21
1071.156643
  0
LINE
  8
CSLAYER1
  6
CONTINUOUS
 62
     3
 10
924.886415
 20
1071.156643
 11
923.664941
 21
1071.928391
  0
LINE
  8
CSLAYER1
  6
CONTINUOUS
 62
     3
 10
923.664941
 20
1071.928391
 11
922.309374
 21
1072.645589
  0
LINE
  8
CSLAYER1
  6
CONTINUOUS
 62
     3
 10
922.309374
 20
1072.645589
 11
920.830033
 21
1073.302781
  0
LINE
  8
CSLAYER1
  6
CONTINUOUS
 62
     3
 10
920.830033
 20
1073.302781
 11
919.238176
 21
1073.894964
  0
LINE
  8
CSLAYER1
  6
CONTINUOUS
 62
     3
 10
919.238176
 20
1073.894964
 11
917.545918
 21
1074.417631
  0
LINE
  8
CSLAYER1
  6
CONTINUOUS
 62
     3
 10
917.545918
 20
1074.417631
 11
915.766138
 21
1074.866804
  0
LINE
  8
CSLAYER1
  6
CONTINUOUS
 62
     3
 10
915.766138
 20
1074.866804
 11
913.912382
 21
1075.239066
  0
LINE
  8
CSLAYER1
  6
CONTINUOUS
 62
     3
 10
913.912382
 20
1075.239066
 11
911.998756
 21
1075.531583
  0
LINE
  8
CSLAYER1
  6
CONTINUOUS
 62
     3
 10
911.998756
 20
1075.531583
 11
910.039826
 21
1075.742128
  0
LINE
  8
CSLAYER1
  6
CONTINUOUS
 62
     3
 10
910.039826
 20
1075.742128
 11
908.050500
 21
1075.869099
  0
LINE
  8
CSLAYER1
  6
CONTINUOUS
 62
     3
 10
908.050500
 20
1075.869099
 11
906.045918
 21
1075.911531
  0
LINE
  8
CSLAYER1
  6
CONTINUOUS
 62
     3
 10
883.133440
 20
1065.732750
 11
878.650564
 21
1048.443524
  0
LINE
  8
CSLAYER1
  6
CONTINUOUS
 62
     3
 10
883.133440
 20
1065.732750
 11
883.395340
 21
1066.697195
  0
LINE
  8
CSLAYER1
  6
CONTINUOUS
 62
     3
 10
883.395340
 20
1066.697195
 11
883.829624
 21
1067.646903
  0
LINE
  8
CSLAYER1
  6
CONTINUOUS
 62
     3
 10
883.829624
 20
1067.646903
 11
884.432988
 21
1068.574647
  0
LINE
  8
CSLAYER1
  6
CONTINUOUS
 62
     3
 10
884.432988
 20
1068.574647
 11
885.200839
 21
1069.473366
  0
LINE
  8
CSLAYER1
  6
CONTINUOUS
 62
     3
 10
885.200839
 20
1069.473366
 11
886.127334
 21
1070.336220
  0
LINE
  8
CSLAYER1
  6
CONTINUOUS
 62
     3
 10
886.127334
 20
1070.336220
 11
887.205421
 21
1071.156643
  0
LINE
  8
CSLAYER1
  6
CONTINUOUS
 62
     3
 10
887.205421
 20
1071.156643
 11
888.426896
 21
1071.928391
  0
LINE
  8
CSLAYER1
  6
CONTINUOUS
 62
     3
 10
888.426896
 20
1071.928391
 11
889.782462
 21
1072.645589
  0
LINE
  8
CSLAYER1
  6
CONTINUOUS
 62
     3
 10
889.782462
 20
1072.645589
 11
891.261803
 21
1073.302781
  0
LINE
  8
CSLAYER1
  6
CONTINUOUS
 62
     3
 10
891.261803
 20
1073.302781
 11
892.853660
 21
1073.894964
  0
LINE
  8
CSLAYER1
  6
CONTINUOUS
 62
     3
 10
892.853660
 20
1073.894964
 11
894.545918
 21
1074.417631
  0
LINE
  8
CSLAYER1
  6
CONTINUOUS
 62
     3
 10
894.545918
 20
1074.417631
 11
896.325698
 21
1074.866804
  0
LINE
  8
CSLAYER1
  6
CONTINUOUS
 62
     3
 10
896.325698
 20
1074.866804
 11
898.179455
 21
1075.239066
  0
LINE
  8
CSLAYER1
  6
CONTINUOUS
 62
     3
 10
898.179455
 20
1075.239066
 11
900.093080
 21
1075.531583
  0
LINE
  8
CSLAYER1
  6
CONTINUOUS
 62
     3
 10
900.093080
 20
1075.531583
 11
902.052010
 21
1075.742128
  0
LINE
  8
CSLAYER1
  6
CONTINUOUS
 62
     3
 10
902.052010
 20
1075.742128
 11
904.041336
 21
1075.869099
  0
LINE
  8
CSLAYER1
  6
CONTINUOUS
 62
     3
 10
904.041336
 20
1075.869099
 11
906.045918
 21
1075.911531
  0
LINE
  8
CSLAYER1
  6
CONTINUOUS
 62
     3
 10
924.045918
 20
1071.726824
 11
924.045918
 21
1186.720277
  0
LINE
  8
CSLAYER1
  6
CONTINUOUS
 62
     3
 10
924.045918
 20
1186.211940
 11
923.977423
 21
1186.972511
  0
LINE
  8
CSLAYER1
  6
CONTINUOUS
 62
     3
 10
923.977423
 20
1186.972511
 11
923.772458
 21
1187.727294
  0
LINE
  8
CSLAYER1
  6
CONTINUOUS
 62
     3
 10
923.772458
 20
1187.727294
 11
923.432583
 21
1188.470544
  0
LINE
  8
CSLAYER1
  6
CONTINUOUS
 62
     3
 10
923.432583
 20
1188.470544
 11
922.960386
 21
1189.196604
  0
LINE
  8
CSLAYER1
  6
CONTINUOUS
 62
     3
 10
922.960386
 20
1189.196604
 11
922.359459
 21
1189.899949
  0
LINE
  8
CSLAYER1
  6
CONTINUOUS
 62
     3
 10
922.359459
 20
1189.899949
 11
921.634376
 21
1190.575227
  0
LINE
  8
CSLAYER1
  6
CONTINUOUS
 62
     3
 10
921.634376
 20
1190.575227
 11
920.790655
 21
1191.217297
  0
LINE
  8
CSLAYER1
  6
CONTINUOUS
 62
     3
 10
920.790655
 20
1191.217297
 11
919.834718
 21
1191.821273
  0
LINE
  8
CSLAYER1
  6
CONTINUOUS
 62
     3
 10
919.834718
 20
1191.821273
 11
918.773840
 21
1192.382559
  0
LINE
  8
CSLAYER1
  6
CONTINUOUS
 62
     3
 10
918.773840
 20
1192.382559
 11
917.616095
 21
1192.896883
  0
LINE
  8
CSLAYER1
  6
CONTINUOUS
 62
     3
 10
917.616095
 20
1192.896883
 11
916.370294
 21
1193.360331
  0
LINE
  8
CSLAYER1
  6
CONTINUOUS
 62
     3
 10
916.370294
 20
1193.360331
 11
915.045918
 21
1193.769374
  0
LINE
  8
CSLAYER1
  6
CONTINUOUS
 62
     3
 10
915.045918
 20
1193.769374
 11
913.653047
 21
1194.120901
  0
LINE
  8
CSLAYER1
  6
CONTINUOUS
 62
     3
 10
913.653047
 20
1194.120901
 11
912.202281
 21
1194.412237
  0
LINE
  8
CSLAYER1
  6
CONTINUOUS
 62
     3
 10
912.202281
 20
1194.412237
 11
910.704661
 21
1194.641163
  0
LINE
  8
CSLAYER1
  6
CONTINUOUS
 62
     3
 10
910.704661
 20
1194.641163
 11
909.171586
 21
1194.805937
  0
LINE
  8
CSLAYER1
  6
CONTINUOUS
 62
     3
 10
909.171586
 20
1194.805937
 11
907.614722
 21
1194.905306
  0
LINE
  8
CSLAYER1
  6
CONTINUOUS
 62
     3
 10
907.614722
 20
1194.905306
 11
906.045918
 21
1194.938513
  0
LINE
  8
CSLAYER1
  6
CONTINUOUS
 62
     3
 10
906.045918
 20
1194.938513
 11
904.477115
 21
1194.905306
  0
LINE
  8
CSLAYER1
  6
CONTINUOUS
 62
     3
 10
904.477115
 20
1194.905306
 11
902.920251
 21
1194.805937
  0
LINE
  8
CSLAYER1
  6
CONTINUOUS
 62
     3
 10
902.920251
 20
1194.805937
 11
901.387176
 21
1194.641163
  0
LINE
  8
CSLAYER1
  6
CONTINUOUS
 62
     3
 10
901.387176
 20
1194.641163
 11
899.889556
 21
1194.412237
  0
LINE
  8
CSLAYER1
  6
CONTINUOUS
 62
     3
 10
899.889556
 20
1194.412237
 11
898.438790
 21
1194.120901
  0
LINE
  8
CSLAYER1
  6
CONTINUOUS
 62
     3
 10
898.438790
 20
1194.120901
 11
897.045918
 21
1193.769374
  0
LINE
  8
CSLAYER1
  6
CONTINUOUS
 62
     3
 10
897.045918
 20
1193.769374
 11
895.721543
 21
1193.360331
  0
LINE
  8
CSLAYER1
  6
CONTINUOUS
 62
     3
 10
895.721543
 20
1193.360331
 11
894.475741
 21
1192.896883
  0
LINE
  8
CSLAYER1
  6
CONTINUOUS
 62
     3
 10
894.475741
 20
1192.896883
 11
893.317996
 21
1192.382559
  0
LINE
  8
CSLAYER1
  6
CONTINUOUS
 62
     3
 10
893.317996
 20
1192.382559
 11
892.257118
 21
1191.821273
  0
LINE
  8
CSLAYER1
  6
CONTINUOUS
 62
     3
 10
892.257118
 20
1191.821273
 11
891.301182
 21
1191.217297
  0
LINE
  8
CSLAYER1
  6
CONTINUOUS
 62
     3
 10
891.301182
 20
1191.217297
 11
890.457461
 21
1190.575227
  0
LINE
  8
CSLAYER1
  6
CONTINUOUS
 62
     3
 10
890.457461
 20
1190.575227
 11
889.732378
 21
1189.899949
  0
LINE
  8
CSLAYER1
  6
CONTINUOUS
 62
     3
 10
889.732378
 20
1189.899949
 11
889.131451
 21
1189.196604
  0
LINE
  8
CSLAYER1
  6
CONTINUOUS
 62
     3
 10
889.131451
 20
1189.196604
 11
888.659254
 21
1188.470544
  0
LINE
  8
CSLAYER1
  6
CONTINUOUS
 62
     3
 10
888.659254
 20
1188.470544
 11
888.319379
 21
1187.727294
  0
LINE
  8
CSLAYER1
  6
CONTINUOUS
 62
     3
 10
888.319379
 20
1187.727294
 11
888.114414
 21
1186.972511
  0
LINE
  8
CSLAYER1
  6
CONTINUOUS
 62
     3
 10
888.114414
 20
1186.972511
 11
888.045918
 21
1186.211940
  0
LINE
  8
CSLAYER1
  6
CONTINUOUS
 62
     3
 10
933.545918
 20
1047.281540
 11
933.545918
 21
1016.692644
  0
LINE
  8
CSLAYER1
  6
CONTINUOUS
 62
     3
 10
933.545918
 20
1047.281540
 11
933.441273
 21
1048.443524
  0
LINE
  8
CSLAYER1
  6
CONTINUOUS
 62
     3
 10
933.441273
 20
1048.443524
 11
933.128132
 21
1049.596664
  0
LINE
  8
CSLAYER1
  6
CONTINUOUS
 62
     3
 10
933.128132
 20
1049.596664
 11
932.608879
 21
1050.732184
  0
LINE
  8
CSLAYER1
  6
CONTINUOUS
 62
     3
 10
932.608879
 20
1050.732184
 11
931.887465
 21
1051.841443
  0
LINE
  8
CSLAYER1
  6
CONTINUOUS
 62
     3
 10
931.887465
 20
1051.841443
 11
930.969383
 21
1052.915999
  0
LINE
  8
CSLAYER1
  6
CONTINUOUS
 62
     3
 10
930.969383
 20
1052.915999
 11
929.861617
 21
1053.947673
  0
LINE
  8
CSLAYER1
  6
CONTINUOUS
 62
     3
 10
929.861617
 20
1053.947673
 11
928.572600
 21
1054.928613
  0
LINE
  8
CSLAYER1
  6
CONTINUOUS
 62
     3
 10
928.572600
 20
1054.928613
 11
927.112141
 21
1055.851355
  0
LINE
  8
CSLAYER1
  6
CONTINUOUS
 62
     3
 10
927.112141
 20
1055.851355
 11
925.491355
 21
1056.708875
  0
LINE
  8
CSLAYER1
  6
CONTINUOUS
 62
     3
 10
925.491355
 20
1056.708875
 11
923.722578
 21
1057.494648
  0
LINE
  8
CSLAYER1
  6
CONTINUOUS
 62
     3
 10
923.722578
 20
1057.494648
 11
921.819270
 21
1058.202692
  0
LINE
  8
CSLAYER1
  6
CONTINUOUS
 62
     3
 10
921.819270
 20
1058.202692
 11
919.795918
 21
1058.827620
  0
LINE
  8
CSLAYER1
  6
CONTINUOUS
 62
     3
 10
919.795918
 20
1058.827620
 11
917.667921
 21
1059.364676
  0
LINE
  8
CSLAYER1
  6
CONTINUOUS
 62
     3
 10
917.667921
 20
1059.364676
 11
915.451472
 21
1059.809771
  0
LINE
  8
CSLAYER1
  6
CONTINUOUS
 62
     3
 10
915.451472
 20
1059.809771
 11
913.163442
 21
1060.159519
  0
LINE
  8
CSLAYER1
  6
CONTINUOUS
 62
     3
 10
913.163442
 20
1060.159519
 11
910.821243
 21
1060.411258
  0
LINE
  8
CSLAYER1
  6
CONTINUOUS
 62
     3
 10
910.821243
 20
1060.411258
 11
908.442701
 21
1060.563072
  0
LINE
  8
CSLAYER1
  6
CONTINUOUS
 62
     3
 10
908.442701
 20
1060.563072
 11
906.045918
 21
1060.613805
  0
LINE
  8
CSLAYER1
  6
CONTINUOUS
 62
     3
 10
906.045918
 20
1060.613805
 11
903.649135
 21
1060.563072
  0
LINE
  8
CSLAYER1
  6
CONTINUOUS
 62
     3
 10
903.649135
 20
1060.563072
 11
901.270593
 21
1060.411258
  0
LINE
  8
CSLAYER1
  6
CONTINUOUS
 62
     3
 10
901.270593
 20
1060.411258
 11
898.928395
 21
1060.159519
  0
LINE
  8
CSLAYER1
  6
CONTINUOUS
 62
     3
 10
898.928395
 20
1060.159519
 11
896.640364
 21
1059.809771
  0
LINE
  8
CSLAYER1
  6
CONTINUOUS
 62
     3
 10
896.640364
 20
1059.809771
 11
894.423916
 21
1059.364676
  0
LINE
  8
CSLAYER1
  6
CONTINUOUS
 62
     3
 10
894.423916
 20
1059.364676
 11
892.295918
 21
1058.827620
  0
LINE
  8
CSLAYER1
  6
CONTINUOUS
 62
     3
 10
892.295918
 20
1058.827620
 11
890.272566
 21
1058.202692
  0
LINE
  8
CSLAYER1
  6
CONTINUOUS
 62
     3
 10
890.272566
 20
1058.202692
 11
888.369259
 21
1057.494648
  0
LINE
  8
CSLAYER1
  6
CONTINUOUS
 62
     3
 10
888.369259
 20
1057.494648
 11
886.600482
 21
1056.708875
  0
LINE
  8
CSLAYER1
  6
CONTINUOUS
 62
     3
 10
886.600482
 20
1056.708875
 11
884.979696
 21
1055.851355
  0
LINE
  8
CSLAYER1
  6
CONTINUOUS
 62
     3
 10
884.979696
 20
1055.851355
 11
883.519237
 21
1054.928613
  0
LINE
  8
CSLAYER1
  6
CONTINUOUS
 62
     3
 10
883.519237
 20
1054.928613
 11
882.230220
 21
1053.947673
  0
LINE
  8
CSLAYER1
  6
CONTINUOUS
 62
     3
 10
882.230220
 20
1053.947673
 11
881.122454
 21
1052.915999
  0
LINE
  8
CSLAYER1
  6
CONTINUOUS
 62
     3
 10
881.122454
 20
1052.915999
 11
880.204371
 21
1051.841443
  0
LINE
  8
CSLAYER1
  6
CONTINUOUS
 62
     3
 10
880.204371
 20
1051.841443
 11
879.482958
 21
1050.732184
  0
LINE
  8
CSLAYER1
  6
CONTINUOUS
 62
     3
 10
879.482958
 20
1050.732184
 11
878.963705
 21
1049.596664
  0
LINE
  8
CSLAYER1
  6
CONTINUOUS
 62
     3
 10
878.963705
 20
1049.596664
 11
878.650564
 21
1048.443524
  0
LINE
  8
CSLAYER1
  6
CONTINUOUS
 62
     3
 10
878.650564
 20
1048.443524
 11
878.545918
 21
1047.281540
  0
LINE
  8
CSLAYER1
  6
CONTINUOUS
 62
     3
 10
878.545918
 20
1047.281540
 11
878.545918
 21
1016.692644
  0
LINE
  8
CSLAYER1
  6
CONTINUOUS
 62
     3
 10
930.345918
 20
922.379765
 11
930.345918
 21
1016.692644
  0
LINE
  8
CSLAYER1
  6
CONTINUOUS
 62
     3
 10
933.545918
 20
1016.692644
 11
933.441273
 21
1017.854628
  0
LINE
  8
CSLAYER1
  6
CONTINUOUS
 62
     3
 10
933.441273
 20
1017.854628
 11
933.128132
 21
1019.007768
  0
LINE
  8
CSLAYER1
  6
CONTINUOUS
 62
     3
 10
933.128132
 20
1019.007768
 11
932.608879
 21
1020.143288
  0
LINE
  8
CSLAYER1
  6
CONTINUOUS
 62
     3
 10
932.608879
 20
1020.143288
 11
931.887465
 21
1021.252548
  0
LINE
  8
CSLAYER1
  6
CONTINUOUS
 62
     3
 10
931.887465
 20
1021.252548
 11
930.969383
 21
1022.327103
  0
LINE
  8
CSLAYER1
  6
CONTINUOUS
 62
     3
 10
930.969383
 20
1022.327103
 11
929.861617
 21
1023.358777
  0
LINE
  8
CSLAYER1
  6
CONTINUOUS
 62
     3
 10
929.861617
 20
1023.358777
 11
928.572600
 21
1024.339717
  0
LINE
  8
CSLAYER1
  6
CONTINUOUS
 62
     3
 10
928.572600
 20
1024.339717
 11
927.112141
 21
1025.262459
  0
LINE
  8
CSLAYER1
  6
CONTINUOUS
 62
     3
 10
927.112141
 20
1025.262459
 11
925.491355
 21
1026.119979
  0
LINE
  8
CSLAYER1
  6
CONTINUOUS
 62
     3
 10
925.491355
 20
1026.119979
 11
923.722578
 21
1026.905752
  0
LINE
  8
CSLAYER1
  6
CONTINUOUS
 62
     3
 10
923.722578
 20
1026.905752
 11
921.819270
 21
1027.613796
  0
LINE
  8
CSLAYER1
  6
CONTINUOUS
 62
     3
 10
921.819270
 20
1027.613796
 11
919.795918
 21
1028.238724
  0
LINE
  8
CSLAYER1
  6
CONTINUOUS
 62
     3
 10
919.795918
 20
1028.238724
 11
917.667921
 21
1028.775780
  0
LINE
  8
CSLAYER1
  6
CONTINUOUS
 62
     3
 10
917.667921
 20
1028.775780
 11
915.451472
 21
1029.220875
  0
LINE
  8
CSLAYER1
  6
CONTINUOUS
 62
     3
 10
915.451472
 20
1029.220875
 11
913.163442
 21
1029.570623
  0
LINE
  8
CSLAYER1
  6
CONTINUOUS
 62
     3
 10
913.163442
 20
1029.570623
 11
910.821243
 21
1029.822362
  0
LINE
  8
CSLAYER1
  6
CONTINUOUS
 62
     3
 10
910.821243
 20
1029.822362
 11
908.442701
 21
1029.974176
  0
LINE
  8
CSLAYER1
  6
CONTINUOUS
 62
     3
 10
908.442701
 20
1029.974176
 11
906.045918
 21
1030.024909
  0
LINE
  8
CSLAYER1
  6
CONTINUOUS
 62
     3
 10
906.045918
 20
1030.024909
 11
903.649135
 21
1029.974176
  0
LINE
  8
CSLAYER1
  6
CONTINUOUS
 62
     3
 10
903.649135
 20
1029.974176
 11
901.270593
 21
1029.822362
  0
LINE
  8
CSLAYER1
  6
CONTINUOUS
 62
     3
 10
901.270593
 20
1029.822362
 11
898.928395
 21
1029.570623
  0
LINE
  8
CSLAYER1
  6
CONTINUOUS
 62
     3
 10
898.928395
 20
1029.570623
 11
896.640364
 21
1029.220875
  0
LINE
  8
CSLAYER1
  6
CONTINUOUS
 62
     3
 10
896.640364
 20
1029.220875
 11
894.423916
 21
1028.775780
  0
LINE
  8
CSLAYER1
  6
CONTINUOUS
 62
     3
 10
894.423916
 20
1028.775780
 11
892.295918
 21
1028.238724
  0
LINE
  8
CSLAYER1
  6
CONTINUOUS
 62
     3
 10
892.295918
 20
1028.238724
 11
890.272566
 21
1027.613796
  0
LINE
  8
CSLAYER1
  6
CONTINUOUS
 62
     3
 10
890.272566
 20
1027.613796
 11
888.369259
 21
1026.905752
  0
LINE
  8
CSLAYER1
  6
CONTINUOUS
 62
     3
 10
888.369259
 20
1026.905752
 11
886.600482
 21
1026.119979
  0
LINE
  8
CSLAYER1
  6
CONTINUOUS
 62
     3
 10
886.600482
 20
1026.119979
 11
884.979696
 21
1025.262459
  0
LINE
  8
CSLAYER1
  6
CONTINUOUS
 62
     3
 10
884.979696
 20
1025.262459
 11
883.519237
 21
1024.339717
  0
LINE
  8
CSLAYER1
  6
CONTINUOUS
 62
     3
 10
883.519237
 20
1024.339717
 11
882.230220
 21
1023.358777
  0
LINE
  8
CSLAYER1
  6
CONTINUOUS
 62
     3
 10
882.230220
 20
1023.358777
 11
881.122454
 21
1022.327103
  0
LINE
  8
CSLAYER1
  6
CONTINUOUS
 62
     3
 10
881.122454
 20
1022.327103
 11
880.204371
 21
1021.252548
  0
LINE
  8
CSLAYER1
  6
CONTINUOUS
 62
     3
 10
880.204371
 20
1021.252548
 11
879.482958
 21
1020.143288
  0
LINE
  8
CSLAYER1
  6
CONTINUOUS
 62
     3
 10
879.482958
 20
1020.143288
 11
878.963705
 21
1019.007768
  0
LINE
  8
CSLAYER1
  6
CONTINUOUS
 62
     3
 10
878.963705
 20
1019.007768
 11
878.650564
 21
1017.854628
  0
LINE
  8
CSLAYER1
  6
CONTINUOUS
 62
     3
 10
878.650564
 20
1017.854628
 11
878.545918
 21
1016.692644
  0
LINE
  8
CSLAYER1
  6
CONTINUOUS
 62
     3
 10
878.545918
 20
1016.692644
 11
878.650564
 21
1015.530661
  0
LINE
  8
CSLAYER1
  6
CONTINUOUS
 62
     3
 10
878.650564
 20
1015.530661
 11
878.963705
 21
1014.377521
  0
LINE
  8
CSLAYER1
  6
CONTINUOUS
 62
     3
 10
878.963705
 20
1014.377521
 11
879.482958
 21
1013.242001
  0
LINE
  8
CSLAYER1
  6
CONTINUOUS
 62
     3
 10
879.482958
 20
1013.242001
 11
880.204371
 21
1012.132741
  0
LINE
  8
CSLAYER1
  6
CONTINUOUS
 62
     3
 10
880.204371
 20
1012.132741
 11
881.122454
 21
1011.058186
  0
LINE
  8
CSLAYER1
  6
CONTINUOUS
 62
     3
 10
881.122454
 20
1011.058186
 11
881.745918
 21
1010.477547
  0
LINE
  8
CSLAYER1
  6
CONTINUOUS
 62
     3
 10
930.345918
 20
1010.477547
 11
930.969383
 21
1011.058186
  0
LINE
  8
CSLAYER1
  6
CONTINUOUS
 62
     3
 10
930.969383
 20
1011.058186
 11
931.887465
 21
1012.132741
  0
LINE
  8
CSLAYER1
  6
CONTINUOUS
 62
     3
 10
931.887465
 20
1012.132741
 11
932.608879
 21
1013.242001
  0
LINE
  8
CSLAYER1
  6
CONTINUOUS
 62
     3
 10
932.608879
 20
1013.242001
 11
933.128132
 21
1014.377521
  0
LINE
  8
CSLAYER1
  6
CONTINUOUS
 62
     3
 10
933.128132
 20
1014.377521
 11
933.441273
 21
1015.530661
  0
LINE
  8
CSLAYER1
  6
CONTINUOUS
 62
     3
 10
933.441273
 20
1015.530661
 11
933.545918
 21
1016.692644
  0
LINE
  8
CSLAYER1
  6
CONTINUOUS
 62
     3
 10
930.345918
 20
1016.692644
 11
930.253450
 21
1017.719415
  0
LINE
  8
CSLAYER1
  6
CONTINUOUS
 62
     3
 10
930.253450
 20
1017.719415
 11
929.976747
 21
1018.738372
  0
LINE
  8
CSLAYER1
  6
CONTINUOUS
 62
     3
 10
929.976747
 20
1018.738372
 11
929.517916
 21
1019.741759
  0
LINE
  8
CSLAYER1
  6
CONTINUOUS
 62
     3
 10
929.517916
 20
1019.741759
 11
928.880449
 21
1020.721941
  0
LINE
  8
CSLAYER1
  6
CONTINUOUS
 62
     3
 10
928.880449
 20
1020.721941
 11
928.069198
 21
1021.671457
  0
LINE
  8
CSLAYER1
  6
CONTINUOUS
 62
     3
 10
928.069198
 20
1021.671457
 11
927.090336
 21
1022.583081
  0
LINE
  8
CSLAYER1
  6
CONTINUOUS
 62
     3
 10
927.090336
 20
1022.583081
 11
925.951313
 21
1023.449876
  0
LINE
  8
CSLAYER1
  6
CONTINUOUS
 62
     3
 10
925.951313
 20
1023.449876
 11
924.660798
 21
1024.265244
  0
LINE
  8
CSLAYER1
  6
CONTINUOUS
 62
     3
 10
924.660798
 20
1024.265244
 11
923.228613
 21
1025.022980
  0
LINE
  8
CSLAYER1
  6
CONTINUOUS
 62
     3
 10
923.228613
 20
1025.022980
 11
921.665657
 21
1025.717317
  0
LINE
  8
CSLAYER1
  6
CONTINUOUS
 62
     3
 10
921.665657
 20
1025.717317
 11
919.983826
 21
1026.342971
  0
LINE
  8
CSLAYER1
  6
CONTINUOUS
 62
     3
 10
919.983826
 20
1026.342971
 11
918.195918
 21
1026.895180
  0
LINE
  8
CSLAYER1
  6
CONTINUOUS
 62
     3
 10
918.195918
 20
1026.895180
 11
916.315542
 21
1027.369742
  0
LINE
  8
CSLAYER1
  6
CONTINUOUS
 62
     3
 10
916.315542
 20
1027.369742
 11
914.357008
 21
1027.763045
  0
LINE
  8
CSLAYER1
  6
CONTINUOUS
 62
     3
 10
914.357008
 20
1027.763045
 11
912.335221
 21
1028.072095
  0
LINE
  8
CSLAYER1
  6
CONTINUOUS
 62
     3
 10
912.335221
 20
1028.072095
 11
910.265569
 21
1028.294540
  0
LINE
  8
CSLAYER1
  6
CONTINUOUS
 62
     3
 10
910.265569
 20
1028.294540
 11
908.163803
 21
1028.428688
  0
LINE
  8
CSLAYER1
  6
CONTINUOUS
 62
     3
 10
908.163803
 20
1028.428688
 11
906.045918
 21
1028.473518
  0
LINE
  8
CSLAYER1
  6
CONTINUOUS
 62
     3
 10
906.045918
 20
1028.473518
 11
903.928034
 21
1028.428688
  0
LINE
  8
CSLAYER1
  6
CONTINUOUS
 62
     3
 10
903.928034
 20
1028.428688
 11
901.826268
 21
1028.294540
  0
LINE
  8
CSLAYER1
  6
CONTINUOUS
 62
     3
 10
901.826268
 20
1028.294540
 11
899.756616
 21
1028.072095
  0
LINE
  8
CSLAYER1
  6
CONTINUOUS
 62
     3
 10
899.756616
 20
1028.072095
 11
897.734829
 21
1027.763045
  0
LINE
  8
CSLAYER1
  6
CONTINUOUS
 62
     3
 10
897.734829
 20
1027.763045
 11
895.776295
 21
1027.369742
  0
LINE
  8
CSLAYER1
  6
CONTINUOUS
 62
     3
 10
895.776295
 20
1027.369742
 11
893.895918
 21
1026.895180
  0
LINE
  8
CSLAYER1
  6
CONTINUOUS
 62
     3
 10
893.895918
 20
1026.895180
 11
892.108011
 21
1026.342971
  0
LINE
  8
CSLAYER1
  6
CONTINUOUS
 62
     3
 10
892.108011
 20
1026.342971
 11
890.426179
 21
1025.717317
  0
LINE
  8
CSLAYER1
  6
CONTINUOUS
 62
     3
 10
890.426179
 20
1025.717317
 11
888.863224
 21
1025.022980
  0
LINE
  8
CSLAYER1
  6
CONTINUOUS
 62
     3
 10
888.863224
 20
1025.022980
 11
887.431038
 21
1024.265244
  0
LINE
  8
CSLAYER1
  6
CONTINUOUS
 62
     3
 10
887.431038
 20
1024.265244
 11
886.140524
 21
1023.449876
  0
LINE
  8
CSLAYER1
  6
CONTINUOUS
 62
     3
 10
886.140524
 20
1023.449876
 11
885.001501
 21
1022.583081
  0
LINE
  8
CSLAYER1
  6
CONTINUOUS
 62
     3
 10
885.001501
 20
1022.583081
 11
884.022639
 21
1021.671457
  0
LINE
  8
CSLAYER1
  6
CONTINUOUS
 62
     3
 10
884.022639
 20
1021.671457
 11
883.211388
 21
1020.721941
  0
LINE
  8
CSLAYER1
  6
CONTINUOUS
 62
     3
 10
883.211388
 20
1020.721941
 11
882.573921
 21
1019.741759
  0
LINE
  8
CSLAYER1
  6
CONTINUOUS
 62
     3
 10
882.573921
 20
1019.741759
 11
882.115090
 21
1018.738372
  0
LINE
  8
CSLAYER1
  6
CONTINUOUS
 62
     3
 10
882.115090
 20
1018.738372
 11
881.838387
 21
1017.719415
  0
LINE
  8
CSLAYER1
  6
CONTINUOUS
 62
     3
 10
881.838387
 20
1017.719415
 11
881.745918
 21
1016.692644
  0
LINE
  8
CSLAYER1
  6
CONTINUOUS
 62
     3
 10
881.745918
 20
922.379765
 11
881.745918
 21
1016.692644
  0
LINE
  8
CSLAYER1
  6
CONTINUOUS
 62
     3
 10
888.045918
 20
1071.687683
 11
888.045918
 21
1186.211940
  0
LINE
  8
CSLAYER1
  6
CONTINUOUS
 62
     3
 10
928.545918
 20
891.790869
 11
928.545918
 21
922.379765
  0
LINE
  8
CSLAYER1
  6
CONTINUOUS
 62
     3
 10
928.545918
 20
922.379765
 11
928.460299
 21
923.330479
  0
LINE
  8
CSLAYER1
  6
CONTINUOUS
 62
     3
 10
928.460299
 20
923.330479
 11
928.204093
 21
924.273957
  0
LINE
  8
CSLAYER1
  6
CONTINUOUS
 62
     3
 10
928.204093
 20
924.273957
 11
927.779249
 21
925.203019
  0
LINE
  8
CSLAYER1
  6
CONTINUOUS
 62
     3
 10
927.779249
 20
925.203019
 11
927.189002
 21
926.110595
  0
LINE
  8
CSLAYER1
  6
CONTINUOUS
 62
     3
 10
927.189002
 20
926.110595
 11
926.437844
 21
926.989777
  0
LINE
  8
CSLAYER1
  6
CONTINUOUS
 62
     3
 10
926.437844
 20
926.989777
 11
925.531490
 21
927.833873
  0
LINE
  8
CSLAYER1
  6
CONTINUOUS
 62
     3
 10
925.531490
 20
927.833873
 11
924.476839
 21
928.636461
  0
LINE
  8
CSLAYER1
  6
CONTINUOUS
 62
     3
 10
924.476839
 20
928.636461
 11
923.281918
 21
929.391432
  0
LINE
  8
CSLAYER1
  6
CONTINUOUS
 62
     3
 10
923.281918
 20
929.391432
 11
921.955821
 21
930.093039
  0
LINE
  8
CSLAYER1
  6
CONTINUOUS
 62
     3
 10
921.955821
 20
930.093039
 11
920.508640
 21
930.735944
  0
LINE
  8
CSLAYER1
  6
CONTINUOUS
 62
     3
 10
920.508640
 20
930.735944
 11
918.951388
 21
931.315253
  0
LINE
  8
CSLAYER1
  6
CONTINUOUS
 62
     3
 10
918.951388
 20
931.315253
 11
917.295918
 21
931.826558
  0
LINE
  8
CSLAYER1
  6
CONTINUOUS
 62
     3
 10
917.295918
 20
931.826558
 11
915.554829
 21
932.265967
  0
LINE
  8
CSLAYER1
  6
CONTINUOUS
 62
     3
 10
915.554829
 20
932.265967
 11
913.741372
 21
932.630136
  0
LINE
  8
CSLAYER1
  6
CONTINUOUS
 62
     3
 10
913.741372
 20
932.630136
 11
911.869347
 21
932.916293
  0
LINE
  8
CSLAYER1
  6
CONTINUOUS
 62
     3
 10
911.869347
 20
932.916293
 11
909.953002
 21
933.122261
  0
LINE
  8
CSLAYER1
  6
CONTINUOUS
 62
     3
 10
909.953002
 20
933.122261
 11
908.006923
 21
933.246473
  0
LINE
  8
CSLAYER1
  6
CONTINUOUS
 62
     3
 10
908.006923
 20
933.246473
 11
906.045918
 21
933.287982
  0
LINE
  8
CSLAYER1
  6
CONTINUOUS
 62
     3
 10
906.045918
 20
933.287982
 11
904.084914
 21
933.246473
  0
LINE
  8
CSLAYER1
  6
CONTINUOUS
 62
     3
 10
904.084914
 20
933.246473
 11
902.138834
 21
933.122261
  0
LINE
  8
CSLAYER1
  6
CONTINUOUS
 62
     3
 10
902.138834
 20
933.122261
 11
900.222490
 21
932.916293
  0
LINE
  8
CSLAYER1
  6
CONTINUOUS
 62
     3
 10
900.222490
 20
932.916293
 11
898.350465
 21
932.630136
  0
LINE
  8
CSLAYER1
  6
CONTINUOUS
 62
     3
 10
898.350465
 20
932.630136
 11
896.537007
 21
932.265967
  0
LINE
  8
CSLAYER1
  6
CONTINUOUS
 62
     3
 10
896.537007
 20
932.265967
 11
894.795918
 21
931.826558
  0
LINE
  8
CSLAYER1
  6
CONTINUOUS
 62
     3
 10
894.795918
 20
931.826558
 11
893.140449
 21
931.315253
  0
LINE
  8
CSLAYER1
  6
CONTINUOUS
 62
     3
 10
893.140449
 20
931.315253
 11
891.583197
 21
930.735944
  0
LINE
  8
CSLAYER1
  6
CONTINUOUS
 62
     3
 10
891.583197
 20
930.735944
 11
890.136016
 21
930.093039
  0
LINE
  8
CSLAYER1
  6
CONTINUOUS
 62
     3
 10
890.136016
 20
930.093039
 11
888.809918
 21
929.391432
  0
LINE
  8
CSLAYER1
  6
CONTINUOUS
 62
     3
 10
888.809918
 20
929.391432
 11
887.614997
 21
928.636461
  0
LINE
  8
CSLAYER1
  6
CONTINUOUS
 62
     3
 10
887.614997
 20
928.636461
 11
886.560347
 21
927.833873
  0
LINE
  8
CSLAYER1
  6
CONTINUOUS
 62
     3
 10
886.560347
 20
927.833873
 11
885.653993
 21
926.989777
  0
LINE
  8
CSLAYER1
  6
CONTINUOUS
 62
     3
 10
885.653993
 20
926.989777
 11
884.902834
 21
926.110595
  0
LINE
  8
CSLAYER1
  6
CONTINUOUS
 62
     3
 10
884.902834
 20
926.110595
 11
884.312587
 21
925.203019
  0
LINE
  8
CSLAYER1
  6
CONTINUOUS
 62
     3
 10
884.312587
 20
925.203019
 11
883.887744
 21
924.273957
  0
LINE
  8
CSLAYER1
  6
CONTINUOUS
 62
     3
 10
883.887744
 20
924.273957
 11
883.631538
 21
923.330479
  0
LINE
  8
CSLAYER1
  6
CONTINUOUS
 62
     3
 10
883.631538
 20
923.330479
 11
883.545918
 21
922.379765
  0
LINE
  8
CSLAYER1
  6
CONTINUOUS
 62
     3
 10
930.345918
 20
922.379765
 11
930.253450
 21
923.406536
  0
LINE
  8
CSLAYER1
  6
CONTINUOUS
 62
     3
 10
930.253450
 20
923.406536
 11
929.976747
 21
924.425492
  0
LINE
  8
CSLAYER1
  6
CONTINUOUS
 62
     3
 10
929.976747
 20
924.425492
 11
929.517916
 21
925.428880
  0
LINE
  8
CSLAYER1
  6
CONTINUOUS
 62
     3
 10
929.517916
 20
925.428880
 11
928.880449
 21
926.409061
  0
LINE
  8
CSLAYER1
  6
CONTINUOUS
 62
     3
 10
928.880449
 20
926.409061
 11
928.069198
 21
927.358578
  0
LINE
  8
CSLAYER1
  6
CONTINUOUS
 62
     3
 10
928.069198
 20
927.358578
 11
927.090336
 21
928.270202
  0
LINE
  8
CSLAYER1
  6
CONTINUOUS
 62
     3
 10
927.090336
 20
928.270202
 11
925.951313
 21
929.136997
  0
LINE
  8
CSLAYER1
  6
CONTINUOUS
 62
     3
 10
925.951313
 20
929.136997
 11
924.660798
 21
929.952365
  0
LINE
  8
CSLAYER1
  6
CONTINUOUS
 62
     3
 10
924.660798
 20
929.952365
 11
923.228613
 21
930.710101
  0
LINE
  8
CSLAYER1
  6
CONTINUOUS
 62
     3
 10
923.228613
 20
930.710101
 11
921.665657
 21
931.404438
  0
LINE
  8
CSLAYER1
  6
CONTINUOUS
 62
     3
 10
921.665657
 20
931.404438
 11
919.983826
 21
932.030092
  0
LINE
  8
CSLAYER1
  6
CONTINUOUS
 62
     3
 10
919.983826
 20
932.030092
 11
918.195918
 21
932.582301
  0
LINE
  8
CSLAYER1
  6
CONTINUOUS
 62
     3
 10
918.195918
 20
932.582301
 11
916.315542
 21
933.056863
  0
LINE
  8
CSLAYER1
  6
CONTINUOUS
 62
     3
 10
916.315542
 20
933.056863
 11
914.357008
 21
933.450165
  0
LINE
  8
CSLAYER1
  6
CONTINUOUS
 62
     3
 10
914.357008
 20
933.450165
 11
912.335221
 21
933.759215
  0
LINE
  8
CSLAYER1
  6
CONTINUOUS
 62
     3
 10
912.335221
 20
933.759215
 11
910.265569
 21
933.981661
  0
LINE
  8
CSLAYER1
  6
CONTINUOUS
 62
     3
 10
910.265569
 20
933.981661
 11
908.163803
 21
934.115809
  0
LINE
  8
CSLAYER1
  6
CONTINUOUS
 62
     3
 10
908.163803
 20
934.115809
 11
906.045918
 21
934.160639
  0
LINE
  8
CSLAYER1
  6
CONTINUOUS
 62
     3
 10
906.045918
 20
934.160639
 11
903.928034
 21
934.115809
  0
LINE
  8
CSLAYER1
  6
CONTINUOUS
 62
     3
 10
903.928034
 20
934.115809
 11
901.826268
 21
933.981661
  0
LINE
  8
CSLAYER1
  6
CONTINUOUS
 62
     3
 10
901.826268
 20
933.981661
 11
899.756616
 21
933.759215
  0
LINE
  8
CSLAYER1
  6
CONTINUOUS
 62
     3
 10
899.756616
 20
933.759215
 11
897.734829
 21
933.450165
  0
LINE
  8
CSLAYER1
  6
CONTINUOUS
 62
     3
 10
897.734829
 20
933.450165
 11
895.776295
 21
933.056863
  0
LINE
  8
CSLAYER1
  6
CONTINUOUS
 62
     3
 10
895.776295
 20
933.056863
 11
893.895918
 21
932.582301
  0
LINE
  8
CSLAYER1
  6
CONTINUOUS
 62
     3
 10
893.895918
 20
932.582301
 11
892.108011
 21
932.030092
  0
LINE
  8
CSLAYER1
  6
CONTINUOUS
 62
     3
 10
892.108011
 20
932.030092
 11
890.426179
 21
931.404438
  0
LINE
  8
CSLAYER1
  6
CONTINUOUS
 62
     3
 10
890.426179
 20
931.404438
 11
888.863224
 21
930.710101
  0
LINE
  8
CSLAYER1
  6
CONTINUOUS
 62
     3
 10
888.863224
 20
930.710101
 11
887.431038
 21
929.952365
  0
LINE
  8
CSLAYER1
  6
CONTINUOUS
 62
     3
 10
887.431038
 20
929.952365
 11
886.140524
 21
929.136997
  0
LINE
  8
CSLAYER1
  6
CONTINUOUS
 62
     3
 10
886.140524
 20
929.136997
 11
885.001501
 21
928.270202
  0
LINE
  8
CSLAYER1
  6
CONTINUOUS
 62
     3
 10
885.001501
 20
928.270202
 11
884.022639
 21
927.358578
  0
LINE
  8
CSLAYER1
  6
CONTINUOUS
 62
     3
 10
884.022639
 20
927.358578
 11
883.211388
 21
926.409061
  0
LINE
  8
CSLAYER1
  6
CONTINUOUS
 62
     3
 10
883.211388
 20
926.409061
 11
882.573921
 21
925.428880
  0
LINE
  8
CSLAYER1
  6
CONTINUOUS
 62
     3
 10
882.573921
 20
925.428880
 11
882.115090
 21
924.425492
  0
LINE
  8
CSLAYER1
  6
CONTINUOUS
 62
     3
 10
882.115090
 20
924.425492
 11
881.838387
 21
923.406536
  0
LINE
  8
CSLAYER1
  6
CONTINUOUS
 62
     3
 10
881.838387
 20
923.406536
 11
881.745918
 21
922.379765
  0
LINE
  8
CSLAYER1
  6
CONTINUOUS
 62
     3
 10
881.745918
 20
922.379765
 11
881.838387
 21
921.352994
  0
LINE
  8
CSLAYER1
  6
CONTINUOUS
 62
     3
 10
881.838387
 20
921.352994
 11
881.943679
 21
920.965259
  0
LINE
  8
CSLAYER1
  6
CONTINUOUS
 62
     3
 10
883.045918
 20
918.604898
 11
883.545918
 21
917.958923
  0
LINE
  8
CSLAYER1
  6
CONTINUOUS
 62
     3
 10
928.545918
 20
917.958923
 11
929.045918
 21
918.604898
  0
LINE
  8
CSLAYER1
  6
CONTINUOUS
 62
     3
 10
930.148158
 20
920.965259
 11
930.253450
 21
921.352994
  0
LINE
  8
CSLAYER1
  6
CONTINUOUS
 62
     3
 10
930.253450
 20
921.352994
 11
930.345918
 21
922.379765
  0
LINE
  8
CSLAYER1
  6
CONTINUOUS
 62
     3
 10
883.545918
 20
891.790869
 11
883.545918
 21
922.379765
  0
LINE
  8
CSLAYER1
  6
CONTINUOUS
 62
     3
 10
928.545918
 20
891.790869
 11
928.460299
 21
892.741583
  0
LINE
  8
CSLAYER1
  6
CONTINUOUS
 62
     3
 10
928.460299
 20
892.741583
 11
928.204093
 21
893.685061
  0
LINE
  8
CSLAYER1
  6
CONTINUOUS
 62
     3
 10
928.204093
 20
893.685061
 11
927.779249
 21
894.614123
  0
LINE
  8
CSLAYER1
  6
CONTINUOUS
 62
     3
 10
927.779249
 20
894.614123
 11
927.189002
 21
895.521699
  0
LINE
  8
CSLAYER1
  6
CONTINUOUS
 62
     3
 10
927.189002
 20
895.521699
 11
926.437844
 21
896.400881
  0
LINE
  8
CSLAYER1
  6
CONTINUOUS
 62
     3
 10
926.437844
 20
896.400881
 11
925.531490
 21
897.244977
  0
LINE
  8
CSLAYER1
  6
CONTINUOUS
 62
     3
 10
925.531490
 20
897.244977
 11
924.476839
 21
898.047565
  0
LINE
  8
CSLAYER1
  6
CONTINUOUS
 62
     3
 10
924.476839
 20
898.047565
 11
923.281918
 21
898.802536
  0
LINE
  8
CSLAYER1
  6
CONTINUOUS
 62
     3
 10
923.281918
 20
898.802536
 11
921.955821
 21
899.504143
  0
LINE
  8
CSLAYER1
  6
CONTINUOUS
 62
     3
 10
921.955821
 20
899.504143
 11
920.508640
 21
900.147048
  0
LINE
  8
CSLAYER1
  6
CONTINUOUS
 62
     3
 10
920.508640
 20
900.147048
 11
918.951388
 21
900.726357
  0
LINE
  8
CSLAYER1
  6
CONTINUOUS
 62
     3
 10
918.951388
 20
900.726357
 11
917.295918
 21
901.237662
  0
LINE
  8
CSLAYER1
  6
CONTINUOUS
 62
     3
 10
917.295918
 20
901.237662
 11
915.554829
 21
901.677071
  0
LINE
  8
CSLAYER1
  6
CONTINUOUS
 62
     3
 10
915.554829
 20
901.677071
 11
913.741372
 21
902.041240
  0
LINE
  8
CSLAYER1
  6
CONTINUOUS
 62
     3
 10
913.741372
 20
902.041240
 11
911.869347
 21
902.327397
  0
LINE
  8
CSLAYER1
  6
CONTINUOUS
 62
     3
 10
911.869347
 20
902.327397
 11
909.953002
 21
902.533365
  0
LINE
  8
CSLAYER1
  6
CONTINUOUS
 62
     3
 10
909.953002
 20
902.533365
 11
908.006923
 21
902.657577
  0
LINE
  8
CSLAYER1
  6
CONTINUOUS
 62
     3
 10
908.006923
 20
902.657577
 11
906.045918
 21
902.699086
  0
LINE
  8
CSLAYER1
  6
CONTINUOUS
 62
     3
 10
906.045918
 20
902.699086
 11
904.084914
 21
902.657577
  0
LINE
  8
CSLAYER1
  6
CONTINUOUS
 62
     3
 10
904.084914
 20
902.657577
 11
902.138834
 21
902.533365
  0
LINE
  8
CSLAYER1
  6
CONTINUOUS
 62
     3
 10
902.138834
 20
902.533365
 11
900.222490
 21
902.327397
  0
LINE
  8
CSLAYER1
  6
CONTINUOUS
 62
     3
 10
900.222490
 20
902.327397
 11
898.350465
 21
902.041240
  0
LINE
  8
CSLAYER1
  6
CONTINUOUS
 62
     3
 10
898.350465
 20
902.041240
 11
896.537007
 21
901.677071
  0
LINE
  8
CSLAYER1
  6
CONTINUOUS
 62
     3
 10
896.537007
 20
901.677071
 11
894.795918
 21
901.237662
  0
LINE
  8
CSLAYER1
  6
CONTINUOUS
 62
     3
 10
894.795918
 20
901.237662
 11
893.140449
 21
900.726357
  0
LINE
  8
CSLAYER1
  6
CONTINUOUS
 62
     3
 10
893.140449
 20
900.726357
 11
891.583197
 21
900.147048
  0
LINE
  8
CSLAYER1
  6
CONTINUOUS
 62
     3
 10
891.583197
 20
900.147048
 11
890.136016
 21
899.504143
  0
LINE
  8
CSLAYER1
  6
CONTINUOUS
 62
     3
 10
890.136016
 20
899.504143
 11
888.809918
 21
898.802536
  0
LINE
  8
CSLAYER1
  6
CONTINUOUS
 62
     3
 10
888.809918
 20
898.802536
 11
887.614997
 21
898.047565
  0
LINE
  8
CSLAYER1
  6
CONTINUOUS
 62
     3
 10
887.614997
 20
898.047565
 11
886.560347
 21
897.244977
  0
LINE
  8
CSLAYER1
  6
CONTINUOUS
 62
     3
 10
886.560347
 20
897.244977
 11
885.653993
 21
896.400881
  0
LINE
  8
CSLAYER1
  6
CONTINUOUS
 62
     3
 10
885.653993
 20
896.400881
 11
884.902834
 21
895.521699
  0
LINE
  8
CSLAYER1
  6
CONTINUOUS
 62
     3
 10
884.902834
 20
895.521699
 11
884.312587
 21
894.614123
  0
LINE
  8
CSLAYER1
  6
CONTINUOUS
 62
     3
 10
884.312587
 20
894.614123
 11
883.887744
 21
893.685061
  0
LINE
  8
CSLAYER1
  6
CONTINUOUS
 62
     3
 10
883.887744
 20
893.685061
 11
883.631538
 21
892.741583
  0
LINE
  8
CSLAYER1
  6
CONTINUOUS
 62
     3
 10
883.631538
 20
892.741583
 11
883.545918
 21
891.790869
  0
LINE
  8
CSLAYER1
  6
CONTINUOUS
 62
     3
 10
883.545918
 20
891.790869
 11
883.631538
 21
890.840156
  0
LINE
  8
CSLAYER1
  6
CONTINUOUS
 62
     3
 10
883.631538
 20
890.840156
 11
883.887744
 21
889.896677
  0
LINE
  8
CSLAYER1
  6
CONTINUOUS
 62
     3
 10
883.887744
 20
889.896677
 11
884.312587
 21
888.967615
  0
LINE
  8
CSLAYER1
  6
CONTINUOUS
 62
     3
 10
884.312587
 20
888.967615
 11
884.902834
 21
888.060039
  0
LINE
  8
CSLAYER1
  6
CONTINUOUS
 62
     3
 10
884.902834
 20
888.060039
 11
885.089240
 21
887.841864
  0
LINE
  8
CSLAYER1
  6
CONTINUOUS
 62
     3
 10
927.002597
 20
887.841864
 11
927.189002
 21
888.060039
  0
LINE
  8
CSLAYER1
  6
CONTINUOUS
 62
     3
 10
927.189002
 20
888.060039
 11
927.779249
 21
888.967615
  0
LINE
  8
CSLAYER1
  6
CONTINUOUS
 62
     3
 10
927.779249
 20
888.967615
 11
928.204093
 21
889.896677
  0
LINE
  8
CSLAYER1
  6
CONTINUOUS
 62
     3
 10
928.204093
 20
889.896677
 11
928.460299
 21
890.840156
  0
LINE
  8
CSLAYER1
  6
CONTINUOUS
 62
     3
 10
928.460299
 20
890.840156
 11
928.545918
 21
891.790869
  0
LINE
  8
CSLAYER1
  6
CENTER
 62
     5
 10
866.045918
 20
858.850501
 11
866.045918
 21
1000.942490
  0
LINE
  8
CSLAYER1
  6
CONTINUOUS
 62
     3
 10
873.045918
 20
1013.606297
 11
859.045918
 21
1013.606297
  0
LINE
  8
CSLAYER1
  6
CONTINUOUS
 62
     3
 10
873.045918
 20
1005.806297
 11
859.045918
 21
1005.806297
  0
LINE
  8
CSLAYER1
  6
CONTINUOUS
 62
     3
 10
872.477850
 20
1000.606297
 11
859.613987
 21
1000.606297
  0
LINE
  8
CSLAYER1
  6
CONTINUOUS
 62
     3
 10
872.045918
 20
998.606297
 11
860.045918
 21
998.606297
  0
LINE
  8
CSLAYER1
  6
CONTINUOUS
 62
     3
 10
872.045918
 20
991.606297
 11
860.045918
 21
991.606297
  0
LINE
  8
CSLAYER1
  6
CONTINUOUS
 62
     3
 10
870.928944
 20
966.606297
 11
861.162892
 21
966.606297
  0
LINE
  8
CSLAYER1
  6
CONTINUOUS
 62
     3
 10
871.545918
 20
988.606297
 11
871.545918
 21
991.606297
  0
LINE
  8
CSLAYER1
  6
CONTINUOUS
 62
     3
 10
874.128822
 20
1006.431512
 11
874.128822
 21
1012.981083
  0
LINE
  8
CSLAYER1
  6
CONTINUOUS
 62
     3
 10
870.087370
 20
1006.431512
 11
870.087370
 21
1012.981083
  0
ARC
  8
CSLAYER1
  6
CONTINUOUS
 62
     3
 10
843.358148
 20
1005.848519
 40
29.587800
 50
345.831727
 51
359.918240
  0
ARC
  8
CSLAYER1
  6
CONTINUOUS
 62
     3
 10
888.733689
 20
1005.848519
 40
29.587800
 50
180.081760
 51
194.168273
  0
LINE
  8
CSLAYER1
  6
CONTINUOUS
 62
     3
 10
870.393232
 20
998.606297
 11
870.393232
 21
1000.606297
  0
LINE
  8
CSLAYER1
  6
CONTINUOUS
 62
     3
 10
868.411467
 20
998.606297
 11
868.411467
 21
1000.606297
  0
LINE
  8
CSLAYER1
  6
CONTINUOUS
 62
     3
 10
861.698604
 20
998.606297
 11
861.698604
 21
1000.606297
  0
LINE
  8
CSLAYER1
  6
CONTINUOUS
 62
     3
 10
863.680370
 20
998.606297
 11
863.680370
 21
1000.606297
  0
LINE
  8
CSLAYER1
  6
CONTINUOUS
 62
     3
 10
873.045918
 20
1013.606297
 11
874.128822
 21
1012.981083
  0
ARC
  8
CSLAYER1
  6
CONTINUOUS
 62
     3
 10
872.108096
 20
1010.054669
 40
3.556295
 50
64.625569
 51
124.625569
  0
ARC
  8
CSLAYER1
  6
CONTINUOUS
 62
     3
 10
866.045918
 20
1000.231512
 40
13.374785
 50
72.412046
 51
107.587954
  0
LINE
  8
CSLAYER1
  6
CONTINUOUS
 62
     3
 10
873.045918
 20
1005.806297
 11
874.128822
 21
1006.431512
  0
ARC
  8
CSLAYER1
  6
CONTINUOUS
 62
     3
 10
872.108096
 20
1009.357926
 40
3.556295
 50
235.374431
 51
295.374431
  0
ARC
  8
CSLAYER1
  6
CONTINUOUS
 62
     3
 10
866.045918
 20
1019.181083
 40
13.374785
 50
252.412046
 51
287.587954
  0
LINE
  8
CSLAYER1
  6
CONTINUOUS
 62
     3
 10
857.963015
 20
1006.431512
 11
857.963015
 21
1012.981083
  0
LINE
  8
CSLAYER1
  6
CONTINUOUS
 62
     3
 10
862.004466
 20
1006.431512
 11
862.004466
 21
1012.981083
  0
LINE
  8
CSLAYER1
  6
CONTINUOUS
 62
     3
 10
859.045918
 20
1013.606297
 11
857.963015
 21
1012.981083
  0
ARC
  8
CSLAYER1
  6
CONTINUOUS
 62
     3
 10
859.983741
 20
1010.054669
 40
3.556295
 50
55.374431
 51
115.374431
  0
LINE
  8
CSLAYER1
  6
CONTINUOUS
 62
     3
 10
859.045918
 20
1005.806297
 11
857.963015
 21
1006.431512
  0
ARC
  8
CSLAYER1
  6
CONTINUOUS
 62
     3
 10
859.983741
 20
1009.357926
 40
3.556295
 50
244.625569
 51
304.625569
  0
LINE
  8
CSLAYER1
  6
CONTINUOUS
 62
     3
 10
872.974122
 20
992.142196
 11
872.974122
 21
997.870399
  0
LINE
  8
CSLAYER1
  6
CONTINUOUS
 62
     3
 10
869.510020
 20
992.142196
 11
869.510020
 21
997.870399
  0
LINE
  8
CSLAYER1
  6
CONTINUOUS
 62
     3
 10
872.045918
 20
991.606297
 11
872.974122
 21
992.142196
  0
ARC
  8
CSLAYER1
  6
CONTINUOUS
 62
     3
 10
866.045918
 20
1003.070399
 40
11.464102
 50
252.178595
 51
287.821405
  0
ARC
  8
CSLAYER1
  6
CONTINUOUS
 62
     3
 10
871.242071
 20
994.672226
 40
3.066114
 50
236.143645
 51
295.804157
  0
LINE
  8
CSLAYER1
  6
CONTINUOUS
 62
     3
 10
872.045918
 20
998.406297
 11
872.974122
 21
997.870399
  0
ARC
  8
CSLAYER1
  6
CONTINUOUS
 62
     3
 10
866.045918
 20
986.942196
 40
11.464102
 50
72.178595
 51
107.821405
  0
ARC
  8
CSLAYER1
  6
CONTINUOUS
 62
     3
 10
871.242071
 20
995.340369
 40
3.066114
 50
64.195843
 51
123.856355
  0
LINE
  8
CSLAYER1
  6
CONTINUOUS
 62
     3
 10
872.045918
 20
998.406297
 11
860.045918
 21
998.406297
  0
LINE
  8
CSLAYER1
  6
CONTINUOUS
 62
     3
 10
869.510020
 20
998.406297
 11
869.510020
 21
998.606297
  0
LINE
  8
CSLAYER1
  6
CONTINUOUS
 62
     3
 10
860.545918
 20
988.606297
 11
860.545918
 21
991.606297
  0
LINE
  8
CSLAYER1
  6
CONTINUOUS
 62
     3
 10
859.117715
 20
992.142196
 11
859.117715
 21
997.870399
  0
LINE
  8
CSLAYER1
  6
CONTINUOUS
 62
     3
 10
862.581817
 20
992.142196
 11
862.581817
 21
997.870399
  0
LINE
  8
CSLAYER1
  6
CONTINUOUS
 62
     3
 10
860.045918
 20
991.606297
 11
859.117715
 21
992.142196
  0
ARC
  8
CSLAYER1
  6
CONTINUOUS
 62
     3
 10
860.849766
 20
994.672226
 40
3.066114
 50
244.195843
 51
303.856355
  0
LINE
  8
CSLAYER1
  6
CONTINUOUS
 62
     3
 10
860.045918
 20
998.406297
 11
859.117715
 21
997.870399
  0
ARC
  8
CSLAYER1
  6
CONTINUOUS
 62
     3
 10
860.849766
 20
995.340369
 40
3.066114
 50
56.143645
 51
115.804157
  0
LINE
  8
CSLAYER1
  6
CONTINUOUS
 62
     3
 10
862.581817
 20
998.406297
 11
862.581817
 21
998.606297
  0
LINE
  8
CSLAYER1
  6
CONTINUOUS
 62
     3
 10
872.974122
 20
979.606297
 11
872.974122
 21
988.070399
  0
LINE
  8
CSLAYER1
  6
CONTINUOUS
 62
     3
 10
869.510020
 20
979.606297
 11
869.510020
 21
988.070399
  0
LINE
  8
CSLAYER1
  6
CONTINUOUS
 62
     3
 10
872.045918
 20
988.606297
 11
872.974122
 21
988.070399
  0
ARC
  8
CSLAYER1
  6
CONTINUOUS
 62
     3
 10
866.045918
 20
977.142196
 40
11.464102
 50
72.178595
 51
107.821405
  0
ARC
  8
CSLAYER1
  6
CONTINUOUS
 62
     3
 10
871.242071
 20
985.540369
 40
3.066114
 50
64.195843
 51
123.856355
  0
LINE
  8
CSLAYER1
  6
CONTINUOUS
 62
     3
 10
872.045918
 20
988.606297
 11
860.045918
 21
988.606297
  0
LINE
  8
CSLAYER1
  6
CONTINUOUS
 62
     3
 10
859.117715
 20
979.606297
 11
859.117715
 21
988.070399
  0
LINE
  8
CSLAYER1
  6
CONTINUOUS
 62
     3
 10
862.581817
 20
979.606297
 11
862.581817
 21
988.070399
  0
LINE
  8
CSLAYER1
  6
CONTINUOUS
 62
     3
 10
860.045918
 20
988.606297
 11
859.117715
 21
988.070399
  0
ARC
  8
CSLAYER1
  6
CONTINUOUS
 62
     3
 10
860.849766
 20
985.540369
 40
3.066114
 50
56.143645
 51
115.804157
  0
LINE
  8
CSLAYER1
  6
CONTINUOUS
 62
     3
 10
871.925200
 20
967.519838
 11
872.974122
 21
979.606297
  0
ARC
  8
CSLAYER1
  6
CONTINUOUS
 62
     3
 10
850.868430
 20
979.606297
 40
18.641590
 50
330.443788
 51
360.000000
  0
ARC
  8
CSLAYER1
  6
CONTINUOUS
 62
     3
 10
866.045918
 20
971.046151
 40
1.217263
 50
210.578468
 51
329.421532
  0
ARC
  8
CSLAYER1
  6
CONTINUOUS
 62
     3
 10
888.151610
 20
979.606297
 40
18.641590
 50
180.000000
 51
209.556212
  0
ARC
  8
CSLAYER1
  6
CONTINUOUS
 62
     3
 10
872.974122
 20
971.046151
 40
1.217263
 50
210.578468
 51
227.594217
  0
ARC
  8
CSLAYER1
  6
CONTINUOUS
 62
     3
 10
870.928944
 20
967.606297
 40
1.000000
 50
270.000000
 51
355.040021
  0
LINE
  8
CSLAYER1
  6
CONTINUOUS
 62
     3
 10
860.166637
 20
967.519838
 11
859.117715
 21
979.606297
  0
ARC
  8
CSLAYER1
  6
CONTINUOUS
 62
     3
 10
881.223407
 20
979.606297
 40
18.641590
 50
180.000000
 51
209.556212
  0
ARC
  8
CSLAYER1
  6
CONTINUOUS
 62
     3
 10
843.940227
 20
979.606297
 40
18.641590
 50
330.443788
 51
360.000000
  0
ARC
  8
CSLAYER1
  6
CONTINUOUS
 62
     3
 10
859.117715
 20
971.046151
 40
1.217263
 50
312.405783
 51
329.421532
  0
ARC
  8
CSLAYER1
  6
CONTINUOUS
 62
     3
 10
861.162892
 20
967.606297
 40
1.000000
 50
184.959979
 51
270.000000
  0
LINE
  8
CSLAYER1
  6
CONTINUOUS
 62
     3
 10
873.045918
 20
1033.306297
 11
860.545918
 21
1033.306297
  0
LINE
  8
CSLAYER1
  6
CENTER
 62
     5
 10
878.545918
 20
1026.306297
 11
873.045918
 21
1026.306297
  0
LINE
  8
CSLAYER1
  6
CONTINUOUS
 62
     3
 10
859.045918
 20
1019.306297
 11
859.045918
 21
1031.806297
  0
LINE
  8
CSLAYER1
  6
CONTINUOUS
 62
     3
 10
873.045918
 20
1019.306297
 11
859.045918
 21
1019.306297
  0
LINE
  8
CSLAYER1
  6
CONTINUOUS
 62
     3
 10
873.045918
 20
1019.306297
 11
873.045918
 21
1033.303853
  0
LINE
  8
CSLAYER1
  6
CONTINUOUS
 62
     3
 10
870.645918
 20
1013.606297
 11
870.645918
 21
1019.306297
  0
LINE
  8
CSLAYER1
  6
CONTINUOUS
 62
     5
 10
870.045918
 20
1013.606297
 11
870.045918
 21
1018.267067
  0
LINE
  8
CSLAYER1
  6
CONTINUOUS
 62
     5
 10
870.645918
 20
1019.306297
 11
870.045918
 21
1018.267067
  0
LINE
  8
CSLAYER1
  6
CONTINUOUS
 62
     3
 10
861.445918
 20
1013.606297
 11
861.445918
 21
1019.306297
  0
LINE
  8
CSLAYER1
  6
CONTINUOUS
 62
     5
 10
861.445918
 20
1019.306297
 11
862.045918
 21
1018.267067
  0
LINE
  8
CSLAYER1
  6
CONTINUOUS
 62
     5
 10
870.645918
 20
1018.267067
 11
861.445918
 21
1018.267067
  0
LINE
  8
CSLAYER1
  6
CONTINUOUS
 62
     3
 10
878.545918
 20
1021.454512
 11
873.045918
 21
1021.356297
  0
LINE
  8
CSLAYER1
  6
CONTINUOUS
 62
     5
 10
878.545918
 20
1022.154623
 11
873.033420
 21
1022.056186
  0
LINE
  8
CSLAYER1
  6
CONTINUOUS
 62
     3
 10
878.545918
 20
1031.158083
 11
873.045918
 21
1031.256297
  0
LINE
  8
CSLAYER1
  6
CONTINUOUS
 62
     5
 10
878.545918
 20
1030.457972
 11
873.033420
 21
1030.556409
  0
ARC
  8
CSLAYER1
  6
CONTINUOUS
 62
     3
 10
860.545918
 20
1031.806297
 40
1.500000
 50
90.000000
 51
180.000000
  0
LINE
  8
CSLAYER1
  6
CONTINUOUS
 62
     3
 10
884.545918
 20
1184.277060
 11
888.045918
 21
1184.277060
  0
LINE
  8
CSLAYER1
  6
CONTINUOUS
 62
     3
 10
883.545918
 20
1185.277060
 11
884.545918
 21
1184.277060
  0
LINE
  8
CSLAYER1
  6
CONTINUOUS
 62
     3
 10
927.545918
 20
1184.277060
 11
928.545918
 21
1185.277060
  0
LINE
  8
CSLAYER1
  6
CONTINUOUS
 62
     3
 10
929.545918
 20
1189.877060
 11
928.545918
 21
1189.877060
  0
LINE
  8
CSLAYER1
  6
CONTINUOUS
 62
     3
 10
883.545918
 20
1189.877060
 11
882.545918
 21
1189.877060
  0
LINE
  8
CSLAYER1
  6
CONTINUOUS
 62
     3
 10
870.545918
 20
1214.877060
 11
882.545918
 21
1214.877060
  0
LINE
  8
CSLAYER1
  6
CONTINUOUS
 62
     3
 10
870.545918
 20
1123.468792
 11
882.545918
 21
1123.468792
  0
LINE
  8
CSLAYER1
  6
CONTINUOUS
 62
     3
 10
929.545918
 20
1123.468792
 11
929.545918
 21
1214.877060
  0
LINE
  8
CSLAYER1
  6
CONTINUOUS
 62
     3
 10
882.545918
 20
1123.468792
 11
882.545918
 21
1214.877060
  0
LINE
  8
CSLAYER1
  6
CONTINUOUS
 62
     3
 10
870.545918
 20
1123.468792
 11
870.545918
 21
1214.877060
  0
LINE
  8
CSLAYER1
  6
CONTINUOUS
 62
     3
 10
929.545918
 20
1123.468792
 11
941.545918
 21
1123.468792
  0
LINE
  8
CSLAYER1
  6
CONTINUOUS
 62
     3
 10
924.045918
 20
1093.760714
 11
941.545918
 21
1093.760714
  0
LINE
  8
CSLAYER1
  6
CONTINUOUS
 62
     3
 10
882.545918
 20
1142.360714
 11
888.045918
 21
1142.360714
  0
LINE
  8
CSLAYER1
  6
CONTINUOUS
 62
     3
 10
924.045918
 20
1142.360714
 11
929.545918
 21
1142.360714
  0
LINE
  8
CSLAYER1
  6
CONTINUOUS
 62
     3
 10
929.545918
 20
1214.877060
 11
941.545918
 21
1214.877060
  0
LINE
  8
CSLAYER1
  6
CONTINUOUS
 62
     3
 10
849.545918
 20
1205.877060
 11
870.545918
 21
1205.877060
  0
LINE
  8
CSLAYER1
  6
CONTINUOUS
 62
     3
 10
849.545918
 20
1189.877060
 11
870.545918
 21
1189.877060
  0
LINE
  8
CSLAYER1
  6
CONTINUOUS
 62
     3
 10
941.545918
 20
1302.498201
 11
849.545918
 21
1302.498201
  0
LINE
  8
CSLAYER1
  6
CONTINUOUS
 62
     3
 10
837.545918
 20
1123.081375
 11
840.545918
 21
1123.081375
  0
LINE
  8
CSLAYER1
  6
CONTINUOUS
 62
     3
 10
837.545918
 20
858.850501
 11
837.545918
 21
1392.822103
  0
LINE
  8
CSLAYER1
  6
CONTINUOUS
 62
     3
 10
840.545918
 20
858.850501
 11
840.545918
 21
1408.322103
  0
LINE
  8
CSLAYER1
  6
CONTINUOUS
 62
     3
 10
837.545918
 20
1095.081375
 11
840.545918
 21
1095.081375
  0
LINE
  8
CSLAYER1
  6
CONTINUOUS
 62
     3
 10
839.545918
 20
1394.672103
 11
840.545918
 21
1394.672103
  0
LINE
  8
CSLAYER1
  6
CONTINUOUS
 62
     3
 10
838.545918
 20
1408.322103
 11
838.545918
 21
1395.672103
  0
LINE
  8
CSLAYER1
  6
CONTINUOUS
 62
     3
 10
838.545918
 20
1395.672103
 11
839.545918
 21
1394.672103
  0
LINE
  8
CSLAYER1
  6
CONTINUOUS
 62
     3
 10
839.545918
 20
1408.322103
 11
839.545918
 21
1394.672103
  0
LINE
  8
CSLAYER1
  6
CONTINUOUS
 62
     3
 10
838.045918
 20
1392.822103
 11
832.045918
 21
1392.822103
  0
LINE
  8
CSLAYER1
  6
CONTINUOUS
 62
     3
 10
832.045918
 20
1408.322103
 11
832.045918
 21
1392.822103
  0
LINE
  8
CSLAYER1
  6
CONTINUOUS
 62
     3
 10
838.045918
 20
1408.322103
 11
838.045918
 21
1392.822103
  0
LINE
  8
CSLAYER1
  6
CONTINUOUS
 62
     3
 10
829.045918
 20
1392.352447
 11
829.045918
 21
1408.322103
  0
LINE
  8
CSLAYER1
  6
CONTINUOUS
 62
     3
 10
832.045918
 20
1392.572103
 11
829.045918
 21
1392.572103
  0
LINE
  8
CSLAYER1
  6
CONTINUOUS
 62
     3
 10
832.045918
 20
1401.809906
 11
829.206893
 21
1405.122103
  0
LINE
  8
CSLAYER1
  6
CONTINUOUS
 62
     3
 10
821.045918
 20
1408.322103
 11
821.045918
 21
1394.322103
  0
ARC
  8
CSLAYER1
  6
CONTINUOUS
 62
     3
 10
834.841663
 20
1403.322103
 40
13.795744
 50
158.750456
 51
203.426598
  0
LINE
  8
CSLAYER1
  6
CONTINUOUS
 62
     3
 10
829.045918
 20
1397.837275
 11
822.183099
 21
1397.837275
  0
LINE
  8
CSLAYER1
  6
CONTINUOUS
 62
     3
 10
829.045918
 20
1392.352447
 11
822.183099
 21
1392.352447
  0
LINE
  8
CSLAYER1
  6
CONTINUOUS
 62
     3
 10
821.045918
 20
1394.322103
 11
822.183099
 21
1392.352447
  0
ARC
  8
CSLAYER1
  6
CONTINUOUS
 62
     3
 10
824.825963
 20
1395.094861
 40
3.808617
 50
133.940972
 51
174.338367
  0
LINE
  8
CSLAYER1
  6
CONTINUOUS
 62
     3
 10
849.545918
 20
858.850501
 11
849.545918
 21
1408.322103
  0
LINE
  8
CSLAYER1
  6
CONTINUOUS
 62
     3
 10
828.545918
 20
858.850501
 11
828.545918
 21
1392.352447
  0
LINE
  8
CSLAYER1
  6
CONTINUOUS
 62
     3
 10
849.545918
 20
887.841864
 11
861.895918
 21
887.841864
  0
LINE
  8
CSLAYER1
  6
CONTINUOUS
 62
     3
 10
995.545918
 20
1408.322103
 11
795.545918
 21
1408.322103
  0
LINE
  8
CSLAYER1
  6
CONTINUOUS
 62
     3
 10
924.045918
 20
1184.277060
 11
927.545918
 21
1184.277060
  0
LINE
  8
CSLAYER1
  6
CONTINUOUS
 62
     3
 10
861.895918
 20
858.850501
 11
861.895918
 21
966.606297
  0
LINE
  8
CSLAYER1
  6
CONTINUOUS
 62
     3
 10
870.195918
 20
858.850501
 11
870.195918
 21
966.606297
  0
LINE
  8
CSLAYER1
  6
CONTINUOUS
 62
     3
 10
870.195918
 20
887.841864
 11
877.045918
 21
887.841864
  0
CIRCLE
  8
CSLAYER1
  6
CONTINUOUS
 62
     3
 10
865.545918
 20
830.500501
 40
4.150000
  0
LINE
  8
CSLAYER1
  6
CONTINUOUS
 62
     5
 10
862.045918
 20
1013.606297
 11
862.045918
 21
1018.267067
  0
DIMENSION
  8
CSLAYER1
 62
     3
  2
*D0007
 10
1111.932515
 20
824.850501
 11
1164.799316
 21
842.715393
 13
1045.545918
 23
818.850501
 14
1045.545918
 24
824.850501
 50
90.000000
 70
1
  0
LINE
  8
CSLAYER1
  6
CONTINUOUS
 62
     1
 10
978.895918
 20
1103.931375
 11
978.345918
 21
1103.931375
  0
LINE
  8
CSLAYER1
  6
CONTINUOUS
 62
     1
 10
978.895918
 20
1114.231375
 11
978.345918
 21
1114.231375
  0
LINE
  8
CSLAYER1
  6
CONTINUOUS
 62
     4
 10
968.345918
 20
1098.111720
 11
968.345918
 21
1120.051030
  0
LINE
  8
CSLAYER1
  6
CONTINUOUS
 62
     4
 10
978.345918
 20
1099.581375
 11
978.345918
 21
1118.581375
  0
LINE
  8
CSLAYER1
  6
CONTINUOUS
 62
     4
 10
968.345918
 20
1098.111720
 11
977.497413
 21
1098.111720
  0
LINE
  8
CSLAYER1
  6
CONTINUOUS
 62
     4
 10
968.345918
 20
1103.596548
 11
977.497413
 21
1103.596548
  0
LINE
  8
CSLAYER1
  6
CONTINUOUS
 62
     4
 10
978.345918
 20
1099.581375
 11
977.497413
 21
1098.111720
  0
ARC
  8
CSLAYER1
  6
CONTINUOUS
 62
     4
 10
960.194424
 20
1109.081375
 40
18.151494
 50
-17.587954
 51
17.587954
  0
ARC
  8
CSLAYER1
  6
CONTINUOUS
 62
     4
 10
973.496590
 20
1100.854134
 40
4.850507
 50
-25.570827
 51
34.796733
  0
LINE
  8
CSLAYER1
  6
CONTINUOUS
 62
     4
 10
968.345918
 20
1098.331375
 11
965.345918
 21
1098.331375
  0
LINE
  8
CSLAYER1
  6
CONTINUOUS
 62
     4
 10
965.345918
 20
1097.081375
 11
963.045918
 21
1097.081375
  0
LINE
  8
CSLAYER1
  6
CONTINUOUS
 62
     4
 10
963.045918
 20
1097.081375
 11
963.045918
 21
1121.081375
  0
LINE
  8
CSLAYER1
  6
CONTINUOUS
 62
     4
 10
965.345918
 20
1097.081375
 11
965.345918
 21
1121.081375
  0
LINE
  8
CSLAYER1
  6
CONTINUOUS
 62
     4
 10
979.045918
 20
1104.081375
 11
979.045918
 21
1114.081375
  0
LINE
  8
CSLAYER1
  6
CONTINUOUS
 62
     4
 10
978.345918
 20
1103.381375
 11
979.045918
 21
1104.081375
  0
LINE
  8
CSLAYER1
  6
CONTINUOUS
 62
     4
 10
968.345918
 20
1120.051030
 11
977.497413
 21
1120.051030
  0
LINE
  8
CSLAYER1
  6
CONTINUOUS
 62
     4
 10
968.345918
 20
1114.566203
 11
977.497413
 21
1114.566203
  0
LINE
  8
CSLAYER1
  6
CONTINUOUS
 62
     4
 10
978.345918
 20
1118.581375
 11
977.497413
 21
1120.051030
  0
ARC
  8
CSLAYER1
  6
CONTINUOUS
 62
     4
 10
973.496590
 20
1117.308616
 40
4.850507
 50
-34.796733
 51
25.570827
  0
LINE
  8
CSLAYER1
  6
CONTINUOUS
 62
     4
 10
968.345918
 20
1119.831375
 11
965.345918
 21
1119.831375
  0
LINE
  8
CSLAYER1
  6
CONTINUOUS
 62
     4
 10
965.345918
 20
1121.081375
 11
963.045918
 21
1121.081375
  0
LINE
  8
CSLAYER1
  6
CONTINUOUS
 62
     4
 10
978.345918
 20
1114.781375
 11
979.045918
 21
1114.081375
  0
LINE
  8
CSLAYER1
  6
CONTINUOUS
 62
     4
 10
962.545918
 20
1100.581375
 11
963.045918
 21
1101.081375
  0
LINE
  8
CSLAYER1
  6
CONTINUOUS
 62
     4
 10
962.545918
 20
1117.581375
 11
963.045918
 21
1117.081375
  0
LINE
  8
CSLAYER1
  6
CONTINUOUS
 62
     1
 10
812.195918
 20
1103.931375
 11
812.745918
 21
1103.931375
  0
LINE
  8
CSLAYER1
  6
CONTINUOUS
 62
     1
 10
812.195918
 20
1114.231375
 11
812.745918
 21
1114.231375
  0
LINE
  8
CSLAYER1
  6
CONTINUOUS
 62
     4
 10
822.745918
 20
1098.111720
 11
822.745918
 21
1120.051030
  0
LINE
  8
CSLAYER1
  6
CONTINUOUS
 62
     4
 10
812.745918
 20
1099.581375
 11
812.745918
 21
1118.581375
  0
LINE
  8
CSLAYER1
  6
CONTINUOUS
 62
     4
 10
822.745918
 20
1098.111720
 11
813.594424
 21
1098.111720
  0
LINE
  8
CSLAYER1
  6
CONTINUOUS
 62
     4
 10
822.745918
 20
1103.596548
 11
813.594424
 21
1103.596548
  0
LINE
  8
CSLAYER1
  6
CONTINUOUS
 62
     4
 10
812.745918
 20
1099.581375
 11
813.594424
 21
1098.111720
  0
ARC
  8
CSLAYER1
  6
CONTINUOUS
 62
     4
 10
830.897413
 20
1109.081375
 40
18.151494
 50
162.412046
 51
197.587954
  0
ARC
  8
CSLAYER1
  6
CONTINUOUS
 62
     4
 10
817.595247
 20
1100.854134
 40
4.850507
 50
145.203267
 51
205.570827
  0
LINE
  8
CSLAYER1
  6
CONTINUOUS
 62
     4
 10
822.745918
 20
1098.331375
 11
825.745918
 21
1098.331375
  0
LINE
  8
CSLAYER1
  6
CONTINUOUS
 62
     4
 10
825.745918
 20
1097.081375
 11
828.045918
 21
1097.081375
  0
LINE
  8
CSLAYER1
  6
CONTINUOUS
 62
     4
 10
828.045918
 20
1097.081375
 11
828.045918
 21
1121.081375
  0
LINE
  8
CSLAYER1
  6
CONTINUOUS
 62
     4
 10
825.745918
 20
1097.081375
 11
825.745918
 21
1121.081375
  0
LINE
  8
CSLAYER1
  6
CONTINUOUS
 62
     4
 10
812.045918
 20
1104.081375
 11
812.045918
 21
1114.081375
  0
LINE
  8
CSLAYER1
  6
CONTINUOUS
 62
     4
 10
812.745918
 20
1103.381375
 11
812.045918
 21
1104.081375
  0
LINE
  8
CSLAYER1
  6
CONTINUOUS
 62
     4
 10
822.745918
 20
1120.051030
 11
813.594424
 21
1120.051030
  0
LINE
  8
CSLAYER1
  6
CONTINUOUS
 62
     4
 10
822.745918
 20
1114.566203
 11
813.594424
 21
1114.566203
  0
LINE
  8
CSLAYER1
  6
CONTINUOUS
 62
     4
 10
812.745918
 20
1118.581375
 11
813.594424
 21
1120.051030
  0
ARC
  8
CSLAYER1
  6
CONTINUOUS
 62
     4
 10
817.595247
 20
1117.308616
 40
4.850507
 50
154.429173
 51
214.796733
  0
LINE
  8
CSLAYER1
  6
CONTINUOUS
 62
     4
 10
822.745918
 20
1119.831375
 11
825.745918
 21
1119.831375
  0
LINE
  8
CSLAYER1
  6
CONTINUOUS
 62
     4
 10
825.745918
 20
1121.081375
 11
828.045918
 21
1121.081375
  0
LINE
  8
CSLAYER1
  6
CONTINUOUS
 62
     4
 10
812.745918
 20
1114.781375
 11
812.045918
 21
1114.081375
  0
LINE
  8
CSLAYER1
  6
CONTINUOUS
 62
     4
 10
828.545918
 20
1100.581375
 11
828.045918
 21
1101.081375
  0
LINE
  8
CSLAYER1
  6
CONTINUOUS
 62
     4
 10
828.545918
 20
1117.581375
 11
828.045918
 21
1117.081375
  0
LINE
  8
CSLAYER1
  6
CONTINUOUS
 62
     3
 10
849.545918
 20
1083.918299
 11
888.045918
 21
1083.918299
  0
LINE
  8
CSLAYER1
  6
CONTINUOUS
 62
     3
 10
849.545918
 20
1081.673325
 11
888.045918
 21
1081.673325
  0
LINE
  8
CSLAYER1
  6
CONTINUOUS
 62
     3
 10
924.045918
 20
1083.918299
 11
941.545918
 21
1083.918299
  0
LINE
  8
CSLAYER1
  6
CONTINUOUS
 62
     3
 10
924.045918
 20
1081.673325
 11
941.545918
 21
1081.673325
  0
LINE
  8
CSLAYER1
  6
CONTINUOUS
 62
     3
 10
795.545918
 20
862.850501
 11
827.045918
 21
862.850501
  0
LINE
  8
CSLAYER1
  6
CONTINUOUS
 62
     3
 10
964.045918
 20
818.850501
 11
964.045918
 21
862.850501
  0
LINE
  8
CSLAYER1
  6
CONTINUOUS
 62
     3
 10
827.045918
 20
818.850501
 11
827.045918
 21
862.850501
  0
LINE
  8
CSLAYER1
  6
CONTINUOUS
 62
     3
 10
964.045918
 20
862.850501
 11
995.545918
 21
862.850501
  0
LINE
  8
CSLAYER1
  6
CONTINUOUS
 62
     3
 10
973.045918
 20
852.820157
 11
973.045918
 21
830.880846
  0
LINE
  8
CSLAYER1
  6
CONTINUOUS
 62
     3
 10
970.045918
 20
831.100501
 11
973.045918
 21
831.100501
  0
LINE
  8
CSLAYER1
  6
CONTINUOUS
 62
     3
 10
970.045918
 20
852.600501
 11
973.045918
 21
852.600501
  0
LINE
  8
CSLAYER1
  6
CONTINUOUS
 62
     3
 10
970.045918
 20
843.362698
 11
973.045918
 21
839.862698
  0
LINE
  8
CSLAYER1
  6
CONTINUOUS
 62
     3
 10
981.045918
 20
832.850501
 11
981.045918
 21
850.850501
  0
LINE
  8
CSLAYER1
  6
CONTINUOUS
 62
     3
 10
973.045918
 20
836.365674
 11
979.908737
 21
836.365674
  0
LINE
  8
CSLAYER1
  6
CONTINUOUS
 62
     3
 10
973.045918
 20
830.880846
 11
979.908737
 21
830.880846
  0
LINE
  8
CSLAYER1
  6
CONTINUOUS
 62
     3
 10
981.045918
 20
832.850501
 11
979.908737
 21
830.880846
  0
ARC
  8
CSLAYER1
  6
CONTINUOUS
 62
     3
 10
977.265874
 20
833.623260
 40
3.808617
 50
5.661633
 51
46.059028
  0
ARC
  8
CSLAYER1
  6
CONTINUOUS
 62
     3
 10
967.250174
 20
841.850501
 40
13.795744
 50
-23.426598
 51
23.426598
  0
LINE
  8
CSLAYER1
  6
CONTINUOUS
 62
     3
 10
973.045918
 20
847.335329
 11
979.908737
 21
847.335329
  0
LINE
  8
CSLAYER1
  6
CONTINUOUS
 62
     3
 10
973.045918
 20
852.820157
 11
979.908737
 21
852.820157
  0
LINE
  8
CSLAYER1
  6
CONTINUOUS
 62
     3
 10
981.045918
 20
850.850501
 11
979.908737
 21
852.820157
  0
ARC
  8
CSLAYER1
  6
CONTINUOUS
 62
     3
 10
977.265874
 20
850.077743
 40
3.808617
 50
313.940972
 51
354.338367
  0
LINE
  8
CSLAYER1
  6
CENTER
 62
     5
 10
970.045918
 20
841.850501
 11
981.045918
 21
841.850501
  0
LINE
  8
CSLAYER1
  6
CONTINUOUS
 62
     4
 10
1466.067389
 20
2100.276935
 11
2293.503092
 21
2100.276935
  0
LINE
  8
CSLAYER1
  6
CONTINUOUS
 62
     3
 10
1513.367389
 20
1860.276935
 11
1513.367389
 21
1900.276935
  0
LINE
  8
CSLAYER1
  6
CONTINUOUS
 62
     3
 10
1473.367389
 20
1850.276935
 11
1503.367389
 21
1850.276935
  0
ARC
  8
CSLAYER1
  6
CONTINUOUS
 62
     3
 10
1503.367389
 20
1860.276935
 40
10.000000
 50
270.000000
 51
360.000000
  0
LINE
  8
CSLAYER1
  6
CENTER
 62
     5
 10
1488.367389
 20
1886.539737
 11
1488.367389
 21
1864.014134
  0
LINE
  8
CSLAYER1
  6
CENTER
 62
     5
 10
1477.104588
 20
1875.276935
 11
1499.630191
 21
1875.276935
  0
LINE
  8
CSLAYER1
  6
CONTINUOUS
 62
     3
 10
1463.367389
 20
1925.776935
 11
1466.067389
 21
1925.776935
  0
CIRCLE
  8
CSLAYER1
  6
CONTINUOUS
 62
     3
 10
1488.367389
 20
1875.276935
 40
6.500000
  0
ARC
  8
CSLAYER1
  6
CONTINUOUS
 62
     3
 10
1473.367389
 20
1860.276935
 40
10.000000
 50
180.000000
 51
270.000000
  0
LINE
  8
CSLAYER1
  6
CONTINUOUS
 62
     4
 10
1466.067389
 20
1900.276935
 11
2293.503092
 21
1900.276935
  0
DIMENSION
  8
CSLAYER1
 62
     3
  2
*D0008
 10
2413.503092
 20
2100.276935
 11
2403.502930
 21
2000.276855
 13
2293.503092
 23
1900.276935
 14
2293.503092
 24
2100.276935
 50
90.000000
 70
1
  0
LINE
  8
CSLAYER1
  6
CONTINUOUS
 62
     3
 10
795.545918
 20
1408.322103
 11
795.545918
 21
1440.622103
  0
LINE
  8
CSLAYER1
  6
CONTINUOUS
 62
     3
 10
995.545918
 20
1408.322103
 11
995.545918
 21
1440.622103
  0
LINE
  8
CSLAYER1
  6
CONTINUOUS
 62
     3
 10
2702.383249
 20
886.550501
 11
2702.383249
 21
918.850501
  0
LINE
  8
CSLAYER1
  6
CONTINUOUS
 62
     3
 10
2902.383249
 20
886.550501
 11
2902.383249
 21
918.850501
  0
LINE
  8
CSLAYER1
  6
CONTINUOUS
 62
     5
 10
3498.702111
 20
2368.390820
 11
2618.702111
 21
2368.390820
  0
LINE
  8
CSLAYER1
  6
CONTINUOUS
 62
     5
 10
3498.702111
 20
2315.057487
 11
2618.702111
 21
2315.057487
  0
LINE
  8
CSLAYER1
  6
CONTINUOUS
 62
     5
 10
3498.702111
 20
2261.724153
 11
2618.702111
 21
2261.724153
  0
LINE
  8
CSLAYER1
  6
CONTINUOUS
 62
     5
 10
3498.702111
 20
2155.057487
 11
2618.702111
 21
2155.057487
  0
LINE
  8
CSLAYER1
  6
CONTINUOUS
 62
     5
 10
3498.702111
 20
2048.390820
 11
2618.702111
 21
2048.390820
  0
LINE
  8
CSLAYER1
  6
CONTINUOUS
 62
     5
 10
3498.702111
 20
1835.057487
 11
2618.702111
 21
1835.057487
  0
LINE
  8
CSLAYER1
  6
CONTINUOUS
 62
     5
 10
3498.702111
 20
1835.057483
 11
2618.702111
 21
1835.057483
  0
LINE
  8
CSLAYER1
  6
CONTINUOUS
 62
     5
 10
3498.702111
 20
1781.724150
 11
2618.702111
 21
1781.724150
  0
TEXT
  8
CSLAYER1
 62
     3
 10
2632.035156
 20
2375.057373
 40
40.000000
 41
0.838235
  1
仕    様
 50
0.000000
 51
0.000000
  7
EASYDRAW_FONT
 72
     5
 11
2822.035156
 21
2375.057373
  0
TEXT
  8
CSLAYER1
 62
     3
 10
2632.035156
 20
2321.724121
 40
40.000000
 41
0.838235
  1
型    式
 50
0.000000
 51
0.000000
  7
EASYDRAW_FONT
 72
     5
 11
2822.035156
 21
2321.724121
  0
TEXT
  8
CSLAYER1
 62
     3
 10
2997.035156
 20
2321.724121
 40
40.000000
 41
0.817105
  1
GLSH-350-2008
 50
0.000000
 51
0.000000
  7
EASYDRAW_FONT
 72
     5
 11
3411.035156
 21
2321.724121
  0
TEXT
  8
CSLAYER1
 62
     3
 10
2632.035156
 20
2268.390869
 40
40.000000
 41
0.859091
  1
均等荷重
 50
0.000000
 51
0.000000
  7
EASYDRAW_FONT
 72
     5
 11
2758.035156
 21
2268.390869
  0
TEXT
  8
CSLAYER1
 62
     3
 10
3423.368408
 20
2268.390869
 40
40.000000
 41
0.930000
  1
ｋｇ
 50
0.000000
 51
0.000000
  7
EASYDRAW_FONT
 72
     5
 11
3485.368408
 21
2268.390869
  0
TEXT
  8
CSLAYER1
 62
     3
 10
2632.035156
 20
2161.724121
 40
40.000000
 41
0.838235
  1
テーブル高サ
 50
0.000000
 51
0.000000
  7
EASYDRAW_FONT
 72
     5
 11
2822.035156
 21
2161.724121
  0
TEXT
  8
CSLAYER1
 62
     3
 10
3423.368408
 20
2161.724121
 40
40.000000
 41
0.930000
  1
ｍｍ
 50
0.000000
 51
0.000000
  7
EASYDRAW_FONT
 72
     5
 11
3485.368408
 21
2161.724121
  0
TEXT
  8
CSLAYER1
 62
     3
 10
2632.035156
 20
2055.057373
 40
40.000000
 41
0.838235
  1
全    長
 50
0.000000
 51
0.000000
  7
EASYDRAW_FONT
 72
     5
 11
2822.035156
 21
2055.057373
  0
TEXT
  8
CSLAYER1
 62
     3
 10
3157.035156
 20
2055.057373
 40
40.000000
 41
0.881250
  1
803
 50
0.000000
 51
0.000000
  7
EASYDRAW_FONT
 72
     5
 11
3251.035156
 21
2055.057373
  0
TEXT
  8
CSLAYER1
 62
     3
 10
3141.035156
 20
1841.723877
 40
40.000000
 41
0.859091
  1
約　40
 50
0.000000
 51
0.000000
  7
EASYDRAW_FONT
 72
     5
 11
3267.035156
 21
1841.723877
  0
TEXT
  8
CSLAYER1
 62
     3
 10
2632.035156
 20
1841.723877
 40
40.000000
 41
0.846429
  1
ポンプ回数
 50
0.000000
 51
0.000000
  7
EASYDRAW_FONT
 72
     5
 11
2790.035156
 21
1841.723877
  0
TEXT
  8
CSLAYER1
 62
     3
 10
2632.035156
 20
1788.390625
 40
40.000000
 41
0.832500
  1
自     重
 50
0.000000
 51
0.000000
  7
EASYDRAW_FONT
 72
     5
 11
2854.035156
 21
1788.390625
  0
TEXT
  8
CSLAYER1
 62
     3
 10
3147.701904
 20
1788.390625
 40
40.000000
 41
0.859091
  1
約　46
 50
0.000000
 51
0.000000
  7
EASYDRAW_FONT
 72
     5
 11
3273.701904
 21
1788.390625
  0
TEXT
  8
CSLAYER1
 62
     3
 10
2632.035156
 20
1735.057373
 40
40.000000
 41
0.832500
  1
塗  装  色
 50
0.000000
 51
0.000000
  7
EASYDRAW_FONT
 72
     5
 11
2854.035156
 21
1735.057373
  0
TEXT
  8
CSLAYER1
 62
     3
 10
3157.035156
 20
2268.390869
 40
40.000000
 41
0.881250
  1
350
 50
0.000000
 51
0.000000
  7
EASYDRAW_FONT
 72
     5
 11
3251.035156
 21
2268.390869
  0
TEXT
  8
CSLAYER1
 62
     3
 10
3093.035156
 20
2161.724121
 40
40.000000
 41
0.832500
  1
100～600
 50
0.000000
 51
0.000000
  7
EASYDRAW_FONT
 72
     5
 11
3315.035156
 21
2161.724121
  0
TEXT
  8
CSLAYER1
 62
     3
 10
3423.368408
 20
2055.057373
 40
40.000000
 41
0.930000
  1
ｍｍ
 50
0.000000
 51
0.000000
  7
EASYDRAW_FONT
 72
     5
 11
3485.368408
 21
2055.057373
  0
LINE
  8
CSLAYER1
  6
CONTINUOUS
 62
     5
 10
3498.702111
 20
1995.057487
 11
2618.702111
 21
1995.057487
  0
TEXT
  8
CSLAYER1
 62
     3
 10
2632.035156
 20
2001.723877
 40
40.000000
 41
0.838235
  1
全    幅
 50
0.000000
 51
0.000000
  7
EASYDRAW_FONT
 72
     5
 11
2822.035156
 21
2001.723877
  0
TEXT
  8
CSLAYER1
 62
     3
 10
3157.035156
 20
2001.723877
 40
40.000000
 41
0.881250
  1
300
 50
0.000000
 51
0.000000
  7
EASYDRAW_FONT
 72
     5
 11
3251.035156
 21
2001.723877
  0
TEXT
  8
CSLAYER1
 62
     3
 10
3423.368408
 20
2001.723877
 40
40.000000
 41
0.930000
  1
ｍｍ
 50
0.000000
 51
0.000000
  7
EASYDRAW_FONT
 72
     5
 11
3485.368408
 21
2001.723877
  0
TEXT
  8
CSLAYER1
 62
     3
 10
3423.368408
 20
1788.390625
 40
40.000000
 41
0.930000
  1
ｋｇ
 50
0.000000
 51
0.000000
  7
EASYDRAW_FONT
 72
     5
 11
3485.368408
 21
1788.390625
  0
LINE
  8
CSLAYER1
  6
CONTINUOUS
 62
     5
 10
3498.702111
 20
2208.390820
 11
2618.702111
 21
2208.390820
  0
TEXT
  8
CSLAYER1
 62
     3
 10
2632.035156
 20
2215.057617
 40
40.000000
 41
0.838235
  1
テーブル寸法
 50
0.000000
 51
0.000000
  7
EASYDRAW_FONT
 72
     5
 11
2822.035156
 21
2215.057617
  0
TEXT
  8
CSLAYER1
 62
     3
 10
3423.368408
 20
2215.057617
 40
40.000000
 41
0.930000
  1
ｍｍ
 50
0.000000
 51
0.000000
  7
EASYDRAW_FONT
 72
     5
 11
3485.368408
 21
2215.057617
  0
TEXT
  8
CSLAYER1
 62
     3
 10
3061.035156
 20
2215.057617
 40
40.000000
 41
0.825000
  1
800L×200W
 50
0.000000
 51
0.000000
  7
EASYDRAW_FONT
 72
     5
 11
3347.035156
 21
2215.057617
  0
LINE
  8
CSLAYER1
  6
CONTINUOUS
 62
     5
 10
3498.702111
 20
2101.724153
 11
2618.702111
 21
2101.724153
  0
TEXT
  8
CSLAYER1
 62
     3
 10
3423.368408
 20
2108.390869
 40
40.000000
 41
0.930000
  1
ｍｍ
 50
0.000000
 51
0.000000
  7
EASYDRAW_FONT
 72
     5
 11
3485.368408
 21
2108.390869
  0
TEXT
  8
CSLAYER1
 62
     3
 10
3157.035156
 20
2108.390869
 40
40.000000
 41
0.881250
  1
500
 50
0.000000
 51
0.000000
  7
EASYDRAW_FONT
 72
     5
 11
3251.035156
 21
2108.390869
  0
TEXT
  8
CSLAYER1
 62
     3
 10
2633.867676
 20
2108.390869
 40
40.000000
 41
0.846429
  1
ストローク
 50
0.000000
 51
0.000000
  7
EASYDRAW_FONT
 72
     5
 11
2791.867676
 21
2108.390869
  0
LINE
  8
CSLAYER1
  6
CONTINUOUS
 62
     5
 10
3498.702111
 20
1941.724153
 11
2618.702111
 21
1941.724153
  0
TEXT
  8
CSLAYER1
 62
     3
 10
2632.035156
 20
1948.390625
 40
40.000000
 41
0.838235
  1
全    高
 50
0.000000
 51
0.000000
  7
EASYDRAW_FONT
 72
     5
 11
2822.035156
 21
1948.390625
  0
TEXT
  8
CSLAYER1
 62
     3
 10
3157.035156
 20
1948.390625
 40
40.000000
 41
0.881250
  1
100
 50
0.000000
 51
0.000000
  7
EASYDRAW_FONT
 72
     5
 11
3251.035156
 21
1948.390625
  0
TEXT
  8
CSLAYER1
 62
     3
 10
3423.368408
 20
1948.390625
 40
40.000000
 41
0.930000
  1
ｍｍ
 50
0.000000
 51
0.000000
  7
EASYDRAW_FONT
 72
     5
 11
3485.368408
 21
1948.390625
  0
LINE
  8
CSLAYER1
  6
CONTINUOUS
 62
     5
 10
3498.702111
 20
1888.390820
 11
2618.702111
 21
1888.390820
  0
TEXT
  8
CSLAYER1
 62
     3
 10
2632.035156
 20
1895.057251
 40
40.000000
 41
0.846429
  1
リフト方式
 50
0.000000
 51
0.000000
  7
EASYDRAW_FONT
 72
     5
 11
2790.035156
 21
1895.057251
  0
TEXT
  8
CSLAYER1
 62
     3
 10
3125.035156
 20
1895.057251
 40
40.000000
 41
0.846429
  1
足踏油圧式
 50
0.000000
 51
0.000000
  7
EASYDRAW_FONT
 72
     5
 11
3283.035156
 21
1895.057251
  0
LINE
  8
CSLAYER1
  6
CONTINUOUS
 62
     5
 10
2922.702111
 20
1728.390817
 11
2922.702111
 21
2368.390820
  0
TEXT
  8
CSLAYER1
 62
     3
 10
3455.368408
 20
1841.723999
 40
40.000000
 41
1.125000
  1
回
 50
0.000000
 51
0.000000
  7
EASYDRAW_FONT
 72
     5
 11
3485.368408
 21
1841.723999
  0
LINE
  8
CSLAYER2
  6
CONTINUOUS
 62
     5
 10
250.128800
 20
1704.281231
 11
250.128800
 21
2408.390820
  0
LINE
  8
CSLAYER2
  6
CONTINUOUS
 62
     5
 10
1051.422931
 20
2408.390820
 11
250.128800
 21
2408.390820
  0
DIMENSION
  8
CSLAYER1
 62
     3
  2
*D0009
 10
1488.367389
 20
698.850501
 11
1513.951416
 21
679.953491
 13
1463.367389
 23
818.850501
 14
1488.367389
 24
818.850501
 52
270.000000
 70
1
  0
DIMENSION
  8
CSLAYER1
 62
     3
  2
*D0010
 10
1045.545918
 20
608.850501
 11
895.545898
 21
616.850525
 13
745.545918
 23
820.850501
 14
1045.545918
 24
820.850501
 52
270.000000
 70
1
  0
TEXT
  8
CSLAYER1
 62
     7
 10
846.409424
 20
518.269409
 40
40.000000
 41
0.843750
  1
上昇時
 50
0.000000
 51
0.000000
  7
EASYDRAW_FONT
 72
     5
 11
936.409424
 21
518.269409
  0
LINE
  8
CSLAYER1
  6
CONTINUOUS
 62
     5
 10
955.760962
 20
564.699486
 11
955.760962
 21
511.839033
  0
LINE
  8
CSLAYER1
  6
CONTINUOUS
 62
     5
 10
832.802953
 20
564.699486
 11
955.760962
 21
564.699486
  0
LINE
  8
CSLAYER1
  6
CONTINUOUS
 62
     5
 10
832.802953
 20
511.839033
 11
832.802953
 21
564.699486
  0
LINE
  8
CSLAYER1
  6
CONTINUOUS
 62
     5
 10
955.760962
 20
511.839033
 11
832.802953
 21
511.839033
  0
DIMENSION
  8
CSLAYER1
 62
     3
  2
*D0011
 10
1020.545918
 20
698.850501
 11
895.545898
 21
706.850464
 13
770.545918
 23
820.850501
 14
1020.545918
 24
820.850501
 52
270.000000
 70
1
  0
DIMENSION
  8
CSLAYER1
 62
     3
  2
*D0012
 10
995.545918
 20
1540.622103
 11
895.545898
 21
1550.622192
 13
795.545918
 23
1440.622103
 14
995.545918
 24
1440.622103
 70
1
  0
INSERT
  8
CSLAYER1
  2
BLKF0003
 10
0.0
 20
0.0
 30
0.0
  0
INSERT
  8
CSLAYER1
  2
BLKF0004
 10
0.0
 20
0.0
 30
0.0
  0
LINE
  8
CSLAYER1
  6
CONTINUOUS
 62
     7
 10
679.275903
 20
1846.808609
 11
806.802199
 21
1988.829370
  0
LINE
  8
CSLAYER1
  6
CONTINUOUS
 62
     7
 10
456.100011
 20
1934.626629
 11
641.471782
 21
2003.665607
  0
LINE
  8
CSLAYER1
  6
CONTINUOUS
 62
     7
 10
461.165592
 20
1920.671895
 11
680.628249
 21
2002.407521
  0
LINE
  8
CSLAYER1
  6
CONTINUOUS
 62
     7
 10
667.669136
 20
1856.700497
 11
759.431021
 21
1958.891912
  0
LINE
  8
CSLAYER1
  6
CONTINUOUS
 62
     7
 10
789.946152
 20
2135.942892
 11
789.946152
 21
2030.546634
  0
LINE
  8
CSLAYER1
  6
CONTINUOUS
 62
     7
 10
789.946152
 20
2135.942892
 11
669.966198
 21
2179.612023
  0
LINE
  8
CSLAYER1
  6
CONTINUOUS
 62
     7
 10
761.451736
 20
1952.252200
 11
789.946152
 21
1970.057487
  0
LINE
  8
CSLAYER1
  6
CONTINUOUS
 62
     7
 10
761.451736
 20
2118.137604
 11
761.451736
 21
1952.252200
  0
LINE
  8
CSLAYER1
  6
CONTINUOUS
 62
     7
 10
761.451736
 20
2118.137604
 11
789.946152
 21
2135.942892
  0
LINE
  8
CSLAYER1
  6
CONTINUOUS
 62
     7
 10
670.360343
 20
2175.861986
 11
670.360343
 21
2141.035948
  0
LINE
  8
CSLAYER1
  6
CONTINUOUS
 62
     7
 10
641.471782
 20
2161.806736
 11
669.966198
 21
2179.612023
  0
LINE
  8
CSLAYER1
  6
CONTINUOUS
 62
     7
 10
761.451736
 20
1952.252200
 11
759.431021
 21
1952.987680
  0
LINE
  8
CSLAYER1
  6
CONTINUOUS
 62
     7
 10
759.431021
 20
1977.191247
 11
690.019723
 21
2002.454894
  0
LINE
  8
CSLAYER1
  6
CONTINUOUS
 62
     7
 10
786.101794
 20
2135.538833
 11
670.163270
 21
2177.737005
  0
LINE
  8
CSLAYER1
  6
CONTINUOUS
 62
     7
 10
719.294667
 20
2093.793107
 11
786.101794
 21
2135.538833
  0
LINE
  8
CSLAYER1
  6
CONTINUOUS
 62
     7
 10
761.451736
 20
2118.137604
 11
759.431021
 21
2118.873084
  0
LINE
  8
CSLAYER1
  6
CONTINUOUS
 62
     7
 10
759.431021
 20
2118.873084
 11
759.431021
 21
1977.191247
  0
LINE
  8
CSLAYER1
  6
CONTINUOUS
 62
     7
 10
641.471782
 20
2161.806736
 11
641.471782
 21
2159.808573
  0
LINE
  8
CSLAYER1
  6
CONTINUOUS
 62
     7
 10
641.471782
 20
2161.806736
 11
669.966198
 21
2179.612023
  0
LINE
  8
CSLAYER1
  6
CONTINUOUS
 62
     7
 10
643.492497
 20
2161.071256
 11
670.163270
 21
2177.737005
  0
LINE
  8
CSLAYER1
  6
CONTINUOUS
 62
     7
 10
643.492497
 20
2161.071256
 11
641.471782
 21
2161.806736
  0
LINE
  8
CSLAYER1
  6
CONTINUOUS
 62
     7
 10
643.492497
 20
1993.016302
 11
659.945703
 21
2003.297407
  0
LINE
  8
CSLAYER1
  6
CONTINUOUS
 62
     7
 10
717.273952
 20
2094.528587
 11
782.257436
 21
2135.134775
  0
LINE
  8
CSLAYER1
  6
CONTINUOUS
 62
     7
 10
715.694481
 20
2091.679146
 11
715.694481
 21
2024.593390
  0
LINE
  8
CSLAYER1
  6
CONTINUOUS
 62
     7
 10
717.715196
 20
2090.943665
 11
717.715196
 21
2024.947744
  0
LINE
  8
CSLAYER1
  6
CONTINUOUS
 62
     7
 10
782.257436
 20
2135.134775
 11
765.333948
 21
2141.294421
  0
LINE
  8
CSLAYER1
  6
CONTINUOUS
 62
     7
 10
715.694481
 20
2092.999265
 11
606.646828
 21
2132.689364
  0
LINE
  8
CSLAYER1
  6
CONTINUOUS
 62
     7
 10
715.694481
 20
2025.799265
 11
682.214268
 21
2037.985066
  0
LINE
  8
CSLAYER1
  6
CONTINUOUS
 62
     7
 10
606.956329
 20
2136.242762
 11
670.360343
 21
2175.861986
  0
LINE
  8
CSLAYER1
  6
CONTINUOUS
 62
     7
 10
604.935614
 20
2136.978242
 11
641.471782
 21
2159.808573
  0
LINE
  8
CSLAYER1
  6
CONTINUOUS
 62
     7
 10
601.776672
 20
2131.279359
 11
601.776672
 21
2065.424277
  0
LINE
  8
CSLAYER1
  6
CONTINUOUS
 62
     7
 10
603.797387
 20
2130.543879
 11
603.797387
 21
2066.410436
  0
LINE
  8
CSLAYER1
  6
CONTINUOUS
 62
     7
 10
606.646828
 20
2132.689364
 11
606.646828
 21
2065.489364
  0
LINE
  8
CSLAYER1
  6
CONTINUOUS
 62
     7
 10
606.646828
 20
2132.689364
 11
638.539167
 21
2152.617909
  0
LINE
  8
CSLAYER1
  6
CONTINUOUS
 62
     7
 10
747.038338
 20
2113.127440
 11
638.539167
 21
2152.617909
  0
LINE
  8
CSLAYER1
  6
CONTINUOUS
 62
     7
 10
722.855724
 20
2022.098303
 11
759.431021
 21
2044.953084
  0
LINE
  8
CSLAYER1
  6
CONTINUOUS
 62
     7
 10
719.697204
 20
2021.884253
 11
716.641779
 21
2022.996337
  0
LINE
  8
CSLAYER1
  6
CONTINUOUS
 62
     7
 10
665.713282
 20
2001.198180
 11
642.754308
 21
2009.554563
  0
LINE
  8
CSLAYER1
  6
CONTINUOUS
 62
     7
 10
665.713282
 20
2001.198180
 11
669.609961
 21
2003.633095
  0
LINE
  8
CSLAYER1
  6
CONTINUOUS
 62
     7
 10
649.815191
 20
2047.830995
 11
651.100342
 21
2048.634047
  0
LINE
  8
CSLAYER1
  6
CONTINUOUS
 62
     7
 10
657.657306
 20
2035.013052
 11
659.062867
 21
2035.891344
  0
LINE
  8
CSLAYER1
  6
CONTINUOUS
 62
     7
 10
651.100342
 20
2048.634047
 11
651.433999
 21
2048.808827
  0
LINE
  8
CSLAYER1
  6
CONTINUOUS
 62
     7
 10
651.433999
 20
2048.808827
 11
651.795417
 21
2048.933787
  0
LINE
  8
CSLAYER1
  6
CONTINUOUS
 62
     7
 10
651.795417
 20
2048.933787
 11
652.181844
 21
2049.007977
  0
LINE
  8
CSLAYER1
  6
CONTINUOUS
 62
     7
 10
652.181844
 20
2049.007977
 11
652.590340
 21
2049.030830
  0
LINE
  8
CSLAYER1
  6
CONTINUOUS
 62
     7
 10
652.590340
 20
2049.030830
 11
653.017796
 21
2049.002174
  0
LINE
  8
CSLAYER1
  6
CONTINUOUS
 62
     7
 10
653.017796
 20
2049.002174
 11
653.460959
 21
2048.922227
  0
LINE
  8
CSLAYER1
  6
CONTINUOUS
 62
     7
 10
653.460959
 20
2048.922227
 11
653.916456
 21
2048.791596
  0
LINE
  8
CSLAYER1
  6
CONTINUOUS
 62
     7
 10
653.916456
 20
2048.791596
 11
654.380821
 21
2048.611277
  0
LINE
  8
CSLAYER1
  6
CONTINUOUS
 62
     7
 10
654.380821
 20
2048.611277
 11
654.850518
 21
2048.382641
  0
LINE
  8
CSLAYER1
  6
CONTINUOUS
 62
     7
 10
654.850518
 20
2048.382641
 11
655.321975
 21
2048.107428
  0
LINE
  8
CSLAYER1
  6
CONTINUOUS
 62
     7
 10
655.321975
 20
2048.107428
 11
655.791602
 21
2047.787734
  0
LINE
  8
CSLAYER1
  6
CONTINUOUS
 62
     7
 10
655.791602
 20
2047.787734
 11
656.255826
 21
2047.425990
  0
LINE
  8
CSLAYER1
  6
CONTINUOUS
 62
     7
 10
656.255826
 20
2047.425990
 11
656.711113
 21
2047.024951
  0
LINE
  8
CSLAYER1
  6
CONTINUOUS
 62
     7
 10
656.711113
 20
2047.024951
 11
657.153999
 21
2046.587669
  0
LINE
  8
CSLAYER1
  6
CONTINUOUS
 62
     7
 10
657.153999
 20
2046.587669
 11
657.581113
 21
2046.117470
  0
LINE
  8
CSLAYER1
  6
CONTINUOUS
 62
     7
 10
657.581113
 20
2046.117470
 11
657.989203
 21
2045.617935
  0
LINE
  8
CSLAYER1
  6
CONTINUOUS
 62
     7
 10
657.989203
 20
2045.617935
 11
658.375166
 21
2045.092864
  0
LINE
  8
CSLAYER1
  6
CONTINUOUS
 62
     7
 10
658.375166
 20
2045.092864
 11
658.736062
 21
2044.546254
  0
LINE
  8
CSLAYER1
  6
CONTINUOUS
 62
     7
 10
658.736062
 20
2044.546254
 11
659.069145
 21
2043.982264
  0
LINE
  8
CSLAYER1
  6
CONTINUOUS
 62
     7
 10
659.069145
 20
2043.982264
 11
659.371881
 21
2043.405188
  0
LINE
  8
CSLAYER1
  6
CONTINUOUS
 62
     7
 10
659.371881
 20
2043.405188
 11
659.641966
 21
2042.819416
  0
LINE
  8
CSLAYER1
  6
CONTINUOUS
 62
     7
 10
659.641966
 20
2042.819416
 11
659.877343
 21
2042.229408
  0
LINE
  8
CSLAYER1
  6
CONTINUOUS
 62
     7
 10
659.877343
 20
2042.229408
 11
660.076222
 21
2041.639652
  0
LINE
  8
CSLAYER1
  6
CONTINUOUS
 62
     7
 10
660.076222
 20
2041.639652
 11
660.237088
 21
2041.054639
  0
LINE
  8
CSLAYER1
  6
CONTINUOUS
 62
     7
 10
660.237088
 20
2041.054639
 11
660.358719
 21
2040.478820
  0
LINE
  8
CSLAYER1
  6
CONTINUOUS
 62
     7
 10
660.358719
 20
2040.478820
 11
660.440187
 21
2039.916577
  0
LINE
  8
CSLAYER1
  6
CONTINUOUS
 62
     7
 10
660.440187
 20
2039.916577
 11
660.480874
 21
2039.372189
  0
LINE
  8
CSLAYER1
  6
CONTINUOUS
 62
     7
 10
660.480874
 20
2039.372189
 11
660.480468
 21
2038.849800
  0
LINE
  8
CSLAYER1
  6
CONTINUOUS
 62
     7
 10
660.480468
 20
2038.849800
 11
660.438974
 21
2038.353385
  0
LINE
  8
CSLAYER1
  6
CONTINUOUS
 62
     7
 10
660.438974
 20
2038.353385
 11
660.356707
 21
2037.886722
  0
LINE
  8
CSLAYER1
  6
CONTINUOUS
 62
     7
 10
660.356707
 20
2037.886722
 11
660.234294
 21
2037.453363
  0
LINE
  8
CSLAYER1
  6
CONTINUOUS
 62
     7
 10
660.234294
 20
2037.453363
 11
660.072665
 21
2037.056606
  0
LINE
  8
CSLAYER1
  6
CONTINUOUS
 62
     7
 10
660.072665
 20
2037.056606
 11
659.873052
 21
2036.699471
  0
LINE
  8
CSLAYER1
  6
CONTINUOUS
 62
     7
 10
659.873052
 20
2036.699471
 11
659.636972
 21
2036.384675
  0
LINE
  8
CSLAYER1
  6
CONTINUOUS
 62
     7
 10
659.636972
 20
2036.384675
 11
659.366224
 21
2036.114614
  0
LINE
  8
CSLAYER1
  6
CONTINUOUS
 62
     7
 10
659.366224
 20
2036.114614
 11
659.062867
 21
2035.891344
  0
LINE
  8
CSLAYER1
  6
CONTINUOUS
 62
     7
 10
649.831086
 20
2047.827155
 11
650.028439
 21
2047.930535
  0
LINE
  8
CSLAYER1
  6
CONTINUOUS
 62
     7
 10
650.028439
 20
2047.930535
 11
650.389856
 21
2048.055496
  0
LINE
  8
CSLAYER1
  6
CONTINUOUS
 62
     7
 10
650.389856
 20
2048.055496
 11
650.776283
 21
2048.129685
  0
LINE
  8
CSLAYER1
  6
CONTINUOUS
 62
     7
 10
650.776283
 20
2048.129685
 11
651.184779
 21
2048.152539
  0
LINE
  8
CSLAYER1
  6
CONTINUOUS
 62
     7
 10
651.184779
 20
2048.152539
 11
651.612236
 21
2048.123883
  0
LINE
  8
CSLAYER1
  6
CONTINUOUS
 62
     7
 10
651.612236
 20
2048.123883
 11
652.055399
 21
2048.043935
  0
LINE
  8
CSLAYER1
  6
CONTINUOUS
 62
     7
 10
652.055399
 20
2048.043935
 11
652.510896
 21
2047.913304
  0
LINE
  8
CSLAYER1
  6
CONTINUOUS
 62
     7
 10
652.510896
 20
2047.913304
 11
652.975260
 21
2047.732985
  0
LINE
  8
CSLAYER1
  6
CONTINUOUS
 62
     7
 10
652.975260
 20
2047.732985
 11
653.444958
 21
2047.504349
  0
LINE
  8
CSLAYER1
  6
CONTINUOUS
 62
     7
 10
653.444958
 20
2047.504349
 11
653.916415
 21
2047.229137
  0
LINE
  8
CSLAYER1
  6
CONTINUOUS
 62
     7
 10
653.916415
 20
2047.229137
 11
654.386042
 21
2046.909442
  0
LINE
  8
CSLAYER1
  6
CONTINUOUS
 62
     7
 10
654.386042
 20
2046.909442
 11
654.850266
 21
2046.547699
  0
LINE
  8
CSLAYER1
  6
CONTINUOUS
 62
     7
 10
659.034627
 20
2039.038285
 11
659.075313
 21
2038.493897
  0
LINE
  8
CSLAYER1
  6
CONTINUOUS
 62
     7
 10
659.075313
 20
2038.493897
 11
659.074908
 21
2037.971508
  0
LINE
  8
CSLAYER1
  6
CONTINUOUS
 62
     7
 10
659.074908
 20
2037.971508
 11
659.033414
 21
2037.475093
  0
LINE
  8
CSLAYER1
  6
CONTINUOUS
 62
     7
 10
659.033414
 20
2037.475093
 11
658.951147
 21
2037.008431
  0
LINE
  8
CSLAYER1
  6
CONTINUOUS
 62
     7
 10
658.951147
 20
2037.008431
 11
658.828733
 21
2036.575072
  0
LINE
  8
CSLAYER1
  6
CONTINUOUS
 62
     7
 10
658.828733
 20
2036.575072
 11
658.667105
 21
2036.178315
  0
LINE
  8
CSLAYER1
  6
CONTINUOUS
 62
     7
 10
658.667105
 20
2036.178315
 11
658.467491
 21
2035.821179
  0
LINE
  8
CSLAYER1
  6
CONTINUOUS
 62
     7
 10
658.467491
 20
2035.821179
 11
658.231412
 21
2035.506383
  0
LINE
  8
CSLAYER1
  6
CONTINUOUS
 62
     7
 10
658.231412
 20
2035.506383
 11
657.960663
 21
2035.236322
  0
LINE
  8
CSLAYER1
  6
CONTINUOUS
 62
     7
 10
657.960663
 20
2035.236322
 11
657.657306
 21
2035.013052
  0
LINE
  8
CSLAYER1
  6
CONTINUOUS
 62
     7
 10
643.492497
 20
1993.016302
 11
641.471782
 21
1993.751782
  0
LINE
  8
CSLAYER1
  6
CONTINUOUS
 62
     7
 10
643.492497
 20
2009.285884
 11
643.492497
 21
1993.016302
  0
LINE
  8
CSLAYER1
  6
CONTINUOUS
 62
     7
 10
641.471782
 20
2004.248020
 11
641.471782
 21
2003.665607
  0
LINE
  8
CSLAYER1
  6
CONTINUOUS
 62
     7
 10
623.098291
 20
2119.056544
 11
623.307200
 21
2119.165977
  0
LINE
  8
CSLAYER1
  6
CONTINUOUS
 62
     7
 10
623.307200
 20
2119.165977
 11
623.533490
 21
2119.244217
  0
LINE
  8
CSLAYER1
  6
CONTINUOUS
 62
     7
 10
623.533490
 20
2119.244217
 11
623.775439
 21
2119.290669
  0
LINE
  8
CSLAYER1
  6
CONTINUOUS
 62
     7
 10
623.775439
 20
2119.290669
 11
624.031206
 21
2119.304978
  0
LINE
  8
CSLAYER1
  6
CONTINUOUS
 62
     7
 10
624.031206
 20
2119.304978
 11
624.298844
 21
2119.287036
  0
LINE
  8
CSLAYER1
  6
CONTINUOUS
 62
     7
 10
624.298844
 20
2119.287036
 11
624.576316
 21
2119.236979
  0
LINE
  8
CSLAYER1
  6
CONTINUOUS
 62
     7
 10
624.576316
 20
2119.236979
 11
624.861511
 21
2119.155189
  0
LINE
  8
CSLAYER1
  6
CONTINUOUS
 62
     7
 10
624.861511
 20
2119.155189
 11
625.152258
 21
2119.042288
  0
LINE
  8
CSLAYER1
  6
CONTINUOUS
 62
     7
 10
625.152258
 20
2119.042288
 11
625.446344
 21
2118.899134
  0
LINE
  8
CSLAYER1
  6
CONTINUOUS
 62
     7
 10
625.446344
 20
2118.899134
 11
625.741532
 21
2118.726819
  0
LINE
  8
CSLAYER1
  6
CONTINUOUS
 62
     7
 10
625.741532
 20
2118.726819
 11
626.035574
 21
2118.526652
  0
LINE
  8
CSLAYER1
  6
CONTINUOUS
 62
     7
 10
626.035574
 20
2118.526652
 11
626.326233
 21
2118.300158
  0
LINE
  8
CSLAYER1
  6
CONTINUOUS
 62
     7
 10
626.326233
 20
2118.300158
 11
626.611297
 21
2118.049061
  0
LINE
  8
CSLAYER1
  6
CONTINUOUS
 62
     7
 10
626.611297
 20
2118.049061
 11
626.888595
 21
2117.775270
  0
LINE
  8
CSLAYER1
  6
CONTINUOUS
 62
     7
 10
626.888595
 20
2117.775270
 11
627.156019
 21
2117.480870
  0
LINE
  8
CSLAYER1
  6
CONTINUOUS
 62
     7
 10
627.156019
 20
2117.480870
 11
627.411532
 21
2117.168102
  0
LINE
  8
CSLAYER1
  6
CONTINUOUS
 62
     7
 10
627.411532
 20
2117.168102
 11
627.653190
 21
2116.839346
  0
LINE
  8
CSLAYER1
  6
CONTINUOUS
 62
     7
 10
627.653190
 20
2116.839346
 11
627.879153
 21
2116.497103
  0
LINE
  8
CSLAYER1
  6
CONTINUOUS
 62
     7
 10
627.879153
 20
2116.497103
 11
628.087703
 21
2116.143979
  0
LINE
  8
CSLAYER1
  6
CONTINUOUS
 62
     7
 10
628.087703
 20
2116.143979
 11
628.277251
 21
2115.782661
  0
LINE
  8
CSLAYER1
  6
CONTINUOUS
 62
     7
 10
628.277251
 20
2115.782661
 11
628.446356
 21
2115.415899
  0
LINE
  8
CSLAYER1
  6
CONTINUOUS
 62
     7
 10
628.446356
 20
2115.415899
 11
628.593730
 21
2115.046484
  0
LINE
  8
CSLAYER1
  6
CONTINUOUS
 62
     7
 10
628.593730
 20
2115.046484
 11
628.718252
 21
2114.677228
  0
LINE
  8
CSLAYER1
  6
CONTINUOUS
 62
     7
 10
628.718252
 20
2114.677228
 11
628.818973
 21
2114.310940
  0
LINE
  8
CSLAYER1
  6
CONTINUOUS
 62
     7
 10
628.818973
 20
2114.310940
 11
628.895128
 21
2113.950409
  0
LINE
  8
CSLAYER1
  6
CONTINUOUS
 62
     7
 10
628.895128
 20
2113.950409
 11
628.946137
 21
2113.598379
  0
LINE
  8
CSLAYER1
  6
CONTINUOUS
 62
     7
 10
628.946137
 20
2113.598379
 11
628.971611
 21
2113.257528
  0
LINE
  8
CSLAYER1
  6
CONTINUOUS
 62
     7
 10
628.971611
 20
2113.257528
 11
628.971358
 21
2112.930451
  0
LINE
  8
CSLAYER1
  6
CONTINUOUS
 62
     7
 10
628.971358
 20
2112.930451
 11
628.945378
 21
2112.619636
  0
LINE
  8
CSLAYER1
  6
CONTINUOUS
 62
     7
 10
628.945378
 20
2112.619636
 11
628.893869
 21
2112.327450
  0
LINE
  8
CSLAYER1
  6
CONTINUOUS
 62
     7
 10
628.893869
 20
2112.327450
 11
628.817224
 21
2112.056116
  0
LINE
  8
CSLAYER1
  6
CONTINUOUS
 62
     7
 10
628.817224
 20
2112.056116
 11
628.716025
 21
2111.807700
  0
LINE
  8
CSLAYER1
  6
CONTINUOUS
 62
     7
 10
628.716025
 20
2111.807700
 11
628.591043
 21
2111.584091
  0
LINE
  8
CSLAYER1
  6
CONTINUOUS
 62
     7
 10
628.591043
 20
2111.584091
 11
628.443230
 21
2111.386991
  0
LINE
  8
CSLAYER1
  6
CONTINUOUS
 62
     7
 10
628.443230
 20
2111.386991
 11
628.273709
 21
2111.217901
  0
LINE
  8
CSLAYER1
  6
CONTINUOUS
 62
     7
 10
628.273709
 20
2111.217901
 11
628.083772
 21
2111.078108
  0
LINE
  8
CSLAYER1
  6
CONTINUOUS
 62
     7
 10
628.083772
 20
2111.078108
 11
627.874863
 21
2110.968675
  0
LINE
  8
CSLAYER1
  6
CONTINUOUS
 62
     7
 10
627.874863
 20
2110.968675
 11
627.648573
 21
2110.890435
  0
LINE
  8
CSLAYER1
  6
CONTINUOUS
 62
     7
 10
627.648573
 20
2110.890435
 11
627.406624
 21
2110.843984
  0
LINE
  8
CSLAYER1
  6
CONTINUOUS
 62
     7
 10
627.406624
 20
2110.843984
 11
627.150858
 21
2110.829675
  0
LINE
  8
CSLAYER1
  6
CONTINUOUS
 62
     7
 10
627.150858
 20
2110.829675
 11
626.883220
 21
2110.847617
  0
LINE
  8
CSLAYER1
  6
CONTINUOUS
 62
     7
 10
626.883220
 20
2110.847617
 11
626.605747
 21
2110.897673
  0
LINE
  8
CSLAYER1
  6
CONTINUOUS
 62
     7
 10
626.605747
 20
2110.897673
 11
626.320552
 21
2110.979463
  0
LINE
  8
CSLAYER1
  6
CONTINUOUS
 62
     7
 10
626.320552
 20
2110.979463
 11
626.029805
 21
2111.092365
  0
LINE
  8
CSLAYER1
  6
CONTINUOUS
 62
     7
 10
626.029805
 20
2111.092365
 11
625.735719
 21
2111.235518
  0
LINE
  8
CSLAYER1
  6
CONTINUOUS
 62
     7
 10
625.735719
 20
2111.235518
 11
625.440531
 21
2111.407833
  0
LINE
  8
CSLAYER1
  6
CONTINUOUS
 62
     7
 10
625.440531
 20
2111.407833
 11
625.146489
 21
2111.608000
  0
LINE
  8
CSLAYER1
  6
CONTINUOUS
 62
     7
 10
625.146489
 20
2111.608000
 11
624.855830
 21
2111.834494
  0
LINE
  8
CSLAYER1
  6
CONTINUOUS
 62
     7
 10
624.855830
 20
2111.834494
 11
624.570767
 21
2112.085592
  0
LINE
  8
CSLAYER1
  6
CONTINUOUS
 62
     7
 10
624.570767
 20
2112.085592
 11
624.293468
 21
2112.359382
  0
LINE
  8
CSLAYER1
  6
CONTINUOUS
 62
     7
 10
624.293468
 20
2112.359382
 11
624.026045
 21
2112.653782
  0
LINE
  8
CSLAYER1
  6
CONTINUOUS
 62
     7
 10
624.026045
 20
2112.653782
 11
623.770532
 21
2112.966550
  0
LINE
  8
CSLAYER1
  6
CONTINUOUS
 62
     7
 10
623.770532
 20
2112.966550
 11
623.528874
 21
2113.295306
  0
LINE
  8
CSLAYER1
  6
CONTINUOUS
 62
     7
 10
623.528874
 20
2113.295306
 11
623.302910
 21
2113.637549
  0
LINE
  8
CSLAYER1
  6
CONTINUOUS
 62
     7
 10
623.302910
 20
2113.637549
 11
623.094360
 21
2113.990673
  0
LINE
  8
CSLAYER1
  6
CONTINUOUS
 62
     7
 10
623.094360
 20
2113.990673
 11
622.904812
 21
2114.351991
  0
LINE
  8
CSLAYER1
  6
CONTINUOUS
 62
     7
 10
622.904812
 20
2114.351991
 11
622.735707
 21
2114.718753
  0
LINE
  8
CSLAYER1
  6
CONTINUOUS
 62
     7
 10
622.735707
 20
2114.718753
 11
622.588333
 21
2115.088168
  0
LINE
  8
CSLAYER1
  6
CONTINUOUS
 62
     7
 10
622.588333
 20
2115.088168
 11
622.463812
 21
2115.457424
  0
LINE
  8
CSLAYER1
  6
CONTINUOUS
 62
     7
 10
622.463812
 20
2115.457424
 11
622.363090
 21
2115.823712
  0
LINE
  8
CSLAYER1
  6
CONTINUOUS
 62
     7
 10
622.363090
 20
2115.823712
 11
622.286935
 21
2116.184243
  0
LINE
  8
CSLAYER1
  6
CONTINUOUS
 62
     7
 10
622.286935
 20
2116.184243
 11
622.235926
 21
2116.536273
  0
LINE
  8
CSLAYER1
  6
CONTINUOUS
 62
     7
 10
622.235926
 20
2116.536273
 11
622.210452
 21
2116.877124
  0
LINE
  8
CSLAYER1
  6
CONTINUOUS
 62
     7
 10
622.210452
 20
2116.877124
 11
622.210706
 21
2117.204202
  0
LINE
  8
CSLAYER1
  6
CONTINUOUS
 62
     7
 10
622.210706
 20
2117.204202
 11
622.236686
 21
2117.515016
  0
LINE
  8
CSLAYER1
  6
CONTINUOUS
 62
     7
 10
622.236686
 20
2117.515016
 11
622.288195
 21
2117.807202
  0
LINE
  8
CSLAYER1
  6
CONTINUOUS
 62
     7
 10
622.288195
 20
2117.807202
 11
622.364840
 21
2118.078536
  0
LINE
  8
CSLAYER1
  6
CONTINUOUS
 62
     7
 10
622.364840
 20
2118.078536
 11
622.466038
 21
2118.326952
  0
LINE
  8
CSLAYER1
  6
CONTINUOUS
 62
     7
 10
622.466038
 20
2118.326952
 11
622.591020
 21
2118.550561
  0
LINE
  8
CSLAYER1
  6
CONTINUOUS
 62
     7
 10
622.591020
 20
2118.550561
 11
622.738834
 21
2118.747661
  0
LINE
  8
CSLAYER1
  6
CONTINUOUS
 62
     7
 10
622.738834
 20
2118.747661
 11
622.908354
 21
2118.916751
  0
LINE
  8
CSLAYER1
  6
CONTINUOUS
 62
     7
 10
622.908354
 20
2118.916751
 11
623.098291
 21
2119.056544
  0
LINE
  8
CSLAYER1
  6
CONTINUOUS
 62
     7
 10
689.107474
 20
2170.841879
 11
689.107474
 21
2134.212550
  0
LINE
  8
CSLAYER1
  6
CONTINUOUS
 62
     7
 10
687.283831
 20
2169.702340
 11
689.107474
 21
2170.841879
  0
LINE
  8
CSLAYER1
  6
CONTINUOUS
 62
     7
 10
687.283831
 20
2169.702340
 11
687.283831
 21
2134.876302
  0
LINE
  8
CSLAYER1
  6
CONTINUOUS
 62
     7
 10
687.283831
 20
2169.702340
 11
670.360343
 21
2175.861986
  0
LINE
  8
CSLAYER1
  6
CONTINUOUS
 62
     7
 10
765.333948
 20
2141.294421
 11
767.157591
 21
2142.433959
  0
LINE
  8
CSLAYER1
  6
CONTINUOUS
 62
     7
 10
765.333948
 20
2141.294421
 11
765.333948
 21
2124.559806
  0
LINE
  8
CSLAYER1
  6
CONTINUOUS
 62
     7
 10
675.846745
 20
2164.662974
 11
676.070575
 21
2164.780224
  0
LINE
  8
CSLAYER1
  6
CONTINUOUS
 62
     7
 10
676.070575
 20
2164.780224
 11
676.313029
 21
2164.864052
  0
LINE
  8
CSLAYER1
  6
CONTINUOUS
 62
     7
 10
676.313029
 20
2164.864052
 11
676.572260
 21
2164.913822
  0
LINE
  8
CSLAYER1
  6
CONTINUOUS
 62
     7
 10
676.572260
 20
2164.913822
 11
676.846296
 21
2164.929153
  0
LINE
  8
CSLAYER1
  6
CONTINUOUS
 62
     7
 10
676.846296
 20
2164.929153
 11
677.133051
 21
2164.909929
  0
LINE
  8
CSLAYER1
  6
CONTINUOUS
 62
     7
 10
677.133051
 20
2164.909929
 11
677.430342
 21
2164.856297
  0
LINE
  8
CSLAYER1
  6
CONTINUOUS
 62
     7
 10
677.430342
 20
2164.856297
 11
677.735908
 21
2164.768665
  0
LINE
  8
CSLAYER1
  6
CONTINUOUS
 62
     7
 10
677.735908
 20
2164.768665
 11
678.047423
 21
2164.647699
  0
LINE
  8
CSLAYER1
  6
CONTINUOUS
 62
     7
 10
678.047423
 20
2164.647699
 11
678.362516
 21
2164.494321
  0
LINE
  8
CSLAYER1
  6
CONTINUOUS
 62
     7
 10
678.362516
 20
2164.494321
 11
678.678788
 21
2164.309697
  0
LINE
  8
CSLAYER1
  6
CONTINUOUS
 62
     7
 10
678.678788
 20
2164.309697
 11
678.993833
 21
2164.095233
  0
LINE
  8
CSLAYER1
  6
CONTINUOUS
 62
     7
 10
678.993833
 20
2164.095233
 11
679.305253
 21
2163.852561
  0
LINE
  8
CSLAYER1
  6
CONTINUOUS
 62
     7
 10
679.305253
 20
2163.852561
 11
679.610679
 21
2163.583527
  0
LINE
  8
CSLAYER1
  6
CONTINUOUS
 62
     7
 10
679.610679
 20
2163.583527
 11
679.907784
 21
2163.290180
  0
LINE
  8
CSLAYER1
  6
CONTINUOUS
 62
     7
 10
679.907784
 20
2163.290180
 11
680.194310
 21
2162.974752
  0
LINE
  8
CSLAYER1
  6
CONTINUOUS
 62
     7
 10
680.194310
 20
2162.974752
 11
680.468073
 21
2162.639643
  0
LINE
  8
CSLAYER1
  6
CONTINUOUS
 62
     7
 10
680.468073
 20
2162.639643
 11
680.726993
 21
2162.287404
  0
LINE
  8
CSLAYER1
  6
CONTINUOUS
 62
     7
 10
680.726993
 20
2162.287404
 11
680.969096
 21
2161.920716
  0
LINE
  8
CSLAYER1
  6
CONTINUOUS
 62
     7
 10
680.969096
 20
2161.920716
 11
681.192543
 21
2161.542369
  0
LINE
  8
CSLAYER1
  6
CONTINUOUS
 62
     7
 10
681.192543
 20
2161.542369
 11
681.395630
 21
2161.155242
  0
LINE
  8
CSLAYER1
  6
CONTINUOUS
 62
     7
 10
681.395630
 20
2161.155242
 11
681.576814
 21
2160.762283
  0
LINE
  8
CSLAYER1
  6
CONTINUOUS
 62
     7
 10
681.576814
 20
2160.762283
 11
681.734714
 21
2160.366481
  0
LINE
  8
CSLAYER1
  6
CONTINUOUS
 62
     7
 10
681.734714
 20
2160.366481
 11
681.868130
 21
2159.970849
  0
LINE
  8
CSLAYER1
  6
CONTINUOUS
 62
     7
 10
681.868130
 20
2159.970849
 11
681.976046
 21
2159.578398
  0
LINE
  8
CSLAYER1
  6
CONTINUOUS
 62
     7
 10
681.976046
 20
2159.578398
 11
682.057641
 21
2159.192115
  0
LINE
  8
CSLAYER1
  6
CONTINUOUS
 62
     7
 10
682.057641
 20
2159.192115
 11
682.112293
 21
2158.814940
  0
LINE
  8
CSLAYER1
  6
CONTINUOUS
 62
     7
 10
682.112293
 20
2158.814940
 11
682.139587
 21
2158.449742
  0
LINE
  8
CSLAYER1
  6
CONTINUOUS
 62
     7
 10
682.139587
 20
2158.449742
 11
682.139316
 21
2158.099302
  0
LINE
  8
CSLAYER1
  6
CONTINUOUS
 62
     7
 10
682.139316
 20
2158.099302
 11
682.111480
 21
2157.766287
  0
LINE
  8
CSLAYER1
  6
CONTINUOUS
 62
     7
 10
682.111480
 20
2157.766287
 11
682.056292
 21
2157.453231
  0
LINE
  8
CSLAYER1
  6
CONTINUOUS
 62
     7
 10
682.056292
 20
2157.453231
 11
681.974172
 21
2157.162516
  0
LINE
  8
CSLAYER1
  6
CONTINUOUS
 62
     7
 10
681.974172
 20
2157.162516
 11
681.865745
 21
2156.896355
  0
LINE
  8
CSLAYER1
  6
CONTINUOUS
 62
     7
 10
681.865745
 20
2156.896355
 11
681.731836
 21
2156.656774
  0
LINE
  8
CSLAYER1
  6
CONTINUOUS
 62
     7
 10
681.731836
 20
2156.656774
 11
681.573464
 21
2156.445596
  0
LINE
  8
CSLAYER1
  6
CONTINUOUS
 62
     7
 10
681.573464
 20
2156.445596
 11
681.391835
 21
2156.264428
  0
LINE
  8
CSLAYER1
  6
CONTINUOUS
 62
     7
 10
681.391835
 20
2156.264428
 11
681.188331
 21
2156.114649
  0
LINE
  8
CSLAYER1
  6
CONTINUOUS
 62
     7
 10
681.188331
 20
2156.114649
 11
680.964500
 21
2155.997400
  0
LINE
  8
CSLAYER1
  6
CONTINUOUS
 62
     7
 10
680.964500
 20
2155.997400
 11
680.722047
 21
2155.913571
  0
LINE
  8
CSLAYER1
  6
CONTINUOUS
 62
     7
 10
680.722047
 20
2155.913571
 11
680.462816
 21
2155.863802
  0
LINE
  8
CSLAYER1
  6
CONTINUOUS
 62
     7
 10
680.462816
 20
2155.863802
 11
680.188780
 21
2155.848471
  0
LINE
  8
CSLAYER1
  6
CONTINUOUS
 62
     7
 10
680.188780
 20
2155.848471
 11
679.902025
 21
2155.867695
  0
LINE
  8
CSLAYER1
  6
CONTINUOUS
 62
     7
 10
679.902025
 20
2155.867695
 11
679.604733
 21
2155.921327
  0
LINE
  8
CSLAYER1
  6
CONTINUOUS
 62
     7
 10
679.604733
 20
2155.921327
 11
679.299167
 21
2156.008959
  0
LINE
  8
CSLAYER1
  6
CONTINUOUS
 62
     7
 10
679.299167
 20
2156.008959
 11
678.987652
 21
2156.129925
  0
LINE
  8
CSLAYER1
  6
CONTINUOUS
 62
     7
 10
678.987652
 20
2156.129925
 11
678.672560
 21
2156.283303
  0
LINE
  8
CSLAYER1
  6
CONTINUOUS
 62
     7
 10
678.672560
 20
2156.283303
 11
678.356287
 21
2156.467927
  0
LINE
  8
CSLAYER1
  6
CONTINUOUS
 62
     7
 10
678.356287
 20
2156.467927
 11
678.041242
 21
2156.682391
  0
LINE
  8
CSLAYER1
  6
CONTINUOUS
 62
     7
 10
678.041242
 20
2156.682391
 11
677.729822
 21
2156.925063
  0
LINE
  8
CSLAYER1
  6
CONTINUOUS
 62
     7
 10
677.729822
 20
2156.925063
 11
677.424397
 21
2157.194096
  0
LINE
  8
CSLAYER1
  6
CONTINUOUS
 62
     7
 10
677.424397
 20
2157.194096
 11
677.127291
 21
2157.487443
  0
LINE
  8
CSLAYER1
  6
CONTINUOUS
 62
     7
 10
677.127291
 20
2157.487443
 11
676.840766
 21
2157.802872
  0
LINE
  8
CSLAYER1
  6
CONTINUOUS
 62
     7
 10
676.840766
 20
2157.802872
 11
676.567002
 21
2158.137980
  0
LINE
  8
CSLAYER1
  6
CONTINUOUS
 62
     7
 10
676.567002
 20
2158.137980
 11
676.308083
 21
2158.490219
  0
LINE
  8
CSLAYER1
  6
CONTINUOUS
 62
     7
 10
676.308083
 20
2158.490219
 11
676.065979
 21
2158.856908
  0
LINE
  8
CSLAYER1
  6
CONTINUOUS
 62
     7
 10
676.065979
 20
2158.856908
 11
675.842533
 21
2159.235255
  0
LINE
  8
CSLAYER1
  6
CONTINUOUS
 62
     7
 10
675.842533
 20
2159.235255
 11
675.639445
 21
2159.622381
  0
LINE
  8
CSLAYER1
  6
CONTINUOUS
 62
     7
 10
675.639445
 20
2159.622381
 11
675.458262
 21
2160.015341
  0
LINE
  8
CSLAYER1
  6
CONTINUOUS
 62
     7
 10
675.458262
 20
2160.015341
 11
675.300361
 21
2160.411143
  0
LINE
  8
CSLAYER1
  6
CONTINUOUS
 62
     7
 10
675.300361
 20
2160.411143
 11
675.166945
 21
2160.806774
  0
LINE
  8
CSLAYER1
  6
CONTINUOUS
 62
     7
 10
675.166945
 20
2160.806774
 11
675.059029
 21
2161.199225
  0
LINE
  8
CSLAYER1
  6
CONTINUOUS
 62
     7
 10
675.059029
 20
2161.199225
 11
674.977434
 21
2161.585508
  0
LINE
  8
CSLAYER1
  6
CONTINUOUS
 62
     7
 10
674.977434
 20
2161.585508
 11
674.922782
 21
2161.962684
  0
LINE
  8
CSLAYER1
  6
CONTINUOUS
 62
     7
 10
674.922782
 20
2161.962684
 11
674.895488
 21
2162.327881
  0
LINE
  8
CSLAYER1
  6
CONTINUOUS
 62
     7
 10
674.895488
 20
2162.327881
 11
674.895760
 21
2162.678321
  0
LINE
  8
CSLAYER1
  6
CONTINUOUS
 62
     7
 10
674.895760
 20
2162.678321
 11
674.923596
 21
2163.011337
  0
LINE
  8
CSLAYER1
  6
CONTINUOUS
 62
     7
 10
674.923596
 20
2163.011337
 11
674.978784
 21
2163.324393
  0
LINE
  8
CSLAYER1
  6
CONTINUOUS
 62
     7
 10
674.978784
 20
2163.324393
 11
675.060904
 21
2163.615108
  0
LINE
  8
CSLAYER1
  6
CONTINUOUS
 62
     7
 10
675.060904
 20
2163.615108
 11
675.169331
 21
2163.881269
  0
LINE
  8
CSLAYER1
  6
CONTINUOUS
 62
     7
 10
675.169331
 20
2163.881269
 11
675.303240
 21
2164.120850
  0
LINE
  8
CSLAYER1
  6
CONTINUOUS
 62
     7
 10
675.303240
 20
2164.120850
 11
675.461611
 21
2164.332028
  0
LINE
  8
CSLAYER1
  6
CONTINUOUS
 62
     7
 10
675.461611
 20
2164.332028
 11
675.643240
 21
2164.513196
  0
LINE
  8
CSLAYER1
  6
CONTINUOUS
 62
     7
 10
675.643240
 20
2164.513196
 11
675.846745
 21
2164.662974
  0
LINE
  8
CSLAYER1
  6
CONTINUOUS
 62
     7
 10
675.846745
 20
2164.662974
 11
678.298303
 21
2166.194878
  0
LINE
  8
CSLAYER1
  6
CONTINUOUS
 62
     7
 10
681.188331
 20
2156.114649
 11
683.639890
 21
2157.646553
  0
LINE
  8
CSLAYER1
  6
CONTINUOUS
 62
     7
 10
679.305253
 20
2163.852561
 11
681.756812
 21
2165.384465
  0
LINE
  8
CSLAYER1
  6
CONTINUOUS
 62
     7
 10
681.848557
 20
2160.028892
 11
684.300116
 21
2161.560796
  0
LINE
  8
CSLAYER1
  6
CONTINUOUS
 62
     7
 10
678.298303
 20
2166.194878
 11
678.522134
 21
2166.312128
  0
LINE
  8
CSLAYER1
  6
CONTINUOUS
 62
     7
 10
678.522134
 20
2166.312128
 11
678.764587
 21
2166.395956
  0
LINE
  8
CSLAYER1
  6
CONTINUOUS
 62
     7
 10
678.764587
 20
2166.395956
 11
679.023819
 21
2166.445726
  0
LINE
  8
CSLAYER1
  6
CONTINUOUS
 62
     7
 10
679.023819
 20
2166.445726
 11
679.297854
 21
2166.461057
  0
LINE
  8
CSLAYER1
  6
CONTINUOUS
 62
     7
 10
679.297854
 20
2166.461057
 11
679.584609
 21
2166.441833
  0
LINE
  8
CSLAYER1
  6
CONTINUOUS
 62
     7
 10
679.584609
 20
2166.441833
 11
679.881901
 21
2166.388201
  0
LINE
  8
CSLAYER1
  6
CONTINUOUS
 62
     7
 10
679.881901
 20
2166.388201
 11
680.187467
 21
2166.300569
  0
LINE
  8
CSLAYER1
  6
CONTINUOUS
 62
     7
 10
680.187467
 20
2166.300569
 11
680.498982
 21
2166.179603
  0
LINE
  8
CSLAYER1
  6
CONTINUOUS
 62
     7
 10
680.498982
 20
2166.179603
 11
680.814074
 21
2166.026225
  0
LINE
  8
CSLAYER1
  6
CONTINUOUS
 62
     7
 10
680.814074
 20
2166.026225
 11
681.130347
 21
2165.841601
  0
LINE
  8
CSLAYER1
  6
CONTINUOUS
 62
     7
 10
681.130347
 20
2165.841601
 11
681.445392
 21
2165.627137
  0
LINE
  8
CSLAYER1
  6
CONTINUOUS
 62
     7
 10
681.445392
 20
2165.627137
 11
681.756812
 21
2165.384465
  0
LINE
  8
CSLAYER1
  6
CONTINUOUS
 62
     7
 10
681.756812
 20
2165.384465
 11
682.062237
 21
2165.115431
  0
LINE
  8
CSLAYER1
  6
CONTINUOUS
 62
     7
 10
682.062237
 20
2165.115431
 11
682.359343
 21
2164.822084
  0
LINE
  8
CSLAYER1
  6
CONTINUOUS
 62
     7
 10
682.359343
 20
2164.822084
 11
682.645868
 21
2164.506656
  0
LINE
  8
CSLAYER1
  6
CONTINUOUS
 62
     7
 10
682.645868
 20
2164.506656
 11
682.919632
 21
2164.171547
  0
LINE
  8
CSLAYER1
  6
CONTINUOUS
 62
     7
 10
682.919632
 20
2164.171547
 11
683.178551
 21
2163.819308
  0
LINE
  8
CSLAYER1
  6
CONTINUOUS
 62
     7
 10
683.178551
 20
2163.819308
 11
683.420655
 21
2163.452620
  0
LINE
  8
CSLAYER1
  6
CONTINUOUS
 62
     7
 10
683.420655
 20
2163.452620
 11
683.644101
 21
2163.074273
  0
LINE
  8
CSLAYER1
  6
CONTINUOUS
 62
     7
 10
683.644101
 20
2163.074273
 11
683.847189
 21
2162.687146
  0
LINE
  8
CSLAYER1
  6
CONTINUOUS
 62
     7
 10
683.847189
 20
2162.687146
 11
684.028373
 21
2162.294187
  0
LINE
  8
CSLAYER1
  6
CONTINUOUS
 62
     7
 10
684.028373
 20
2162.294187
 11
684.186273
 21
2161.898385
  0
LINE
  8
CSLAYER1
  6
CONTINUOUS
 62
     7
 10
684.186273
 20
2161.898385
 11
684.319689
 21
2161.502753
  0
LINE
  8
CSLAYER1
  6
CONTINUOUS
 62
     7
 10
684.319689
 20
2161.502753
 11
684.427605
 21
2161.110302
  0
LINE
  8
CSLAYER1
  6
CONTINUOUS
 62
     7
 10
684.427605
 20
2161.110302
 11
684.509200
 21
2160.724019
  0
LINE
  8
CSLAYER1
  6
CONTINUOUS
 62
     7
 10
684.509200
 20
2160.724019
 11
684.563852
 21
2160.346844
  0
LINE
  8
CSLAYER1
  6
CONTINUOUS
 62
     7
 10
684.563852
 20
2160.346844
 11
684.591146
 21
2159.981646
  0
LINE
  8
CSLAYER1
  6
CONTINUOUS
 62
     7
 10
684.591146
 20
2159.981646
 11
684.590874
 21
2159.631206
  0
LINE
  8
CSLAYER1
  6
CONTINUOUS
 62
     7
 10
684.590874
 20
2159.631206
 11
684.563038
 21
2159.298191
  0
LINE
  8
CSLAYER1
  6
CONTINUOUS
 62
     7
 10
684.563038
 20
2159.298191
 11
684.507851
 21
2158.985135
  0
LINE
  8
CSLAYER1
  6
CONTINUOUS
 62
     7
 10
684.507851
 20
2158.985135
 11
684.425731
 21
2158.694420
  0
LINE
  8
CSLAYER1
  6
CONTINUOUS
 62
     7
 10
684.425731
 20
2158.694420
 11
684.317304
 21
2158.428259
  0
LINE
  8
CSLAYER1
  6
CONTINUOUS
 62
     7
 10
684.317304
 20
2158.428259
 11
684.183395
 21
2158.188678
  0
LINE
  8
CSLAYER1
  6
CONTINUOUS
 62
     7
 10
684.183395
 20
2158.188678
 11
684.025023
 21
2157.977500
  0
LINE
  8
CSLAYER1
  6
CONTINUOUS
 62
     7
 10
684.025023
 20
2157.977500
 11
683.843394
 21
2157.796332
  0
LINE
  8
CSLAYER1
  6
CONTINUOUS
 62
     7
 10
683.843394
 20
2157.796332
 11
683.639890
 21
2157.646553
  0
LINE
  8
CSLAYER1
  6
CONTINUOUS
 62
     7
 10
766.526331
 20
2131.658304
 11
768.977890
 21
2133.190208
  0
LINE
  8
CSLAYER1
  6
CONTINUOUS
 62
     7
 10
769.984839
 20
2130.847891
 11
772.436398
 21
2132.379795
  0
LINE
  8
CSLAYER1
  6
CONTINUOUS
 62
     7
 10
772.528143
 20
2127.024222
 11
774.979702
 21
2128.556126
  0
LINE
  8
CSLAYER1
  6
CONTINUOUS
 62
     7
 10
768.977890
 20
2133.190208
 11
769.201720
 21
2133.307458
  0
LINE
  8
CSLAYER1
  6
CONTINUOUS
 62
     7
 10
769.201720
 20
2133.307458
 11
769.444174
 21
2133.391286
  0
LINE
  8
CSLAYER1
  6
CONTINUOUS
 62
     7
 10
769.444174
 20
2133.391286
 11
769.703405
 21
2133.441055
  0
LINE
  8
CSLAYER1
  6
CONTINUOUS
 62
     7
 10
769.703405
 20
2133.441055
 11
769.977441
 21
2133.456387
  0
LINE
  8
CSLAYER1
  6
CONTINUOUS
 62
     7
 10
769.977441
 20
2133.456387
 11
770.264196
 21
2133.437163
  0
LINE
  8
CSLAYER1
  6
CONTINUOUS
 62
     7
 10
770.264196
 20
2133.437163
 11
770.561487
 21
2133.383531
  0
LINE
  8
CSLAYER1
  6
CONTINUOUS
 62
     7
 10
770.561487
 20
2133.383531
 11
770.867053
 21
2133.295899
  0
LINE
  8
CSLAYER1
  6
CONTINUOUS
 62
     7
 10
770.867053
 20
2133.295899
 11
771.178568
 21
2133.174933
  0
LINE
  8
CSLAYER1
  6
CONTINUOUS
 62
     7
 10
771.178568
 20
2133.174933
 11
771.493661
 21
2133.021555
  0
LINE
  8
CSLAYER1
  6
CONTINUOUS
 62
     7
 10
771.493661
 20
2133.021555
 11
771.809933
 21
2132.836931
  0
LINE
  8
CSLAYER1
  6
CONTINUOUS
 62
     7
 10
771.809933
 20
2132.836931
 11
772.124978
 21
2132.622467
  0
LINE
  8
CSLAYER1
  6
CONTINUOUS
 62
     7
 10
772.124978
 20
2132.622467
 11
772.436398
 21
2132.379795
  0
LINE
  8
CSLAYER1
  6
CONTINUOUS
 62
     7
 10
772.436398
 20
2132.379795
 11
772.741824
 21
2132.110761
  0
LINE
  8
CSLAYER1
  6
CONTINUOUS
 62
     7
 10
772.741824
 20
2132.110761
 11
773.038929
 21
2131.817414
  0
LINE
  8
CSLAYER1
  6
CONTINUOUS
 62
     7
 10
773.038929
 20
2131.817414
 11
773.325455
 21
2131.501986
  0
LINE
  8
CSLAYER1
  6
CONTINUOUS
 62
     7
 10
773.325455
 20
2131.501986
 11
773.599218
 21
2131.166877
  0
LINE
  8
CSLAYER1
  6
CONTINUOUS
 62
     7
 10
773.599218
 20
2131.166877
 11
773.858138
 21
2130.814638
  0
LINE
  8
CSLAYER1
  6
CONTINUOUS
 62
     7
 10
773.858138
 20
2130.814638
 11
774.100241
 21
2130.447950
  0
LINE
  8
CSLAYER1
  6
CONTINUOUS
 62
     7
 10
774.100241
 20
2130.447950
 11
774.277263
 21
2130.148209
  0
LINE
  8
CSLAYER1
  6
CONTINUOUS
 62
     7
 10
766.526331
 20
2131.658304
 11
766.750161
 21
2131.775554
  0
LINE
  8
CSLAYER1
  6
CONTINUOUS
 62
     7
 10
766.750161
 20
2131.775554
 11
766.992615
 21
2131.859382
  0
LINE
  8
CSLAYER1
  6
CONTINUOUS
 62
     7
 10
766.992615
 20
2131.859382
 11
767.251846
 21
2131.909151
  0
LINE
  8
CSLAYER1
  6
CONTINUOUS
 62
     7
 10
767.251846
 20
2131.909151
 11
767.525882
 21
2131.924483
  0
LINE
  8
CSLAYER1
  6
CONTINUOUS
 62
     7
 10
767.525882
 20
2131.924483
 11
767.812637
 21
2131.905259
  0
LINE
  8
CSLAYER1
  6
CONTINUOUS
 62
     7
 10
767.812637
 20
2131.905259
 11
768.109929
 21
2131.851627
  0
LINE
  8
CSLAYER1
  6
CONTINUOUS
 62
     7
 10
768.109929
 20
2131.851627
 11
768.415495
 21
2131.763995
  0
LINE
  8
CSLAYER1
  6
CONTINUOUS
 62
     7
 10
768.415495
 20
2131.763995
 11
768.727009
 21
2131.643029
  0
LINE
  8
CSLAYER1
  6
CONTINUOUS
 62
     7
 10
768.727009
 20
2131.643029
 11
769.042102
 21
2131.489651
  0
LINE
  8
CSLAYER1
  6
CONTINUOUS
 62
     7
 10
769.042102
 20
2131.489651
 11
769.358374
 21
2131.305027
  0
LINE
  8
CSLAYER1
  6
CONTINUOUS
 62
     7
 10
769.358374
 20
2131.305027
 11
769.673419
 21
2131.090563
  0
LINE
  8
CSLAYER1
  6
CONTINUOUS
 62
     7
 10
769.673419
 20
2131.090563
 11
769.984839
 21
2130.847891
  0
LINE
  8
CSLAYER1
  6
CONTINUOUS
 62
     7
 10
769.984839
 20
2130.847891
 11
770.290265
 21
2130.578857
  0
LINE
  8
CSLAYER1
  6
CONTINUOUS
 62
     7
 10
770.290265
 20
2130.578857
 11
770.587371
 21
2130.285510
  0
LINE
  8
CSLAYER1
  6
CONTINUOUS
 62
     7
 10
770.587371
 20
2130.285510
 11
770.873896
 21
2129.970082
  0
LINE
  8
CSLAYER1
  6
CONTINUOUS
 62
     7
 10
770.873896
 20
2129.970082
 11
771.147660
 21
2129.634973
  0
LINE
  8
CSLAYER1
  6
CONTINUOUS
 62
     7
 10
771.147660
 20
2129.634973
 11
771.406579
 21
2129.282734
  0
LINE
  8
CSLAYER1
  6
CONTINUOUS
 62
     7
 10
771.406579
 20
2129.282734
 11
771.648683
 21
2128.916046
  0
LINE
  8
CSLAYER1
  6
CONTINUOUS
 62
     7
 10
771.648683
 20
2128.916046
 11
771.825705
 21
2128.616305
  0
LINE
  8
CSLAYER1
  6
CONTINUOUS
 62
     7
 10
766.937368
 20
2125.561734
 11
766.745565
 21
2125.852238
  0
LINE
  8
CSLAYER1
  6
CONTINUOUS
 62
     7
 10
766.745565
 20
2125.852238
 11
766.522119
 21
2126.230585
  0
LINE
  8
CSLAYER1
  6
CONTINUOUS
 62
     7
 10
766.522119
 20
2126.230585
 11
766.319031
 21
2126.617711
  0
LINE
  8
CSLAYER1
  6
CONTINUOUS
 62
     7
 10
766.319031
 20
2126.617711
 11
766.137848
 21
2127.010671
  0
LINE
  8
CSLAYER1
  6
CONTINUOUS
 62
     7
 10
766.137848
 20
2127.010671
 11
765.979947
 21
2127.406472
  0
LINE
  8
CSLAYER1
  6
CONTINUOUS
 62
     7
 10
765.979947
 20
2127.406472
 11
765.846531
 21
2127.802104
  0
LINE
  8
CSLAYER1
  6
CONTINUOUS
 62
     7
 10
765.846531
 20
2127.802104
 11
765.738615
 21
2128.194555
  0
LINE
  8
CSLAYER1
  6
CONTINUOUS
 62
     7
 10
765.738615
 20
2128.194555
 11
765.657020
 21
2128.580838
  0
LINE
  8
CSLAYER1
  6
CONTINUOUS
 62
     7
 10
765.657020
 20
2128.580838
 11
765.602368
 21
2128.958014
  0
LINE
  8
CSLAYER1
  6
CONTINUOUS
 62
     7
 10
765.602368
 20
2128.958014
 11
765.575074
 21
2129.323211
  0
LINE
  8
CSLAYER1
  6
CONTINUOUS
 62
     7
 10
765.575074
 20
2129.323211
 11
765.575346
 21
2129.673651
  0
LINE
  8
CSLAYER1
  6
CONTINUOUS
 62
     7
 10
765.575346
 20
2129.673651
 11
765.603182
 21
2130.006667
  0
LINE
  8
CSLAYER1
  6
CONTINUOUS
 62
     7
 10
765.603182
 20
2130.006667
 11
765.658370
 21
2130.319723
  0
LINE
  8
CSLAYER1
  6
CONTINUOUS
 62
     7
 10
765.658370
 20
2130.319723
 11
765.740490
 21
2130.610438
  0
LINE
  8
CSLAYER1
  6
CONTINUOUS
 62
     7
 10
765.740490
 20
2130.610438
 11
765.848917
 21
2130.876599
  0
LINE
  8
CSLAYER1
  6
CONTINUOUS
 62
     7
 10
765.848917
 20
2130.876599
 11
765.982826
 21
2131.116180
  0
LINE
  8
CSLAYER1
  6
CONTINUOUS
 62
     7
 10
765.982826
 20
2131.116180
 11
766.141197
 21
2131.327358
  0
LINE
  8
CSLAYER1
  6
CONTINUOUS
 62
     7
 10
766.141197
 20
2131.327358
 11
766.322826
 21
2131.508525
  0
LINE
  8
CSLAYER1
  6
CONTINUOUS
 62
     7
 10
766.322826
 20
2131.508525
 11
766.526331
 21
2131.658304
  0
ARC
  8
CSLAYER1
  6
CONTINUOUS
 62
     7
 10
610.517387
 20
2130.543879
 40
6.720000
 50
122.000000
 51
180.000000
  0
ARC
  8
CSLAYER1
  6
CONTINUOUS
 62
     7
 10
608.496672
 20
2131.279359
 40
6.720000
 50
122.000000
 51
180.000000
  0
ARC
  8
CSLAYER1
  6
CONTINUOUS
 62
     7
 10
607.157387
 20
2066.410436
 40
3.360000
 50
256.943959
 51
302.000000
  0
ARC
  8
CSLAYER1
  6
CONTINUOUS
 62
     7
 10
604.888648
 20
2066.691243
 40
3.360000
 50
202.152506
 51
217.167534
  0
LINE
  8
CSLAYER1
  6
CONTINUOUS
 62
     7
 10
606.398349
 20
2063.137293
 11
602.211157
 21
2064.661307
  0
ARC
  8
CSLAYER1
  6
CONTINUOUS
 62
     7
 10
721.075196
 20
2090.943665
 40
3.360000
 50
122.000000
 51
180.000000
  0
ARC
  8
CSLAYER1
  6
CONTINUOUS
 62
     7
 10
719.054481
 20
2091.679146
 40
3.360000
 50
122.000000
 51
180.000000
  0
ARC
  8
CSLAYER1
  6
CONTINUOUS
 62
     7
 10
721.075196
 20
2024.947744
 40
3.360000
 50
180.000000
 51
302.000000
  0
ARC
  8
CSLAYER1
  6
CONTINUOUS
 62
     7
 10
718.945483
 20
2025.442261
 40
3.360000
 50
194.633804
 51
226.715114
  0
LINE
  8
CSLAYER1
  6
CONTINUOUS
 62
     7
 10
641.471782
 20
2159.808573
 11
670.163270
 21
2177.737005
  0
LINE
  8
CSLAYER1
  6
CONTINUOUS
 62
     7
 10
610.044751
 20
2064.252622
 11
606.646828
 21
2065.489364
  0
ARC
  8
CSLAYER1
  6
CONTINUOUS
 62
     7
 10
607.157387
 20
2066.410436
 40
3.360000
 50
180.000000
 51
256.943959
  0
LINE
  8
CSLAYER1
  6
CONTINUOUS
 62
     7
 10
641.471782
 20
2010.021364
 11
641.471782
 21
1993.751782
  0
LINE
  8
CSLAYER1
  6
CONTINUOUS
 62
     7
 10
397.200854
 20
1914.483190
 11
397.638825
 21
1914.605861
  0
LINE
  8
CSLAYER1
  6
CONTINUOUS
 62
     7
 10
397.638825
 20
1914.605861
 11
398.097076
 21
1914.662719
  0
LINE
  8
CSLAYER1
  6
CONTINUOUS
 62
     7
 10
398.097076
 20
1914.662719
 11
398.572121
 21
1914.653331
  0
LINE
  8
CSLAYER1
  6
CONTINUOUS
 62
     7
 10
398.572121
 20
1914.653331
 11
399.060344
 21
1914.577769
  0
LINE
  8
CSLAYER1
  6
CONTINUOUS
 62
     7
 10
399.060344
 20
1914.577769
 11
399.558030
 21
1914.436607
  0
LINE
  8
CSLAYER1
  6
CONTINUOUS
 62
     7
 10
399.558030
 20
1914.436607
 11
400.061390
 21
1914.230920
  0
LINE
  8
CSLAYER1
  6
CONTINUOUS
 62
     7
 10
400.061390
 20
1914.230920
 11
400.566594
 21
1913.962273
  0
LINE
  8
CSLAYER1
  6
CONTINUOUS
 62
     7
 10
400.566594
 20
1913.962273
 11
401.069797
 21
1913.632712
  0
LINE
  8
CSLAYER1
  6
CONTINUOUS
 62
     7
 10
401.069797
 20
1913.632712
 11
401.567169
 21
1913.244743
  0
LINE
  8
CSLAYER1
  6
CONTINUOUS
 62
     7
 10
401.567169
 20
1913.244743
 11
402.054925
 21
1912.801320
  0
LINE
  8
CSLAYER1
  6
CONTINUOUS
 62
     7
 10
402.054925
 20
1912.801320
 11
402.529353
 21
1912.305818
  0
LINE
  8
CSLAYER1
  6
CONTINUOUS
 62
     7
 10
402.529353
 20
1912.305818
 11
402.986842
 21
1911.762007
  0
LINE
  8
CSLAYER1
  6
CONTINUOUS
 62
     7
 10
402.986842
 20
1911.762007
 11
403.423910
 21
1911.174027
  0
LINE
  8
CSLAYER1
  6
CONTINUOUS
 62
     7
 10
403.423910
 20
1911.174027
 11
403.837232
 21
1910.546351
  0
LINE
  8
CSLAYER1
  6
CONTINUOUS
 62
     7
 10
403.837232
 20
1910.546351
 11
404.223661
 21
1909.883758
  0
LINE
  8
CSLAYER1
  6
CONTINUOUS
 62
     7
 10
404.223661
 20
1909.883758
 11
404.580256
 21
1909.191290
  0
LINE
  8
CSLAYER1
  6
CONTINUOUS
 62
     7
 10
404.580256
 20
1909.191290
 11
404.904304
 21
1908.474217
  0
LINE
  8
CSLAYER1
  6
CONTINUOUS
 62
     7
 10
404.904304
 20
1908.474217
 11
405.193338
 21
1907.737996
  0
LINE
  8
CSLAYER1
  6
CONTINUOUS
 62
     7
 10
405.193338
 20
1907.737996
 11
405.445159
 21
1906.988230
  0
LINE
  8
CSLAYER1
  6
CONTINUOUS
 62
     7
 10
405.445159
 20
1906.988230
 11
405.657849
 21
1906.230626
  0
LINE
  8
CSLAYER1
  6
CONTINUOUS
 62
     7
 10
405.657849
 20
1906.230626
 11
405.829792
 21
1905.470950
  0
LINE
  8
CSLAYER1
  6
CONTINUOUS
 62
     7
 10
405.829792
 20
1905.470950
 11
405.959677
 21
1904.714982
  0
LINE
  8
CSLAYER1
  6
CONTINUOUS
 62
     7
 10
405.959677
 20
1904.714982
 11
406.046516
 21
1903.968477
  0
LINE
  8
CSLAYER1
  6
CONTINUOUS
 62
     7
 10
406.046516
 20
1903.968477
 11
406.089649
 21
1903.237116
  0
LINE
  8
CSLAYER1
  6
CONTINUOUS
 62
     7
 10
406.089649
 20
1903.237116
 11
406.088747
 21
1902.526464
  0
LINE
  8
CSLAYER1
  6
CONTINUOUS
 62
     7
 10
406.088747
 20
1902.526464
 11
406.043817
 21
1901.841931
  0
LINE
  8
CSLAYER1
  6
CONTINUOUS
 62
     7
 10
406.043817
 20
1901.841931
 11
405.955200
 21
1901.188726
  0
LINE
  8
CSLAYER1
  6
CONTINUOUS
 62
     7
 10
405.955200
 20
1901.188726
 11
405.823573
 21
1900.571820
  0
LINE
  8
CSLAYER1
  6
CONTINUOUS
 62
     7
 10
405.823573
 20
1900.571820
 11
405.649935
 21
1899.995909
  0
LINE
  8
CSLAYER1
  6
CONTINUOUS
 62
     7
 10
405.649935
 20
1899.995909
 11
405.435609
 21
1899.465375
  0
LINE
  8
CSLAYER1
  6
CONTINUOUS
 62
     7
 10
405.435609
 20
1899.465375
 11
405.182226
 21
1898.984256
  0
LINE
  8
CSLAYER1
  6
CONTINUOUS
 62
     7
 10
405.182226
 20
1898.984256
 11
404.891714
 21
1898.556213
  0
LINE
  8
CSLAYER1
  6
CONTINUOUS
 62
     7
 10
404.891714
 20
1898.556213
 11
404.566284
 21
1898.184505
  0
LINE
  8
CSLAYER1
  6
CONTINUOUS
 62
     7
 10
404.566284
 20
1898.184505
 11
404.208413
 21
1897.871961
  0
LINE
  8
CSLAYER1
  6
CONTINUOUS
 62
     7
 10
404.208413
 20
1897.871961
 11
403.820824
 21
1897.620958
  0
LINE
  8
CSLAYER1
  6
CONTINUOUS
 62
     7
 10
403.820824
 20
1897.620958
 11
403.406468
 21
1897.433407
  0
LINE
  8
CSLAYER1
  6
CONTINUOUS
 62
     7
 10
403.406468
 20
1897.433407
 11
402.968497
 21
1897.310736
  0
LINE
  8
CSLAYER1
  6
CONTINUOUS
 62
     7
 10
402.968497
 20
1897.310736
 11
402.510246
 21
1897.253878
  0
LINE
  8
CSLAYER1
  6
CONTINUOUS
 62
     7
 10
402.510246
 20
1897.253878
 11
402.035201
 21
1897.263266
  0
LINE
  8
CSLAYER1
  6
CONTINUOUS
 62
     7
 10
402.035201
 20
1897.263266
 11
401.546978
 21
1897.338829
  0
LINE
  8
CSLAYER1
  6
CONTINUOUS
 62
     7
 10
401.546978
 20
1897.338829
 11
401.049292
 21
1897.479991
  0
LINE
  8
CSLAYER1
  6
CONTINUOUS
 62
     7
 10
401.049292
 20
1897.479991
 11
400.545932
 21
1897.685678
  0
LINE
  8
CSLAYER1
  6
CONTINUOUS
 62
     7
 10
400.545932
 20
1897.685678
 11
400.040728
 21
1897.954324
  0
LINE
  8
CSLAYER1
  6
CONTINUOUS
 62
     7
 10
400.040728
 20
1897.954324
 11
399.537525
 21
1898.283886
  0
LINE
  8
CSLAYER1
  6
CONTINUOUS
 62
     7
 10
399.537525
 20
1898.283886
 11
399.040153
 21
1898.671855
  0
LINE
  8
CSLAYER1
  6
CONTINUOUS
 62
     7
 10
399.040153
 20
1898.671855
 11
398.552397
 21
1899.115277
  0
LINE
  8
CSLAYER1
  6
CONTINUOUS
 62
     7
 10
398.552397
 20
1899.115277
 11
398.077969
 21
1899.610780
  0
LINE
  8
CSLAYER1
  6
CONTINUOUS
 62
     7
 10
398.077969
 20
1899.610780
 11
397.620480
 21
1900.154590
  0
LINE
  8
CSLAYER1
  6
CONTINUOUS
 62
     7
 10
397.620480
 20
1900.154590
 11
397.183412
 21
1900.742571
  0
LINE
  8
CSLAYER1
  6
CONTINUOUS
 62
     7
 10
397.183412
 20
1900.742571
 11
396.770090
 21
1901.370246
  0
LINE
  8
CSLAYER1
  6
CONTINUOUS
 62
     7
 10
396.770090
 20
1901.370246
 11
396.383661
 21
1902.032839
  0
LINE
  8
CSLAYER1
  6
CONTINUOUS
 62
     7
 10
396.383661
 20
1902.032839
 11
396.027066
 21
1902.725308
  0
LINE
  8
CSLAYER1
  6
CONTINUOUS
 62
     7
 10
396.027066
 20
1902.725308
 11
395.703018
 21
1903.442381
  0
LINE
  8
CSLAYER1
  6
CONTINUOUS
 62
     7
 10
395.703018
 20
1903.442381
 11
395.413984
 21
1904.178602
  0
LINE
  8
CSLAYER1
  6
CONTINUOUS
 62
     7
 10
395.413984
 20
1904.178602
 11
395.162163
 21
1904.928367
  0
LINE
  8
CSLAYER1
  6
CONTINUOUS
 62
     7
 10
395.162163
 20
1904.928367
 11
394.949473
 21
1905.685971
  0
LINE
  8
CSLAYER1
  6
CONTINUOUS
 62
     7
 10
394.949473
 20
1905.685971
 11
394.777530
 21
1906.445648
  0
LINE
  8
CSLAYER1
  6
CONTINUOUS
 62
     7
 10
394.777530
 20
1906.445648
 11
394.647645
 21
1907.201615
  0
LINE
  8
CSLAYER1
  6
CONTINUOUS
 62
     7
 10
394.647645
 20
1907.201615
 11
394.560806
 21
1907.948120
  0
LINE
  8
CSLAYER1
  6
CONTINUOUS
 62
     7
 10
394.560806
 20
1907.948120
 11
394.517673
 21
1908.679482
  0
LINE
  8
CSLAYER1
  6
CONTINUOUS
 62
     7
 10
394.517673
 20
1908.679482
 11
394.518575
 21
1909.390133
  0
LINE
  8
CSLAYER1
  6
CONTINUOUS
 62
     7
 10
394.518575
 20
1909.390133
 11
394.563506
 21
1910.074666
  0
LINE
  8
CSLAYER1
  6
CONTINUOUS
 62
     7
 10
394.563506
 20
1910.074666
 11
394.652122
 21
1910.727872
  0
LINE
  8
CSLAYER1
  6
CONTINUOUS
 62
     7
 10
394.652122
 20
1910.727872
 11
394.783749
 21
1911.344777
  0
LINE
  8
CSLAYER1
  6
CONTINUOUS
 62
     7
 10
394.783749
 20
1911.344777
 11
394.957387
 21
1911.920689
  0
LINE
  8
CSLAYER1
  6
CONTINUOUS
 62
     7
 10
394.957387
 20
1911.920689
 11
395.171713
 21
1912.451223
  0
LINE
  8
CSLAYER1
  6
CONTINUOUS
 62
     7
 10
395.171713
 20
1912.451223
 11
395.425096
 21
1912.932342
  0
LINE
  8
CSLAYER1
  6
CONTINUOUS
 62
     7
 10
395.425096
 20
1912.932342
 11
395.715608
 21
1913.360384
  0
LINE
  8
CSLAYER1
  6
CONTINUOUS
 62
     7
 10
395.715608
 20
1913.360384
 11
396.041038
 21
1913.732092
  0
LINE
  8
CSLAYER1
  6
CONTINUOUS
 62
     7
 10
396.041038
 20
1913.732092
 11
396.398909
 21
1914.044637
  0
LINE
  8
CSLAYER1
  6
CONTINUOUS
 62
     7
 10
396.398909
 20
1914.044637
 11
396.786498
 21
1914.295640
  0
LINE
  8
CSLAYER1
  6
CONTINUOUS
 62
     7
 10
396.786498
 20
1914.295640
 11
397.200854
 21
1914.483190
  0
LINE
  8
CSLAYER1
  6
CONTINUOUS
 62
     7
 10
397.200854
 20
1914.483190
 11
452.716511
 21
1935.159177
  0
LINE
  8
CSLAYER1
  6
CONTINUOUS
 62
     7
 10
403.406468
 20
1897.433407
 11
458.922125
 21
1918.109394
  0
LINE
  8
CSLAYER1
  6
CONTINUOUS
 62
     7
 10
452.716511
 20
1935.159177
 11
453.154482
 21
1935.281848
  0
LINE
  8
CSLAYER1
  6
CONTINUOUS
 62
     7
 10
453.154482
 20
1935.281848
 11
453.612733
 21
1935.338706
  0
LINE
  8
CSLAYER1
  6
CONTINUOUS
 62
     7
 10
453.612733
 20
1935.338706
 11
454.087778
 21
1935.329318
  0
LINE
  8
CSLAYER1
  6
CONTINUOUS
 62
     7
 10
454.087778
 20
1935.329318
 11
454.576002
 21
1935.253755
  0
LINE
  8
CSLAYER1
  6
CONTINUOUS
 62
     7
 10
454.576002
 20
1935.253755
 11
455.073687
 21
1935.112593
  0
LINE
  8
CSLAYER1
  6
CONTINUOUS
 62
     7
 10
455.073687
 20
1935.112593
 11
455.577047
 21
1934.906906
  0
LINE
  8
CSLAYER1
  6
CONTINUOUS
 62
     7
 10
455.577047
 20
1934.906906
 11
456.082251
 21
1934.638260
  0
LINE
  8
CSLAYER1
  6
CONTINUOUS
 62
     7
 10
456.082251
 20
1934.638260
 11
456.585454
 21
1934.308698
  0
LINE
  8
CSLAYER1
  6
CONTINUOUS
 62
     7
 10
456.585454
 20
1934.308698
 11
457.082826
 21
1933.920730
  0
LINE
  8
CSLAYER1
  6
CONTINUOUS
 62
     7
 10
457.082826
 20
1933.920730
 11
457.570582
 21
1933.477307
  0
LINE
  8
CSLAYER1
  6
CONTINUOUS
 62
     7
 10
457.570582
 20
1933.477307
 11
458.045010
 21
1932.981805
  0
LINE
  8
CSLAYER1
  6
CONTINUOUS
 62
     7
 10
458.045010
 20
1932.981805
 11
458.502499
 21
1932.437994
  0
LINE
  8
CSLAYER1
  6
CONTINUOUS
 62
     7
 10
458.502499
 20
1932.437994
 11
458.939568
 21
1931.850013
  0
LINE
  8
CSLAYER1
  6
CONTINUOUS
 62
     7
 10
458.939568
 20
1931.850013
 11
459.352889
 21
1931.222338
  0
LINE
  8
CSLAYER1
  6
CONTINUOUS
 62
     7
 10
459.352889
 20
1931.222338
 11
459.739318
 21
1930.559745
  0
LINE
  8
CSLAYER1
  6
CONTINUOUS
 62
     7
 10
459.739318
 20
1930.559745
 11
460.095913
 21
1929.867277
  0
LINE
  8
CSLAYER1
  6
CONTINUOUS
 62
     7
 10
460.095913
 20
1929.867277
 11
460.419961
 21
1929.150203
  0
LINE
  8
CSLAYER1
  6
CONTINUOUS
 62
     7
 10
460.419961
 20
1929.150203
 11
460.708995
 21
1928.413982
  0
LINE
  8
CSLAYER1
  6
CONTINUOUS
 62
     7
 10
460.708995
 20
1928.413982
 11
460.960816
 21
1927.664217
  0
LINE
  8
CSLAYER1
  6
CONTINUOUS
 62
     7
 10
460.960816
 20
1927.664217
 11
461.173507
 21
1926.906613
  0
LINE
  8
CSLAYER1
  6
CONTINUOUS
 62
     7
 10
461.173507
 20
1926.906613
 11
461.345449
 21
1926.146936
  0
LINE
  8
CSLAYER1
  6
CONTINUOUS
 62
     7
 10
461.345449
 20
1926.146936
 11
461.475334
 21
1925.390969
  0
LINE
  8
CSLAYER1
  6
CONTINUOUS
 62
     7
 10
461.475334
 20
1925.390969
 11
461.562173
 21
1924.644464
  0
LINE
  8
CSLAYER1
  6
CONTINUOUS
 62
     7
 10
461.562173
 20
1924.644464
 11
461.605306
 21
1923.913102
  0
LINE
  8
CSLAYER1
  6
CONTINUOUS
 62
     7
 10
461.605306
 20
1923.913102
 11
461.604404
 21
1923.202451
  0
LINE
  8
CSLAYER1
  6
CONTINUOUS
 62
     7
 10
461.604404
 20
1923.202451
 11
461.559474
 21
1922.517918
  0
LINE
  8
CSLAYER1
  6
CONTINUOUS
 62
     7
 10
461.559474
 20
1922.517918
 11
461.470858
 21
1921.864713
  0
LINE
  8
CSLAYER1
  6
CONTINUOUS
 62
     7
 10
461.470858
 20
1921.864713
 11
461.339230
 21
1921.247807
  0
LINE
  8
CSLAYER1
  6
CONTINUOUS
 62
     7
 10
461.339230
 20
1921.247807
 11
461.165592
 21
1920.671895
  0
LINE
  8
CSLAYER1
  6
CONTINUOUS
 62
     7
 10
461.165592
 20
1920.671895
 11
460.951266
 21
1920.141361
  0
LINE
  8
CSLAYER1
  6
CONTINUOUS
 62
     7
 10
460.951266
 20
1920.141361
 11
460.697883
 21
1919.660242
  0
LINE
  8
CSLAYER1
  6
CONTINUOUS
 62
     7
 10
460.697883
 20
1919.660242
 11
460.407371
 21
1919.232200
  0
LINE
  8
CSLAYER1
  6
CONTINUOUS
 62
     7
 10
460.407371
 20
1919.232200
 11
460.081941
 21
1918.860492
  0
LINE
  8
CSLAYER1
  6
CONTINUOUS
 62
     7
 10
460.081941
 20
1918.860492
 11
459.724070
 21
1918.547947
  0
LINE
  8
CSLAYER1
  6
CONTINUOUS
 62
     7
 10
459.724070
 20
1918.547947
 11
459.336481
 21
1918.296945
  0
LINE
  8
CSLAYER1
  6
CONTINUOUS
 62
     7
 10
459.336481
 20
1918.296945
 11
458.922125
 21
1918.109394
  0
LINE
  8
CSLAYER1
  6
CONTINUOUS
 62
     7
 10
635.037930
 20
1822.184940
 11
635.367044
 21
1822.498867
  0
LINE
  8
CSLAYER1
  6
CONTINUOUS
 62
     7
 10
635.367044
 20
1822.498867
 11
635.744963
 21
1822.764206
  0
LINE
  8
CSLAYER1
  6
CONTINUOUS
 62
     7
 10
635.744963
 20
1822.764206
 11
636.168811
 21
1822.978937
  0
LINE
  8
CSLAYER1
  6
CONTINUOUS
 62
     7
 10
636.168811
 20
1822.978937
 11
636.635360
 21
1823.141426
  0
LINE
  8
CSLAYER1
  6
CONTINUOUS
 62
     7
 10
636.635360
 20
1823.141426
 11
637.141062
 21
1823.250436
  0
LINE
  8
CSLAYER1
  6
CONTINUOUS
 62
     7
 10
637.141062
 20
1823.250436
 11
637.682067
 21
1823.305139
  0
LINE
  8
CSLAYER1
  6
CONTINUOUS
 62
     7
 10
637.682067
 20
1823.305139
 11
638.254257
 21
1823.305117
  0
LINE
  8
CSLAYER1
  6
CONTINUOUS
 62
     7
 10
638.254257
 20
1823.305117
 11
638.853279
 21
1823.250371
  0
LINE
  8
CSLAYER1
  6
CONTINUOUS
 62
     7
 10
638.853279
 20
1823.250371
 11
639.474573
 21
1823.141317
  0
LINE
  8
CSLAYER1
  6
CONTINUOUS
 62
     7
 10
639.474573
 20
1823.141317
 11
640.113410
 21
1822.978786
  0
LINE
  8
CSLAYER1
  6
CONTINUOUS
 62
     7
 10
640.113410
 20
1822.978786
 11
640.764929
 21
1822.764013
  0
LINE
  8
CSLAYER1
  6
CONTINUOUS
 62
     7
 10
640.764929
 20
1822.764013
 11
641.424172
 21
1822.498635
  0
LINE
  8
CSLAYER1
  6
CONTINUOUS
 62
     7
 10
641.424172
 20
1822.498635
 11
642.086120
 21
1822.184670
  0
LINE
  8
CSLAYER1
  6
CONTINUOUS
 62
     7
 10
642.086120
 20
1822.184670
 11
642.745737
 21
1821.824509
  0
LINE
  8
CSLAYER1
  6
CONTINUOUS
 62
     7
 10
642.745737
 20
1821.824509
 11
643.398002
 21
1821.420891
  0
LINE
  8
CSLAYER1
  6
CONTINUOUS
 62
     7
 10
643.398002
 20
1821.420891
 11
644.037952
 21
1820.976889
  0
LINE
  8
CSLAYER1
  6
CONTINUOUS
 62
     7
 10
644.037952
 20
1820.976889
 11
644.660714
 21
1820.495882
  0
LINE
  8
CSLAYER1
  6
CONTINUOUS
 62
     7
 10
644.660714
 20
1820.495882
 11
645.261551
 21
1819.981531
  0
LINE
  8
CSLAYER1
  6
CONTINUOUS
 62
     7
 10
645.261551
 20
1819.981531
 11
645.835889
 21
1819.437750
  0
LINE
  8
CSLAYER1
  6
CONTINUOUS
 62
     7
 10
645.835889
 20
1819.437750
 11
646.379358
 21
1818.868678
  0
LINE
  8
CSLAYER1
  6
CONTINUOUS
 62
     7
 10
646.379358
 20
1818.868678
 11
646.887820
 21
1818.278645
  0
LINE
  8
CSLAYER1
  6
CONTINUOUS
 62
     7
 10
646.887820
 20
1818.278645
 11
647.357407
 21
1817.672143
  0
LINE
  8
CSLAYER1
  6
CONTINUOUS
 62
     7
 10
647.357407
 20
1817.672143
 11
647.784544
 21
1817.053786
  0
LINE
  8
CSLAYER1
  6
CONTINUOUS
 62
     7
 10
647.784544
 20
1817.053786
 11
648.165982
 21
1816.428282
  0
LINE
  8
CSLAYER1
  6
CONTINUOUS
 62
     7
 10
648.165982
 20
1816.428282
 11
648.498816
 21
1815.800391
  0
LINE
  8
CSLAYER1
  6
CONTINUOUS
 62
     7
 10
648.498816
 20
1815.800391
 11
648.780514
 21
1815.174890
  0
LINE
  8
CSLAYER1
  6
CONTINUOUS
 62
     7
 10
648.780514
 20
1815.174890
 11
649.008932
 21
1814.556542
  0
LINE
  8
CSLAYER1
  6
CONTINUOUS
 62
     7
 10
649.008932
 20
1814.556542
 11
649.182331
 21
1813.950051
  0
LINE
  8
CSLAYER1
  6
CONTINUOUS
 62
     7
 10
649.182331
 20
1813.950051
 11
649.299392
 21
1813.360033
  0
LINE
  8
CSLAYER1
  6
CONTINUOUS
 62
     7
 10
649.299392
 20
1813.360033
 11
649.359224
 21
1812.790979
  0
LINE
  8
CSLAYER1
  6
CONTINUOUS
 62
     7
 10
649.359224
 20
1812.790979
 11
649.361372
 21
1812.247220
  0
LINE
  8
CSLAYER1
  6
CONTINUOUS
 62
     7
 10
649.361372
 20
1812.247220
 11
649.305818
 21
1811.732894
  0
LINE
  8
CSLAYER1
  6
CONTINUOUS
 62
     7
 10
649.305818
 20
1811.732894
 11
649.192987
 21
1811.251916
  0
LINE
  8
CSLAYER1
  6
CONTINUOUS
 62
     7
 10
649.192987
 20
1811.251916
 11
649.023737
 21
1810.807945
  0
LINE
  8
CSLAYER1
  6
CONTINUOUS
 62
     7
 10
649.023737
 20
1810.807945
 11
648.799355
 21
1810.404361
  0
LINE
  8
CSLAYER1
  6
CONTINUOUS
 62
     7
 10
648.799355
 20
1810.404361
 11
648.521550
 21
1810.044235
  0
LINE
  8
CSLAYER1
  6
CONTINUOUS
 62
     7
 10
648.521550
 20
1810.044235
 11
648.192435
 21
1809.730308
  0
LINE
  8
CSLAYER1
  6
CONTINUOUS
 62
     7
 10
648.192435
 20
1809.730308
 11
647.814516
 21
1809.464969
  0
LINE
  8
CSLAYER1
  6
CONTINUOUS
 62
     7
 10
647.814516
 20
1809.464969
 11
647.390669
 21
1809.250238
  0
LINE
  8
CSLAYER1
  6
CONTINUOUS
 62
     7
 10
647.390669
 20
1809.250238
 11
646.924119
 21
1809.087749
  0
LINE
  8
CSLAYER1
  6
CONTINUOUS
 62
     7
 10
646.924119
 20
1809.087749
 11
646.418417
 21
1808.978739
  0
LINE
  8
CSLAYER1
  6
CONTINUOUS
 62
     7
 10
646.418417
 20
1808.978739
 11
645.877413
 21
1808.924036
  0
LINE
  8
CSLAYER1
  6
CONTINUOUS
 62
     7
 10
645.877413
 20
1808.924036
 11
645.305222
 21
1808.924058
  0
LINE
  8
CSLAYER1
  6
CONTINUOUS
 62
     7
 10
645.305222
 20
1808.924058
 11
644.706200
 21
1808.978804
  0
LINE
  8
CSLAYER1
  6
CONTINUOUS
 62
     7
 10
644.706200
 20
1808.978804
 11
644.084907
 21
1809.087858
  0
LINE
  8
CSLAYER1
  6
CONTINUOUS
 62
     7
 10
644.084907
 20
1809.087858
 11
643.446069
 21
1809.250390
  0
LINE
  8
CSLAYER1
  6
CONTINUOUS
 62
     7
 10
643.446069
 20
1809.250390
 11
642.794550
 21
1809.465162
  0
LINE
  8
CSLAYER1
  6
CONTINUOUS
 62
     7
 10
642.794550
 20
1809.465162
 11
642.135308
 21
1809.730540
  0
LINE
  8
CSLAYER1
  6
CONTINUOUS
 62
     7
 10
642.135308
 20
1809.730540
 11
641.473359
 21
1810.044505
  0
LINE
  8
CSLAYER1
  6
CONTINUOUS
 62
     7
 10
641.473359
 20
1810.044505
 11
640.813742
 21
1810.404667
  0
LINE
  8
CSLAYER1
  6
CONTINUOUS
 62
     7
 10
640.813742
 20
1810.404667
 11
640.161477
 21
1810.808284
  0
LINE
  8
CSLAYER1
  6
CONTINUOUS
 62
     7
 10
640.161477
 20
1810.808284
 11
639.521528
 21
1811.252286
  0
LINE
  8
CSLAYER1
  6
CONTINUOUS
 62
     7
 10
639.521528
 20
1811.252286
 11
638.898765
 21
1811.733293
  0
LINE
  8
CSLAYER1
  6
CONTINUOUS
 62
     7
 10
638.898765
 20
1811.733293
 11
638.297928
 21
1812.247644
  0
LINE
  8
CSLAYER1
  6
CONTINUOUS
 62
     7
 10
638.297928
 20
1812.247644
 11
637.723590
 21
1812.791425
  0
LINE
  8
CSLAYER1
  6
CONTINUOUS
 62
     7
 10
637.723590
 20
1812.791425
 11
637.180122
 21
1813.360498
  0
LINE
  8
CSLAYER1
  6
CONTINUOUS
 62
     7
 10
637.180122
 20
1813.360498
 11
636.671659
 21
1813.950530
  0
LINE
  8
CSLAYER1
  6
CONTINUOUS
 62
     7
 10
636.671659
 20
1813.950530
 11
636.202072
 21
1814.557032
  0
LINE
  8
CSLAYER1
  6
CONTINUOUS
 62
     7
 10
636.202072
 20
1814.557032
 11
635.774935
 21
1815.175389
  0
LINE
  8
CSLAYER1
  6
CONTINUOUS
 62
     7
 10
635.774935
 20
1815.175389
 11
635.393498
 21
1815.800893
  0
LINE
  8
CSLAYER1
  6
CONTINUOUS
 62
     7
 10
635.393498
 20
1815.800893
 11
635.060664
 21
1816.428784
  0
LINE
  8
CSLAYER1
  6
CONTINUOUS
 62
     7
 10
635.060664
 20
1816.428784
 11
634.778966
 21
1817.054285
  0
LINE
  8
CSLAYER1
  6
CONTINUOUS
 62
     7
 10
634.778966
 20
1817.054285
 11
634.550548
 21
1817.672633
  0
LINE
  8
CSLAYER1
  6
CONTINUOUS
 62
     7
 10
634.550548
 20
1817.672633
 11
634.377149
 21
1818.279124
  0
LINE
  8
CSLAYER1
  6
CONTINUOUS
 62
     7
 10
634.377149
 20
1818.279124
 11
634.260087
 21
1818.869142
  0
LINE
  8
CSLAYER1
  6
CONTINUOUS
 62
     7
 10
634.260087
 20
1818.869142
 11
634.200255
 21
1819.438196
  0
LINE
  8
CSLAYER1
  6
CONTINUOUS
 62
     7
 10
634.200255
 20
1819.438196
 11
634.198108
 21
1819.981955
  0
LINE
  8
CSLAYER1
  6
CONTINUOUS
 62
     7
 10
634.198108
 20
1819.981955
 11
634.253661
 21
1820.496281
  0
LINE
  8
CSLAYER1
  6
CONTINUOUS
 62
     7
 10
634.253661
 20
1820.496281
 11
634.366492
 21
1820.977260
  0
LINE
  8
CSLAYER1
  6
CONTINUOUS
 62
     7
 10
634.366492
 20
1820.977260
 11
634.535743
 21
1821.421230
  0
LINE
  8
CSLAYER1
  6
CONTINUOUS
 62
     7
 10
634.535743
 20
1821.421230
 11
634.760125
 21
1821.824815
  0
LINE
  8
CSLAYER1
  6
CONTINUOUS
 62
     7
 10
634.760125
 20
1821.824815
 11
635.037930
 21
1822.184940
  0
LINE
  8
CSLAYER1
  6
CONTINUOUS
 62
     7
 10
648.521550
 20
1810.044235
 11
678.508619
 21
1843.439593
  0
LINE
  8
CSLAYER1
  6
CONTINUOUS
 62
     7
 10
635.037930
 20
1822.184940
 11
665.024999
 21
1855.580299
  0
LINE
  8
CSLAYER1
  6
CONTINUOUS
 62
     7
 10
665.024999
 20
1855.580299
 11
665.354114
 21
1855.894226
  0
LINE
  8
CSLAYER1
  6
CONTINUOUS
 62
     7
 10
665.354114
 20
1855.894226
 11
665.732033
 21
1856.159564
  0
LINE
  8
CSLAYER1
  6
CONTINUOUS
 62
     7
 10
665.732033
 20
1856.159564
 11
666.155880
 21
1856.374295
  0
LINE
  8
CSLAYER1
  6
CONTINUOUS
 62
     7
 10
666.155880
 20
1856.374295
 11
666.622430
 21
1856.536784
  0
LINE
  8
CSLAYER1
  6
CONTINUOUS
 62
     7
 10
666.622430
 20
1856.536784
 11
667.128131
 21
1856.645795
  0
LINE
  8
CSLAYER1
  6
CONTINUOUS
 62
     7
 10
667.128131
 20
1856.645795
 11
667.669136
 21
1856.700497
  0
LINE
  8
CSLAYER1
  6
CONTINUOUS
 62
     7
 10
667.669136
 20
1856.700497
 11
668.241327
 21
1856.700476
  0
LINE
  8
CSLAYER1
  6
CONTINUOUS
 62
     7
 10
668.241327
 20
1856.700476
 11
668.840348
 21
1856.645729
  0
LINE
  8
CSLAYER1
  6
CONTINUOUS
 62
     7
 10
668.840348
 20
1856.645729
 11
669.461642
 21
1856.536675
  0
LINE
  8
CSLAYER1
  6
CONTINUOUS
 62
     7
 10
669.461642
 20
1856.536675
 11
670.100479
 21
1856.374144
  0
LINE
  8
CSLAYER1
  6
CONTINUOUS
 62
     7
 10
670.100479
 20
1856.374144
 11
670.751999
 21
1856.159372
  0
LINE
  8
CSLAYER1
  6
CONTINUOUS
 62
     7
 10
670.751999
 20
1856.159372
 11
671.411241
 21
1855.893994
  0
LINE
  8
CSLAYER1
  6
CONTINUOUS
 62
     7
 10
671.411241
 20
1855.893994
 11
672.073190
 21
1855.580029
  0
LINE
  8
CSLAYER1
  6
CONTINUOUS
 62
     7
 10
672.073190
 20
1855.580029
 11
672.732807
 21
1855.219867
  0
LINE
  8
CSLAYER1
  6
CONTINUOUS
 62
     7
 10
672.732807
 20
1855.219867
 11
673.385072
 21
1854.816249
  0
LINE
  8
CSLAYER1
  6
CONTINUOUS
 62
     7
 10
673.385072
 20
1854.816249
 11
674.025021
 21
1854.372247
  0
LINE
  8
CSLAYER1
  6
CONTINUOUS
 62
     7
 10
674.025021
 20
1854.372247
 11
674.647784
 21
1853.891241
  0
LINE
  8
CSLAYER1
  6
CONTINUOUS
 62
     7
 10
674.647784
 20
1853.891241
 11
675.248620
 21
1853.376889
  0
LINE
  8
CSLAYER1
  6
CONTINUOUS
 62
     7
 10
675.248620
 20
1853.376889
 11
675.822958
 21
1852.833108
  0
LINE
  8
CSLAYER1
  6
CONTINUOUS
 62
     7
 10
675.822958
 20
1852.833108
 11
676.366427
 21
1852.264036
  0
LINE
  8
CSLAYER1
  6
CONTINUOUS
 62
     7
 10
676.366427
 20
1852.264036
 11
676.874889
 21
1851.674003
  0
LINE
  8
CSLAYER1
  6
CONTINUOUS
 62
     7
 10
676.874889
 20
1851.674003
 11
677.344476
 21
1851.067501
  0
LINE
  8
CSLAYER1
  6
CONTINUOUS
 62
     7
 10
677.344476
 20
1851.067501
 11
677.771614
 21
1850.449145
  0
LINE
  8
CSLAYER1
  6
CONTINUOUS
 62
     7
 10
677.771614
 20
1850.449145
 11
678.153051
 21
1849.823641
  0
LINE
  8
CSLAYER1
  6
CONTINUOUS
 62
     7
 10
678.153051
 20
1849.823641
 11
678.485885
 21
1849.195749
  0
LINE
  8
CSLAYER1
  6
CONTINUOUS
 62
     7
 10
678.485885
 20
1849.195749
 11
678.767583
 21
1848.570249
  0
LINE
  8
CSLAYER1
  6
CONTINUOUS
 62
     7
 10
678.767583
 20
1848.570249
 11
678.996001
 21
1847.951900
  0
LINE
  8
CSLAYER1
  6
CONTINUOUS
 62
     7
 10
678.996001
 20
1847.951900
 11
679.169400
 21
1847.345409
  0
LINE
  8
CSLAYER1
  6
CONTINUOUS
 62
     7
 10
679.169400
 20
1847.345409
 11
679.286461
 21
1846.755392
  0
LINE
  8
CSLAYER1
  6
CONTINUOUS
 62
     7
 10
679.286461
 20
1846.755392
 11
679.346293
 21
1846.186338
  0
LINE
  8
CSLAYER1
  6
CONTINUOUS
 62
     7
 10
679.346293
 20
1846.186338
 11
679.348441
 21
1845.642579
  0
LINE
  8
CSLAYER1
  6
CONTINUOUS
 62
     7
 10
679.348441
 20
1845.642579
 11
679.292888
 21
1845.128253
  0
LINE
  8
CSLAYER1
  6
CONTINUOUS
 62
     7
 10
679.292888
 20
1845.128253
 11
679.180056
 21
1844.647274
  0
LINE
  8
CSLAYER1
  6
CONTINUOUS
 62
     7
 10
679.180056
 20
1844.647274
 11
679.010806
 21
1844.203303
  0
LINE
  8
CSLAYER1
  6
CONTINUOUS
 62
     7
 10
679.010806
 20
1844.203303
 11
678.786424
 21
1843.799719
  0
LINE
  8
CSLAYER1
  6
CONTINUOUS
 62
     7
 10
678.786424
 20
1843.799719
 11
678.508619
 21
1843.439593
  0
LINE
  8
CSLAYER1
  6
CONTINUOUS
 62
     7
 10
759.431021
 20
1977.191247
 11
759.431021
 21
1958.891912
  0
LINE
  8
CSLAYER1
  6
CONTINUOUS
 62
     7
 10
759.431021
 20
1958.891912
 11
759.431021
 21
1952.987680
  0
LINE
  8
CSLAYER1
  6
CONTINUOUS
 62
     7
 10
789.946152
 20
2030.546634
 11
789.946152
 21
2010.195432
  0
LINE
  8
CSLAYER1
  6
CONTINUOUS
 62
     7
 10
789.946152
 20
1992.659243
 11
789.946152
 21
1970.057487
  0
LINE
  8
CSLAYER1
  6
CONTINUOUS
 62
     7
 10
801.531020
 20
2023.387267
 11
804.365921
 21
2020.834908
  0
LINE
  8
CSLAYER1
  6
CONTINUOUS
 62
     7
 10
804.365921
 20
2020.834908
 11
806.802199
 21
2018.150543
  0
LINE
  8
CSLAYER1
  6
CONTINUOUS
 62
     7
 10
806.802199
 20
2018.150543
 11
808.821314
 21
2015.354602
  0
LINE
  8
CSLAYER1
  6
CONTINUOUS
 62
     7
 10
808.821314
 20
2015.354602
 11
810.407898
 21
2012.468364
  0
LINE
  8
CSLAYER1
  6
CONTINUOUS
 62
     7
 10
810.407898
 20
2012.468364
 11
811.549877
 21
2009.513795
  0
LINE
  8
CSLAYER1
  6
CONTINUOUS
 62
     7
 10
811.549877
 20
2009.513795
 11
812.238560
 21
2006.513380
  0
LINE
  8
CSLAYER1
  6
CONTINUOUS
 62
     7
 10
812.238560
 20
2006.513380
 11
812.468705
 21
2003.489956
  0
LINE
  8
CSLAYER1
  6
CONTINUOUS
 62
     7
 10
812.468705
 20
2003.489956
 11
812.238560
 21
2000.466532
  0
LINE
  8
CSLAYER1
  6
CONTINUOUS
 62
     7
 10
812.238560
 20
2000.466532
 11
811.549877
 21
1997.466118
  0
LINE
  8
CSLAYER1
  6
CONTINUOUS
 62
     7
 10
811.549877
 20
1997.466118
 11
810.407898
 21
1994.511549
  0
LINE
  8
CSLAYER1
  6
CONTINUOUS
 62
     7
 10
810.407898
 20
1994.511549
 11
808.821314
 21
1991.625311
  0
LINE
  8
CSLAYER1
  6
CONTINUOUS
 62
     7
 10
808.821314
 20
1991.625311
 11
806.802199
 21
1988.829370
  0
LINE
  8
CSLAYER1
  6
CONTINUOUS
 62
     7
 10
806.802199
 20
1988.829370
 11
804.365921
 21
1986.145005
  0
LINE
  8
CSLAYER1
  6
CONTINUOUS
 62
     7
 10
789.946152
 20
2030.546634
 11
794.754523
 21
2028.019422
  0
LINE
  8
CSLAYER1
  6
CONTINUOUS
 62
     7
 10
794.754523
 20
2028.019422
 11
798.319072
 21
2025.788196
  0
LINE
  8
CSLAYER1
  6
CONTINUOUS
 62
     7
 10
798.319072
 20
2025.788196
 11
801.531020
 21
2023.387267
  0
LINE
  8
CSLAYER1
  6
CONTINUOUS
 62
     7
 10
793.165113
 20
2006.246739
 11
793.418810
 21
2005.141445
  0
LINE
  8
CSLAYER1
  6
CONTINUOUS
 62
     7
 10
793.418810
 20
2005.141445
 11
793.592697
 21
2002.857080
  0
LINE
  8
CSLAYER1
  6
CONTINUOUS
 62
     7
 10
793.592697
 20
2002.857080
 11
793.418810
 21
2000.572715
  0
LINE
  8
CSLAYER1
  6
CONTINUOUS
 62
     7
 10
793.418810
 20
2000.572715
 11
792.898472
 21
1998.305736
  0
LINE
  8
CSLAYER1
  6
CONTINUOUS
 62
     7
 10
792.898472
 20
1998.305736
 11
792.035643
 21
1996.073394
  0
LINE
  8
CSLAYER1
  6
CONTINUOUS
 62
     7
 10
792.035643
 20
1996.073394
 11
790.836891
 21
1993.892681
  0
LINE
  8
CSLAYER1
  6
CONTINUOUS
 62
     7
 10
790.836891
 20
1993.892681
 11
789.946152
 21
1992.659243
  0
LINE
  8
CSLAYER1
  6
CONTINUOUS
 62
     7
 10
789.946152
 20
2010.204007
 11
789.903596
 21
2010.242321
  0
LINE
  8
CSLAYER1
  6
CONTINUOUS
 62
     7
 10
789.903596
 20
2010.242321
 11
791.744340
 21
2008.214134
  0
LINE
  8
CSLAYER1
  6
CONTINUOUS
 62
     7
 10
791.744340
 20
2008.214134
 11
793.269893
 21
2006.101646
  0
LINE
  8
CSLAYER1
  6
CONTINUOUS
 62
     7
 10
789.946152
 20
2010.195432
 11
789.946152
 21
1992.659243
  0
LINE
  8
CSLAYER1
  6
CONTINUOUS
 62
     7
 10
608.314785
 20
2030.415527
 11
551.482176
 21
2051.100905
  0
LINE
  8
CSLAYER1
  6
CONTINUOUS
 62
     7
 10
617.193258
 20
2041.486577
 11
560.360648
 21
2062.171955
  0
LINE
  8
CSLAYER1
  6
CONTINUOUS
 62
     7
 10
614.137354
 20
2041.168580
 11
557.347349
 21
2061.838451
  0
LINE
  8
CSLAYER1
  6
CONTINUOUS
 62
     7
 10
612.801136
 20
2040.224668
 11
555.968526
 21
2060.910047
  0
LINE
  8
CSLAYER1
  6
CONTINUOUS
 62
     7
 10
611.752707
 20
2039.176010
 11
554.920098
 21
2059.861388
  0
LINE
  8
CSLAYER1
  6
CONTINUOUS
 62
     7
 10
610.892198
 20
2038.058955
 11
554.059588
 21
2058.744334
  0
LINE
  8
CSLAYER1
  6
CONTINUOUS
 62
     7
 10
610.172294
 20
2036.890724
 11
553.339886
 21
2057.576029
  0
LINE
  8
CSLAYER1
  6
CONTINUOUS
 62
     7
 10
609.579558
 20
2035.676207
 11
552.746948
 21
2056.361585
  0
LINE
  8
CSLAYER1
  6
CONTINUOUS
 62
     7
 10
609.093762
 20
2034.422767
 11
552.261153
 21
2055.108146
  0
LINE
  8
CSLAYER1
  6
CONTINUOUS
 62
     7
 10
608.707892
 20
2033.132958
 11
551.880362
 21
2053.816487
  0
LINE
  8
CSLAYER1
  6
CONTINUOUS
 62
     7
 10
554.155034
 20
2045.122172
 11
553.740678
 21
2045.309723
  0
LINE
  8
CSLAYER1
  6
CONTINUOUS
 62
     7
 10
553.740678
 20
2045.309723
 11
553.353090
 21
2045.560725
  0
LINE
  8
CSLAYER1
  6
CONTINUOUS
 62
     7
 10
553.353090
 20
2045.560725
 11
552.995219
 21
2045.873270
  0
LINE
  8
CSLAYER1
  6
CONTINUOUS
 62
     7
 10
552.995219
 20
2045.873270
 11
552.669789
 21
2046.244978
  0
LINE
  8
CSLAYER1
  6
CONTINUOUS
 62
     7
 10
552.669789
 20
2046.244978
 11
552.379277
 21
2046.673020
  0
LINE
  8
CSLAYER1
  6
CONTINUOUS
 62
     7
 10
552.379277
 20
2046.673020
 11
552.125893
 21
2047.154139
  0
LINE
  8
CSLAYER1
  6
CONTINUOUS
 62
     7
 10
552.125893
 20
2047.154139
 11
551.911567
 21
2047.684673
  0
LINE
  8
CSLAYER1
  6
CONTINUOUS
 62
     7
 10
551.911567
 20
2047.684673
 11
551.737930
 21
2048.260585
  0
LINE
  8
CSLAYER1
  6
CONTINUOUS
 62
     7
 10
551.737930
 20
2048.260585
 11
551.606302
 21
2048.877491
  0
LINE
  8
CSLAYER1
  6
CONTINUOUS
 62
     7
 10
551.606302
 20
2048.877491
 11
551.517686
 21
2049.530696
  0
LINE
  8
CSLAYER1
  6
CONTINUOUS
 62
     7
 10
551.517686
 20
2049.530696
 11
551.472756
 21
2050.215229
  0
LINE
  8
CSLAYER1
  6
CONTINUOUS
 62
     7
 10
551.472756
 20
2050.215229
 11
551.471853
 21
2050.925880
  0
LINE
  8
CSLAYER1
  6
CONTINUOUS
 62
     7
 10
551.471853
 20
2050.925880
 11
551.514986
 21
2051.657242
  0
LINE
  8
CSLAYER1
  6
CONTINUOUS
 62
     7
 10
551.514986
 20
2051.657242
 11
551.601826
 21
2052.403747
  0
LINE
  8
CSLAYER1
  6
CONTINUOUS
 62
     7
 10
551.601826
 20
2052.403747
 11
551.731711
 21
2053.159714
  0
LINE
  8
CSLAYER1
  6
CONTINUOUS
 62
     7
 10
551.731711
 20
2053.159714
 11
551.903653
 21
2053.919391
  0
LINE
  8
CSLAYER1
  6
CONTINUOUS
 62
     7
 10
551.903653
 20
2053.919391
 11
552.116344
 21
2054.676995
  0
LINE
  8
CSLAYER1
  6
CONTINUOUS
 62
     7
 10
552.116344
 20
2054.676995
 11
552.368164
 21
2055.426760
  0
LINE
  8
CSLAYER1
  6
CONTINUOUS
 62
     7
 10
552.368164
 20
2055.426760
 11
552.657198
 21
2056.162981
  0
LINE
  8
CSLAYER1
  6
CONTINUOUS
 62
     7
 10
552.657198
 20
2056.162981
 11
552.981246
 21
2056.880055
  0
LINE
  8
CSLAYER1
  6
CONTINUOUS
 62
     7
 10
552.981246
 20
2056.880055
 11
553.337841
 21
2057.572523
  0
LINE
  8
CSLAYER1
  6
CONTINUOUS
 62
     7
 10
553.337841
 20
2057.572523
 11
553.724270
 21
2058.235116
  0
LINE
  8
CSLAYER1
  6
CONTINUOUS
 62
     7
 10
553.724270
 20
2058.235116
 11
554.137592
 21
2058.862791
  0
LINE
  8
CSLAYER1
  6
CONTINUOUS
 62
     7
 10
554.137592
 20
2058.862791
 11
554.574660
 21
2059.450772
  0
LINE
  8
CSLAYER1
  6
CONTINUOUS
 62
     7
 10
554.574660
 20
2059.450772
 11
555.032149
 21
2059.994583
  0
LINE
  8
CSLAYER1
  6
CONTINUOUS
 62
     7
 10
555.032149
 20
2059.994583
 11
555.506577
 21
2060.490085
  0
LINE
  8
CSLAYER1
  6
CONTINUOUS
 62
     7
 10
555.506577
 20
2060.490085
 11
555.994333
 21
2060.933508
  0
LINE
  8
CSLAYER1
  6
CONTINUOUS
 62
     7
 10
555.994333
 20
2060.933508
 11
556.491705
 21
2061.321476
  0
LINE
  8
CSLAYER1
  6
CONTINUOUS
 62
     7
 10
556.491705
 20
2061.321476
 11
556.994908
 21
2061.651038
  0
LINE
  8
CSLAYER1
  6
CONTINUOUS
 62
     7
 10
556.994908
 20
2061.651038
 11
557.500112
 21
2061.919684
  0
LINE
  8
CSLAYER1
  6
CONTINUOUS
 62
     7
 10
557.500112
 20
2061.919684
 11
558.003472
 21
2062.125371
  0
LINE
  8
CSLAYER1
  6
CONTINUOUS
 62
     7
 10
558.003472
 20
2062.125371
 11
558.501158
 21
2062.266533
  0
LINE
  8
CSLAYER1
  6
CONTINUOUS
 62
     7
 10
558.501158
 20
2062.266533
 11
558.989381
 21
2062.342096
  0
LINE
  8
CSLAYER1
  6
CONTINUOUS
 62
     7
 10
558.989381
 20
2062.342096
 11
559.464426
 21
2062.351484
  0
LINE
  8
CSLAYER1
  6
CONTINUOUS
 62
     7
 10
559.464426
 20
2062.351484
 11
559.922677
 21
2062.294626
  0
LINE
  8
CSLAYER1
  6
CONTINUOUS
 62
     7
 10
559.922677
 20
2062.294626
 11
560.360648
 21
2062.171955
  0
LINE
  8
CSLAYER1
  6
CONTINUOUS
 62
     7
 10
608.447996
 20
2031.797297
 11
551.611185
 21
2052.484205
  0
LINE
  8
CSLAYER1
  6
CONTINUOUS
 62
     7
 10
608.341754
 20
2028.975456
 11
551.509144
 21
2049.660835
  0
LINE
  8
CSLAYER1
  6
CONTINUOUS
 62
     7
 10
608.596744
 20
2027.452393
 11
551.776292
 21
2048.133346
  0
LINE
  8
CSLAYER1
  6
CONTINUOUS
 62
     7
 10
609.335288
 20
2025.753330
 11
552.549992
 21
2046.421487
  0
LINE
  8
CSLAYER1
  6
CONTINUOUS
 62
     7
 10
610.987644
 20
2024.436794
 11
554.155034
 21
2045.122172
  0
LINE
  8
CSLAYER1
  6
CONTINUOUS
 62
     7
 10
684.725318
 20
2001.951800
 11
667.565025
 21
2003.860555
  0
LINE
  8
CSLAYER1
  6
CONTINUOUS
 62
     7
 10
617.193258
 20
2041.486577
 11
617.607614
 21
2041.299026
  0
LINE
  8
CSLAYER1
  6
CONTINUOUS
 62
     7
 10
617.607614
 20
2041.299026
 11
617.995203
 21
2041.048023
  0
LINE
  8
CSLAYER1
  6
CONTINUOUS
 62
     7
 10
617.995203
 20
2041.048023
 11
618.353074
 21
2040.735479
  0
LINE
  8
CSLAYER1
  6
CONTINUOUS
 62
     7
 10
618.353074
 20
2040.735479
 11
618.678503
 21
2040.363771
  0
LINE
  8
CSLAYER1
  6
CONTINUOUS
 62
     7
 10
618.678503
 20
2040.363771
 11
618.969016
 21
2039.935728
  0
LINE
  8
CSLAYER1
  6
CONTINUOUS
 62
     7
 10
618.969016
 20
2039.935728
 11
619.222399
 21
2039.454609
  0
LINE
  8
CSLAYER1
  6
CONTINUOUS
 62
     7
 10
619.222399
 20
2039.454609
 11
619.436725
 21
2038.924075
  0
LINE
  8
CSLAYER1
  6
CONTINUOUS
 62
     7
 10
619.436725
 20
2038.924075
 11
619.610362
 21
2038.348164
  0
LINE
  8
CSLAYER1
  6
CONTINUOUS
 62
     7
 10
619.610362
 20
2038.348164
 11
619.718531
 21
2037.841205
  0
LINE
  8
CSLAYER1
  6
CONTINUOUS
 62
     7
 10
614.618722
 20
2025.131488
 11
614.353384
 21
2024.957711
  0
LINE
  8
CSLAYER1
  6
CONTINUOUS
 62
     7
 10
614.353384
 20
2024.957711
 11
613.848180
 21
2024.689064
  0
LINE
  8
CSLAYER1
  6
CONTINUOUS
 62
     7
 10
613.848180
 20
2024.689064
 11
613.344820
 21
2024.483377
  0
LINE
  8
CSLAYER1
  6
CONTINUOUS
 62
     7
 10
613.344820
 20
2024.483377
 11
612.847134
 21
2024.342215
  0
LINE
  8
CSLAYER1
  6
CONTINUOUS
 62
     7
 10
612.847134
 20
2024.342215
 11
612.358911
 21
2024.266653
  0
LINE
  8
CSLAYER1
  6
CONTINUOUS
 62
     7
 10
612.358911
 20
2024.266653
 11
611.883866
 21
2024.257265
  0
LINE
  8
CSLAYER1
  6
CONTINUOUS
 62
     7
 10
611.883866
 20
2024.257265
 11
611.425615
 21
2024.314123
  0
LINE
  8
CSLAYER1
  6
CONTINUOUS
 62
     7
 10
611.425615
 20
2024.314123
 11
610.987644
 21
2024.436794
  0
LINE
  8
CSLAYER1
  6
CONTINUOUS
 62
     7
 10
610.987644
 20
2024.436794
 11
610.573288
 21
2024.624344
  0
LINE
  8
CSLAYER1
  6
CONTINUOUS
 62
     7
 10
610.573288
 20
2024.624344
 11
610.185699
 21
2024.875347
  0
LINE
  8
CSLAYER1
  6
CONTINUOUS
 62
     7
 10
610.185699
 20
2024.875347
 11
609.827828
 21
2025.187892
  0
LINE
  8
CSLAYER1
  6
CONTINUOUS
 62
     7
 10
609.827828
 20
2025.187892
 11
609.502398
 21
2025.559600
  0
LINE
  8
CSLAYER1
  6
CONTINUOUS
 62
     7
 10
609.502398
 20
2025.559600
 11
609.211886
 21
2025.987642
  0
LINE
  8
CSLAYER1
  6
CONTINUOUS
 62
     7
 10
609.211886
 20
2025.987642
 11
608.958503
 21
2026.468761
  0
LINE
  8
CSLAYER1
  6
CONTINUOUS
 62
     7
 10
608.958503
 20
2026.468761
 11
608.744177
 21
2026.999295
  0
LINE
  8
CSLAYER1
  6
CONTINUOUS
 62
     7
 10
608.744177
 20
2026.999295
 11
608.570539
 21
2027.575207
  0
LINE
  8
CSLAYER1
  6
CONTINUOUS
 62
     7
 10
608.570539
 20
2027.575207
 11
608.438912
 21
2028.192112
  0
LINE
  8
CSLAYER1
  6
CONTINUOUS
 62
     7
 10
608.438912
 20
2028.192112
 11
608.350295
 21
2028.845317
  0
LINE
  8
CSLAYER1
  6
CONTINUOUS
 62
     7
 10
608.350295
 20
2028.845317
 11
608.305365
 21
2029.529851
  0
LINE
  8
CSLAYER1
  6
CONTINUOUS
 62
     7
 10
608.305365
 20
2029.529851
 11
608.304463
 21
2030.240502
  0
LINE
  8
CSLAYER1
  6
CONTINUOUS
 62
     7
 10
608.304463
 20
2030.240502
 11
608.347596
 21
2030.971863
  0
LINE
  8
CSLAYER1
  6
CONTINUOUS
 62
     7
 10
608.347596
 20
2030.971863
 11
608.434435
 21
2031.718369
  0
LINE
  8
CSLAYER1
  6
CONTINUOUS
 62
     7
 10
608.434435
 20
2031.718369
 11
608.564320
 21
2032.474336
  0
LINE
  8
CSLAYER1
  6
CONTINUOUS
 62
     7
 10
608.564320
 20
2032.474336
 11
608.736262
 21
2033.234013
  0
LINE
  8
CSLAYER1
  6
CONTINUOUS
 62
     7
 10
608.736262
 20
2033.234013
 11
608.948953
 21
2033.991616
  0
LINE
  8
CSLAYER1
  6
CONTINUOUS
 62
     7
 10
608.948953
 20
2033.991616
 11
609.200774
 21
2034.741382
  0
LINE
  8
CSLAYER1
  6
CONTINUOUS
 62
     7
 10
609.200774
 20
2034.741382
 11
609.489808
 21
2035.477603
  0
LINE
  8
CSLAYER1
  6
CONTINUOUS
 62
     7
 10
609.489808
 20
2035.477603
 11
609.813856
 21
2036.194676
  0
LINE
  8
CSLAYER1
  6
CONTINUOUS
 62
     7
 10
609.813856
 20
2036.194676
 11
610.170451
 21
2036.887145
  0
LINE
  8
CSLAYER1
  6
CONTINUOUS
 62
     7
 10
610.170451
 20
2036.887145
 11
610.556880
 21
2037.549738
  0
LINE
  8
CSLAYER1
  6
CONTINUOUS
 62
     7
 10
610.556880
 20
2037.549738
 11
610.970201
 21
2038.177413
  0
LINE
  8
CSLAYER1
  6
CONTINUOUS
 62
     7
 10
610.970201
 20
2038.177413
 11
611.407270
 21
2038.765394
  0
LINE
  8
CSLAYER1
  6
CONTINUOUS
 62
     7
 10
611.407270
 20
2038.765394
 11
611.864759
 21
2039.309204
  0
LINE
  8
CSLAYER1
  6
CONTINUOUS
 62
     7
 10
611.864759
 20
2039.309204
 11
612.339187
 21
2039.804707
  0
LINE
  8
CSLAYER1
  6
CONTINUOUS
 62
     7
 10
612.339187
 20
2039.804707
 11
612.826943
 21
2040.248129
  0
LINE
  8
CSLAYER1
  6
CONTINUOUS
 62
     7
 10
612.826943
 20
2040.248129
 11
613.324315
 21
2040.636098
  0
LINE
  8
CSLAYER1
  6
CONTINUOUS
 62
     7
 10
613.324315
 20
2040.636098
 11
613.827518
 21
2040.965660
  0
LINE
  8
CSLAYER1
  6
CONTINUOUS
 62
     7
 10
613.827518
 20
2040.965660
 11
614.332722
 21
2041.234306
  0
LINE
  8
CSLAYER1
  6
CONTINUOUS
 62
     7
 10
614.332722
 20
2041.234306
 11
614.836082
 21
2041.439993
  0
LINE
  8
CSLAYER1
  6
CONTINUOUS
 62
     7
 10
614.836082
 20
2041.439993
 11
615.333768
 21
2041.581155
  0
LINE
  8
CSLAYER1
  6
CONTINUOUS
 62
     7
 10
615.333768
 20
2041.581155
 11
615.821991
 21
2041.656717
  0
LINE
  8
CSLAYER1
  6
CONTINUOUS
 62
     7
 10
615.821991
 20
2041.656717
 11
616.297036
 21
2041.666105
  0
LINE
  8
CSLAYER1
  6
CONTINUOUS
 62
     7
 10
616.297036
 20
2041.666105
 11
616.755287
 21
2041.609248
  0
LINE
  8
CSLAYER1
  6
CONTINUOUS
 62
     7
 10
616.755287
 20
2041.609248
 11
617.193258
 21
2041.486577
  0
LINE
  8
CSLAYER1
  6
CONTINUOUS
 62
     7
 10
686.236345
 20
2015.536402
 11
669.020693
 21
2017.451315
  0
LINE
  8
CSLAYER1
  6
CONTINUOUS
 62
     7
 10
610.673242
 20
2034.161747
 11
610.891752
 21
2034.718330
  0
LINE
  8
CSLAYER1
  6
CONTINUOUS
 62
     7
 10
610.891752
 20
2034.718330
 11
611.136732
 21
2035.260438
  0
LINE
  8
CSLAYER1
  6
CONTINUOUS
 62
     7
 10
611.136732
 20
2035.260438
 11
611.406318
 21
2035.783944
  0
LINE
  8
CSLAYER1
  6
CONTINUOUS
 62
     7
 10
611.406318
 20
2035.783944
 11
611.698458
 21
2036.284864
  0
LINE
  8
CSLAYER1
  6
CONTINUOUS
 62
     7
 10
611.698458
 20
2036.284864
 11
612.010929
 21
2036.759387
  0
LINE
  8
CSLAYER1
  6
CONTINUOUS
 62
     7
 10
612.010929
 20
2036.759387
 11
612.341353
 21
2037.203900
  0
LINE
  8
CSLAYER1
  6
CONTINUOUS
 62
     7
 10
612.341353
 20
2037.203900
 11
612.687215
 21
2037.615021
  0
LINE
  8
CSLAYER1
  6
CONTINUOUS
 62
     7
 10
612.687215
 20
2037.615021
 11
613.045882
 21
2037.989621
  0
LINE
  8
CSLAYER1
  6
CONTINUOUS
 62
     7
 10
613.045882
 20
2037.989621
 11
613.414626
 21
2038.324848
  0
LINE
  8
CSLAYER1
  6
CONTINUOUS
 62
     7
 10
613.414626
 20
2038.324848
 11
613.790639
 21
2038.618153
  0
LINE
  8
CSLAYER1
  6
CONTINUOUS
 62
     7
 10
613.790639
 20
2038.618153
 11
614.171060
 21
2038.867301
  0
LINE
  8
CSLAYER1
  6
CONTINUOUS
 62
     7
 10
614.171060
 20
2038.867301
 11
614.552995
 21
2039.070398
  0
LINE
  8
CSLAYER1
  6
CONTINUOUS
 62
     7
 10
614.552995
 20
2039.070398
 11
614.933535
 21
2039.225897
  0
LINE
  8
CSLAYER1
  6
CONTINUOUS
 62
     7
 10
614.933535
 20
2039.225897
 11
615.309785
 21
2039.332616
  0
LINE
  8
CSLAYER1
  6
CONTINUOUS
 62
     7
 10
615.309785
 20
2039.332616
 11
615.678882
 21
2039.389741
  0
LINE
  8
CSLAYER1
  6
CONTINUOUS
 62
     7
 10
615.678882
 20
2039.389741
 11
616.038016
 21
2039.396838
  0
LINE
  8
CSLAYER1
  6
CONTINUOUS
 62
     7
 10
616.038016
 20
2039.396838
 11
616.384454
 21
2039.353854
  0
LINE
  8
CSLAYER1
  6
CONTINUOUS
 62
     7
 10
616.384454
 20
2039.353854
 11
616.751777
 21
2039.250970
  0
LINE
  8
CSLAYER1
  6
CONTINUOUS
 62
     7
 10
611.710863
 20
2026.513267
 11
611.417846
 21
2026.703025
  0
LINE
  8
CSLAYER1
  6
CONTINUOUS
 62
     7
 10
611.417846
 20
2026.703025
 11
611.147295
 21
2026.939309
  0
LINE
  8
CSLAYER1
  6
CONTINUOUS
 62
     7
 10
611.147295
 20
2026.939309
 11
610.901270
 21
2027.220320
  0
LINE
  8
CSLAYER1
  6
CONTINUOUS
 62
     7
 10
610.901270
 20
2027.220320
 11
610.681643
 21
2027.543920
  0
LINE
  8
CSLAYER1
  6
CONTINUOUS
 62
     7
 10
610.681643
 20
2027.543920
 11
610.490085
 21
2027.907646
  0
LINE
  8
CSLAYER1
  6
CONTINUOUS
 62
     7
 10
610.490085
 20
2027.907646
 11
610.328055
 21
2028.308730
  0
LINE
  8
CSLAYER1
  6
CONTINUOUS
 62
     7
 10
610.328055
 20
2028.308730
 11
610.196785
 21
2028.744119
  0
LINE
  8
CSLAYER1
  6
CONTINUOUS
 62
     7
 10
610.196785
 20
2028.744119
 11
610.097274
 21
2029.210499
  0
LINE
  8
CSLAYER1
  6
CONTINUOUS
 62
     7
 10
610.097274
 20
2029.210499
 11
610.030280
 21
2029.704323
  0
LINE
  8
CSLAYER1
  6
CONTINUOUS
 62
     7
 10
610.030280
 20
2029.704323
 11
609.996313
 21
2030.221830
  0
LINE
  8
CSLAYER1
  6
CONTINUOUS
 62
     7
 10
609.996313
 20
2030.221830
 11
609.995631
 21
2030.759082
  0
LINE
  8
CSLAYER1
  6
CONTINUOUS
 62
     7
 10
609.995631
 20
2030.759082
 11
610.028239
 21
2031.311991
  0
LINE
  8
CSLAYER1
  6
CONTINUOUS
 62
     7
 10
610.028239
 20
2031.311991
 11
610.093890
 21
2031.876349
  0
LINE
  8
CSLAYER1
  6
CONTINUOUS
 62
     7
 10
610.093890
 20
2031.876349
 11
610.192083
 21
2032.447861
  0
LINE
  8
CSLAYER1
  6
CONTINUOUS
 62
     7
 10
610.192083
 20
2032.447861
 11
610.322071
 21
2033.022176
  0
LINE
  8
CSLAYER1
  6
CONTINUOUS
 62
     7
 10
610.322071
 20
2033.022176
 11
610.482866
 21
2033.594925
  0
LINE
  8
CSLAYER1
  6
CONTINUOUS
 62
     7
 10
610.482866
 20
2033.594925
 11
610.673242
 21
2034.161747
  0
ARC
  8
CSLAYER1
  6
CONTINUOUS
 62
     7
 10
686.669607
 20
2009.600604
 40
7.892050
 50
255.737756
 51
348.379625
  0
LINE
  8
CSLAYER1
  6
CONTINUOUS
 62
     7
 10
686.236345
 20
2015.536402
 11
707.457934
 21
2028.797122
  0
INSERT
  8
CSLAYER1
  2
EASYDRAWDIM0004
 10
0.0
 20
0.0
 30
0.0
  0
INSERT
  8
CSLAYER1
  2
EASYDRAWDIM0005
 10
0.0
 20
0.0
 30
0.0
  0
TEXT
  8
CSLAYER1
 62
     3
 10
482.834534
 20
2335.315674
 40
40.000000
 41
0.771429
  1
足踏式油圧ポンプユニット
 50
0.000000
 51
0.000000
  7
EASYDRAW_FONT
 72
     5
 11
842.834534
 21
2335.315674
  0
TEXT
  8
CSLAYER1
 62
     3
 10
392.858948
 20
1730.364502
 40
40.000000
 41
0.763393
  1
外形寸法 400W×500D×280H
 50
0.000000
 51
0.000000
  7
EASYDRAW_FONT
 72
     5
 11
962.858948
 21
1730.364502
  0
LINE
  8
CSLAYER1
  6
CONTINUOUS
 62
     5
 10
1051.422931
 20
2408.390820
 11
1051.422931
 21
1704.281231
  0
LINE
  8
CSLAYER1
  6
CONTINUOUS
 62
     5
 10
1051.422931
 20
1704.281231
 11
250.128800
 21
1704.281231
  0
INSERT
  8
CSLAYER1
  2
EASYDRAWDIM0006
 10
0.0
 20
0.0
 30
0.0
  0
LINE
  8
CSLAYER1
  6
CONTINUOUS
 62
     7
 10
467.925705
 20
2380.761964
 11
857.936952
 21
2380.761964
  0
LINE
  8
CSLAYER1
  6
CONTINUOUS
 62
     7
 10
857.936952
 20
2380.761964
 11
857.936952
 21
2330.617660
  0
LINE
  8
CSLAYER1
  6
CONTINUOUS
 62
     7
 10
857.936952
 20
2330.617660
 11
467.925705
 21
2330.617660
  0
LINE
  8
CSLAYER1
  6
CONTINUOUS
 62
     7
 10
467.925705
 20
2330.617660
 11
467.925705
 21
2380.761964
  0
INSERT
  8
CSLAYER1
  2
BLKF0005
 10
0.0
 20
0.0
 30
0.0
  0
INSERT
  8
CSLAYER1
  2
BLKF0006
 10
0.0
 20
0.0
 30
0.0
  0
LINE
  8
CSLAYER1
  6
CONTINUOUS
 62
     7
 10
653.951928
 20
2064.737119
 11
651.005036
 21
2063.035730
  0
LINE
  8
CSLAYER1
  6
CONTINUOUS
 62
     7
 10
658.375539
 20
2057.075200
 11
655.428647
 21
2055.373811
  0
LINE
  8
CSLAYER1
  6
CONTINUOUS
 62
     7
 10
651.855731
 20
2061.562284
 11
654.244779
 21
2060.985211
  0
LINE
  8
CSLAYER1
  6
CONTINUOUS
 62
     7
 10
654.244779
 20
2060.985211
 11
655.272717
 21
2059.204771
  0
LINE
  8
CSLAYER1
  6
CONTINUOUS
 62
     7
 10
655.272717
 20
2059.204771
 11
654.577953
 21
2056.847257
  0
LINE
  8
CSLAYER1
  6
CONTINUOUS
 62
     7
 10
654.577953
 20
2056.847257
 11
652.188904
 21
2057.424331
  0
LINE
  8
CSLAYER1
  6
CONTINUOUS
 62
     7
 10
652.188904
 20
2057.424331
 11
651.160967
 21
2059.204771
  0
LINE
  8
CSLAYER1
  6
CONTINUOUS
 62
     7
 10
651.160967
 20
2059.204771
 11
651.855731
 21
2061.562284
  0
INSERT
  8
CSLAYER1
  2
BLKF0007
 10
0.0
 20
0.0
 30
0.0
  0
LINE
  8
CSLAYER1
  6
CONTINUOUS
 62
     7
 10
655.149279
 20
2066.874227
 11
652.964473
 21
2065.612828
  0
LINE
  8
CSLAYER1
  6
CONTINUOUS
 62
     7
 10
661.062958
 20
2056.352588
 11
658.962242
 21
2055.175020
  0
INSERT
  8
CSLAYER1
  2
BLKF0008
 10
0.0
 20
0.0
 30
0.0
  0
LINE
  8
CSLAYER1
  6
CONTINUOUS
 62
     7
 10
682.214268
 20
2069.286891
 11
661.169992
 21
2076.946381
  0
LINE
  8
CSLAYER1
  6
CONTINUOUS
 62
     7
 10
682.214268
 20
2069.286891
 11
682.214268
 21
2035.478557
  0
LINE
  8
CSLAYER1
  6
CONTINUOUS
 62
     7
 10
672.019175
 20
2062.916290
 11
672.019175
 21
2017.117791
  0
LINE
  8
CSLAYER1
  6
CONTINUOUS
 62
     7
 10
656.866253
 20
2039.344213
 11
654.732329
 21
2032.353279
  0
LINE
  8
CSLAYER1
  6
CONTINUOUS
 62
     7
 10
654.732329
 20
2032.353279
 11
647.611041
 21
2034.000713
  0
LINE
  8
CSLAYER1
  6
CONTINUOUS
 62
     7
 10
647.611041
 20
2034.000713
 11
644.525970
 21
2039.344213
  0
LINE
  8
CSLAYER1
  6
CONTINUOUS
 62
     7
 10
644.525970
 20
2039.344213
 11
646.611112
 21
2046.419640
  0
LINE
  8
CSLAYER1
  6
CONTINUOUS
 62
     7
 10
646.611112
 20
2046.419640
 11
653.781183
 21
2044.687712
  0
LINE
  8
CSLAYER1
  6
CONTINUOUS
 62
     7
 10
653.781183
 20
2044.687712
 11
656.866253
 21
2039.344213
  0
LINE
  8
CSLAYER1
  6
CONTINUOUS
 62
     7
 10
659.534832
 20
2040.884917
 11
657.400908
 21
2033.893984
  0
LINE
  8
CSLAYER1
  6
CONTINUOUS
 62
     7
 10
656.449761
 20
2046.228417
 11
659.534832
 21
2040.884917
  0
LINE
  8
CSLAYER1
  6
CONTINUOUS
 62
     7
 10
649.279690
 20
2047.960345
 11
656.449761
 21
2046.228417
  0
LINE
  8
CSLAYER1
  6
CONTINUOUS
 62
     7
 10
657.400908
 20
2033.893984
 11
654.732329
 21
2032.353279
  0
LINE
  8
CSLAYER1
  6
CONTINUOUS
 62
     7
 10
659.534832
 20
2040.884917
 11
656.866253
 21
2039.344213
  0
LINE
  8
CSLAYER1
  6
CONTINUOUS
 62
     7
 10
656.449761
 20
2046.228417
 11
653.781183
 21
2044.687712
  0
LINE
  8
CSLAYER1
  6
CONTINUOUS
 62
     7
 10
649.279690
 20
2047.960345
 11
646.611112
 21
2046.419640
  0
INSERT
  8
CSLAYER1
  2
BLKF0009
 10
0.0
 20
0.0
 30
0.0
  0
LINE
  8
CSLAYER1
  6
CONTINUOUS
 62
     7
 10
673.326892
 20
2068.899879
 11
671.667185
 21
2067.155775
  0
LINE
  8
CSLAYER1
  6
CONTINUOUS
 62
     7
 10
671.667185
 20
2067.155775
 11
669.653267
 21
2067.155775
  0
LINE
  8
CSLAYER1
  6
CONTINUOUS
 62
     7
 10
669.653267
 20
2067.155775
 11
667.993559
 21
2068.899879
  0
LINE
  8
CSLAYER1
  6
CONTINUOUS
 62
     7
 10
667.993559
 20
2068.899879
 11
669.653267
 21
2070.643983
  0
LINE
  8
CSLAYER1
  6
CONTINUOUS
 62
     7
 10
669.653267
 20
2070.643983
 11
671.667185
 21
2070.643983
  0
LINE
  8
CSLAYER1
  6
CONTINUOUS
 62
     7
 10
671.667185
 20
2070.643983
 11
673.326892
 21
2068.899879
  0
INSERT
  8
CSLAYER1
  2
BLKF0010
 10
0.0
 20
0.0
 30
0.0
  0
LINE
  8
CSLAYER1
  6
CONTINUOUS
 62
     7
 10
672.019175
 20
2062.916290
 11
650.974899
 21
2070.575779
  0
LINE
  8
CSLAYER1
  6
CONTINUOUS
 62
     7
 10
672.019175
 20
2062.916290
 11
682.214268
 21
2069.286891
  0
LINE
  8
CSLAYER1
  6
CONTINUOUS
 62
     7
 10
637.446288
 20
2074.183244
 11
637.446288
 21
2029.417194
  0
LINE
  8
CSLAYER1
  6
CONTINUOUS
 62
     7
 10
650.974899
 20
2070.575779
 11
661.169992
 21
2076.946381
  0
LINE
  8
CSLAYER1
  6
CONTINUOUS
 62
     7
 10
650.974899
 20
2069.259232
 11
637.446288
 21
2074.183244
  0
LINE
  8
CSLAYER1
  6
CONTINUOUS
 62
     7
 10
650.974899
 20
2070.575779
 11
650.974899
 21
2069.259232
  0
LINE
  8
CSLAYER1
  6
CONTINUOUS
 62
     7
 10
646.900424
 20
2069.562975
 11
640.262078
 21
2071.979135
  0
LINE
  8
CSLAYER1
  6
CONTINUOUS
 62
     7
 10
639.868100
 20
2073.301776
 11
640.262078
 21
2071.979135
  0
LINE
  8
CSLAYER1
  6
CONTINUOUS
 62
     7
 10
646.900424
 20
2069.562975
 11
649.114929
 21
2069.936206
  0
LINE
  8
CSLAYER1
  6
CONTINUOUS
 62
     7
 10
659.838586
 20
2076.114425
 11
653.563514
 21
2078.398365
  0
LINE
  8
CSLAYER1
  6
CONTINUOUS
 62
     7
 10
637.446288
 20
2074.183244
 11
646.502188
 21
2079.841998
  0
LINE
  8
CSLAYER1
  6
CONTINUOUS
 62
     7
 10
646.900424
 20
2069.562975
 11
646.900424
 21
2055.809520
  0
LINE
  8
CSLAYER1
  6
CONTINUOUS
 62
     7
 10
649.114929
 20
2069.936206
 11
649.114929
 21
2057.282186
  0
LINE
  8
CSLAYER1
  6
CONTINUOUS
 62
     7
 10
640.262078
 20
2071.979135
 11
640.262078
 21
2058.225681
  0
LINE
  8
CSLAYER1
  6
CONTINUOUS
 62
     7
 10
640.262078
 20
2058.225681
 11
641.987007
 21
2053.109634
  0
LINE
  8
CSLAYER1
  6
CONTINUOUS
 62
     7
 10
646.900424
 20
2055.809520
 11
644.523264
 21
2052.046042
  0
LINE
  8
CSLAYER1
  6
CONTINUOUS
 62
     7
 10
641.987007
 20
2053.109634
 11
641.987007
 21
2027.624342
  0
LINE
  8
CSLAYER1
  6
CONTINUOUS
 62
     7
 10
644.523264
 20
2052.046042
 11
644.523264
 21
2025.906232
  0
LINE
  8
CSLAYER1
  6
CONTINUOUS
 62
     7
 10
646.900424
 20
2055.809520
 11
649.022173
 21
2057.135336
  0
LINE
  8
CSLAYER1
  6
CONTINUOUS
 62
     7
 10
644.523264
 20
2052.046042
 11
646.645012
 21
2053.371858
  0
LINE
  8
CSLAYER1
  6
CONTINUOUS
 62
     7
 10
649.114929
 20
2057.282186
 11
646.737768
 21
2053.518707
  0
LINE
  8
CSLAYER1
  6
CONTINUOUS
 62
     7
 10
646.737768
 20
2053.518707
 11
646.737768
 21
2046.492765
  0
LINE
  8
CSLAYER1
  6
CONTINUOUS
 62
     7
 10
646.737768
 20
2035.513266
 11
646.737768
 21
2025.006270
  0
LINE
  8
CSLAYER1
  6
CONTINUOUS
 62
     7
 10
682.214268
 20
2035.478557
 11
684.749066
 21
2037.062474
  0
LINE
  8
CSLAYER1
  6
CONTINUOUS
 62
     7
 10
653.088394
 20
2021.984258
 11
616.751777
 21
2039.250970
  0
LINE
  8
CSLAYER1
  6
CONTINUOUS
 62
     7
 10
647.171683
 20
2009.662722
 11
611.710863
 21
2026.513267
  0
LINE
  8
CSLAYER1
  6
CONTINUOUS
 62
     7
 10
697.379300
 20
2022.499293
 11
694.399899
 21
2008.010938
  0
ARC
  8
CSLAYER1
  6
CONTINUOUS
 62
     7
 10
674.548150
 20
2067.144848
 40
50.000000
 50
244.583509
 51
263.653028
  0
ARC
  8
CSLAYER1
  6
CONTINUOUS
 62
     7
 10
674.640170
 20
2067.468277
 40
64.000000
 50
244.583509
 51
263.653028
  0
LINE
  8
CSLAYER1
  6
CONTINUOUS
 62
     7
 10
665.713282
 20
2004.093908
 11
665.713282
 21
2001.198180
  0
LINE
  8
CSLAYER1
  6
CONTINUOUS
 62
     7
 10
642.754308
 20
2009.554563
 11
639.947365
 21
2013.095629
  0
LINE
  8
CSLAYER1
  6
CONTINUOUS
 62
     5
 10
2722.702111
 20
549.843890
 11
3522.702111
 21
549.843890
  0
LINE
  8
CSLAYER1
  6
CONTINUOUS
 62
     5
 10
2722.702111
 20
189.843890
 11
3522.702111
 21
189.843890
  0
LINE
  8
CSLAYER1
  6
CONTINUOUS
 62
     5
 10
2722.702111
 20
349.843890
 11
3522.702111
 21
349.843890
  0
LINE
  8
CSLAYER1
  6
CONTINUOUS
 62
     5
 10
2722.702111
 20
409.843890
 11
3522.702111
 21
409.843890
  0
LINE
  8
CSLAYER1
  6
CONTINUOUS
 62
     5
 10
2722.702111
 20
469.843890
 11
3522.702111
 21
469.843890
  0
LINE
  8
CSLAYER1
  6
CONTINUOUS
 62
     5
 10
2722.702111
 20
629.843890
 11
3522.702111
 21
629.843890
  0
LINE
  8
CSLAYER1
  6
CONTINUOUS
 62
     5
 10
2722.702111
 20
709.843890
 11
2722.702111
 21
109.843890
  0
LINE
  8
CSLAYER1
  6
CONTINUOUS
 62
     5
 10
2922.702111
 20
709.843890
 11
2922.702111
 21
469.843890
  0
LINE
  8
CSLAYER1
  6
CONTINUOUS
 62
     5
 10
2722.702111
 20
709.843890
 11
3522.702111
 21
709.843890
  0
LINE
  8
CSLAYER1
  6
CONTINUOUS
 62
     5
 10
3222.702111
 20
469.843890
 11
3222.702111
 21
189.843890
  0
TEXT
  8
CSLAYER1
 62
     3
 10
2942.393367
 20
118.406605
 40
59.380363
 41
1.003345
  1
東正車輌株式会社
 50
0.000000
 51
0.000000
  7
EASYDRAW_FONT
 72
     5
 11
3399.165715
 21
118.406605
  0
LINE
  8
CSLAYER1
  6
CONTINUOUS
 62
     5
 10
2972.702111
 20
409.843890
 11
2972.702111
 21
189.843890
  0
TEXT
  8
CSLAYER1
 62
     5
 10
2752.702148
 20
644.843872
 40
50.000000
 41
1.050000
  1
品　名
 50
0.000000
 51
0.000000
  7
EASYDRAW_FONT
 72
     5
 11
2892.702148
 21
644.843872
  0
TEXT
  8
CSLAYER1
 62
     5
 10
2752.702148
 20
564.843872
 40
50.000000
 41
1.050000
  1
型　式
 50
0.000000
 51
0.000000
  7
EASYDRAW_FONT
 72
     5
 11
2892.702148
 21
564.843872
  0
TEXT
  8
CSLAYER1
 62
     5
 10
2727.702148
 20
484.843903
 40
50.000000
 41
1.036364
  1
図面番号
 50
0.000000
 51
0.000000
  7
EASYDRAW_FONT
 72
     5
 11
2917.702148
 21
484.843903
  0
TEXT
  8
CSLAYER1
 62
     5
 10
2752.702148
 20
414.843903
 40
50.000000
 41
0.825000
  1
平成26年01月10日
 50
0.000000
 51
0.000000
  7
EASYDRAW_FONT
 72
     5
 11
3192.702148
 21
414.843903
  0
TEXT
  8
CSLAYER1
 62
     5
 10
3302.702148
 20
414.843903
 40
50.000000
 41
1.050000
  1
Ｂ－４
 50
0.000000
 51
0.000000
  7
EASYDRAW_FONT
 72
     5
 11
3442.702148
 21
414.843903
  0
TEXT
  8
CSLAYER1
 62
     5
 10
2777.702148
 20
354.843903
 40
50.000000
 41
1.050000
  1
検　図
 50
0.000000
 51
0.000000
  7
EASYDRAW_FONT
 72
     5
 11
2917.702148
 21
354.843903
  0
TEXT
  8
CSLAYER1
 62
     5
 10
3027.702148
 20
354.843903
 40
50.000000
 41
1.050000
  1
作　図
 50
0.000000
 51
0.000000
  7
EASYDRAW_FONT
 72
     5
 11
3167.702148
 21
354.843903
  0
TEXT
  8
CSLAYER1
 62
     5
 10
3302.702148
 20
354.843903
 40
50.000000
 41
1.050000
  1
尺　度
 50
0.000000
 51
0.000000
  7
EASYDRAW_FONT
 72
     5
 11
3442.702148
 21
354.843903
  0
TEXT
  8
CSLAYER1
 62
     5
 10
3403.440918
 20
204.329147
 40
50.000000
 41
1.080000
  1
１０
 50
0.000000
 51
0.000000
  7
EASYDRAW_FONT
 72
     5
 11
3493.440918
 21
204.329147
  0
TEXT
  8
CSLAYER1
 62
     5
 10
3383.121338
 20
252.033844
 40
50.000000
 41
1.200000
  1
／
 50
0.000000
 51
0.000000
  7
EASYDRAW_FONT
 72
     5
 11
3423.121338
 21
252.033844
  0
TEXT
  8
CSLAYER1
 62
     5
 10
3352.908447
 20
287.017303
 40
50.000000
 41
1.200000
  1
１
 50
0.000000
 51
0.000000
  7
EASYDRAW_FONT
 72
     5
 11
3392.908447
 21
287.017303
  0
TEXT
  8
CSLAYER1
 62
     3
 10
3062.702148
 20
644.843872
 40
50.000000
 41
0.834783
  1
ゴールドリフター
 50
0.000000
 51
0.000000
  7
EASYDRAW_FONT
 72
     5
 11
3382.702148
 21
644.843872
  0
TEXT
  8
CSLAYER1
 62
     3
 10
2962.702148
 20
564.843872
 40
50.000000
 41
0.821053
  1
GLSH-350-2008
 50
0.000000
 51
0.000000
  7
EASYDRAW_FONT
 72
     5
 11
3482.702148
 21
564.843872
  0
INSERT
  8
CSLAYER1
  2
BLKF0011
 10
0.0
 20
0.0
 30
0.0
  0
INSERT
  8
CSLAYER1
  2
EASYDRAWDIM0007
 10
0.0
 20
0.0
 30
0.0
  0
LINE
  8
CSLAYER1
  6
CONTINUOUS
 62
     5
 10
1118.935943
 20
652.522609
 11
1376.133062
 21
652.522609
  0
TEXT
  8
CSLAYER1
 62
     3
 10
1154.189819
 20
660.331360
 40
40.000000
 41
0.787500
  1
(アンカー穴)
 50
0.000000
 51
0.000000
  7
EASYDRAW_FONT
 72
     5
 11
1364.189819
 21
660.331360
  0
LINE
  8
CSLAYER1
  6
CONTINUOUS
 62
     3
 10
745.545918
 20
818.850501
 11
1045.545918
 21
818.850501
  0
LINE
  8
CSLAYER1
  6
CONTINUOUS
 62
     5
 10
1045.545918
 20
818.850501
 11
1463.367389
 21
818.850501
  0
LINE
  8
CSLAYER1
  6
CONTINUOUS
 62
     3
 10
1463.367389
 20
818.850501
 11
2266.067389
 21
818.850501
  0
LINE
  8
CSLAYER1
  6
CONTINUOUS
 62
     5
 10
2266.067389
 20
818.850501
 11
2652.383249
 21
818.850501
  0
LINE
  8
CSLAYER1
  6
CONTINUOUS
 62
     3
 10
2652.383249
 20
818.850501
 11
2952.383249
 21
818.850501
  0
LINE
  8
CSLAYER1
  6
CONTINUOUS
 62
     5
 10
2952.383249
 20
818.850501
 11
3100.247706
 21
818.850501
  0
DIMENSION
  8
CSLAYER1
 62
     3
  2
*D0013
 10
1488.367389
 20
1730.276935
 11
1416.332397
 21
1740.276855
 13
1463.367389
 23
1860.276935
 14
1488.367389
 24
1864.014134
 52
270.000000
  0
DIMENSION
  8
CSLAYER1
 62
     3
  2
*D0014
 10
1513.367389
 20
1640.276935
 11
1416.168213
 21
1650.276978
 13
1463.367389
 23
1860.276935
 14
1513.367389
 24
1860.276935
 52
270.000000
 70
1
  0
LINE
  8
CSLAYER1
  6
CONTINUOUS
 62
     5
 10
1488.367389
 20
1875.276935
 11
1574.606535
 21
1730.276935
  0
LINE
  8
CSLAYER1
  6
CONTINUOUS
 62
     5
 10
1488.367389
 20
1875.276935
 11
1509.853591
 21
1854.340289
  0
LINE
  8
CSLAYER1
  6
CONTINUOUS
 62
     5
 10
1488.367389
 20
1875.276935
 11
1496.506663
 21
1846.402167
  0
DIMENSION
  8
CSLAYER1
 62
     3
  2
*D0015
 10
2413.503092
 20
918.850501
 11
2403.503174
 21
868.850525
 13
2266.067389
 23
818.850501
 14
2266.067389
 24
918.850501
 50
90.000000
 70
1
  0
LINE
  8
CSLAYER1
  6
CONTINUOUS
 62
     5
 10
1020.545918
 20
818.850501
 11
1118.935943
 21
652.522609
  0
LINE
  8
CSLAYER1
  6
CONTINUOUS
 62
     5
 10
1020.545918
 20
818.850501
 11
1041.982341
 21
797.862891
  0
LINE
  8
CSLAYER1
  6
CONTINUOUS
 62
     5
 10
1020.545918
 20
818.850501
 11
1028.616600
 21
789.956486
  0
LINE
  8
CSLAYER1
  6
CONTINUOUS
 62
     5
 10
1488.367389
 20
818.850501
 11
1376.133062
 21
652.522609
  0
LINE
  8
CSLAYER1
  6
CONTINUOUS
 62
     5
 10
1488.367389
 20
818.850501
 11
1478.595101
 21
790.486750
  0
LINE
  8
CSLAYER1
  6
CONTINUOUS
 62
     5
 10
1488.367389
 20
818.850501
 11
1465.722464
 21
799.172917
  0
ENDSEC
  0
EOF
