  0
SECTION
  2
HEADER
  9
$ACADVER
  1
AC1006
  9
$INSBASE
 10
0.000000
 20
0.000000
 30
0.0
  9
$EXTMIN
 10
0.000000
 20
0.000000
  9
$EXTMAX
 10
3640.000000
 20
2570.000000
  9
$LIMMIN
 10
0.000000
 20
0.000000
  9
$LIMMAX
 10
3640.000000
 20
2570.000000
  9
$VIEWCTR
 10
1820.000000
 20
1285.000000
  9
$VIEWSIZE
 40
2570.000000
  9
$SNAPMODE
 70
     0
  9
$SNAPUNIT
 10
1.0
 20
1.0
  9
$SNAPBASE
 10
0.0
 20
0.0
  9
$SNAPANG
 50
0.0
  9
$SNAPSTYLE
 70
     0
  9
$SNAPISOPAIR
 70
     0
  9
$GRIDMODE
 70
     0
  9
$GRIDUNIT
 10
0.0
 20
0.0
  9
$ORTHOMODE
 70
     0
  9
$REGENMODE
 70
     1
  9
$FILLMODE
 70
     1
  9
$QTEXTMODE
 70
     0
  9
$DRAGMODE
 70
     2
  9
$LTSCALE
 40
15.000000
  9
$OSMODE
 70
     0
  9
$ATTMODE
 70
     1
  9
$TEXTSIZE
 40
0.2
  9
$TRACEWID
 40
0.05
  9
$TEXTSTYLE
  7
STANDARD
  9
$CLAYER
  8
CSLAYER1
  9
$CELTYPE
  6
BYLAYER
  9
$CECOLOR
 62
   256
  9
$DIMSCALE
 40
1.0
  9
$DIMASZ
 40
0.18
  9
$DIMEXO
 40
0.0625
  9
$DIMDLI
 40
0.38
  9
$DIMRND
 40
0.0
  9
$DIMDLE
 40
0.0
  9
$DIMEXE
 40
0.18
  9
$DIMTP
 40
0.0
  9
$DIMTM
 40
0.0
  9
$DIMTXT
 40
0.18
  9
$DIMCEN
 40
0.09
  9
$DIMTSZ
 40
0.0
  9
$DIMTOL
 70
     0
  9
$DIMLIM
 70
     0
  9
$DIMTIH
 70
     1
  9
$DIMTOH
 70
     1
  9
$DIMSE1
 70
     0
  9
$DIMSE2
 70
     0
  9
$DIMTAD
 70
     0
  9
$DIMZIN
 70
     0
  9
$DIMBLK
  1

  9
$LUNITS
 70
     2
  9
$LUPREC
 70
     4
  9
$AXISMODE
 70
     0
  9
$AXISUNIT
 10
0.0
 20
0.0
  9
$SKETCHINC
 40
0.1
  9
$FILLETRAD
 40
0.0
  9
$AUNITS
 70
     0
  9
$AUPREC
 70
     0
  9
$MENU
  1
ACAD
  9
$ELEVATION
 40
0.0
  9
$THICKNESS
 40
0.0
  9
$VIEWDIR
 10
0.0
 20
0.0
 30
1.0
  9
$LIMCHECK
 70
     0
  9
$BLIPMODE
 70
     1
  9
$CHAMFERA
 40
0.0
  9
$CHAMFERB
 40
0.0
  9
$FASTZOOM
 70
     1
  9
$SKPOLY
 70
     0
  9
$TDCREATE
 40
2456676.000000
  9
$TDUPDATE
 40
2456676.000000
  9
$TDINDWG
 40
0.0
  9
$TDUSRTIMER
 40
0.0
  9
$USRTIMER
 70
     1
  9
$ANGBASE
 50
0.0
  9
$ANGDIR
 70
     0
  9
$PDMODE
 70
     0
  9
$PDSIZE
 40
0.0
  9
$PLINEWID
 40
0.0
  9
$COORDS
 70
     0
  9
$USERI1
 70
     0
  9
$USERI2
 70
     0
  9
$USERI3
 70
     0
  9
$USERI4
 70
     0
  9
$USERI5
 70
     0
  9
$USERR1
 40
0.0
  9
$USERR2
 40
0.0
  9
$USERR3
 40
0.0
  9
$USERR4
 40
0.0
  9
$USERR5
 40
0.0
  0
ENDSEC
  0
SECTION
  2
TABLES
  0
TABLE
  2
LTYPE
 70
     9
  0
LTYPE
  2
CONTINUOUS
 70
    64
  3
Solid line
 72
    65
 73
     0
 40
0.0
  0
LTYPE
  2
DASHED
 70
    64
  3
__ __ __ __ __ __ __ __ __ __ __ __ __ __ __
 72
    65
 73
     2
 40
0.75
 49
0.5
 49
-0.25
  0
LTYPE
  2
HIDDEN
 70
    64
  3
_ _ _ _ _ _ _ _ _ _ _ _ _ _ _ _ _ _ _ _ _ _ _
 72
    65
 73
     2
 40
0.375
 49
0.25
 49
-0.125
  0
LTYPE
  2
DOT
 70
    64
  3
...............................................
 72
    65
 73
     2
 40
0.25
 49
0.0
 49
-0.25
  0
LTYPE
  2
DASHDOT
 70
    64
  3
__ . __ . __ . __ . __ . __ . __ . __ . __ . __
 72
    65
 73
     4
 40
1.0
 49
0.5
 49
-0.25
 49
0.0
 49
-0.25
  0
LTYPE
  2
DIVIDE
 70
    64
  3
__ . . __ . . __ . . __ . . __ . . __ . . __
 72
    65
 73
     6
 40
1.25
 49
0.5
 49
-0.25
 49
0.0
 49
-0.25
 49
0.0
 49
-0.25
  0
LTYPE
  2
CENTER
 70
    64
  3
____ _ ____ _ ____ _ ____ _ ____ _ ____ _ ____ 
 72
    65
 73
     4
 40
2.0
 49
1.25
 49
-0.25
 49
0.25
 49
-0.25
  0
LTYPE
  2
PHANTOM
 70
    64
  3
______  __  __  ______  __  __  ______  __  __ 
 72
    65
 73
     6
 40
2.5
 49
1.25
 49
-0.25
 49
0.25
 49
-0.25
 49
0.25
 49
-0.25
  0
LTYPE
  2
BORDER
 70
    64
  3
__ __ . __ __ . __ __ . __ __ . __ __ . __ __ .
 72
    65
 73
     6
 40
1.75
 49
0.5
 49
-0.25
 49
0.5
 49
-0.25
 49
0.0
 49
-0.25
  0
ENDTAB
  0
TABLE
  2
LAYER
 70
    16
  0
LAYER
  2
CSLAYER1
 70
    64
 62
     7
  6
CONTINUOUS
  0
LAYER
  2
CSLAYER2
 70
    64
 62
     7
  6
CONTINUOUS
  0
LAYER
  2
CSLAYER3
 70
    64
 62
     7
  6
CONTINUOUS
  0
LAYER
  2
CSLAYER4
 70
    64
 62
     7
  6
CONTINUOUS
  0
LAYER
  2
CSLAYER5
 70
    64
 62
     7
  6
CONTINUOUS
  0
LAYER
  2
CSLAYER6
 70
    64
 62
     7
  6
CONTINUOUS
  0
LAYER
  2
CSLAYER7
 70
    64
 62
     7
  6
CONTINUOUS
  0
LAYER
  2
CSLAYER8
 70
    64
 62
     7
  6
CONTINUOUS
  0
LAYER
  2
CSLAYER9
 70
    64
 62
     7
  6
CONTINUOUS
  0
LAYER
  2
CSLAYER10
 70
    64
 62
     7
  6
CONTINUOUS
  0
LAYER
  2
CSLAYER11
 70
    64
 62
     7
  6
CONTINUOUS
  0
LAYER
  2
CSLAYER12
 70
    64
 62
     7
  6
CONTINUOUS
  0
LAYER
  2
CSLAYER13
 70
    64
 62
     7
  6
CONTINUOUS
  0
LAYER
  2
CSLAYER14
 70
    64
 62
     7
  6
CONTINUOUS
  0
LAYER
  2
CSLAYER15
 70
    64
 62
     7
  6
CONTINUOUS
  0
LAYER
  2
CSLAYER16
 70
    64
 62
     7
  6
CONTINUOUS
  0
ENDTAB
  0
TABLE
  2
STYLE
 70
     1
  0
STYLE
  2
EASYDRAW_FONT
 70
     0
 40
1.0
 41
1.0
 50
0.0
 71
     0
 42
1.0
  3
monotxt
  4
bigfont
  0
ENDTAB
  0
TABLE
  2
VIEW
 70
     0
  0
ENDTAB
  0
ENDSEC
  0
SECTION
  2
BLOCKS
  0
BLOCK
  8
CSLAYER1
  2
*D0000
 70
    65
 10
0.0
 20
0.0
 30
0.0
  0
TEXT
  8
CSLAYER1
 62
     3
 10
2338.173340
 20
1129.403687
 40
40.000000
 41
0.843750
  1
500
 50
90.000000
 51
0.000000
  7
EASYDRAW_FONT
 72
     5
 11
2338.173340
 21
1219.403687
  0
LINE
  8
CSLAYER1
  6
CONTINUOUS
 62
     5
 10
2238.173533
 20
1435.289511
 11
2458.566606
 21
1435.289511
  0
LINE
  8
CSLAYER1
  6
CONTINUOUS
 62
     5
 10
2348.173533
 20
913.517910
 11
2348.173533
 21
1435.289511
  0
LINE
  8
CSLAYER1
  6
CONTINUOUS
 62
     5
 10
2348.173533
 20
913.517910
 11
2340.408962
 21
942.495685
  0
LINE
  8
CSLAYER1
  6
CONTINUOUS
 62
     5
 10
2348.173533
 20
913.517910
 11
2355.938104
 21
942.495685
  0
LINE
  8
CSLAYER1
  6
CONTINUOUS
 62
     5
 10
2348.173533
 20
1435.289511
 11
2340.408962
 21
1406.311737
  0
LINE
  8
CSLAYER1
  6
CONTINUOUS
 62
     5
 10
2348.173533
 20
1435.289511
 11
2355.938104
 21
1406.311737
  0
ENDBLK
  8
0
  0
BLOCK
  8
CSLAYER1
  2
*D0001
 70
    65
 10
0.0
 20
0.0
 30
0.0
  0
TEXT
  8
CSLAYER1
 62
     3
 10
2428.173340
 20
1079.403687
 40
40.000000
 41
0.843750
  1
600
 50
90.000000
 51
0.000000
  7
EASYDRAW_FONT
 72
     5
 11
2428.173340
 21
1169.403687
  0
LINE
  8
CSLAYER1
  6
CONTINUOUS
 62
     5
 10
2438.173533
 20
813.517910
 11
2438.173533
 21
1435.289511
  0
LINE
  8
CSLAYER1
  6
CONTINUOUS
 62
     5
 10
2438.173533
 20
813.517910
 11
2430.408962
 21
842.495685
  0
LINE
  8
CSLAYER1
  6
CONTINUOUS
 62
     5
 10
2438.173533
 20
813.517910
 11
2445.938104
 21
842.495685
  0
LINE
  8
CSLAYER1
  6
CONTINUOUS
 62
     5
 10
2438.173533
 20
1435.289511
 11
2430.408962
 21
1406.311737
  0
LINE
  8
CSLAYER1
  6
CONTINUOUS
 62
     5
 10
2438.173533
 20
1435.289511
 11
2445.938104
 21
1406.311737
  0
ENDBLK
  8
0
  0
BLOCK
  8
CSLAYER1
  2
*D0002
 70
    65
 10
0.0
 20
0.0
 30
0.0
  0
TEXT
  8
CSLAYER1
 62
     3
 10
1783.173462
 20
1545.289307
 40
40.000000
 41
0.843750
  1
800
 50
0.000000
 51
0.000000
  7
EASYDRAW_FONT
 72
     5
 11
1873.173462
 21
1545.289307
  0
LINE
  8
CSLAYER1
  6
CONTINUOUS
 62
     5
 10
1428.173533
 20
1445.289511
 11
1428.173533
 21
1545.289511
  0
LINE
  8
CSLAYER1
  6
CONTINUOUS
 62
     5
 10
2228.173533
 20
1445.289511
 11
2228.173533
 21
1545.289511
  0
LINE
  8
CSLAYER1
  6
CONTINUOUS
 62
     5
 10
1428.173533
 20
1535.289511
 11
2228.173533
 21
1535.289511
  0
LINE
  8
CSLAYER1
  6
CONTINUOUS
 62
     5
 10
1428.173533
 20
1535.289511
 11
1457.151308
 21
1543.054083
  0
LINE
  8
CSLAYER1
  6
CONTINUOUS
 62
     5
 10
1428.173533
 20
1535.289511
 11
1457.151308
 21
1527.524940
  0
LINE
  8
CSLAYER1
  6
CONTINUOUS
 62
     5
 10
2228.173533
 20
1535.289511
 11
2199.195758
 21
1543.054083
  0
LINE
  8
CSLAYER1
  6
CONTINUOUS
 62
     5
 10
2228.173533
 20
1535.289511
 11
2199.195758
 21
1527.524940
  0
ENDBLK
  8
0
  0
BLOCK
  8
CSLAYER1
  2
*D0003
 70
    65
 10
0.0
 20
0.0
 30
0.0
  0
TEXT
  8
CSLAYER1
 62
     3
 10
1228.632202
 20
1260.266235
 40
40.000000
 41
0.794118
  1
MAX 27
 50
0.000000
 51
0.000000
  7
EASYDRAW_FONT
 72
     5
 11
1408.632202
 21
1260.266235
  0
LINE
  8
CSLAYER1
  6
CONTINUOUS
 62
     5
 10
1400.737830
 20
923.517910
 11
1400.737830
 21
1246.795542
  0
LINE
  8
CSLAYER1
  6
CONTINUOUS
 62
     5
 10
1428.173533
 20
1390.289511
 11
1428.173533
 21
1226.795542
  0
LINE
  8
CSLAYER1
  6
CONTINUOUS
 62
     5
 10
1400.737830
 20
1236.795542
 11
1356.905705
 21
1236.795542
  0
LINE
  8
CSLAYER1
  6
CONTINUOUS
 62
     5
 10
1400.737830
 20
1236.795542
 11
1371.760055
 21
1244.560113
  0
LINE
  8
CSLAYER1
  6
CONTINUOUS
 62
     5
 10
1400.737830
 20
1236.795542
 11
1371.760055
 21
1229.030971
  0
LINE
  8
CSLAYER1
  6
CONTINUOUS
 62
     5
 10
1428.173533
 20
1236.795542
 11
1478.173533
 21
1236.795542
  0
LINE
  8
CSLAYER1
  6
CONTINUOUS
 62
     5
 10
1428.173533
 20
1236.795542
 11
1457.151308
 21
1244.560113
  0
LINE
  8
CSLAYER1
  6
CONTINUOUS
 62
     5
 10
1428.173533
 20
1236.795542
 11
1457.151308
 21
1229.030971
  0
LINE
  8
CSLAYER1
  6
CONTINUOUS
 62
     5
 10
1400.737830
 20
1236.795542
 11
1428.173533
 21
1236.795542
  0
ENDBLK
  8
0
  0
BLOCK
  8
CSLAYER1
  2
EASYDRAWDIM0000
 70
   64
 10
0.0
 20
0.0
 30
0.0
  0
TEXT
  8
CSLAYER1
 62
     3
 10
1093.593628
 20
1170.057007
 40
40.000000
 41
0.787500
  1
油圧シリンダー
 50
0.000000
 51
0.000000
  7
EASYDRAW_FONT
 72
     5
 11
1303.593628
 21
1170.057007
  0
LINE
  8
CSLAYER1
  6
CONTINUOUS
 62
     5
 10
1304.558440
 20
1160.057063
 11
1083.593698
 21
1160.057063
  0
ENDBLK
  8
0
  0
BLOCK
  8
CSLAYER1
  2
EASYDRAWDIM0001
 70
   64
 10
0.0
 20
0.0
 30
0.0
  0
TEXT
  8
CSLAYER1
 62
     3
 10
1105.840454
 20
968.057922
 40
40.000000
 41
0.803571
  1
高圧ホース
 50
0.000000
 51
0.000000
  7
EASYDRAW_FONT
 72
     5
 11
1255.840454
 21
968.057922
  0
LINE
  8
CSLAYER1
  6
CONTINUOUS
 62
     5
 10
1322.386095
 20
839.226503
 11
1255.840426
 21
958.058054
  0
LINE
  8
CSLAYER1
  6
CONTINUOUS
 62
     5
 10
1322.386095
 20
839.226503
 11
1301.452821
 21
860.715990
  0
LINE
  8
CSLAYER1
  6
CONTINUOUS
 62
     5
 10
1322.386095
 20
839.226503
 11
1315.002092
 21
868.303581
  0
LINE
  8
CSLAYER1
  6
CONTINUOUS
 62
     5
 10
1255.840426
 20
958.058054
 11
1095.840426
 21
958.058054
  0
ENDBLK
  8
0
  0
BLOCK
  8
CSLAYER1
  2
*D0004
 70
    65
 10
0.0
 20
0.0
 30
0.0
  0
TEXT
  8
CSLAYER1
 62
     3
 10
1754.387817
 20
613.517761
 40
40.000000
 41
0.843750
  1
803
 50
0.000000
 51
0.000000
  7
EASYDRAW_FONT
 72
     5
 11
1844.387817
 21
613.517761
  0
LINE
  8
CSLAYER1
  6
CONTINUOUS
 62
     5
 10
1398.037830
 20
803.517910
 11
1398.037830
 21
593.517910
  0
LINE
  8
CSLAYER1
  6
CONTINUOUS
 62
     5
 10
2200.737830
 20
803.517910
 11
2200.737830
 21
593.517910
  0
LINE
  8
CSLAYER1
  6
CONTINUOUS
 62
     5
 10
1398.037830
 20
603.517910
 11
2200.737830
 21
603.517910
  0
LINE
  8
CSLAYER1
  6
CONTINUOUS
 62
     5
 10
1398.037830
 20
603.517910
 11
1427.015605
 21
611.282482
  0
LINE
  8
CSLAYER1
  6
CONTINUOUS
 62
     5
 10
1398.037830
 20
603.517910
 11
1427.015605
 21
595.753339
  0
LINE
  8
CSLAYER1
  6
CONTINUOUS
 62
     5
 10
2200.737830
 20
603.517910
 11
2171.760055
 21
611.282482
  0
LINE
  8
CSLAYER1
  6
CONTINUOUS
 62
     5
 10
2200.737830
 20
603.517910
 11
2171.760055
 21
595.753339
  0
ENDBLK
  8
0
  0
BLOCK
  8
CSLAYER1
  2
*D0005
 70
    65
 10
0.0
 20
0.0
 30
0.0
  0
TEXT
  8
CSLAYER1
 62
     3
 10
2518.173828
 20
818.517822
 40
40.000000
 41
0.843750
  1
100
 50
90.000000
 51
0.000000
  7
EASYDRAW_FONT
 72
     5
 11
2518.173828
 21
908.517822
  0
LINE
  8
CSLAYER1
  6
CONTINUOUS
 62
     5
 10
2612.103316
 20
913.517910
 11
2518.173533
 21
913.517910
  0
LINE
  8
CSLAYER1
  6
CONTINUOUS
 62
     5
 10
2528.173533
 20
813.517910
 11
2528.173533
 21
913.517910
  0
LINE
  8
CSLAYER1
  6
CONTINUOUS
 62
     5
 10
2528.173533
 20
813.517910
 11
2520.408962
 21
842.495685
  0
LINE
  8
CSLAYER1
  6
CONTINUOUS
 62
     5
 10
2528.173533
 20
813.517910
 11
2535.938104
 21
842.495685
  0
LINE
  8
CSLAYER1
  6
CONTINUOUS
 62
     5
 10
2528.173533
 20
913.517910
 11
2520.408962
 21
884.540136
  0
LINE
  8
CSLAYER1
  6
CONTINUOUS
 62
     5
 10
2528.173533
 20
913.517910
 11
2535.938104
 21
884.540136
  0
ENDBLK
  8
0
  0
BLOCK
  8
CSLAYER1
  2
*D0006
 70
    65
 10
0.0
 20
0.0
 30
0.0
  0
TEXT
  8
CSLAYER1
 62
     3
 10
1099.469604
 20
822.382813
 40
40.000000
 41
1.125000
  1
6
 50
90.000000
 51
0.000000
  7
EASYDRAW_FONT
 72
     5
 11
1099.469604
 21
852.382813
  0
LINE
  8
CSLAYER1
  6
CONTINUOUS
 62
     5
 10
990.216359
 20
813.517910
 11
1056.602956
 21
813.517910
  0
LINE
  8
CSLAYER1
  6
CONTINUOUS
 62
     5
 10
990.216359
 20
819.517910
 11
1056.602956
 21
819.517910
  0
LINE
  8
CSLAYER1
  6
CONTINUOUS
 62
     5
 10
1046.602956
 20
813.517910
 11
1046.602956
 21
763.517910
  0
LINE
  8
CSLAYER1
  6
CONTINUOUS
 62
     5
 10
1046.602956
 20
813.517910
 11
1038.838384
 21
784.540136
  0
LINE
  8
CSLAYER1
  6
CONTINUOUS
 62
     5
 10
1046.602956
 20
813.517910
 11
1054.367527
 21
784.540136
  0
LINE
  8
CSLAYER1
  6
CONTINUOUS
 62
     5
 10
1046.602956
 20
819.517910
 11
1046.602956
 21
853.616873
  0
LINE
  8
CSLAYER1
  6
CONTINUOUS
 62
     5
 10
1046.602956
 20
819.517910
 11
1038.838384
 21
848.495685
  0
LINE
  8
CSLAYER1
  6
CONTINUOUS
 62
     5
 10
1046.602956
 20
819.517910
 11
1054.367527
 21
848.495685
  0
LINE
  8
CSLAYER1
  6
CONTINUOUS
 62
     5
 10
1046.602956
 20
813.517910
 11
1046.602956
 21
819.517910
  0
ENDBLK
  8
0
  0
BLOCK
  8
CSLAYER1
  2
EASYDRAWDIM0002
 70
   64
 10
0.0
 20
0.0
 30
0.0
  0
TEXT
  8
CSLAYER1
 62
     3
 10
1353.770386
 20
1895.963966
 40
33.155758
 41
0.767879
  1
穴ヒﾟッチ
 50
90.000000
 51
0.000000
  7
EASYDRAW_FONT
 72
     5
 11
1353.770386
 21
2014.775536
  0
ENDBLK
  8
0
  0
BLOCK
  8
CSLAYER1
  2
EASYDRAWDIM0003
 70
   64
 10
0.0
 20
0.0
 30
0.0
  0
TEXT
  8
CSLAYER1
 62
     3
 10
1521.941650
 20
1738.063965
 40
40.000000
 41
0.771429
  1
2-%%c13(アンカー穴)
 50
0.000000
 51
0.000000
  7
EASYDRAW_FONT
 72
     5
 11
1881.941650
 21
1738.063965
  0
LINE
  8
CSLAYER1
  6
CONTINUOUS
 62
     5
 10
1517.600448
 20
1728.064190
 11
1891.941701
 21
1728.064190
  0
ENDBLK
  8
0
  0
BLOCK
  8
CSLAYER1
  2
*D0007
 70
    65
 10
0.0
 20
0.0
 30
0.0
  0
TEXT
  8
CSLAYER1
 62
     3
 10
2338.173584
 20
1953.064087
 40
40.000000
 41
0.843750
  1
250
 50
90.000000
 51
0.000000
  7
EASYDRAW_FONT
 72
     5
 11
2338.173584
 21
2043.064087
  0
LINE
  8
CSLAYER1
  6
CONTINUOUS
 62
     5
 10
2238.173533
 20
1873.064190
 11
2358.173533
 21
1873.064190
  0
LINE
  8
CSLAYER1
  6
CONTINUOUS
 62
     5
 10
2238.173533
 20
2123.064190
 11
2358.173533
 21
2123.064190
  0
LINE
  8
CSLAYER1
  6
CONTINUOUS
 62
     5
 10
2348.173533
 20
1873.064190
 11
2348.173533
 21
2123.064190
  0
LINE
  8
CSLAYER1
  6
CONTINUOUS
 62
     5
 10
2348.173533
 20
1873.064190
 11
2340.408962
 21
1902.041965
  0
LINE
  8
CSLAYER1
  6
CONTINUOUS
 62
     5
 10
2348.173533
 20
1873.064190
 11
2355.938104
 21
1902.041965
  0
LINE
  8
CSLAYER1
  6
CONTINUOUS
 62
     5
 10
2348.173533
 20
2123.064190
 11
2340.408962
 21
2094.086416
  0
LINE
  8
CSLAYER1
  6
CONTINUOUS
 62
     5
 10
2348.173533
 20
2123.064190
 11
2355.938104
 21
2094.086416
  0
ENDBLK
  8
0
  0
BLOCK
  8
CSLAYER1
  2
*D0008
 70
    65
 10
0.0
 20
0.0
 30
0.0
  0
TEXT
  8
CSLAYER1
 62
     3
 10
1304.531616
 20
1927.511353
 40
40.000000
 41
0.843750
  1
250
 50
90.000000
 51
0.000000
  7
EASYDRAW_FONT
 72
     5
 11
1304.531616
 21
2017.511353
  0
LINE
  8
CSLAYER1
  6
CONTINUOUS
 62
     5
 10
1401.775029
 20
1873.064190
 11
1302.783769
 21
1873.064190
  0
LINE
  8
CSLAYER1
  6
CONTINUOUS
 62
     5
 10
1401.775029
 20
2123.064190
 11
1302.783769
 21
2123.064190
  0
LINE
  8
CSLAYER1
  6
CONTINUOUS
 62
     5
 10
1312.783769
 20
1873.064190
 11
1312.783769
 21
2123.064190
  0
LINE
  8
CSLAYER1
  6
CONTINUOUS
 62
     5
 10
1312.783769
 20
1873.064190
 11
1305.019198
 21
1902.041965
  0
LINE
  8
CSLAYER1
  6
CONTINUOUS
 62
     5
 10
1312.783769
 20
1873.064190
 11
1320.548341
 21
1902.041965
  0
LINE
  8
CSLAYER1
  6
CONTINUOUS
 62
     5
 10
1312.783769
 20
2123.064190
 11
1305.019198
 21
2094.086416
  0
LINE
  8
CSLAYER1
  6
CONTINUOUS
 62
     5
 10
1312.783769
 20
2123.064190
 11
1320.548341
 21
2094.086416
  0
ENDBLK
  8
0
  0
BLOCK
  8
CSLAYER1
  2
*D0009
 70
    65
 10
0.0
 20
0.0
 30
0.0
  0
TEXT
  8
CSLAYER1
 62
     3
 10
1408.554077
 20
632.723083
 40
40.000000
 41
0.900000
  1
25
 50
0.000000
 51
0.000000
  7
EASYDRAW_FONT
 72
     5
 11
1468.554077
 21
632.723083
  0
LINE
  8
CSLAYER1
  6
CONTINUOUS
 62
     5
 10
1398.037830
 20
803.517910
 11
1398.037830
 21
683.517910
  0
LINE
  8
CSLAYER1
  6
CONTINUOUS
 62
     5
 10
1423.037830
 20
803.517910
 11
1423.037830
 21
683.517910
  0
LINE
  8
CSLAYER1
  6
CONTINUOUS
 62
     5
 10
1398.037830
 20
693.517910
 11
1423.037830
 21
693.517910
  0
LINE
  8
CSLAYER1
  6
CONTINUOUS
 62
     5
 10
1348.037830
 20
693.517910
 11
1398.037830
 21
693.517910
  0
LINE
  8
CSLAYER1
  6
CONTINUOUS
 62
     5
 10
1398.037830
 20
693.517910
 11
1369.060055
 21
701.282482
  0
LINE
  8
CSLAYER1
  6
CONTINUOUS
 62
     5
 10
1398.037830
 20
693.517910
 11
1369.060055
 21
685.753339
  0
LINE
  8
CSLAYER1
  6
CONTINUOUS
 62
     5
 10
1423.037830
 20
693.517910
 11
1473.037830
 21
693.517910
  0
LINE
  8
CSLAYER1
  6
CONTINUOUS
 62
     5
 10
1423.037830
 20
693.517910
 11
1452.015605
 21
701.282482
  0
LINE
  8
CSLAYER1
  6
CONTINUOUS
 62
     5
 10
1423.037830
 20
693.517910
 11
1452.015605
 21
685.753339
  0
ENDBLK
  8
0
  0
BLOCK
  8
CSLAYER1
  2
*D0010
 70
    65
 10
0.0
 20
0.0
 30
0.0
  0
TEXT
  8
CSLAYER1
 62
     3
 10
785.216187
 20
611.517883
 40
40.000000
 41
0.843750
  1
300
 50
0.000000
 51
0.000000
  7
EASYDRAW_FONT
 72
     5
 11
875.216187
 21
611.517883
  0
LINE
  8
CSLAYER1
  6
CONTINUOUS
 62
     5
 10
680.216359
 20
805.517910
 11
680.216359
 21
595.517910
  0
LINE
  8
CSLAYER1
  6
CONTINUOUS
 62
     5
 10
980.216359
 20
805.517910
 11
980.216359
 21
595.517910
  0
LINE
  8
CSLAYER1
  6
CONTINUOUS
 62
     5
 10
680.216359
 20
603.517910
 11
980.216359
 21
603.517910
  0
LINE
  8
CSLAYER1
  6
CONTINUOUS
 62
     5
 10
680.216359
 20
603.517910
 11
709.194134
 21
611.282482
  0
LINE
  8
CSLAYER1
  6
CONTINUOUS
 62
     5
 10
680.216359
 20
603.517910
 11
709.194134
 21
595.753339
  0
LINE
  8
CSLAYER1
  6
CONTINUOUS
 62
     5
 10
980.216359
 20
603.517910
 11
951.238584
 21
611.282482
  0
LINE
  8
CSLAYER1
  6
CONTINUOUS
 62
     5
 10
980.216359
 20
603.517910
 11
951.238584
 21
595.753339
  0
ENDBLK
  8
0
  0
BLOCK
  8
CSLAYER1
  2
*D0011
 70
    65
 10
0.0
 20
0.0
 30
0.0
  0
TEXT
  8
CSLAYER1
 62
     3
 10
785.216187
 20
701.517822
 40
40.000000
 41
0.843750
  1
250
 50
0.000000
 51
0.000000
  7
EASYDRAW_FONT
 72
     5
 11
875.216187
 21
701.517822
  0
LINE
  8
CSLAYER1
  6
CONTINUOUS
 62
     5
 10
705.216359
 20
805.517910
 11
705.216359
 21
685.517910
  0
LINE
  8
CSLAYER1
  6
CONTINUOUS
 62
     5
 10
955.216359
 20
805.517910
 11
955.216359
 21
685.517910
  0
LINE
  8
CSLAYER1
  6
CONTINUOUS
 62
     5
 10
705.216359
 20
693.517910
 11
955.216359
 21
693.517910
  0
LINE
  8
CSLAYER1
  6
CONTINUOUS
 62
     5
 10
705.216359
 20
693.517910
 11
734.194134
 21
701.282482
  0
LINE
  8
CSLAYER1
  6
CONTINUOUS
 62
     5
 10
705.216359
 20
693.517910
 11
734.194134
 21
685.753339
  0
LINE
  8
CSLAYER1
  6
CONTINUOUS
 62
     5
 10
955.216359
 20
693.517910
 11
926.238584
 21
701.282482
  0
LINE
  8
CSLAYER1
  6
CONTINUOUS
 62
     5
 10
955.216359
 20
693.517910
 11
926.238584
 21
685.753339
  0
ENDBLK
  8
0
  0
BLOCK
  8
CSLAYER1
  2
*D0012
 70
    65
 10
0.0
 20
0.0
 30
0.0
  0
TEXT
  8
CSLAYER1
 62
     3
 10
785.216431
 20
1545.289551
 40
40.000000
 41
0.843750
  1
250
 50
0.000000
 51
0.000000
  7
EASYDRAW_FONT
 72
     5
 11
875.216431
 21
1545.289551
  0
LINE
  8
CSLAYER1
  6
CONTINUOUS
 62
     5
 10
705.216359
 20
1445.289511
 11
705.216359
 21
1545.289511
  0
LINE
  8
CSLAYER1
  6
CONTINUOUS
 62
     5
 10
955.216359
 20
1445.289511
 11
955.216359
 21
1545.289511
  0
LINE
  8
CSLAYER1
  6
CONTINUOUS
 62
     5
 10
705.216359
 20
1535.289511
 11
955.216359
 21
1535.289511
  0
LINE
  8
CSLAYER1
  6
CONTINUOUS
 62
     5
 10
705.216359
 20
1535.289511
 11
734.194134
 21
1543.054083
  0
LINE
  8
CSLAYER1
  6
CONTINUOUS
 62
     5
 10
705.216359
 20
1535.289511
 11
734.194134
 21
1527.524940
  0
LINE
  8
CSLAYER1
  6
CONTINUOUS
 62
     5
 10
955.216359
 20
1535.289511
 11
926.238584
 21
1543.054083
  0
LINE
  8
CSLAYER1
  6
CONTINUOUS
 62
     5
 10
955.216359
 20
1535.289511
 11
926.238584
 21
1527.524940
  0
ENDBLK
  8
0
  0
BLOCK
  8
CSLAYER1
  2
EASYDRAWDIM0004
 70
   64
 10
0.0
 20
0.0
 30
0.0
  0
TEXT
  8
CSLAYER1
 62
     3
 10
261.092346
 20
2232.775879
 40
48.000000
 41
0.787500
  1
昇降切替バルブ
 50
0.000000
 51
0.000000
  7
EASYDRAW_FONT
 72
     5
 11
513.092346
 21
2232.775879
  0
LINE
  8
CSLAYER1
  6
CONTINUOUS
 62
     7
 10
612.988489
 20
2082.054222
 11
513.092689
 21
2222.775579
  0
LINE
  8
CSLAYER1
  6
CONTINUOUS
 62
     7
 10
612.988489
 20
2082.054222
 11
589.882999
 21
2101.188913
  0
LINE
  8
CSLAYER1
  6
CONTINUOUS
 62
     7
 10
612.988489
 20
2082.054222
 11
602.545893
 21
2110.178095
  0
LINE
  8
CSLAYER1
  6
CONTINUOUS
 62
     7
 10
513.092689
 20
2222.775579
 11
253.092689
 21
2222.775579
  0
ENDBLK
  8
0
  0
BLOCK
  8
CSLAYER1
  2
EASYDRAWDIM0005
 70
   64
 10
0.0
 20
0.0
 30
0.0
  0
TEXT
  8
CSLAYER1
 62
     3
 10
284.839630
 20
2143.528320
 40
48.000000
 41
0.794118
  1
ポンプペタル
 50
0.000000
 51
0.000000
  7
EASYDRAW_FONT
 72
     5
 11
500.839630
 21
2143.528320
  0
LINE
  8
CSLAYER1
  6
CONTINUOUS
 62
     7
 10
566.445333
 20
2053.713820
 11
502.791616
 21
2133.527881
  0
LINE
  8
CSLAYER1
  6
CONTINUOUS
 62
     7
 10
566.445333
 20
2053.713820
 11
542.306837
 21
2071.527662
  0
LINE
  8
CSLAYER1
  6
CONTINUOUS
 62
     7
 10
566.445333
 20
2053.713820
 11
554.447703
 21
2081.210308
  0
LINE
  8
CSLAYER1
  6
CONTINUOUS
 62
     7
 10
502.791616
 20
2133.527881
 11
272.791616
 21
2133.527881
  0
ENDBLK
  8
0
  0
BLOCK
  8
CSLAYER1
  2
EASYDRAWDIM0006
 70
   64
 10
0.0
 20
0.0
 30
0.0
  0
TEXT
  8
CSLAYER1
 62
     3
 10
639.560120
 20
2238.649414
 40
48.000000
 41
0.787500
  1
高圧ホース２m
 50
0.000000
 51
0.000000
  7
EASYDRAW_FONT
 72
     5
 11
891.560120
 21
2238.649414
  0
LINE
  8
CSLAYER1
  6
CONTINUOUS
 62
     7
 10
966.876286
 20
2098.803912
 11
899.611254
 21
2228.649203
  0
LINE
  8
CSLAYER1
  6
CONTINUOUS
 62
     7
 10
966.876286
 20
2098.803912
 11
946.652645
 21
2120.962530
  0
LINE
  8
CSLAYER1
  6
CONTINUOUS
 62
     7
 10
966.876286
 20
2098.803912
 11
960.441408
 21
2128.105659
  0
LINE
  8
CSLAYER1
  6
CONTINUOUS
 62
     7
 10
899.611254
 20
2228.649203
 11
629.611254
 21
2228.649203
  0
ENDBLK
  8
0
  0
BLOCK
  8
CSLAYER1
  2
EASYDRAWDIM0007
 70
   64
 10
0.0
 20
0.0
 30
0.0
  0
TEXT
  8
CSLAYER1
 62
     3
 10
1063.069458
 20
705.069580
 40
40.000000
 41
0.803571
  1
2-φ13
 50
0.000000
 51
0.000000
  7
EASYDRAW_FONT
 72
     5
 11
1213.069458
 21
705.069580
  0
ENDBLK
  8
0
  0
BLOCK
  8
CSLAYER1
  2
*D0013
 70
    65
 10
0.0
 20
0.0
 30
0.0
  0
LINE
  8
CSLAYER1
  6
CONTINUOUS
 62
     5
 10
2210.737830
 20
813.517910
 11
2358.173533
 21
813.517910
  0
LINE
  8
CSLAYER1
  6
CONTINUOUS
 62
     5
 10
2210.737830
 20
913.517910
 11
2358.173533
 21
913.517910
  0
LINE
  8
CSLAYER1
  6
CONTINUOUS
 62
     5
 10
2348.173533
 20
813.517910
 11
2348.173533
 21
913.517910
  0
LINE
  8
CSLAYER1
  6
CONTINUOUS
 62
     5
 10
2348.173533
 20
813.517910
 11
2340.408962
 21
842.495685
  0
LINE
  8
CSLAYER1
  6
CONTINUOUS
 62
     5
 10
2348.173533
 20
813.517910
 11
2355.938104
 21
842.495685
  0
LINE
  8
CSLAYER1
  6
CONTINUOUS
 62
     5
 10
2348.173533
 20
913.517910
 11
2340.408962
 21
884.540136
  0
LINE
  8
CSLAYER1
  6
CONTINUOUS
 62
     5
 10
2348.173533
 20
913.517910
 11
2355.938104
 21
884.540136
  0
TEXT
  8
CSLAYER1
 62
     3
 10
2338.173340
 20
818.517883
 40
40.000000
 41
0.843750
  1
100
 50
90.000000
 51
0.000000
  7
EASYDRAW_FONT
 72
     5
 11
2338.173340
 21
908.517883
  0
ENDBLK
  8
0
  0
BLOCK
  8
CSLAYER1
  2
*D0014
 70
    65
 10
0.0
 20
0.0
 30
0.0
  0
LINE
  8
CSLAYER1
  6
CONTINUOUS
 62
     5
 10
1398.037830
 20
1848.064190
 11
1398.037830
 21
1628.064190
  0
LINE
  8
CSLAYER1
  6
CONTINUOUS
 62
     5
 10
1448.037830
 20
1848.064190
 11
1448.037830
 21
1628.064190
  0
LINE
  8
CSLAYER1
  6
CONTINUOUS
 62
     5
 10
1398.037830
 20
1638.064190
 11
1448.037830
 21
1638.064190
  0
LINE
  8
CSLAYER1
  6
CONTINUOUS
 62
     5
 10
1308.407562
 20
1638.064190
 11
1398.037830
 21
1638.064190
  0
LINE
  8
CSLAYER1
  6
CONTINUOUS
 62
     5
 10
1398.037830
 20
1638.064190
 11
1369.060055
 21
1645.828762
  0
LINE
  8
CSLAYER1
  6
CONTINUOUS
 62
     5
 10
1398.037830
 20
1638.064190
 11
1369.060055
 21
1630.299619
  0
LINE
  8
CSLAYER1
  6
CONTINUOUS
 62
     5
 10
1448.037830
 20
1638.064190
 11
1498.037830
 21
1638.064190
  0
LINE
  8
CSLAYER1
  6
CONTINUOUS
 62
     5
 10
1448.037830
 20
1638.064190
 11
1477.015605
 21
1645.828762
  0
LINE
  8
CSLAYER1
  6
CONTINUOUS
 62
     5
 10
1448.037830
 20
1638.064190
 11
1477.015605
 21
1630.299619
  0
TEXT
  8
CSLAYER1
 62
     3
 10
1306.853027
 20
1648.064209
 40
40.000000
 41
0.900000
  1
50
 50
0.000000
 51
0.000000
  7
EASYDRAW_FONT
 72
     5
 11
1366.853027
 21
1648.064209
  0
ENDBLK
  8
0
  0
BLOCK
  8
CSLAYER1
  2
*D0015
 70
    65
 10
0.0
 20
0.0
 30
0.0
  0
LINE
  8
CSLAYER1
  6
CONTINUOUS
 62
     5
 10
1398.037830
 20
1848.064190
 11
1398.037830
 21
1718.064190
  0
LINE
  8
CSLAYER1
  6
CONTINUOUS
 62
     5
 10
1423.037830
 20
1851.801389
 11
1423.037830
 21
1718.064190
  0
LINE
  8
CSLAYER1
  6
CONTINUOUS
 62
     5
 10
1398.037830
 20
1728.064190
 11
1423.037830
 21
1728.064190
  0
LINE
  8
CSLAYER1
  6
CONTINUOUS
 62
     5
 10
1308.037830
 20
1728.064190
 11
1398.037830
 21
1728.064190
  0
LINE
  8
CSLAYER1
  6
CONTINUOUS
 62
     5
 10
1398.037830
 20
1728.064190
 11
1369.060055
 21
1735.828762
  0
LINE
  8
CSLAYER1
  6
CONTINUOUS
 62
     5
 10
1398.037830
 20
1728.064190
 11
1369.060055
 21
1720.299619
  0
LINE
  8
CSLAYER1
  6
CONTINUOUS
 62
     5
 10
1423.037830
 20
1728.064190
 11
1473.037830
 21
1728.064190
  0
LINE
  8
CSLAYER1
  6
CONTINUOUS
 62
     5
 10
1423.037830
 20
1728.064190
 11
1452.015605
 21
1735.828762
  0
LINE
  8
CSLAYER1
  6
CONTINUOUS
 62
     5
 10
1423.037830
 20
1728.064190
 11
1452.015605
 21
1720.299619
  0
TEXT
  8
CSLAYER1
 62
     3
 10
1308.037842
 20
1738.064209
 40
40.000000
 41
0.900000
  1
25
 50
0.000000
 51
0.000000
  7
EASYDRAW_FONT
 72
     5
 11
1368.037842
 21
1738.064209
  0
ENDBLK
  8
0
  0
BLOCK
  8
CSLAYER1
  2
BLKF0000
 70
   64
 10
0.0
 20
0.0
 30
0.0
  0
LINE
  8
CSLAYER1
  6
CONTINUOUS
 62
     7
 10
1470.287689
 20
898.054086
 11
1481.689539
 21
886.829211
  0
LINE
  8
CSLAYER1
  6
CONTINUOUS
 62
     7
 10
1494.842101
 20
922.995634
 11
1506.243952
 21
911.770759
  0
LINE
  8
CSLAYER1
  6
CONTINUOUS
 62
     7
 10
1485.932050
 20
886.862394
 11
1506.277135
 21
907.528249
  0
LINE
  8
CSLAYER1
  6
CONTINUOUS
 62
     7
 10
1470.254506
 20
902.296596
 11
1490.599590
 21
922.962451
  0
ARC
  8
CSLAYER1
  6
CONTINUOUS
 62
     7
 10
1472.392353
 20
900.191933
 40
3.000000
 50
135.448133
 51
225.448133
  0
ARC
  8
CSLAYER1
  6
CONTINUOUS
 62
     7
 10
1492.737437
 20
920.857787
 40
3.000000
 50
45.448133
 51
135.448133
  0
ARC
  8
CSLAYER1
  6
CONTINUOUS
 62
     7
 10
1483.794203
 20
888.967058
 40
3.000000
 50
225.448133
 51
315.448133
  0
ARC
  8
CSLAYER1
  6
CONTINUOUS
 62
     7
 10
1504.139288
 20
909.632913
 40
3.000000
 50
-44.551867
 51
45.448133
  0
ENDBLK
  8
0
  0
BLOCK
  8
CSLAYER1
  2
BLKF0001
 70
   64
 10
0.0
 20
0.0
 30
0.0
  0
POINT
  8
CSLAYER1
 62
     7
 10
1450.473533
 20
1397.989511
  0
POINT
  8
CSLAYER1
 62
     4
 10
1921.768109
 20
1397.989511
  0
LINE
  8
CSLAYER1
  6
CENTER
 62
     5
 10
1898.610185
 20
1397.989511
 11
1940.268109
 21
1397.989511
  0
LINE
  8
CSLAYER1
  6
CENTER
 62
     5
 10
1436.420934
 20
1397.989511
 11
1465.699627
 21
1397.989511
  0
LINE
  8
CSLAYER1
  6
CONTINUOUS
 62
     3
 10
2228.173533
 20
1435.289511
 11
2228.173533
 21
1400.289511
  0
ARC
  8
CSLAYER1
  6
CONTINUOUS
 62
     3
 10
1450.473533
 20
1397.989511
 40
9.500000
 50
-194.010828
 51
14.010828
  0
LINE
  8
CSLAYER1
  6
CONTINUOUS
 62
     3
 10
1440.973533
 20
1400.289511
 11
1440.973533
 21
1392.504684
  0
LINE
  8
CSLAYER1
  6
CONTINUOUS
 62
     3
 10
1440.973533
 20
1392.504684
 11
1450.473533
 21
1387.019856
  0
LINE
  8
CSLAYER1
  6
CONTINUOUS
 62
     3
 10
1450.473533
 20
1387.019856
 11
1459.973533
 21
1392.504684
  0
LINE
  8
CSLAYER1
  6
CONTINUOUS
 62
     3
 10
1459.973533
 20
1392.504684
 11
1459.973533
 21
1400.289511
  0
POINT
  8
CSLAYER1
 62
     3
 10
1450.473533
 20
1397.989511
  0
POINT
  8
CSLAYER1
 62
     3
 10
1450.473533
 20
1397.989511
  0
ARC
  8
CSLAYER1
  6
CONTINUOUS
 62
     3
 10
1440.473533
 20
1396.989511
 40
10.000000
 50
180.000000
 51
270.000000
  0
LINE
  8
CSLAYER1
  6
CONTINUOUS
 62
     3
 10
1440.473533
 20
1386.989511
 11
1470.473533
 21
1386.989511
  0
ARC
  8
CSLAYER1
  6
CONTINUOUS
 62
     3
 10
1470.473533
 20
1396.989511
 40
10.000000
 50
270.000000
 51
360.000000
  0
LINE
  8
CSLAYER1
  6
CONTINUOUS
 62
     3
 10
1480.473533
 20
1400.289511
 11
1480.473533
 21
1396.989511
  0
LINE
  8
CSLAYER1
  6
CONTINUOUS
 62
     3
 10
1430.473533
 20
1400.289511
 11
1430.473533
 21
1396.989511
  0
LINE
  8
CSLAYER1
  6
CONTINUOUS
 62
     3
 10
1428.173533
 20
1435.289511
 11
2228.173533
 21
1435.289511
  0
LINE
  8
CSLAYER1
  6
CONTINUOUS
 62
     3
 10
1428.173533
 20
1435.289511
 11
1428.173533
 21
1400.289511
  0
LINE
  8
CSLAYER1
  6
CONTINUOUS
 62
     3
 10
1428.173533
 20
1400.289511
 11
2228.173533
 21
1400.289511
  0
ENDBLK
  8
0
  0
BLOCK
  8
CSLAYER1
  2
BLKF0002
 70
   64
 10
0.0
 20
0.0
 30
0.0
  0
POINT
  8
CSLAYER1
 62
     5
 10
1423.037830
 20
876.217910
  0
POINT
  8
CSLAYER1
 62
     5
 10
1894.332406
 20
876.217910
  0
LINE
  8
CSLAYER1
  6
PHANTOM
 62
     5
 10
1871.174482
 20
876.217910
 11
1912.832406
 21
876.217910
  0
LINE
  8
CSLAYER1
  6
PHANTOM
 62
     5
 10
1408.985231
 20
876.217910
 11
1438.263924
 21
876.217910
  0
LINE
  8
CSLAYER1
  6
PHANTOM
 62
     5
 10
2200.737830
 20
913.517910
 11
2200.737830
 21
878.517910
  0
ARC
  8
CSLAYER1
  6
PHANTOM
 62
     5
 10
1423.037830
 20
876.217910
 40
9.500000
 50
-194.010828
 51
14.010828
  0
LINE
  8
CSLAYER1
  6
PHANTOM
 62
     5
 10
1413.537830
 20
878.517910
 11
1413.537830
 21
870.733083
  0
LINE
  8
CSLAYER1
  6
PHANTOM
 62
     5
 10
1413.537830
 20
870.733083
 11
1423.037830
 21
865.248255
  0
LINE
  8
CSLAYER1
  6
PHANTOM
 62
     5
 10
1423.037830
 20
865.248255
 11
1432.537830
 21
870.733083
  0
LINE
  8
CSLAYER1
  6
PHANTOM
 62
     5
 10
1432.537830
 20
870.733083
 11
1432.537830
 21
878.517910
  0
POINT
  8
CSLAYER1
 62
     5
 10
1423.037830
 20
876.217910
  0
POINT
  8
CSLAYER1
 62
     5
 10
1423.037830
 20
876.217910
  0
ARC
  8
CSLAYER1
  6
PHANTOM
 62
     5
 10
1413.037830
 20
875.217910
 40
10.000000
 50
180.000000
 51
270.000000
  0
LINE
  8
CSLAYER1
  6
PHANTOM
 62
     5
 10
1413.037830
 20
865.217910
 11
1443.037830
 21
865.217910
  0
ARC
  8
CSLAYER1
  6
PHANTOM
 62
     5
 10
1443.037830
 20
875.217910
 40
10.000000
 50
270.000000
 51
360.000000
  0
LINE
  8
CSLAYER1
  6
PHANTOM
 62
     5
 10
1453.037830
 20
878.517910
 11
1453.037830
 21
875.217910
  0
LINE
  8
CSLAYER1
  6
PHANTOM
 62
     5
 10
1403.037830
 20
878.517910
 11
1403.037830
 21
875.217910
  0
LINE
  8
CSLAYER1
  6
PHANTOM
 62
     5
 10
1400.737830
 20
913.517910
 11
2200.737830
 21
913.517910
  0
LINE
  8
CSLAYER1
  6
PHANTOM
 62
     5
 10
1400.737830
 20
913.517910
 11
1400.737830
 21
878.517910
  0
LINE
  8
CSLAYER1
  6
PHANTOM
 62
     5
 10
1400.737830
 20
878.517910
 11
2200.737830
 21
878.517910
  0
ENDBLK
  8
0
  0
BLOCK
  8
CSLAYER1
  2
BLKF0003
 70
   64
 10
0.0
 20
0.0
 30
0.0
  0
LINE
  8
CSLAYER1
  6
DASHED
 62
     5
 10
1400.737830
 20
1898.064190
 11
2228.173533
 21
1898.064190
  0
LINE
  8
CSLAYER1
  6
DASHED
 62
     5
 10
1448.037830
 20
1873.064190
 11
1448.037830
 21
1898.064190
  0
ARC
  8
CSLAYER1
  6
CONTINUOUS
 62
     5
 10
1423.037830
 20
1873.064190
 40
6.500000
 50
62.740267
 51
113.228660
  0
ARC
  8
CSLAYER1
  6
CONTINUOUS
 62
     5
 10
1423.037830
 20
1873.064190
 40
6.500000
 50
150.667324
 51
180.000000
  0
ARC
  8
CSLAYER1
  6
CONTINUOUS
 62
     5
 10
1423.037830
 20
1873.064190
 40
6.500000
 50
0.000000
 51
24.091742
  0
LINE
  8
CSLAYER1
  6
DASHED
 62
     5
 10
1400.737830
 20
2098.064190
 11
2228.173533
 21
2098.064190
  0
LINE
  8
CSLAYER1
  6
DASHED
 62
     5
 10
1448.037830
 20
2123.064190
 11
1448.037830
 21
2098.064190
  0
ARC
  8
CSLAYER1
  6
CONTINUOUS
 62
     5
 10
1423.037830
 20
2123.064190
 40
6.500000
 50
246.771340
 51
297.259733
  0
ARC
  8
CSLAYER1
  6
CONTINUOUS
 62
     5
 10
1423.037830
 20
2123.064190
 40
6.500000
 50
180.000000
 51
209.332676
  0
ARC
  8
CSLAYER1
  6
CONTINUOUS
 62
     5
 10
1423.037830
 20
2123.064190
 40
6.500000
 50
335.908258
 51
360.000000
  0
ENDBLK
  8
0
  0
BLOCK
  8
CSLAYER1
  2
BLKF0004
 70
   64
 10
0.0
 20
0.0
 30
0.0
  0
LINE
  8
CSLAYER1
  6
CONTINUOUS
 62
     5
 10
3490.975426
 20
1724.977675
 11
2610.975426
 21
1724.977675
  0
TEXT
  8
CSLAYER1
 62
     3
 10
3088.358643
 20
1730.627808
 40
40.000000
 41
0.832500
  1
１０Ｒ４／１３
 50
0.000000
 51
0.000000
  7
EASYDRAW_FONT
 72
     5
 11
3310.358643
 21
1730.627808
  0
ENDBLK
  8
0
  0
BLOCK
  8
CSLAYER1
  2
BLKF0005
 70
   64
 10
0.0
 20
0.0
 30
0.0
  0
LINE
  8
CSLAYER1
  6
CONTINUOUS
 62
     7
 10
807.682762
 20
2054.620944
 11
821.189788
 21
2061.720047
  0
LINE
  8
CSLAYER1
  6
CONTINUOUS
 62
     7
 10
821.189788
 20
2061.720047
 11
835.724135
 21
2068.116914
  0
LINE
  8
CSLAYER1
  6
CONTINUOUS
 62
     7
 10
835.724135
 20
2068.116914
 11
851.175186
 21
2073.762859
  0
LINE
  8
CSLAYER1
  6
CONTINUOUS
 62
     7
 10
851.175186
 20
2073.762859
 11
867.425351
 21
2078.614915
  0
LINE
  8
CSLAYER1
  6
CONTINUOUS
 62
     7
 10
867.425351
 20
2078.614915
 11
884.350956
 21
2082.636153
  0
LINE
  8
CSLAYER1
  6
CONTINUOUS
 62
     7
 10
884.350956
 20
2082.636153
 11
901.823187
 21
2085.795970
  0
LINE
  8
CSLAYER1
  6
CONTINUOUS
 62
     7
 10
901.823187
 20
2085.795970
 11
919.709069
 21
2088.070318
  0
LINE
  8
CSLAYER1
  6
CONTINUOUS
 62
     7
 10
919.709069
 20
2088.070318
 11
937.872480
 21
2089.441888
  0
LINE
  8
CSLAYER1
  6
CONTINUOUS
 62
     7
 10
937.872480
 20
2089.441888
 11
956.175186
 21
2089.900240
  0
LINE
  8
CSLAYER1
  6
CONTINUOUS
 62
     7
 10
956.175186
 20
2089.900240
 11
974.477892
 21
2089.441888
  0
LINE
  8
CSLAYER1
  6
CONTINUOUS
 62
     7
 10
974.477892
 20
2089.441888
 11
992.641303
 21
2088.070318
  0
LINE
  8
CSLAYER1
  6
CONTINUOUS
 62
     7
 10
992.641303
 20
2088.070318
 11
1010.527186
 21
2085.795970
  0
LINE
  8
CSLAYER1
  6
CONTINUOUS
 62
     7
 10
1010.527186
 20
2085.795970
 11
1027.999416
 21
2082.636153
  0
LINE
  8
CSLAYER1
  6
CONTINUOUS
 62
     7
 10
1027.999416
 20
2082.636153
 11
1043.696246
 21
2078.906851
  0
LINE
  8
CSLAYER1
  6
CONTINUOUS
 62
     7
 10
798.773217
 20
2059.731249
 11
813.090664
 21
2067.256299
  0
LINE
  8
CSLAYER1
  6
CONTINUOUS
 62
     7
 10
813.090664
 20
2067.256299
 11
828.497071
 21
2074.036977
  0
LINE
  8
CSLAYER1
  6
CONTINUOUS
 62
     7
 10
828.497071
 20
2074.036977
 11
844.875186
 21
2080.021680
  0
LINE
  8
CSLAYER1
  6
CONTINUOUS
 62
     7
 10
844.875186
 20
2080.021680
 11
862.100361
 21
2085.164858
  0
LINE
  8
CSLAYER1
  6
CONTINUOUS
 62
     7
 10
862.100361
 20
2085.164858
 11
880.041502
 21
2089.427371
  0
LINE
  8
CSLAYER1
  6
CONTINUOUS
 62
     7
 10
880.041502
 20
2089.427371
 11
898.562067
 21
2092.776777
  0
LINE
  8
CSLAYER1
  6
CONTINUOUS
 62
     7
 10
898.562067
 20
2092.776777
 11
917.521102
 21
2095.187586
  0
LINE
  8
CSLAYER1
  6
CONTINUOUS
 62
     7
 10
917.521102
 20
2095.187586
 11
936.774318
 21
2096.641450
  0
LINE
  8
CSLAYER1
  6
CONTINUOUS
 62
     7
 10
936.774318
 20
2096.641450
 11
956.175186
 21
2097.127303
  0
LINE
  8
CSLAYER1
  6
CONTINUOUS
 62
     7
 10
956.175186
 20
2097.127303
 11
975.576054
 21
2096.641450
  0
LINE
  8
CSLAYER1
  6
CONTINUOUS
 62
     7
 10
975.576054
 20
2096.641450
 11
994.829270
 21
2095.187586
  0
LINE
  8
CSLAYER1
  6
CONTINUOUS
 62
     7
 10
994.829270
 20
2095.187586
 11
1013.788306
 21
2092.776777
  0
LINE
  8
CSLAYER1
  6
CONTINUOUS
 62
     7
 10
1013.788306
 20
2092.776777
 11
1032.308870
 21
2089.427371
  0
LINE
  8
CSLAYER1
  6
CONTINUOUS
 62
     7
 10
1032.308870
 20
2089.427371
 11
1043.696246
 21
2086.721922
  0
LINE
  8
CSLAYER1
  6
CONTINUOUS
 62
     7
 10
782.219467
 20
2038.696350
 11
807.817334
 21
2054.691673
  0
LINE
  8
CSLAYER1
  6
CONTINUOUS
 62
     7
 10
782.219467
 20
2049.373156
 11
798.915863
 21
2059.806222
  0
ENDBLK
  8
0
  0
BLOCK
  8
CSLAYER1
  2
BLKF0006
 70
   64
 10
0.0
 20
0.0
 30
0.0
  0
LINE
  8
CSLAYER1
  6
CONTINUOUS
 62
     7
 10
650.648854
 20
2053.662058
 11
650.876534
 21
2053.812946
  0
LINE
  8
CSLAYER1
  6
CONTINUOUS
 62
     7
 10
650.876534
 20
2053.812946
 11
651.085647
 21
2053.991842
  0
LINE
  8
CSLAYER1
  6
CONTINUOUS
 62
     7
 10
651.085647
 20
2053.991842
 11
651.274603
 21
2054.197384
  0
LINE
  8
CSLAYER1
  6
CONTINUOUS
 62
     7
 10
651.274603
 20
2054.197384
 11
651.441964
 21
2054.428007
  0
LINE
  8
CSLAYER1
  6
CONTINUOUS
 62
     7
 10
651.441964
 20
2054.428007
 11
651.586455
 21
2054.681957
  0
LINE
  8
CSLAYER1
  6
CONTINUOUS
 62
     7
 10
651.586455
 20
2054.681957
 11
651.706977
 21
2054.957301
  0
LINE
  8
CSLAYER1
  6
CONTINUOUS
 62
     7
 10
651.706977
 20
2054.957301
 11
651.802614
 21
2055.251943
  0
LINE
  8
CSLAYER1
  6
CONTINUOUS
 62
     7
 10
651.802614
 20
2055.251943
 11
651.872636
 21
2055.563641
  0
LINE
  8
CSLAYER1
  6
CONTINUOUS
 62
     7
 10
651.872636
 20
2055.563641
 11
651.916511
 21
2055.890023
  0
LINE
  8
CSLAYER1
  6
CONTINUOUS
 62
     7
 10
651.916511
 20
2055.890023
 11
651.933906
 21
2056.228605
  0
LINE
  8
CSLAYER1
  6
CONTINUOUS
 62
     7
 10
651.933906
 20
2056.228605
 11
651.924687
 21
2056.576809
  0
LINE
  8
CSLAYER1
  6
CONTINUOUS
 62
     7
 10
651.924687
 20
2056.576809
 11
651.888926
 21
2056.931987
  0
LINE
  8
CSLAYER1
  6
CONTINUOUS
 62
     7
 10
651.888926
 20
2056.931987
 11
651.826893
 21
2057.291434
  0
LINE
  8
CSLAYER1
  6
CONTINUOUS
 62
     7
 10
651.826893
 20
2057.291434
 11
651.739062
 21
2057.652416
  0
LINE
  8
CSLAYER1
  6
CONTINUOUS
 62
     7
 10
651.739062
 20
2057.652416
 11
651.626100
 21
2058.012184
  0
LINE
  8
CSLAYER1
  6
CONTINUOUS
 62
     7
 10
651.626100
 20
2058.012184
 11
651.488868
 21
2058.368001
  0
LINE
  8
CSLAYER1
  6
CONTINUOUS
 62
     7
 10
651.488868
 20
2058.368001
 11
651.328410
 21
2058.717159
  0
LINE
  8
CSLAYER1
  6
CONTINUOUS
 62
     7
 10
651.328410
 20
2058.717159
 11
651.145946
 21
2059.057001
  0
LINE
  8
CSLAYER1
  6
CONTINUOUS
 62
     7
 10
651.145946
 20
2059.057001
 11
650.942867
 21
2059.384939
  0
LINE
  8
CSLAYER1
  6
CONTINUOUS
 62
     7
 10
650.942867
 20
2059.384939
 11
650.720716
 21
2059.698479
  0
LINE
  8
CSLAYER1
  6
CONTINUOUS
 62
     7
 10
650.720716
 20
2059.698479
 11
650.481185
 21
2059.995235
  0
LINE
  8
CSLAYER1
  6
CONTINUOUS
 62
     7
 10
650.481185
 20
2059.995235
 11
650.226098
 21
2060.272946
  0
LINE
  8
CSLAYER1
  6
CONTINUOUS
 62
     7
 10
650.226098
 20
2060.272946
 11
649.957394
 21
2060.529501
  0
LINE
  8
CSLAYER1
  6
CONTINUOUS
 62
     7
 10
649.957394
 20
2060.529501
 11
649.677120
 21
2060.762947
  0
LINE
  8
CSLAYER1
  6
CONTINUOUS
 62
     7
 10
649.677120
 20
2060.762947
 11
649.387408
 21
2060.971506
  0
LINE
  8
CSLAYER1
  6
CONTINUOUS
 62
     7
 10
649.387408
 20
2060.971506
 11
649.090463
 21
2061.153592
  0
LINE
  8
CSLAYER1
  6
CONTINUOUS
 62
     7
 10
649.090463
 20
2061.153592
 11
648.788546
 21
2061.307818
  0
LINE
  8
CSLAYER1
  6
CONTINUOUS
 62
     7
 10
648.788546
 20
2061.307818
 11
648.483953
 21
2061.433012
  0
LINE
  8
CSLAYER1
  6
CONTINUOUS
 62
     7
 10
648.483953
 20
2061.433012
 11
648.179004
 21
2061.528220
  0
LINE
  8
CSLAYER1
  6
CONTINUOUS
 62
     7
 10
648.179004
 20
2061.528220
 11
647.876018
 21
2061.592718
  0
LINE
  8
CSLAYER1
  6
CONTINUOUS
 62
     7
 10
647.876018
 20
2061.592718
 11
647.577302
 21
2061.626014
  0
LINE
  8
CSLAYER1
  6
CONTINUOUS
 62
     7
 10
647.577302
 20
2061.626014
 11
647.285129
 21
2061.627856
  0
LINE
  8
CSLAYER1
  6
CONTINUOUS
 62
     7
 10
647.285129
 20
2061.627856
 11
647.001723
 21
2061.598229
  0
LINE
  8
CSLAYER1
  6
CONTINUOUS
 62
     7
 10
647.001723
 20
2061.598229
 11
646.729241
 21
2061.537359
  0
LINE
  8
CSLAYER1
  6
CONTINUOUS
 62
     7
 10
646.729241
 20
2061.537359
 11
646.469756
 21
2061.445710
  0
LINE
  8
CSLAYER1
  6
CONTINUOUS
 62
     7
 10
646.469756
 20
2061.445710
 11
646.225243
 21
2061.323978
  0
ENDBLK
  8
0
  0
BLOCK
  8
CSLAYER1
  2
BLKF0007
 70
   64
 10
0.0
 20
0.0
 30
0.0
  0
LINE
  8
CSLAYER1
  6
CONTINUOUS
 62
     7
 10
643.278351
 20
2059.622589
 11
643.050672
 21
2059.471701
  0
LINE
  8
CSLAYER1
  6
CONTINUOUS
 62
     7
 10
643.050672
 20
2059.471701
 11
642.841558
 21
2059.292805
  0
LINE
  8
CSLAYER1
  6
CONTINUOUS
 62
     7
 10
642.841558
 20
2059.292805
 11
642.652602
 21
2059.087263
  0
LINE
  8
CSLAYER1
  6
CONTINUOUS
 62
     7
 10
642.652602
 20
2059.087263
 11
642.485242
 21
2058.856640
  0
LINE
  8
CSLAYER1
  6
CONTINUOUS
 62
     7
 10
642.485242
 20
2058.856640
 11
642.340751
 21
2058.602690
  0
LINE
  8
CSLAYER1
  6
CONTINUOUS
 62
     7
 10
642.340751
 20
2058.602690
 11
642.220228
 21
2058.327346
  0
LINE
  8
CSLAYER1
  6
CONTINUOUS
 62
     7
 10
642.220228
 20
2058.327346
 11
642.124592
 21
2058.032704
  0
LINE
  8
CSLAYER1
  6
CONTINUOUS
 62
     7
 10
642.124592
 20
2058.032704
 11
642.054570
 21
2057.721006
  0
LINE
  8
CSLAYER1
  6
CONTINUOUS
 62
     7
 10
642.054570
 20
2057.721006
 11
642.010694
 21
2057.394624
  0
LINE
  8
CSLAYER1
  6
CONTINUOUS
 62
     7
 10
642.010694
 20
2057.394624
 11
641.993300
 21
2057.056042
  0
LINE
  8
CSLAYER1
  6
CONTINUOUS
 62
     7
 10
641.993300
 20
2057.056042
 11
642.002518
 21
2056.707838
  0
LINE
  8
CSLAYER1
  6
CONTINUOUS
 62
     7
 10
642.002518
 20
2056.707838
 11
642.038280
 21
2056.352660
  0
LINE
  8
CSLAYER1
  6
CONTINUOUS
 62
     7
 10
642.038280
 20
2056.352660
 11
642.100312
 21
2055.993213
  0
LINE
  8
CSLAYER1
  6
CONTINUOUS
 62
     7
 10
642.100312
 20
2055.993213
 11
642.188144
 21
2055.632231
  0
LINE
  8
CSLAYER1
  6
CONTINUOUS
 62
     7
 10
642.188144
 20
2055.632231
 11
642.301105
 21
2055.272463
  0
LINE
  8
CSLAYER1
  6
CONTINUOUS
 62
     7
 10
642.301105
 20
2055.272463
 11
642.438338
 21
2054.916646
  0
LINE
  8
CSLAYER1
  6
CONTINUOUS
 62
     7
 10
642.438338
 20
2054.916646
 11
642.598796
 21
2054.567488
  0
LINE
  8
CSLAYER1
  6
CONTINUOUS
 62
     7
 10
642.598796
 20
2054.567488
 11
642.781259
 21
2054.227646
  0
LINE
  8
CSLAYER1
  6
CONTINUOUS
 62
     7
 10
642.781259
 20
2054.227646
 11
642.984339
 21
2053.899708
  0
LINE
  8
CSLAYER1
  6
CONTINUOUS
 62
     7
 10
642.984339
 20
2053.899708
 11
643.206490
 21
2053.586168
  0
LINE
  8
CSLAYER1
  6
CONTINUOUS
 62
     7
 10
643.206490
 20
2053.586168
 11
643.446020
 21
2053.289412
  0
LINE
  8
CSLAYER1
  6
CONTINUOUS
 62
     7
 10
643.446020
 20
2053.289412
 11
643.701108
 21
2053.011701
  0
LINE
  8
CSLAYER1
  6
CONTINUOUS
 62
     7
 10
643.701108
 20
2053.011701
 11
643.969811
 21
2052.755146
  0
LINE
  8
CSLAYER1
  6
CONTINUOUS
 62
     7
 10
643.969811
 20
2052.755146
 11
644.250086
 21
2052.521701
  0
LINE
  8
CSLAYER1
  6
CONTINUOUS
 62
     7
 10
644.250086
 20
2052.521701
 11
644.539797
 21
2052.313141
  0
LINE
  8
CSLAYER1
  6
CONTINUOUS
 62
     7
 10
644.539797
 20
2052.313141
 11
644.836742
 21
2052.131055
  0
LINE
  8
CSLAYER1
  6
CONTINUOUS
 62
     7
 10
644.836742
 20
2052.131055
 11
645.138660
 21
2051.976829
  0
LINE
  8
CSLAYER1
  6
CONTINUOUS
 62
     7
 10
645.138660
 20
2051.976829
 11
645.443252
 21
2051.851635
  0
LINE
  8
CSLAYER1
  6
CONTINUOUS
 62
     7
 10
645.443252
 20
2051.851635
 11
645.748202
 21
2051.756427
  0
LINE
  8
CSLAYER1
  6
CONTINUOUS
 62
     7
 10
645.748202
 20
2051.756427
 11
646.051188
 21
2051.691929
  0
LINE
  8
CSLAYER1
  6
CONTINUOUS
 62
     7
 10
646.051188
 20
2051.691929
 11
646.349904
 21
2051.658633
  0
LINE
  8
CSLAYER1
  6
CONTINUOUS
 62
     7
 10
646.349904
 20
2051.658633
 11
646.642077
 21
2051.656791
  0
LINE
  8
CSLAYER1
  6
CONTINUOUS
 62
     7
 10
646.642077
 20
2051.656791
 11
646.925483
 21
2051.686418
  0
LINE
  8
CSLAYER1
  6
CONTINUOUS
 62
     7
 10
646.925483
 20
2051.686418
 11
647.197965
 21
2051.747288
  0
LINE
  8
CSLAYER1
  6
CONTINUOUS
 62
     7
 10
647.197965
 20
2051.747288
 11
647.457450
 21
2051.838937
  0
LINE
  8
CSLAYER1
  6
CONTINUOUS
 62
     7
 10
647.457450
 20
2051.838937
 11
647.701962
 21
2051.960669
  0
LINE
  8
CSLAYER1
  6
CONTINUOUS
 62
     7
 10
647.701962
 20
2051.960669
 11
647.929642
 21
2052.111557
  0
LINE
  8
CSLAYER1
  6
CONTINUOUS
 62
     7
 10
647.929642
 20
2052.111557
 11
648.138755
 21
2052.290453
  0
LINE
  8
CSLAYER1
  6
CONTINUOUS
 62
     7
 10
648.138755
 20
2052.290453
 11
648.327711
 21
2052.495995
  0
LINE
  8
CSLAYER1
  6
CONTINUOUS
 62
     7
 10
648.327711
 20
2052.495995
 11
648.495072
 21
2052.726618
  0
LINE
  8
CSLAYER1
  6
CONTINUOUS
 62
     7
 10
648.495072
 20
2052.726618
 11
648.639563
 21
2052.980568
  0
LINE
  8
CSLAYER1
  6
CONTINUOUS
 62
     7
 10
648.639563
 20
2052.980568
 11
648.760085
 21
2053.255912
  0
LINE
  8
CSLAYER1
  6
CONTINUOUS
 62
     7
 10
648.760085
 20
2053.255912
 11
648.855722
 21
2053.550554
  0
LINE
  8
CSLAYER1
  6
CONTINUOUS
 62
     7
 10
648.855722
 20
2053.550554
 11
648.925744
 21
2053.862252
  0
LINE
  8
CSLAYER1
  6
CONTINUOUS
 62
     7
 10
648.925744
 20
2053.862252
 11
648.969619
 21
2054.188634
  0
LINE
  8
CSLAYER1
  6
CONTINUOUS
 62
     7
 10
648.969619
 20
2054.188634
 11
648.987014
 21
2054.527216
  0
LINE
  8
CSLAYER1
  6
CONTINUOUS
 62
     7
 10
648.987014
 20
2054.527216
 11
648.977795
 21
2054.875421
  0
LINE
  8
CSLAYER1
  6
CONTINUOUS
 62
     7
 10
648.977795
 20
2054.875421
 11
648.942034
 21
2055.230598
  0
LINE
  8
CSLAYER1
  6
CONTINUOUS
 62
     7
 10
648.942034
 20
2055.230598
 11
648.880001
 21
2055.590045
  0
LINE
  8
CSLAYER1
  6
CONTINUOUS
 62
     7
 10
648.880001
 20
2055.590045
 11
648.792170
 21
2055.951027
  0
LINE
  8
CSLAYER1
  6
CONTINUOUS
 62
     7
 10
648.792170
 20
2055.951027
 11
648.679208
 21
2056.310795
  0
LINE
  8
CSLAYER1
  6
CONTINUOUS
 62
     7
 10
648.679208
 20
2056.310795
 11
648.541976
 21
2056.666612
  0
LINE
  8
CSLAYER1
  6
CONTINUOUS
 62
     7
 10
648.541976
 20
2056.666612
 11
648.381518
 21
2057.015770
  0
LINE
  8
CSLAYER1
  6
CONTINUOUS
 62
     7
 10
648.381518
 20
2057.015770
 11
648.199054
 21
2057.355612
  0
LINE
  8
CSLAYER1
  6
CONTINUOUS
 62
     7
 10
648.199054
 20
2057.355612
 11
647.995975
 21
2057.683550
  0
LINE
  8
CSLAYER1
  6
CONTINUOUS
 62
     7
 10
647.995975
 20
2057.683550
 11
647.773824
 21
2057.997091
  0
LINE
  8
CSLAYER1
  6
CONTINUOUS
 62
     7
 10
647.773824
 20
2057.997091
 11
647.534293
 21
2058.293846
  0
LINE
  8
CSLAYER1
  6
CONTINUOUS
 62
     7
 10
647.534293
 20
2058.293846
 11
647.279206
 21
2058.571557
  0
LINE
  8
CSLAYER1
  6
CONTINUOUS
 62
     7
 10
647.279206
 20
2058.571557
 11
647.010502
 21
2058.828112
  0
LINE
  8
CSLAYER1
  6
CONTINUOUS
 62
     7
 10
647.010502
 20
2058.828112
 11
646.730228
 21
2059.061558
  0
LINE
  8
CSLAYER1
  6
CONTINUOUS
 62
     7
 10
646.730228
 20
2059.061558
 11
646.440516
 21
2059.270117
  0
LINE
  8
CSLAYER1
  6
CONTINUOUS
 62
     7
 10
646.440516
 20
2059.270117
 11
646.143571
 21
2059.452203
  0
LINE
  8
CSLAYER1
  6
CONTINUOUS
 62
     7
 10
646.143571
 20
2059.452203
 11
645.841654
 21
2059.606429
  0
LINE
  8
CSLAYER1
  6
CONTINUOUS
 62
     7
 10
645.841654
 20
2059.606429
 11
645.537061
 21
2059.731623
  0
LINE
  8
CSLAYER1
  6
CONTINUOUS
 62
     7
 10
645.537061
 20
2059.731623
 11
645.232112
 21
2059.826831
  0
LINE
  8
CSLAYER1
  6
CONTINUOUS
 62
     7
 10
645.232112
 20
2059.826831
 11
644.929126
 21
2059.891329
  0
LINE
  8
CSLAYER1
  6
CONTINUOUS
 62
     7
 10
644.929126
 20
2059.891329
 11
644.630410
 21
2059.924625
  0
LINE
  8
CSLAYER1
  6
CONTINUOUS
 62
     7
 10
644.630410
 20
2059.924625
 11
644.338237
 21
2059.926467
  0
LINE
  8
CSLAYER1
  6
CONTINUOUS
 62
     7
 10
644.338237
 20
2059.926467
 11
644.054831
 21
2059.896840
  0
LINE
  8
CSLAYER1
  6
CONTINUOUS
 62
     7
 10
644.054831
 20
2059.896840
 11
643.782349
 21
2059.835971
  0
LINE
  8
CSLAYER1
  6
CONTINUOUS
 62
     7
 10
643.782349
 20
2059.835971
 11
643.522864
 21
2059.744321
  0
LINE
  8
CSLAYER1
  6
CONTINUOUS
 62
     7
 10
643.522864
 20
2059.744321
 11
643.278351
 21
2059.622589
  0
ENDBLK
  8
0
  0
BLOCK
  8
CSLAYER1
  2
BLKF0008
 70
   64
 10
0.0
 20
0.0
 30
0.0
  0
LINE
  8
CSLAYER1
  6
CONTINUOUS
 62
     7
 10
651.904437
 20
2052.142750
 11
652.190170
 21
2052.387194
  0
LINE
  8
CSLAYER1
  6
CONTINUOUS
 62
     7
 10
652.190170
 20
2052.387194
 11
652.448361
 21
2052.668047
  0
LINE
  8
CSLAYER1
  6
CONTINUOUS
 62
     7
 10
652.448361
 20
2052.668047
 11
652.677043
 21
2052.983172
  0
LINE
  8
CSLAYER1
  6
CONTINUOUS
 62
     7
 10
652.677043
 20
2052.983172
 11
652.874477
 21
2053.330170
  0
LINE
  8
CSLAYER1
  6
CONTINUOUS
 62
     7
 10
652.874477
 20
2053.330170
 11
653.039159
 21
2053.706402
  0
LINE
  8
CSLAYER1
  6
CONTINUOUS
 62
     7
 10
653.039159
 20
2053.706402
 11
653.169837
 21
2054.109002
  0
LINE
  8
CSLAYER1
  6
CONTINUOUS
 62
     7
 10
653.169837
 20
2054.109002
 11
653.265516
 21
2054.534908
  0
LINE
  8
CSLAYER1
  6
CONTINUOUS
 62
     7
 10
653.265516
 20
2054.534908
 11
653.325467
 21
2054.980878
  0
LINE
  8
CSLAYER1
  6
CONTINUOUS
 62
     7
 10
653.325467
 20
2054.980878
 11
653.349235
 21
2055.443518
  0
LINE
  8
CSLAYER1
  6
CONTINUOUS
 62
     7
 10
653.349235
 20
2055.443518
 11
653.336639
 21
2055.919306
  0
LINE
  8
CSLAYER1
  6
CONTINUOUS
 62
     7
 10
653.336639
 20
2055.919306
 11
653.287774
 21
2056.404622
  0
LINE
  8
CSLAYER1
  6
CONTINUOUS
 62
     7
 10
653.287774
 20
2056.404622
 11
653.203012
 21
2056.895773
  0
LINE
  8
CSLAYER1
  6
CONTINUOUS
 62
     7
 10
653.203012
 20
2056.895773
 11
653.082999
 21
2057.389020
  0
LINE
  8
CSLAYER1
  6
CONTINUOUS
 62
     7
 10
653.082999
 20
2057.389020
 11
652.928648
 21
2057.880609
  0
LINE
  8
CSLAYER1
  6
CONTINUOUS
 62
     7
 10
652.928648
 20
2057.880609
 11
652.741133
 21
2058.366799
  0
LINE
  8
CSLAYER1
  6
CONTINUOUS
 62
     7
 10
652.741133
 20
2058.366799
 11
652.521882
 21
2058.843891
  0
LINE
  8
CSLAYER1
  6
CONTINUOUS
 62
     7
 10
652.521882
 20
2058.843891
 11
652.272563
 21
2059.308252
  0
LINE
  8
CSLAYER1
  6
CONTINUOUS
 62
     7
 10
652.272563
 20
2059.308252
 11
651.995074
 21
2059.756349
  0
LINE
  8
CSLAYER1
  6
CONTINUOUS
 62
     7
 10
651.995074
 20
2059.756349
 11
651.691527
 21
2060.184772
  0
LINE
  8
CSLAYER1
  6
CONTINUOUS
 62
     7
 10
651.691527
 20
2060.184772
 11
651.364231
 21
2060.590259
  0
LINE
  8
CSLAYER1
  6
CONTINUOUS
 62
     7
 10
651.364231
 20
2060.590259
 11
651.015678
 21
2060.969726
  0
LINE
  8
CSLAYER1
  6
CONTINUOUS
 62
     7
 10
651.015678
 20
2060.969726
 11
650.648520
 21
2061.320284
  0
LINE
  8
CSLAYER1
  6
CONTINUOUS
 62
     7
 10
650.648520
 20
2061.320284
 11
650.265552
 21
2061.639265
  0
LINE
  8
CSLAYER1
  6
CONTINUOUS
 62
     7
 10
650.265552
 20
2061.639265
 11
649.869688
 21
2061.924241
  0
LINE
  8
CSLAYER1
  6
CONTINUOUS
 62
     7
 10
649.869688
 20
2061.924241
 11
649.463941
 21
2062.173044
  0
LINE
  8
CSLAYER1
  6
CONTINUOUS
 62
     7
 10
649.463941
 20
2062.173044
 11
649.051400
 21
2062.383780
  0
LINE
  8
CSLAYER1
  6
CONTINUOUS
 62
     7
 10
649.051400
 20
2062.383780
 11
648.635203
 21
2062.554846
  0
LINE
  8
CSLAYER1
  6
CONTINUOUS
 62
     7
 10
648.635203
 20
2062.554846
 11
648.218518
 21
2062.684938
  0
LINE
  8
CSLAYER1
  6
CONTINUOUS
 62
     7
 10
648.218518
 20
2062.684938
 11
647.804517
 21
2062.773068
  0
LINE
  8
CSLAYER1
  6
CONTINUOUS
 62
     7
 10
647.804517
 20
2062.773068
 11
647.396349
 21
2062.818565
  0
LINE
  8
CSLAYER1
  6
CONTINUOUS
 62
     7
 10
647.396349
 20
2062.818565
 11
646.997123
 21
2062.821082
  0
LINE
  8
CSLAYER1
  6
CONTINUOUS
 62
     7
 10
646.997123
 20
2062.821082
 11
646.609876
 21
2062.780599
  0
LINE
  8
CSLAYER1
  6
CONTINUOUS
 62
     7
 10
646.609876
 20
2062.780599
 11
646.237555
 21
2062.697427
  0
LINE
  8
CSLAYER1
  6
CONTINUOUS
 62
     7
 10
646.237555
 20
2062.697427
 11
645.882993
 21
2062.572196
  0
LINE
  8
CSLAYER1
  6
CONTINUOUS
 62
     7
 10
645.882993
 20
2062.572196
 11
645.548890
 21
2062.405860
  0
LINE
  8
CSLAYER1
  6
CONTINUOUS
 62
     7
 10
645.548890
 20
2062.405860
 11
645.237788
 21
2062.199686
  0
LINE
  8
CSLAYER1
  6
CONTINUOUS
 62
     7
 10
645.237788
 20
2062.199686
 11
644.952054
 21
2061.955242
  0
LINE
  8
CSLAYER1
  6
CONTINUOUS
 62
     7
 10
644.952054
 20
2061.955242
 11
644.693864
 21
2061.674389
  0
LINE
  8
CSLAYER1
  6
CONTINUOUS
 62
     7
 10
644.693864
 20
2061.674389
 11
644.465181
 21
2061.359264
  0
LINE
  8
CSLAYER1
  6
CONTINUOUS
 62
     7
 10
644.465181
 20
2061.359264
 11
644.267748
 21
2061.012266
  0
LINE
  8
CSLAYER1
  6
CONTINUOUS
 62
     7
 10
644.267748
 20
2061.012266
 11
644.103065
 21
2060.636034
  0
LINE
  8
CSLAYER1
  6
CONTINUOUS
 62
     7
 10
644.103065
 20
2060.636034
 11
643.972387
 21
2060.233434
  0
LINE
  8
CSLAYER1
  6
CONTINUOUS
 62
     7
 10
643.972387
 20
2060.233434
 11
643.918144
 21
2059.991973
  0
LINE
  8
CSLAYER1
  6
CONTINUOUS
 62
     7
 10
647.869511
 20
2052.071708
 11
648.090825
 21
2051.958656
  0
LINE
  8
CSLAYER1
  6
CONTINUOUS
 62
     7
 10
648.090825
 20
2051.958656
 11
648.507022
 21
2051.787590
  0
LINE
  8
CSLAYER1
  6
CONTINUOUS
 62
     7
 10
648.507022
 20
2051.787590
 11
648.923706
 21
2051.657498
  0
LINE
  8
CSLAYER1
  6
CONTINUOUS
 62
     7
 10
648.923706
 20
2051.657498
 11
649.337708
 21
2051.569368
  0
LINE
  8
CSLAYER1
  6
CONTINUOUS
 62
     7
 10
649.337708
 20
2051.569368
 11
649.745875
 21
2051.523871
  0
LINE
  8
CSLAYER1
  6
CONTINUOUS
 62
     7
 10
649.745875
 20
2051.523871
 11
650.145101
 21
2051.521355
  0
LINE
  8
CSLAYER1
  6
CONTINUOUS
 62
     7
 10
650.145101
 20
2051.521355
 11
650.532349
 21
2051.561837
  0
LINE
  8
CSLAYER1
  6
CONTINUOUS
 62
     7
 10
650.532349
 20
2051.561837
 11
650.904670
 21
2051.645010
  0
LINE
  8
CSLAYER1
  6
CONTINUOUS
 62
     7
 10
650.904670
 20
2051.645010
 11
651.235557
 21
2051.761879
  0
ENDBLK
  8
0
  0
BLOCK
  8
CSLAYER1
  2
BLKF0009
 70
   64
 10
0.0
 20
0.0
 30
0.0
  0
LINE
  8
CSLAYER1
  6
CONTINUOUS
 62
     7
 10
653.336273
 20
2052.939447
 11
653.729771
 21
2053.276082
  0
LINE
  8
CSLAYER1
  6
CONTINUOUS
 62
     7
 10
653.729771
 20
2053.276082
 11
653.987961
 21
2053.556936
  0
LINE
  8
CSLAYER1
  6
CONTINUOUS
 62
     7
 10
653.987961
 20
2053.556936
 11
654.216644
 21
2053.872061
  0
LINE
  8
CSLAYER1
  6
CONTINUOUS
 62
     7
 10
654.216644
 20
2053.872061
 11
654.414077
 21
2054.219059
  0
LINE
  8
CSLAYER1
  6
CONTINUOUS
 62
     7
 10
654.414077
 20
2054.219059
 11
654.578760
 21
2054.595291
  0
LINE
  8
CSLAYER1
  6
CONTINUOUS
 62
     7
 10
654.578760
 20
2054.595291
 11
654.709438
 21
2054.997891
  0
LINE
  8
CSLAYER1
  6
CONTINUOUS
 62
     7
 10
654.709438
 20
2054.997891
 11
654.805116
 21
2055.423797
  0
LINE
  8
CSLAYER1
  6
CONTINUOUS
 62
     7
 10
654.805116
 20
2055.423797
 11
654.865068
 21
2055.869767
  0
LINE
  8
CSLAYER1
  6
CONTINUOUS
 62
     7
 10
654.865068
 20
2055.869767
 11
654.888836
 21
2056.332407
  0
LINE
  8
CSLAYER1
  6
CONTINUOUS
 62
     7
 10
654.888836
 20
2056.332407
 11
654.876240
 21
2056.808195
  0
LINE
  8
CSLAYER1
  6
CONTINUOUS
 62
     7
 10
654.876240
 20
2056.808195
 11
654.827375
 21
2057.293511
  0
LINE
  8
CSLAYER1
  6
CONTINUOUS
 62
     7
 10
654.827375
 20
2057.293511
 11
654.742613
 21
2057.784662
  0
LINE
  8
CSLAYER1
  6
CONTINUOUS
 62
     7
 10
654.742613
 20
2057.784662
 11
654.622600
 21
2058.277909
  0
LINE
  8
CSLAYER1
  6
CONTINUOUS
 62
     7
 10
654.622600
 20
2058.277909
 11
654.468249
 21
2058.769498
  0
LINE
  8
CSLAYER1
  6
CONTINUOUS
 62
     7
 10
654.468249
 20
2058.769498
 11
654.280734
 21
2059.255688
  0
LINE
  8
CSLAYER1
  6
CONTINUOUS
 62
     7
 10
654.280734
 20
2059.255688
 11
654.061483
 21
2059.732780
  0
LINE
  8
CSLAYER1
  6
CONTINUOUS
 62
     7
 10
654.061483
 20
2059.732780
 11
653.812164
 21
2060.197141
  0
LINE
  8
CSLAYER1
  6
CONTINUOUS
 62
     7
 10
653.812164
 20
2060.197141
 11
653.534675
 21
2060.645238
  0
LINE
  8
CSLAYER1
  6
CONTINUOUS
 62
     7
 10
653.534675
 20
2060.645238
 11
653.231127
 21
2061.073661
  0
LINE
  8
CSLAYER1
  6
CONTINUOUS
 62
     7
 10
653.231127
 20
2061.073661
 11
652.903831
 21
2061.479148
  0
LINE
  8
CSLAYER1
  6
CONTINUOUS
 62
     7
 10
652.903831
 20
2061.479148
 11
652.555278
 21
2061.858615
  0
LINE
  8
CSLAYER1
  6
CONTINUOUS
 62
     7
 10
652.555278
 20
2061.858615
 11
652.188121
 21
2062.209173
  0
LINE
  8
CSLAYER1
  6
CONTINUOUS
 62
     7
 10
652.188121
 20
2062.209173
 11
651.805152
 21
2062.528154
  0
LINE
  8
CSLAYER1
  6
CONTINUOUS
 62
     7
 10
651.805152
 20
2062.528154
 11
651.409289
 21
2062.813130
  0
LINE
  8
CSLAYER1
  6
CONTINUOUS
 62
     7
 10
651.409289
 20
2062.813130
 11
651.003542
 21
2063.061933
  0
LINE
  8
CSLAYER1
  6
CONTINUOUS
 62
     7
 10
651.003542
 20
2063.061933
 11
650.591000
 21
2063.272669
  0
LINE
  8
CSLAYER1
  6
CONTINUOUS
 62
     7
 10
650.591000
 20
2063.272669
 11
650.174803
 21
2063.443735
  0
LINE
  8
CSLAYER1
  6
CONTINUOUS
 62
     7
 10
650.174803
 20
2063.443735
 11
649.758119
 21
2063.573827
  0
LINE
  8
CSLAYER1
  6
CONTINUOUS
 62
     7
 10
649.758119
 20
2063.573827
 11
649.344117
 21
2063.661957
  0
LINE
  8
CSLAYER1
  6
CONTINUOUS
 62
     7
 10
649.344117
 20
2063.661957
 11
648.935950
 21
2063.707454
  0
LINE
  8
CSLAYER1
  6
CONTINUOUS
 62
     7
 10
648.935950
 20
2063.707454
 11
648.536724
 21
2063.709970
  0
LINE
  8
CSLAYER1
  6
CONTINUOUS
 62
     7
 10
648.536724
 20
2063.709970
 11
648.149476
 21
2063.669488
  0
LINE
  8
CSLAYER1
  6
CONTINUOUS
 62
     7
 10
648.149476
 20
2063.669488
 11
647.777155
 21
2063.586315
  0
LINE
  8
CSLAYER1
  6
CONTINUOUS
 62
     7
 10
647.777155
 20
2063.586315
 11
647.422594
 21
2063.461085
  0
ENDBLK
  8
0
  0
BLOCK
  8
CSLAYER1
  2
BLKF0010
 70
   64
 10
0.0
 20
0.0
 30
0.0
  0
LINE
  8
CSLAYER1
  6
CONTINUOUS
 62
     7
 10
667.266874
 20
2065.486737
 11
667.250384
 21
2065.753794
  0
LINE
  8
CSLAYER1
  6
CONTINUOUS
 62
     7
 10
667.250384
 20
2065.753794
 11
667.201041
 21
2066.018818
  0
LINE
  8
CSLAYER1
  6
CONTINUOUS
 62
     7
 10
667.201041
 20
2066.018818
 11
667.119219
 21
2066.279792
  0
LINE
  8
CSLAYER1
  6
CONTINUOUS
 62
     7
 10
667.119219
 20
2066.279792
 11
667.005542
 21
2066.534731
  0
LINE
  8
CSLAYER1
  6
CONTINUOUS
 62
     7
 10
667.005542
 20
2066.534731
 11
666.860874
 21
2066.781694
  0
LINE
  8
CSLAYER1
  6
CONTINUOUS
 62
     7
 10
666.860874
 20
2066.781694
 11
666.686317
 21
2067.018802
  0
LINE
  8
CSLAYER1
  6
CONTINUOUS
 62
     7
 10
666.686317
 20
2067.018802
 11
666.483199
 21
2067.244250
  0
LINE
  8
CSLAYER1
  6
CONTINUOUS
 62
     7
 10
666.483199
 20
2067.244250
 11
666.253066
 21
2067.456321
  0
LINE
  8
CSLAYER1
  6
CONTINUOUS
 62
     7
 10
666.253066
 20
2067.456321
 11
665.997670
 21
2067.653404
  0
LINE
  8
CSLAYER1
  6
CONTINUOUS
 62
     7
 10
665.997670
 20
2067.653404
 11
665.718954
 21
2067.833996
  0
LINE
  8
CSLAYER1
  6
CONTINUOUS
 62
     7
 10
665.718954
 20
2067.833996
 11
665.419038
 21
2067.996725
  0
LINE
  8
CSLAYER1
  6
CONTINUOUS
 62
     7
 10
665.419038
 20
2067.996725
 11
665.100207
 21
2068.140351
  0
LINE
  8
CSLAYER1
  6
CONTINUOUS
 62
     7
 10
665.100207
 20
2068.140351
 11
664.764886
 21
2068.263781
  0
LINE
  8
CSLAYER1
  6
CONTINUOUS
 62
     7
 10
664.764886
 20
2068.263781
 11
664.415628
 21
2068.366077
  0
LINE
  8
CSLAYER1
  6
CONTINUOUS
 62
     7
 10
664.415628
 20
2068.366077
 11
664.055090
 21
2068.446459
  0
LINE
  8
CSLAYER1
  6
CONTINUOUS
 62
     7
 10
664.055090
 20
2068.446459
 11
663.686016
 21
2068.504315
  0
LINE
  8
CSLAYER1
  6
CONTINUOUS
 62
     7
 10
663.686016
 20
2068.504315
 11
663.311215
 21
2068.539207
  0
LINE
  8
CSLAYER1
  6
CONTINUOUS
 62
     7
 10
663.311215
 20
2068.539207
 11
662.933541
 21
2068.550866
  0
LINE
  8
CSLAYER1
  6
CONTINUOUS
 62
     7
 10
662.933541
 20
2068.550866
 11
662.555866
 21
2068.539207
  0
LINE
  8
CSLAYER1
  6
CONTINUOUS
 62
     7
 10
662.555866
 20
2068.539207
 11
662.181065
 21
2068.504315
  0
LINE
  8
CSLAYER1
  6
CONTINUOUS
 62
     7
 10
662.181065
 20
2068.504315
 11
661.811991
 21
2068.446459
  0
LINE
  8
CSLAYER1
  6
CONTINUOUS
 62
     7
 10
661.811991
 20
2068.446459
 11
661.451453
 21
2068.366077
  0
LINE
  8
CSLAYER1
  6
CONTINUOUS
 62
     7
 10
661.451453
 20
2068.366077
 11
661.102195
 21
2068.263781
  0
LINE
  8
CSLAYER1
  6
CONTINUOUS
 62
     7
 10
661.102195
 20
2068.263781
 11
660.766874
 21
2068.140351
  0
LINE
  8
CSLAYER1
  6
CONTINUOUS
 62
     7
 10
660.766874
 20
2068.140351
 11
660.448043
 21
2067.996725
  0
LINE
  8
CSLAYER1
  6
CONTINUOUS
 62
     7
 10
660.448043
 20
2067.996725
 11
660.148128
 21
2067.833996
  0
LINE
  8
CSLAYER1
  6
CONTINUOUS
 62
     7
 10
660.148128
 20
2067.833996
 11
659.869411
 21
2067.653404
  0
LINE
  8
CSLAYER1
  6
CONTINUOUS
 62
     7
 10
659.869411
 20
2067.653404
 11
659.614015
 21
2067.456321
  0
LINE
  8
CSLAYER1
  6
CONTINUOUS
 62
     7
 10
659.614015
 20
2067.456321
 11
659.383882
 21
2067.244250
  0
LINE
  8
CSLAYER1
  6
CONTINUOUS
 62
     7
 10
659.383882
 20
2067.244250
 11
659.180764
 21
2067.018802
  0
LINE
  8
CSLAYER1
  6
CONTINUOUS
 62
     7
 10
659.180764
 20
2067.018802
 11
659.006207
 21
2066.781694
  0
LINE
  8
CSLAYER1
  6
CONTINUOUS
 62
     7
 10
659.006207
 20
2066.781694
 11
658.861539
 21
2066.534731
  0
LINE
  8
CSLAYER1
  6
CONTINUOUS
 62
     7
 10
658.861539
 20
2066.534731
 11
658.747862
 21
2066.279792
  0
LINE
  8
CSLAYER1
  6
CONTINUOUS
 62
     7
 10
658.747862
 20
2066.279792
 11
658.666040
 21
2066.018818
  0
LINE
  8
CSLAYER1
  6
CONTINUOUS
 62
     7
 10
658.666040
 20
2066.018818
 11
658.616697
 21
2065.753794
  0
LINE
  8
CSLAYER1
  6
CONTINUOUS
 62
     7
 10
658.616697
 20
2065.753794
 11
658.600207
 21
2065.486737
  0
LINE
  8
CSLAYER1
  6
CONTINUOUS
 62
     7
 10
658.600207
 20
2065.486737
 11
658.616697
 21
2065.219681
  0
LINE
  8
CSLAYER1
  6
CONTINUOUS
 62
     7
 10
658.616697
 20
2065.219681
 11
658.666040
 21
2064.954657
  0
LINE
  8
CSLAYER1
  6
CONTINUOUS
 62
     7
 10
658.666040
 20
2064.954657
 11
658.747862
 21
2064.693682
  0
LINE
  8
CSLAYER1
  6
CONTINUOUS
 62
     7
 10
658.747862
 20
2064.693682
 11
658.861539
 21
2064.438743
  0
LINE
  8
CSLAYER1
  6
CONTINUOUS
 62
     7
 10
658.861539
 20
2064.438743
 11
659.006207
 21
2064.191780
  0
LINE
  8
CSLAYER1
  6
CONTINUOUS
 62
     7
 10
659.006207
 20
2064.191780
 11
659.180764
 21
2063.954672
  0
LINE
  8
CSLAYER1
  6
CONTINUOUS
 62
     7
 10
659.180764
 20
2063.954672
 11
659.383882
 21
2063.729225
  0
LINE
  8
CSLAYER1
  6
CONTINUOUS
 62
     7
 10
659.383882
 20
2063.729225
 11
659.614015
 21
2063.517153
  0
LINE
  8
CSLAYER1
  6
CONTINUOUS
 62
     7
 10
659.614015
 20
2063.517153
 11
659.869411
 21
2063.320070
  0
LINE
  8
CSLAYER1
  6
CONTINUOUS
 62
     7
 10
659.869411
 20
2063.320070
 11
660.148128
 21
2063.139478
  0
LINE
  8
CSLAYER1
  6
CONTINUOUS
 62
     7
 10
660.148128
 20
2063.139478
 11
660.448043
 21
2062.976749
  0
LINE
  8
CSLAYER1
  6
CONTINUOUS
 62
     7
 10
660.448043
 20
2062.976749
 11
660.766874
 21
2062.833123
  0
LINE
  8
CSLAYER1
  6
CONTINUOUS
 62
     7
 10
660.766874
 20
2062.833123
 11
661.102195
 21
2062.709693
  0
LINE
  8
CSLAYER1
  6
CONTINUOUS
 62
     7
 10
661.102195
 20
2062.709693
 11
661.451453
 21
2062.607397
  0
LINE
  8
CSLAYER1
  6
CONTINUOUS
 62
     7
 10
661.451453
 20
2062.607397
 11
661.811991
 21
2062.527015
  0
LINE
  8
CSLAYER1
  6
CONTINUOUS
 62
     7
 10
661.811991
 20
2062.527015
 11
662.181065
 21
2062.469159
  0
LINE
  8
CSLAYER1
  6
CONTINUOUS
 62
     7
 10
662.181065
 20
2062.469159
 11
662.555866
 21
2062.434268
  0
LINE
  8
CSLAYER1
  6
CONTINUOUS
 62
     7
 10
662.555866
 20
2062.434268
 11
662.933541
 21
2062.422608
  0
LINE
  8
CSLAYER1
  6
CONTINUOUS
 62
     7
 10
662.933541
 20
2062.422608
 11
663.311215
 21
2062.434268
  0
LINE
  8
CSLAYER1
  6
CONTINUOUS
 62
     7
 10
663.311215
 20
2062.434268
 11
663.686016
 21
2062.469159
  0
LINE
  8
CSLAYER1
  6
CONTINUOUS
 62
     7
 10
663.686016
 20
2062.469159
 11
664.055090
 21
2062.527015
  0
LINE
  8
CSLAYER1
  6
CONTINUOUS
 62
     7
 10
664.055090
 20
2062.527015
 11
664.415628
 21
2062.607397
  0
LINE
  8
CSLAYER1
  6
CONTINUOUS
 62
     7
 10
664.415628
 20
2062.607397
 11
664.764886
 21
2062.709693
  0
LINE
  8
CSLAYER1
  6
CONTINUOUS
 62
     7
 10
664.764886
 20
2062.709693
 11
665.100207
 21
2062.833123
  0
LINE
  8
CSLAYER1
  6
CONTINUOUS
 62
     7
 10
665.100207
 20
2062.833123
 11
665.419038
 21
2062.976749
  0
LINE
  8
CSLAYER1
  6
CONTINUOUS
 62
     7
 10
665.419038
 20
2062.976749
 11
665.718954
 21
2063.139478
  0
LINE
  8
CSLAYER1
  6
CONTINUOUS
 62
     7
 10
665.718954
 20
2063.139478
 11
665.997670
 21
2063.320070
  0
LINE
  8
CSLAYER1
  6
CONTINUOUS
 62
     7
 10
665.997670
 20
2063.320070
 11
666.253066
 21
2063.517153
  0
LINE
  8
CSLAYER1
  6
CONTINUOUS
 62
     7
 10
666.253066
 20
2063.517153
 11
666.483199
 21
2063.729225
  0
LINE
  8
CSLAYER1
  6
CONTINUOUS
 62
     7
 10
666.483199
 20
2063.729225
 11
666.686317
 21
2063.954672
  0
LINE
  8
CSLAYER1
  6
CONTINUOUS
 62
     7
 10
666.686317
 20
2063.954672
 11
666.860874
 21
2064.191780
  0
LINE
  8
CSLAYER1
  6
CONTINUOUS
 62
     7
 10
666.860874
 20
2064.191780
 11
667.005542
 21
2064.438743
  0
LINE
  8
CSLAYER1
  6
CONTINUOUS
 62
     7
 10
667.005542
 20
2064.438743
 11
667.119219
 21
2064.693682
  0
LINE
  8
CSLAYER1
  6
CONTINUOUS
 62
     7
 10
667.119219
 20
2064.693682
 11
667.201041
 21
2064.954657
  0
LINE
  8
CSLAYER1
  6
CONTINUOUS
 62
     7
 10
667.201041
 20
2064.954657
 11
667.250384
 21
2065.219681
  0
LINE
  8
CSLAYER1
  6
CONTINUOUS
 62
     7
 10
667.250384
 20
2065.219681
 11
667.266874
 21
2065.486737
  0
ENDBLK
  8
0
  0
BLOCK
  8
CSLAYER1
  2
BLKF0011
 70
   64
 10
0.0
 20
0.0
 30
0.0
  0
LINE
  8
CSLAYER1
  6
CONTINUOUS
 62
     7
 10
601.476730
 20
2062.975310
 11
602.583565
 21
2063.666937
  0
LINE
  8
CSLAYER1
  6
CONTINUOUS
 62
     7
 10
602.988533
 20
2073.757239
 11
629.555974
 21
2090.358419
  0
LINE
  8
CSLAYER1
  6
CONTINUOUS
 62
     7
 10
601.023306
 20
2070.660261
 11
601.023306
 21
2065.842219
  0
LINE
  8
CSLAYER1
  6
CONTINUOUS
 62
     7
 10
601.023306
 20
2070.660261
 11
601.055270
 21
2071.080181
  0
LINE
  8
CSLAYER1
  6
CONTINUOUS
 62
     7
 10
601.055270
 20
2071.080181
 11
601.150921
 21
2071.496905
  0
LINE
  8
CSLAYER1
  6
CONTINUOUS
 62
     7
 10
601.150921
 20
2071.496905
 11
601.309529
 21
2071.907262
  0
LINE
  8
CSLAYER1
  6
CONTINUOUS
 62
     7
 10
601.309529
 20
2071.907262
 11
601.529888
 21
2072.308129
  0
LINE
  8
CSLAYER1
  6
CONTINUOUS
 62
     7
 10
601.529888
 20
2072.308129
 11
601.810320
 21
2072.696454
  0
LINE
  8
CSLAYER1
  6
CONTINUOUS
 62
     7
 10
601.810320
 20
2072.696454
 11
602.148693
 21
2073.069282
  0
LINE
  8
CSLAYER1
  6
CONTINUOUS
 62
     7
 10
602.148693
 20
2073.069282
 11
602.542429
 21
2073.423777
  0
LINE
  8
CSLAYER1
  6
CONTINUOUS
 62
     7
 10
602.542429
 20
2073.423777
 11
602.988533
 21
2073.757239
  0
LINE
  8
CSLAYER1
  6
CONTINUOUS
 62
     7
 10
615.363003
 20
2067.253391
 11
614.822722
 21
2066.969427
  0
LINE
  8
CSLAYER1
  6
CONTINUOUS
 62
     7
 10
614.822722
 20
2066.969427
 11
614.241348
 21
2066.713552
  0
LINE
  8
CSLAYER1
  6
CONTINUOUS
 62
     7
 10
614.241348
 20
2066.713552
 11
613.623306
 21
2066.487714
  0
LINE
  8
CSLAYER1
  6
CONTINUOUS
 62
     7
 10
613.623306
 20
2066.487714
 11
612.973299
 21
2066.293632
  0
LINE
  8
CSLAYER1
  6
CONTINUOUS
 62
     7
 10
612.973299
 20
2066.293632
 11
612.296275
 21
2066.132783
  0
LINE
  8
CSLAYER1
  6
CONTINUOUS
 62
     7
 10
612.296275
 20
2066.132783
 11
611.597386
 21
2066.006390
  0
LINE
  8
CSLAYER1
  6
CONTINUOUS
 62
     7
 10
611.597386
 20
2066.006390
 11
610.881951
 21
2065.915416
  0
LINE
  8
CSLAYER1
  6
CONTINUOUS
 62
     7
 10
610.881951
 20
2065.915416
 11
610.155414
 21
2065.860553
  0
LINE
  8
CSLAYER1
  6
CONTINUOUS
 62
     7
 10
610.155414
 20
2065.860553
 11
609.423306
 21
2065.842219
  0
LINE
  8
CSLAYER1
  6
CONTINUOUS
 62
     7
 10
609.423306
 20
2065.842219
 11
608.691198
 21
2065.860553
  0
LINE
  8
CSLAYER1
  6
CONTINUOUS
 62
     7
 10
608.691198
 20
2065.860553
 11
607.964661
 21
2065.915416
  0
LINE
  8
CSLAYER1
  6
CONTINUOUS
 62
     7
 10
607.964661
 20
2065.915416
 11
607.249226
 21
2066.006390
  0
LINE
  8
CSLAYER1
  6
CONTINUOUS
 62
     7
 10
607.249226
 20
2066.006390
 11
606.550337
 21
2066.132783
  0
LINE
  8
CSLAYER1
  6
CONTINUOUS
 62
     7
 10
606.550337
 20
2066.132783
 11
605.873312
 21
2066.293632
  0
LINE
  8
CSLAYER1
  6
CONTINUOUS
 62
     7
 10
605.873312
 20
2066.293632
 11
605.223306
 21
2066.487714
  0
LINE
  8
CSLAYER1
  6
CONTINUOUS
 62
     7
 10
605.223306
 20
2066.487714
 11
604.605264
 21
2066.713552
  0
LINE
  8
CSLAYER1
  6
CONTINUOUS
 62
     7
 10
604.605264
 20
2066.713552
 11
604.023890
 21
2066.969427
  0
LINE
  8
CSLAYER1
  6
CONTINUOUS
 62
     7
 10
604.023890
 20
2066.969427
 11
603.483609
 21
2067.253391
  0
LINE
  8
CSLAYER1
  6
CONTINUOUS
 62
     7
 10
603.483609
 20
2067.253391
 11
602.988533
 21
2067.563283
  0
LINE
  8
CSLAYER1
  6
CONTINUOUS
 62
     7
 10
602.988533
 20
2067.563283
 11
602.542429
 21
2067.896746
  0
LINE
  8
CSLAYER1
  6
CONTINUOUS
 62
     7
 10
602.542429
 20
2067.896746
 11
602.148693
 21
2068.251240
  0
LINE
  8
CSLAYER1
  6
CONTINUOUS
 62
     7
 10
602.148693
 20
2068.251240
 11
601.810320
 21
2068.624069
  0
LINE
  8
CSLAYER1
  6
CONTINUOUS
 62
     7
 10
601.810320
 20
2068.624069
 11
601.529888
 21
2069.012394
  0
LINE
  8
CSLAYER1
  6
CONTINUOUS
 62
     7
 10
601.529888
 20
2069.012394
 11
601.309529
 21
2069.413260
  0
LINE
  8
CSLAYER1
  6
CONTINUOUS
 62
     7
 10
601.309529
 20
2069.413260
 11
601.150921
 21
2069.823617
  0
LINE
  8
CSLAYER1
  6
CONTINUOUS
 62
     7
 10
601.150921
 20
2069.823617
 11
601.055270
 21
2070.240341
  0
LINE
  8
CSLAYER1
  6
CONTINUOUS
 62
     7
 10
601.055270
 20
2070.240341
 11
601.023306
 21
2070.660261
  0
LINE
  8
CSLAYER1
  6
CONTINUOUS
 62
     7
 10
615.858079
 20
2062.745241
 11
615.363003
 21
2062.435349
  0
LINE
  8
CSLAYER1
  6
CONTINUOUS
 62
     7
 10
615.363003
 20
2062.435349
 11
614.822722
 21
2062.151385
  0
LINE
  8
CSLAYER1
  6
CONTINUOUS
 62
     7
 10
614.822722
 20
2062.151385
 11
614.241348
 21
2061.895510
  0
LINE
  8
CSLAYER1
  6
CONTINUOUS
 62
     7
 10
614.241348
 20
2061.895510
 11
613.623306
 21
2061.669672
  0
LINE
  8
CSLAYER1
  6
CONTINUOUS
 62
     7
 10
613.623306
 20
2061.669672
 11
612.973299
 21
2061.475590
  0
LINE
  8
CSLAYER1
  6
CONTINUOUS
 62
     7
 10
612.973299
 20
2061.475590
 11
612.296275
 21
2061.314741
  0
LINE
  8
CSLAYER1
  6
CONTINUOUS
 62
     7
 10
612.296275
 20
2061.314741
 11
611.597386
 21
2061.188348
  0
LINE
  8
CSLAYER1
  6
CONTINUOUS
 62
     7
 10
611.597386
 20
2061.188348
 11
610.881951
 21
2061.097374
  0
LINE
  8
CSLAYER1
  6
CONTINUOUS
 62
     7
 10
610.881951
 20
2061.097374
 11
610.155414
 21
2061.042511
  0
LINE
  8
CSLAYER1
  6
CONTINUOUS
 62
     7
 10
610.155414
 20
2061.042511
 11
609.423306
 21
2061.024177
  0
LINE
  8
CSLAYER1
  6
CONTINUOUS
 62
     7
 10
609.423306
 20
2061.024177
 11
608.691198
 21
2061.042511
  0
LINE
  8
CSLAYER1
  6
CONTINUOUS
 62
     7
 10
608.691198
 20
2061.042511
 11
607.964661
 21
2061.097374
  0
LINE
  8
CSLAYER1
  6
CONTINUOUS
 62
     7
 10
607.964661
 20
2061.097374
 11
607.249226
 21
2061.188348
  0
LINE
  8
CSLAYER1
  6
CONTINUOUS
 62
     7
 10
607.249226
 20
2061.188348
 11
606.550337
 21
2061.314741
  0
LINE
  8
CSLAYER1
  6
CONTINUOUS
 62
     7
 10
606.550337
 20
2061.314741
 11
605.873312
 21
2061.475590
  0
LINE
  8
CSLAYER1
  6
CONTINUOUS
 62
     7
 10
605.873312
 20
2061.475590
 11
605.223306
 21
2061.669672
  0
LINE
  8
CSLAYER1
  6
CONTINUOUS
 62
     7
 10
605.223306
 20
2061.669672
 11
604.605264
 21
2061.895510
  0
LINE
  8
CSLAYER1
  6
CONTINUOUS
 62
     7
 10
604.605264
 20
2061.895510
 11
604.023890
 21
2062.151385
  0
LINE
  8
CSLAYER1
  6
CONTINUOUS
 62
     7
 10
604.023890
 20
2062.151385
 11
603.483609
 21
2062.435349
  0
LINE
  8
CSLAYER1
  6
CONTINUOUS
 62
     7
 10
603.483609
 20
2062.435349
 11
602.988533
 21
2062.745241
  0
LINE
  8
CSLAYER1
  6
CONTINUOUS
 62
     7
 10
602.988533
 20
2062.745241
 11
602.542429
 21
2063.078704
  0
LINE
  8
CSLAYER1
  6
CONTINUOUS
 62
     7
 10
602.542429
 20
2063.078704
 11
602.148693
 21
2063.433198
  0
LINE
  8
CSLAYER1
  6
CONTINUOUS
 62
     7
 10
602.148693
 20
2063.433198
 11
601.810320
 21
2063.806027
  0
LINE
  8
CSLAYER1
  6
CONTINUOUS
 62
     7
 10
601.810320
 20
2063.806027
 11
601.529888
 21
2064.194352
  0
LINE
  8
CSLAYER1
  6
CONTINUOUS
 62
     7
 10
601.529888
 20
2064.194352
 11
601.309529
 21
2064.595218
  0
LINE
  8
CSLAYER1
  6
CONTINUOUS
 62
     7
 10
601.309529
 20
2064.595218
 11
601.150921
 21
2065.005575
  0
LINE
  8
CSLAYER1
  6
CONTINUOUS
 62
     7
 10
601.150921
 20
2065.005575
 11
601.055270
 21
2065.422299
  0
LINE
  8
CSLAYER1
  6
CONTINUOUS
 62
     7
 10
601.055270
 20
2065.422299
 11
601.023306
 21
2065.842219
  0
LINE
  8
CSLAYER1
  6
CONTINUOUS
 62
     7
 10
602.855343
 20
2070.312781
 11
632.955142
 21
2089.121223
  0
LINE
  8
CSLAYER1
  6
CONTINUOUS
 62
     7
 10
605.407726
 20
2068.546455
 11
636.354310
 21
2087.884027
  0
LINE
  8
CSLAYER1
  6
CONTINUOUS
 62
     7
 10
615.363003
 20
2062.435349
 11
644.059725
 21
2080.367051
  0
LINE
  8
CSLAYER1
  6
CONTINUOUS
 62
     7
 10
615.363003
 20
2067.253391
 11
643.952925
 21
2085.118357
  0
LINE
  8
CSLAYER1
  6
CONTINUOUS
 62
     7
 10
616.750412
 20
2068.911688
 11
643.152646
 21
2085.409635
  0
LINE
  8
CSLAYER1
  6
CONTINUOUS
 62
     7
 10
609.603588
 20
2067.807088
 11
639.753478
 21
2086.646831
  0
LINE
  8
CSLAYER1
  6
CONTINUOUS
 62
     7
 10
636.092828
 20
2093.805299
 11
636.117122
 21
2094.124439
  0
LINE
  8
CSLAYER1
  6
CONTINUOUS
 62
     7
 10
636.117122
 20
2094.124439
 11
636.189816
 21
2094.441149
  0
LINE
  8
CSLAYER1
  6
CONTINUOUS
 62
     7
 10
636.189816
 20
2094.441149
 11
636.310358
 21
2094.753020
  0
LINE
  8
CSLAYER1
  6
CONTINUOUS
 62
     7
 10
636.310358
 20
2094.753020
 11
636.477831
 21
2095.057679
  0
LINE
  8
CSLAYER1
  6
CONTINUOUS
 62
     7
 10
636.477831
 20
2095.057679
 11
636.690960
 21
2095.352806
  0
LINE
  8
CSLAYER1
  6
CONTINUOUS
 62
     7
 10
636.690960
 20
2095.352806
 11
636.948122
 21
2095.636155
  0
LINE
  8
CSLAYER1
  6
CONTINUOUS
 62
     7
 10
636.948122
 20
2095.636155
 11
637.247362
 21
2095.905571
  0
LINE
  8
CSLAYER1
  6
CONTINUOUS
 62
     7
 10
637.247362
 20
2095.905571
 11
637.586401
 21
2096.159002
  0
LINE
  8
CSLAYER1
  6
CONTINUOUS
 62
     7
 10
637.586401
 20
2096.159002
 11
637.962659
 21
2096.394521
  0
LINE
  8
CSLAYER1
  6
CONTINUOUS
 62
     7
 10
637.962659
 20
2096.394521
 11
638.373272
 21
2096.610333
  0
LINE
  8
CSLAYER1
  6
CONTINUOUS
 62
     7
 10
638.373272
 20
2096.610333
 11
638.815117
 21
2096.804798
  0
LINE
  8
CSLAYER1
  6
CONTINUOUS
 62
     7
 10
638.815117
 20
2096.804798
 11
639.284828
 21
2096.976435
  0
LINE
  8
CSLAYER1
  6
CONTINUOUS
 62
     7
 10
639.284828
 20
2096.976435
 11
639.778834
 21
2097.123937
  0
LINE
  8
CSLAYER1
  6
CONTINUOUS
 62
     7
 10
639.778834
 20
2097.123937
 11
640.293372
 21
2097.246183
  0
LINE
  8
CSLAYER1
  6
CONTINUOUS
 62
     7
 10
640.293372
 20
2097.246183
 11
640.824528
 21
2097.342241
  0
LINE
  8
CSLAYER1
  6
CONTINUOUS
 62
     7
 10
640.824528
 20
2097.342241
 11
641.368259
 21
2097.411382
  0
LINE
  8
CSLAYER1
  6
CONTINUOUS
 62
     7
 10
641.368259
 20
2097.411382
 11
641.920426
 21
2097.453077
  0
LINE
  8
CSLAYER1
  6
CONTINUOUS
 62
     7
 10
641.920426
 20
2097.453077
 11
642.476828
 21
2097.467011
  0
LINE
  8
CSLAYER1
  6
CONTINUOUS
 62
     7
 10
642.476828
 20
2097.467011
 11
643.033231
 21
2097.453077
  0
LINE
  8
CSLAYER1
  6
CONTINUOUS
 62
     7
 10
643.033231
 20
2097.453077
 11
643.585398
 21
2097.411382
  0
LINE
  8
CSLAYER1
  6
CONTINUOUS
 62
     7
 10
643.585398
 20
2097.411382
 11
644.129129
 21
2097.342241
  0
LINE
  8
CSLAYER1
  6
CONTINUOUS
 62
     7
 10
644.129129
 20
2097.342241
 11
644.660285
 21
2097.246183
  0
LINE
  8
CSLAYER1
  6
CONTINUOUS
 62
     7
 10
644.660285
 20
2097.246183
 11
645.174823
 21
2097.123937
  0
LINE
  8
CSLAYER1
  6
CONTINUOUS
 62
     7
 10
645.174823
 20
2097.123937
 11
645.668828
 21
2096.976435
  0
LINE
  8
CSLAYER1
  6
CONTINUOUS
 62
     7
 10
645.668828
 20
2096.976435
 11
646.138540
 21
2096.804798
  0
LINE
  8
CSLAYER1
  6
CONTINUOUS
 62
     7
 10
646.138540
 20
2096.804798
 11
646.580385
 21
2096.610333
  0
LINE
  8
CSLAYER1
  6
CONTINUOUS
 62
     7
 10
646.580385
 20
2096.610333
 11
646.990998
 21
2096.394521
  0
LINE
  8
CSLAYER1
  6
CONTINUOUS
 62
     7
 10
646.990998
 20
2096.394521
 11
647.367256
 21
2096.159002
  0
LINE
  8
CSLAYER1
  6
CONTINUOUS
 62
     7
 10
647.367256
 20
2096.159002
 11
647.706295
 21
2095.905571
  0
LINE
  8
CSLAYER1
  6
CONTINUOUS
 62
     7
 10
647.706295
 20
2095.905571
 11
648.005535
 21
2095.636155
  0
LINE
  8
CSLAYER1
  6
CONTINUOUS
 62
     7
 10
648.005535
 20
2095.636155
 11
648.262697
 21
2095.352806
  0
LINE
  8
CSLAYER1
  6
CONTINUOUS
 62
     7
 10
648.262697
 20
2095.352806
 11
648.475826
 21
2095.057679
  0
LINE
  8
CSLAYER1
  6
CONTINUOUS
 62
     7
 10
648.475826
 20
2095.057679
 11
648.643299
 21
2094.753020
  0
LINE
  8
CSLAYER1
  6
CONTINUOUS
 62
     7
 10
648.643299
 20
2094.753020
 11
648.763841
 21
2094.441149
  0
LINE
  8
CSLAYER1
  6
CONTINUOUS
 62
     7
 10
648.763841
 20
2094.441149
 11
648.836535
 21
2094.124439
  0
LINE
  8
CSLAYER1
  6
CONTINUOUS
 62
     7
 10
648.836535
 20
2094.124439
 11
648.860828
 21
2093.805299
  0
LINE
  8
CSLAYER1
  6
CONTINUOUS
 62
     7
 10
648.860828
 20
2093.805299
 11
648.836535
 21
2093.486160
  0
LINE
  8
CSLAYER1
  6
CONTINUOUS
 62
     7
 10
648.836535
 20
2093.486160
 11
648.763841
 21
2093.169450
  0
LINE
  8
CSLAYER1
  6
CONTINUOUS
 62
     7
 10
648.763841
 20
2093.169450
 11
648.643299
 21
2092.857579
  0
LINE
  8
CSLAYER1
  6
CONTINUOUS
 62
     7
 10
648.643299
 20
2092.857579
 11
648.475826
 21
2092.552920
  0
LINE
  8
CSLAYER1
  6
CONTINUOUS
 62
     7
 10
648.475826
 20
2092.552920
 11
648.262697
 21
2092.257793
  0
LINE
  8
CSLAYER1
  6
CONTINUOUS
 62
     7
 10
648.262697
 20
2092.257793
 11
648.005535
 21
2091.974443
  0
LINE
  8
CSLAYER1
  6
CONTINUOUS
 62
     7
 10
648.005535
 20
2091.974443
 11
647.706295
 21
2091.705028
  0
LINE
  8
CSLAYER1
  6
CONTINUOUS
 62
     7
 10
647.706295
 20
2091.705028
 11
647.367256
 21
2091.451596
  0
LINE
  8
CSLAYER1
  6
CONTINUOUS
 62
     7
 10
647.367256
 20
2091.451596
 11
646.990998
 21
2091.216078
  0
LINE
  8
CSLAYER1
  6
CONTINUOUS
 62
     7
 10
646.990998
 20
2091.216078
 11
646.580385
 21
2091.000265
  0
LINE
  8
CSLAYER1
  6
CONTINUOUS
 62
     7
 10
646.580385
 20
2091.000265
 11
646.138540
 21
2090.805800
  0
LINE
  8
CSLAYER1
  6
CONTINUOUS
 62
     7
 10
646.138540
 20
2090.805800
 11
645.668828
 21
2090.634164
  0
LINE
  8
CSLAYER1
  6
CONTINUOUS
 62
     7
 10
645.668828
 20
2090.634164
 11
645.174823
 21
2090.486661
  0
LINE
  8
CSLAYER1
  6
CONTINUOUS
 62
     7
 10
645.174823
 20
2090.486661
 11
644.660285
 21
2090.364416
  0
LINE
  8
CSLAYER1
  6
CONTINUOUS
 62
     7
 10
644.660285
 20
2090.364416
 11
644.129129
 21
2090.268357
  0
LINE
  8
CSLAYER1
  6
CONTINUOUS
 62
     7
 10
644.129129
 20
2090.268357
 11
643.585398
 21
2090.199217
  0
LINE
  8
CSLAYER1
  6
CONTINUOUS
 62
     7
 10
643.585398
 20
2090.199217
 11
643.033231
 21
2090.157521
  0
LINE
  8
CSLAYER1
  6
CONTINUOUS
 62
     7
 10
643.033231
 20
2090.157521
 11
642.476828
 21
2090.143587
  0
LINE
  8
CSLAYER1
  6
CONTINUOUS
 62
     7
 10
642.476828
 20
2090.143587
 11
641.920426
 21
2090.157521
  0
LINE
  8
CSLAYER1
  6
CONTINUOUS
 62
     7
 10
641.920426
 20
2090.157521
 11
641.368259
 21
2090.199217
  0
LINE
  8
CSLAYER1
  6
CONTINUOUS
 62
     7
 10
641.368259
 20
2090.199217
 11
640.824528
 21
2090.268357
  0
LINE
  8
CSLAYER1
  6
CONTINUOUS
 62
     7
 10
640.824528
 20
2090.268357
 11
640.293372
 21
2090.364416
  0
LINE
  8
CSLAYER1
  6
CONTINUOUS
 62
     7
 10
640.293372
 20
2090.364416
 11
639.778834
 21
2090.486661
  0
LINE
  8
CSLAYER1
  6
CONTINUOUS
 62
     7
 10
639.778834
 20
2090.486661
 11
639.284828
 21
2090.634164
  0
LINE
  8
CSLAYER1
  6
CONTINUOUS
 62
     7
 10
639.284828
 20
2090.634164
 11
638.815117
 21
2090.805800
  0
LINE
  8
CSLAYER1
  6
CONTINUOUS
 62
     7
 10
638.815117
 20
2090.805800
 11
638.373272
 21
2091.000265
  0
LINE
  8
CSLAYER1
  6
CONTINUOUS
 62
     7
 10
638.373272
 20
2091.000265
 11
637.962659
 21
2091.216078
  0
LINE
  8
CSLAYER1
  6
CONTINUOUS
 62
     7
 10
637.962659
 20
2091.216078
 11
637.586401
 21
2091.451596
  0
LINE
  8
CSLAYER1
  6
CONTINUOUS
 62
     7
 10
637.586401
 20
2091.451596
 11
637.247362
 21
2091.705028
  0
LINE
  8
CSLAYER1
  6
CONTINUOUS
 62
     7
 10
637.247362
 20
2091.705028
 11
636.948122
 21
2091.974443
  0
LINE
  8
CSLAYER1
  6
CONTINUOUS
 62
     7
 10
636.948122
 20
2091.974443
 11
636.690960
 21
2092.257793
  0
LINE
  8
CSLAYER1
  6
CONTINUOUS
 62
     7
 10
636.690960
 20
2092.257793
 11
636.477831
 21
2092.552920
  0
LINE
  8
CSLAYER1
  6
CONTINUOUS
 62
     7
 10
636.477831
 20
2092.552920
 11
636.310358
 21
2092.857579
  0
LINE
  8
CSLAYER1
  6
CONTINUOUS
 62
     7
 10
636.310358
 20
2092.857579
 11
636.189816
 21
2093.169450
  0
LINE
  8
CSLAYER1
  6
CONTINUOUS
 62
     7
 10
636.189816
 20
2093.169450
 11
636.117122
 21
2093.486160
  0
LINE
  8
CSLAYER1
  6
CONTINUOUS
 62
     7
 10
636.117122
 20
2093.486160
 11
636.092828
 21
2093.805299
  0
LINE
  8
CSLAYER1
  6
CONTINUOUS
 62
     7
 10
639.116828
 20
2093.805299
 11
639.129614
 21
2093.973267
  0
LINE
  8
CSLAYER1
  6
CONTINUOUS
 62
     7
 10
639.129614
 20
2093.973267
 11
639.167874
 21
2094.139957
  0
LINE
  8
CSLAYER1
  6
CONTINUOUS
 62
     7
 10
639.167874
 20
2094.139957
 11
639.231318
 21
2094.304100
  0
LINE
  8
CSLAYER1
  6
CONTINUOUS
 62
     7
 10
639.231318
 20
2094.304100
 11
639.319461
 21
2094.464446
  0
LINE
  8
CSLAYER1
  6
CONTINUOUS
 62
     7
 10
639.319461
 20
2094.464446
 11
639.431634
 21
2094.619776
  0
LINE
  8
CSLAYER1
  6
CONTINUOUS
 62
     7
 10
639.431634
 20
2094.619776
 11
639.566983
 21
2094.768908
  0
LINE
  8
CSLAYER1
  6
CONTINUOUS
 62
     7
 10
639.566983
 20
2094.768908
 11
639.724478
 21
2094.910705
  0
LINE
  8
CSLAYER1
  6
CONTINUOUS
 62
     7
 10
639.724478
 20
2094.910705
 11
639.902919
 21
2095.044090
  0
LINE
  8
CSLAYER1
  6
CONTINUOUS
 62
     7
 10
639.902919
 20
2095.044090
 11
640.100950
 21
2095.168047
  0
LINE
  8
CSLAYER1
  6
CONTINUOUS
 62
     7
 10
640.100950
 20
2095.168047
 11
640.317062
 21
2095.281633
  0
LINE
  8
CSLAYER1
  6
CONTINUOUS
 62
     7
 10
640.317062
 20
2095.281633
 11
640.549612
 21
2095.383983
  0
LINE
  8
CSLAYER1
  6
CONTINUOUS
 62
     7
 10
640.549612
 20
2095.383983
 11
640.796828
 21
2095.474318
  0
LINE
  8
CSLAYER1
  6
CONTINUOUS
 62
     7
 10
640.796828
 20
2095.474318
 11
641.056831
 21
2095.551951
  0
LINE
  8
CSLAYER1
  6
CONTINUOUS
 62
     7
 10
641.056831
 20
2095.551951
 11
641.327641
 21
2095.616291
  0
LINE
  8
CSLAYER1
  6
CONTINUOUS
 62
     7
 10
641.327641
 20
2095.616291
 11
641.607196
 21
2095.666848
  0
LINE
  8
CSLAYER1
  6
CONTINUOUS
 62
     7
 10
641.607196
 20
2095.666848
 11
641.893371
 21
2095.703237
  0
LINE
  8
CSLAYER1
  6
CONTINUOUS
 62
     7
 10
641.893371
 20
2095.703237
 11
642.183985
 21
2095.725182
  0
LINE
  8
CSLAYER1
  6
CONTINUOUS
 62
     7
 10
642.183985
 20
2095.725182
 11
642.476828
 21
2095.732516
  0
LINE
  8
CSLAYER1
  6
CONTINUOUS
 62
     7
 10
642.476828
 20
2095.732516
 11
642.769672
 21
2095.725182
  0
LINE
  8
CSLAYER1
  6
CONTINUOUS
 62
     7
 10
642.769672
 20
2095.725182
 11
643.060286
 21
2095.703237
  0
LINE
  8
CSLAYER1
  6
CONTINUOUS
 62
     7
 10
643.060286
 20
2095.703237
 11
643.346460
 21
2095.666848
  0
LINE
  8
CSLAYER1
  6
CONTINUOUS
 62
     7
 10
643.346460
 20
2095.666848
 11
643.626016
 21
2095.616291
  0
LINE
  8
CSLAYER1
  6
CONTINUOUS
 62
     7
 10
643.626016
 20
2095.616291
 11
643.896826
 21
2095.551951
  0
LINE
  8
CSLAYER1
  6
CONTINUOUS
 62
     7
 10
643.896826
 20
2095.551951
 11
644.156828
 21
2095.474318
  0
LINE
  8
CSLAYER1
  6
CONTINUOUS
 62
     7
 10
644.156828
 20
2095.474318
 11
644.404045
 21
2095.383983
  0
LINE
  8
CSLAYER1
  6
CONTINUOUS
 62
     7
 10
644.404045
 20
2095.383983
 11
644.636595
 21
2095.281633
  0
LINE
  8
CSLAYER1
  6
CONTINUOUS
 62
     7
 10
644.636595
 20
2095.281633
 11
644.852707
 21
2095.168047
  0
LINE
  8
CSLAYER1
  6
CONTINUOUS
 62
     7
 10
644.852707
 20
2095.168047
 11
645.050738
 21
2095.044090
  0
LINE
  8
CSLAYER1
  6
CONTINUOUS
 62
     7
 10
645.050738
 20
2095.044090
 11
645.229179
 21
2094.910705
  0
LINE
  8
CSLAYER1
  6
CONTINUOUS
 62
     7
 10
645.229179
 20
2094.910705
 11
645.386674
 21
2094.768908
  0
LINE
  8
CSLAYER1
  6
CONTINUOUS
 62
     7
 10
645.386674
 20
2094.768908
 11
645.522023
 21
2094.619776
  0
LINE
  8
CSLAYER1
  6
CONTINUOUS
 62
     7
 10
645.522023
 20
2094.619776
 11
645.634196
 21
2094.464446
  0
LINE
  8
CSLAYER1
  6
CONTINUOUS
 62
     7
 10
645.634196
 20
2094.464446
 11
645.722339
 21
2094.304100
  0
LINE
  8
CSLAYER1
  6
CONTINUOUS
 62
     7
 10
645.722339
 20
2094.304100
 11
645.785783
 21
2094.139957
  0
LINE
  8
CSLAYER1
  6
CONTINUOUS
 62
     7
 10
645.785783
 20
2094.139957
 11
645.824043
 21
2093.973267
  0
LINE
  8
CSLAYER1
  6
CONTINUOUS
 62
     7
 10
645.824043
 20
2093.973267
 11
645.836828
 21
2093.805299
  0
LINE
  8
CSLAYER1
  6
CONTINUOUS
 62
     7
 10
645.836828
 20
2093.805299
 11
645.824043
 21
2093.637331
  0
LINE
  8
CSLAYER1
  6
CONTINUOUS
 62
     7
 10
645.824043
 20
2093.637331
 11
645.785783
 21
2093.470642
  0
LINE
  8
CSLAYER1
  6
CONTINUOUS
 62
     7
 10
645.785783
 20
2093.470642
 11
645.722339
 21
2093.306499
  0
LINE
  8
CSLAYER1
  6
CONTINUOUS
 62
     7
 10
645.722339
 20
2093.306499
 11
645.634196
 21
2093.146152
  0
LINE
  8
CSLAYER1
  6
CONTINUOUS
 62
     7
 10
645.634196
 20
2093.146152
 11
645.522023
 21
2092.990822
  0
LINE
  8
CSLAYER1
  6
CONTINUOUS
 62
     7
 10
645.522023
 20
2092.990822
 11
645.386674
 21
2092.841691
  0
LINE
  8
CSLAYER1
  6
CONTINUOUS
 62
     7
 10
645.386674
 20
2092.841691
 11
645.229179
 21
2092.699893
  0
LINE
  8
CSLAYER1
  6
CONTINUOUS
 62
     7
 10
645.229179
 20
2092.699893
 11
645.050738
 21
2092.566508
  0
LINE
  8
CSLAYER1
  6
CONTINUOUS
 62
     7
 10
645.050738
 20
2092.566508
 11
644.852707
 21
2092.442551
  0
LINE
  8
CSLAYER1
  6
CONTINUOUS
 62
     7
 10
644.852707
 20
2092.442551
 11
644.636595
 21
2092.328966
  0
LINE
  8
CSLAYER1
  6
CONTINUOUS
 62
     7
 10
644.636595
 20
2092.328966
 11
644.404045
 21
2092.226616
  0
LINE
  8
CSLAYER1
  6
CONTINUOUS
 62
     7
 10
644.404045
 20
2092.226616
 11
644.156828
 21
2092.136281
  0
LINE
  8
CSLAYER1
  6
CONTINUOUS
 62
     7
 10
644.156828
 20
2092.136281
 11
643.896826
 21
2092.058648
  0
LINE
  8
CSLAYER1
  6
CONTINUOUS
 62
     7
 10
643.896826
 20
2092.058648
 11
643.626016
 21
2091.994308
  0
LINE
  8
CSLAYER1
  6
CONTINUOUS
 62
     7
 10
643.626016
 20
2091.994308
 11
643.346460
 21
2091.943751
  0
LINE
  8
CSLAYER1
  6
CONTINUOUS
 62
     7
 10
643.346460
 20
2091.943751
 11
643.060286
 21
2091.907361
  0
LINE
  8
CSLAYER1
  6
CONTINUOUS
 62
     7
 10
643.060286
 20
2091.907361
 11
642.769672
 21
2091.885416
  0
LINE
  8
CSLAYER1
  6
CONTINUOUS
 62
     7
 10
642.769672
 20
2091.885416
 11
642.476828
 21
2091.878082
  0
LINE
  8
CSLAYER1
  6
CONTINUOUS
 62
     7
 10
642.476828
 20
2091.878082
 11
642.183985
 21
2091.885416
  0
LINE
  8
CSLAYER1
  6
CONTINUOUS
 62
     7
 10
642.183985
 20
2091.885416
 11
641.893371
 21
2091.907361
  0
LINE
  8
CSLAYER1
  6
CONTINUOUS
 62
     7
 10
641.893371
 20
2091.907361
 11
641.607196
 21
2091.943751
  0
LINE
  8
CSLAYER1
  6
CONTINUOUS
 62
     7
 10
641.607196
 20
2091.943751
 11
641.327641
 21
2091.994308
  0
LINE
  8
CSLAYER1
  6
CONTINUOUS
 62
     7
 10
641.327641
 20
2091.994308
 11
641.056831
 21
2092.058648
  0
LINE
  8
CSLAYER1
  6
CONTINUOUS
 62
     7
 10
641.056831
 20
2092.058648
 11
640.796828
 21
2092.136281
  0
LINE
  8
CSLAYER1
  6
CONTINUOUS
 62
     7
 10
640.796828
 20
2092.136281
 11
640.549612
 21
2092.226616
  0
LINE
  8
CSLAYER1
  6
CONTINUOUS
 62
     7
 10
640.549612
 20
2092.226616
 11
640.317062
 21
2092.328966
  0
LINE
  8
CSLAYER1
  6
CONTINUOUS
 62
     7
 10
640.317062
 20
2092.328966
 11
640.100950
 21
2092.442551
  0
LINE
  8
CSLAYER1
  6
CONTINUOUS
 62
     7
 10
640.100950
 20
2092.442551
 11
639.902919
 21
2092.566508
  0
LINE
  8
CSLAYER1
  6
CONTINUOUS
 62
     7
 10
639.902919
 20
2092.566508
 11
639.724478
 21
2092.699893
  0
LINE
  8
CSLAYER1
  6
CONTINUOUS
 62
     7
 10
639.724478
 20
2092.699893
 11
639.566983
 21
2092.841691
  0
LINE
  8
CSLAYER1
  6
CONTINUOUS
 62
     7
 10
639.566983
 20
2092.841691
 11
639.431634
 21
2092.990822
  0
LINE
  8
CSLAYER1
  6
CONTINUOUS
 62
     7
 10
639.431634
 20
2092.990822
 11
639.319461
 21
2093.146152
  0
LINE
  8
CSLAYER1
  6
CONTINUOUS
 62
     7
 10
639.319461
 20
2093.146152
 11
639.231318
 21
2093.306499
  0
LINE
  8
CSLAYER1
  6
CONTINUOUS
 62
     7
 10
639.231318
 20
2093.306499
 11
639.167874
 21
2093.470642
  0
LINE
  8
CSLAYER1
  6
CONTINUOUS
 62
     7
 10
639.167874
 20
2093.470642
 11
639.129614
 21
2093.637331
  0
LINE
  8
CSLAYER1
  6
CONTINUOUS
 62
     7
 10
639.129614
 20
2093.637331
 11
639.116828
 21
2093.805299
  0
LINE
  8
CSLAYER1
  6
CONTINUOUS
 62
     7
 10
648.860828
 20
2093.805299
 11
648.860828
 21
2090.176560
  0
LINE
  8
CSLAYER1
  6
CONTINUOUS
 62
     7
 10
636.092828
 20
2093.805299
 11
636.092828
 21
2090.176560
  0
LINE
  8
CSLAYER1
  6
CONTINUOUS
 62
     7
 10
646.012714
 20
2090.759822
 11
646.012714
 21
2087.131083
  0
LINE
  8
CSLAYER1
  6
CONTINUOUS
 62
     7
 10
638.693627
 20
2090.859271
 11
638.693627
 21
2087.230531
  0
LINE
  8
CSLAYER1
  6
CONTINUOUS
 62
     7
 10
648.860828
 20
2090.176560
 11
648.836535
 21
2089.857421
  0
LINE
  8
CSLAYER1
  6
CONTINUOUS
 62
     7
 10
648.836535
 20
2089.857421
 11
648.763841
 21
2089.540710
  0
LINE
  8
CSLAYER1
  6
CONTINUOUS
 62
     7
 10
648.763841
 20
2089.540710
 11
648.643299
 21
2089.228839
  0
LINE
  8
CSLAYER1
  6
CONTINUOUS
 62
     7
 10
648.643299
 20
2089.228839
 11
648.475826
 21
2088.924181
  0
LINE
  8
CSLAYER1
  6
CONTINUOUS
 62
     7
 10
648.475826
 20
2088.924181
 11
648.262697
 21
2088.629053
  0
LINE
  8
CSLAYER1
  6
CONTINUOUS
 62
     7
 10
648.262697
 20
2088.629053
 11
648.005535
 21
2088.345704
  0
LINE
  8
CSLAYER1
  6
CONTINUOUS
 62
     7
 10
648.005535
 20
2088.345704
 11
647.706295
 21
2088.076288
  0
LINE
  8
CSLAYER1
  6
CONTINUOUS
 62
     7
 10
647.706295
 20
2088.076288
 11
647.367256
 21
2087.822857
  0
LINE
  8
CSLAYER1
  6
CONTINUOUS
 62
     7
 10
647.367256
 20
2087.822857
 11
646.990998
 21
2087.587338
  0
LINE
  8
CSLAYER1
  6
CONTINUOUS
 62
     7
 10
646.990998
 20
2087.587338
 11
646.580385
 21
2087.371526
  0
LINE
  8
CSLAYER1
  6
CONTINUOUS
 62
     7
 10
646.580385
 20
2087.371526
 11
646.138540
 21
2087.177061
  0
LINE
  8
CSLAYER1
  6
CONTINUOUS
 62
     7
 10
646.138540
 20
2087.177061
 11
645.668828
 21
2087.005424
  0
LINE
  8
CSLAYER1
  6
CONTINUOUS
 62
     7
 10
645.668828
 20
2087.005424
 11
645.174823
 21
2086.857922
  0
LINE
  8
CSLAYER1
  6
CONTINUOUS
 62
     7
 10
645.174823
 20
2086.857922
 11
644.660285
 21
2086.735676
  0
LINE
  8
CSLAYER1
  6
CONTINUOUS
 62
     7
 10
644.660285
 20
2086.735676
 11
644.129129
 21
2086.639618
  0
LINE
  8
CSLAYER1
  6
CONTINUOUS
 62
     7
 10
644.129129
 20
2086.639618
 11
643.585398
 21
2086.570477
  0
LINE
  8
CSLAYER1
  6
CONTINUOUS
 62
     7
 10
643.585398
 20
2086.570477
 11
643.033231
 21
2086.528782
  0
LINE
  8
CSLAYER1
  6
CONTINUOUS
 62
     7
 10
643.033231
 20
2086.528782
 11
642.476828
 21
2086.514848
  0
LINE
  8
CSLAYER1
  6
CONTINUOUS
 62
     7
 10
642.476828
 20
2086.514848
 11
641.920426
 21
2086.528782
  0
LINE
  8
CSLAYER1
  6
CONTINUOUS
 62
     7
 10
641.920426
 20
2086.528782
 11
641.368259
 21
2086.570477
  0
LINE
  8
CSLAYER1
  6
CONTINUOUS
 62
     7
 10
641.368259
 20
2086.570477
 11
640.824528
 21
2086.639618
  0
LINE
  8
CSLAYER1
  6
CONTINUOUS
 62
     7
 10
640.824528
 20
2086.639618
 11
640.293372
 21
2086.735676
  0
LINE
  8
CSLAYER1
  6
CONTINUOUS
 62
     7
 10
640.293372
 20
2086.735676
 11
639.778834
 21
2086.857922
  0
LINE
  8
CSLAYER1
  6
CONTINUOUS
 62
     7
 10
639.778834
 20
2086.857922
 11
639.284828
 21
2087.005424
  0
LINE
  8
CSLAYER1
  6
CONTINUOUS
 62
     7
 10
639.284828
 20
2087.005424
 11
638.815117
 21
2087.177061
  0
LINE
  8
CSLAYER1
  6
CONTINUOUS
 62
     7
 10
638.815117
 20
2087.177061
 11
638.373272
 21
2087.371526
  0
LINE
  8
CSLAYER1
  6
CONTINUOUS
 62
     7
 10
638.373272
 20
2087.371526
 11
637.962659
 21
2087.587338
  0
LINE
  8
CSLAYER1
  6
CONTINUOUS
 62
     7
 10
637.962659
 20
2087.587338
 11
637.586401
 21
2087.822857
  0
LINE
  8
CSLAYER1
  6
CONTINUOUS
 62
     7
 10
637.586401
 20
2087.822857
 11
637.247362
 21
2088.076288
  0
LINE
  8
CSLAYER1
  6
CONTINUOUS
 62
     7
 10
637.247362
 20
2088.076288
 11
636.948122
 21
2088.345704
  0
LINE
  8
CSLAYER1
  6
CONTINUOUS
 62
     7
 10
636.948122
 20
2088.345704
 11
636.690960
 21
2088.629053
  0
LINE
  8
CSLAYER1
  6
CONTINUOUS
 62
     7
 10
636.690960
 20
2088.629053
 11
636.477831
 21
2088.924181
  0
LINE
  8
CSLAYER1
  6
CONTINUOUS
 62
     7
 10
636.477831
 20
2088.924181
 11
636.310358
 21
2089.228839
  0
LINE
  8
CSLAYER1
  6
CONTINUOUS
 62
     7
 10
636.310358
 20
2089.228839
 11
636.189816
 21
2089.540710
  0
LINE
  8
CSLAYER1
  6
CONTINUOUS
 62
     7
 10
636.189816
 20
2089.540710
 11
636.117122
 21
2089.857421
  0
LINE
  8
CSLAYER1
  6
CONTINUOUS
 62
     7
 10
636.117122
 20
2089.857421
 11
636.092828
 21
2090.176560
  0
LINE
  8
CSLAYER1
  6
CONTINUOUS
 62
     7
 10
638.693627
 20
2077.013941
 11
638.693627
 21
2076.464891
  0
LINE
  8
CSLAYER1
  6
CONTINUOUS
 62
     7
 10
648.860828
 20
2079.410920
 11
648.836535
 21
2079.091781
  0
LINE
  8
CSLAYER1
  6
CONTINUOUS
 62
     7
 10
648.836535
 20
2079.091781
 11
648.763841
 21
2078.775070
  0
LINE
  8
CSLAYER1
  6
CONTINUOUS
 62
     7
 10
648.763841
 20
2078.775070
 11
648.643299
 21
2078.463199
  0
LINE
  8
CSLAYER1
  6
CONTINUOUS
 62
     7
 10
648.643299
 20
2078.463199
 11
648.475826
 21
2078.158541
  0
LINE
  8
CSLAYER1
  6
CONTINUOUS
 62
     7
 10
648.475826
 20
2078.158541
 11
648.262697
 21
2077.863414
  0
LINE
  8
CSLAYER1
  6
CONTINUOUS
 62
     7
 10
648.262697
 20
2077.863414
 11
648.005535
 21
2077.580064
  0
LINE
  8
CSLAYER1
  6
CONTINUOUS
 62
     7
 10
648.005535
 20
2077.580064
 11
647.706295
 21
2077.310648
  0
LINE
  8
CSLAYER1
  6
CONTINUOUS
 62
     7
 10
647.706295
 20
2077.310648
 11
647.367256
 21
2077.057217
  0
LINE
  8
CSLAYER1
  6
CONTINUOUS
 62
     7
 10
647.367256
 20
2077.057217
 11
646.990998
 21
2076.821699
  0
LINE
  8
CSLAYER1
  6
CONTINUOUS
 62
     7
 10
646.990998
 20
2076.821699
 11
646.580385
 21
2076.605886
  0
LINE
  8
CSLAYER1
  6
CONTINUOUS
 62
     7
 10
646.580385
 20
2076.605886
 11
646.138540
 21
2076.411421
  0
LINE
  8
CSLAYER1
  6
CONTINUOUS
 62
     7
 10
646.138540
 20
2076.411421
 11
645.668828
 21
2076.239784
  0
LINE
  8
CSLAYER1
  6
CONTINUOUS
 62
     7
 10
645.668828
 20
2076.239784
 11
645.174823
 21
2076.092282
  0
LINE
  8
CSLAYER1
  6
CONTINUOUS
 62
     7
 10
645.174823
 20
2076.092282
 11
644.660285
 21
2075.970036
  0
LINE
  8
CSLAYER1
  6
CONTINUOUS
 62
     7
 10
644.660285
 20
2075.970036
 11
644.129129
 21
2075.873978
  0
LINE
  8
CSLAYER1
  6
CONTINUOUS
 62
     7
 10
644.129129
 20
2075.873978
 11
643.585398
 21
2075.804838
  0
LINE
  8
CSLAYER1
  6
CONTINUOUS
 62
     7
 10
643.585398
 20
2075.804838
 11
643.033231
 21
2075.763142
  0
LINE
  8
CSLAYER1
  6
CONTINUOUS
 62
     7
 10
643.033231
 20
2075.763142
 11
642.476828
 21
2075.749208
  0
LINE
  8
CSLAYER1
  6
CONTINUOUS
 62
     7
 10
642.476828
 20
2075.749208
 11
641.920426
 21
2075.763142
  0
LINE
  8
CSLAYER1
  6
CONTINUOUS
 62
     7
 10
641.920426
 20
2075.763142
 11
641.368259
 21
2075.804838
  0
LINE
  8
CSLAYER1
  6
CONTINUOUS
 62
     7
 10
641.368259
 20
2075.804838
 11
640.824528
 21
2075.873978
  0
LINE
  8
CSLAYER1
  6
CONTINUOUS
 62
     7
 10
640.824528
 20
2075.873978
 11
640.293372
 21
2075.970036
  0
LINE
  8
CSLAYER1
  6
CONTINUOUS
 62
     7
 10
640.293372
 20
2075.970036
 11
639.778834
 21
2076.092282
  0
LINE
  8
CSLAYER1
  6
CONTINUOUS
 62
     7
 10
639.778834
 20
2076.092282
 11
639.284828
 21
2076.239784
  0
LINE
  8
CSLAYER1
  6
CONTINUOUS
 62
     7
 10
639.284828
 20
2076.239784
 11
638.815117
 21
2076.411421
  0
LINE
  8
CSLAYER1
  6
CONTINUOUS
 62
     7
 10
638.815117
 20
2076.411421
 11
638.373272
 21
2076.605886
  0
LINE
  8
CSLAYER1
  6
CONTINUOUS
 62
     7
 10
638.373272
 20
2076.605886
 11
638.192583
 21
2076.700854
  0
LINE
  8
CSLAYER1
  6
CONTINUOUS
 62
     7
 10
648.860828
 20
2084.457800
 11
648.860828
 21
2079.410920
  0
LINE
  8
CSLAYER1
  6
CONTINUOUS
 62
     7
 10
645.836828
 20
2071.826394
 11
645.836828
 21
2076.301173
  0
LINE
  8
CSLAYER1
  6
CONTINUOUS
 62
     7
 10
639.116828
 20
2071.826394
 11
639.116828
 21
2076.301173
  0
LINE
  8
CSLAYER1
  6
CONTINUOUS
 62
     7
 10
645.836828
 20
2071.826394
 11
645.824043
 21
2071.658426
  0
LINE
  8
CSLAYER1
  6
CONTINUOUS
 62
     7
 10
645.824043
 20
2071.658426
 11
645.785783
 21
2071.491737
  0
LINE
  8
CSLAYER1
  6
CONTINUOUS
 62
     7
 10
645.785783
 20
2071.491737
 11
645.722339
 21
2071.327594
  0
LINE
  8
CSLAYER1
  6
CONTINUOUS
 62
     7
 10
645.722339
 20
2071.327594
 11
645.634196
 21
2071.167247
  0
LINE
  8
CSLAYER1
  6
CONTINUOUS
 62
     7
 10
645.634196
 20
2071.167247
 11
645.522023
 21
2071.011917
  0
LINE
  8
CSLAYER1
  6
CONTINUOUS
 62
     7
 10
645.522023
 20
2071.011917
 11
645.386674
 21
2070.862786
  0
LINE
  8
CSLAYER1
  6
CONTINUOUS
 62
     7
 10
645.386674
 20
2070.862786
 11
645.229179
 21
2070.720988
  0
LINE
  8
CSLAYER1
  6
CONTINUOUS
 62
     7
 10
645.229179
 20
2070.720988
 11
645.050738
 21
2070.587603
  0
LINE
  8
CSLAYER1
  6
CONTINUOUS
 62
     7
 10
645.050738
 20
2070.587603
 11
644.852707
 21
2070.463646
  0
LINE
  8
CSLAYER1
  6
CONTINUOUS
 62
     7
 10
644.852707
 20
2070.463646
 11
644.636595
 21
2070.350061
  0
LINE
  8
CSLAYER1
  6
CONTINUOUS
 62
     7
 10
644.636595
 20
2070.350061
 11
644.404045
 21
2070.247711
  0
LINE
  8
CSLAYER1
  6
CONTINUOUS
 62
     7
 10
644.404045
 20
2070.247711
 11
644.156828
 21
2070.157376
  0
LINE
  8
CSLAYER1
  6
CONTINUOUS
 62
     7
 10
644.156828
 20
2070.157376
 11
643.896826
 21
2070.079743
  0
LINE
  8
CSLAYER1
  6
CONTINUOUS
 62
     7
 10
643.896826
 20
2070.079743
 11
643.626016
 21
2070.015403
  0
LINE
  8
CSLAYER1
  6
CONTINUOUS
 62
     7
 10
643.626016
 20
2070.015403
 11
643.346460
 21
2069.964846
  0
LINE
  8
CSLAYER1
  6
CONTINUOUS
 62
     7
 10
643.346460
 20
2069.964846
 11
643.060286
 21
2069.928456
  0
LINE
  8
CSLAYER1
  6
CONTINUOUS
 62
     7
 10
643.060286
 20
2069.928456
 11
642.769672
 21
2069.906511
  0
LINE
  8
CSLAYER1
  6
CONTINUOUS
 62
     7
 10
642.769672
 20
2069.906511
 11
642.476828
 21
2069.899178
  0
LINE
  8
CSLAYER1
  6
CONTINUOUS
 62
     7
 10
642.476828
 20
2069.899178
 11
642.183985
 21
2069.906511
  0
LINE
  8
CSLAYER1
  6
CONTINUOUS
 62
     7
 10
642.183985
 20
2069.906511
 11
641.893371
 21
2069.928456
  0
LINE
  8
CSLAYER1
  6
CONTINUOUS
 62
     7
 10
641.893371
 20
2069.928456
 11
641.607196
 21
2069.964846
  0
LINE
  8
CSLAYER1
  6
CONTINUOUS
 62
     7
 10
641.607196
 20
2069.964846
 11
641.327641
 21
2070.015403
  0
LINE
  8
CSLAYER1
  6
CONTINUOUS
 62
     7
 10
641.327641
 20
2070.015403
 11
641.056831
 21
2070.079743
  0
LINE
  8
CSLAYER1
  6
CONTINUOUS
 62
     7
 10
641.056831
 20
2070.079743
 11
640.796828
 21
2070.157376
  0
LINE
  8
CSLAYER1
  6
CONTINUOUS
 62
     7
 10
640.796828
 20
2070.157376
 11
640.549612
 21
2070.247711
  0
LINE
  8
CSLAYER1
  6
CONTINUOUS
 62
     7
 10
640.549612
 20
2070.247711
 11
640.317062
 21
2070.350061
  0
LINE
  8
CSLAYER1
  6
CONTINUOUS
 62
     7
 10
640.317062
 20
2070.350061
 11
640.100950
 21
2070.463646
  0
LINE
  8
CSLAYER1
  6
CONTINUOUS
 62
     7
 10
640.100950
 20
2070.463646
 11
639.902919
 21
2070.587603
  0
LINE
  8
CSLAYER1
  6
CONTINUOUS
 62
     7
 10
639.902919
 20
2070.587603
 11
639.724478
 21
2070.720988
  0
LINE
  8
CSLAYER1
  6
CONTINUOUS
 62
     7
 10
639.724478
 20
2070.720988
 11
639.566983
 21
2070.862786
  0
LINE
  8
CSLAYER1
  6
CONTINUOUS
 62
     7
 10
639.566983
 20
2070.862786
 11
639.431634
 21
2071.011917
  0
LINE
  8
CSLAYER1
  6
CONTINUOUS
 62
     7
 10
639.431634
 20
2071.011917
 11
639.319461
 21
2071.167247
  0
LINE
  8
CSLAYER1
  6
CONTINUOUS
 62
     7
 10
639.319461
 20
2071.167247
 11
639.231318
 21
2071.327594
  0
LINE
  8
CSLAYER1
  6
CONTINUOUS
 62
     7
 10
639.231318
 20
2071.327594
 11
639.167874
 21
2071.491737
  0
LINE
  8
CSLAYER1
  6
CONTINUOUS
 62
     7
 10
639.167874
 20
2071.491737
 11
639.129614
 21
2071.658426
  0
LINE
  8
CSLAYER1
  6
CONTINUOUS
 62
     7
 10
639.129614
 20
2071.658426
 11
639.116828
 21
2071.826394
  0
LINE
  8
CSLAYER1
  6
CONTINUOUS
 62
     7
 10
644.059725
 20
2085.079485
 11
629.555974
 21
2090.358419
  0
LINE
  8
CSLAYER1
  6
CONTINUOUS
 62
     7
 10
644.059725
 20
2085.079485
 11
644.059725
 21
2080.367051
  0
LINE
  8
CSLAYER1
  6
CONTINUOUS
 62
     7
 10
631.345578
 20
2089.707056
 11
636.092828
 21
2092.673467
  0
LINE
  8
CSLAYER1
  6
CONTINUOUS
 62
     7
 10
644.059725
 20
2083.879546
 11
651.292634
 21
2088.399169
  0
LINE
  8
CSLAYER1
  6
CONTINUOUS
 62
     7
 10
644.059725
 20
2081.457738
 11
650.628895
 21
2085.562610
  0
ARC
  8
CSLAYER1
  6
CONTINUOUS
 62
     7
 10
644.881514
 20
2084.869331
 40
7.403380
 50
30.339165
 51
57.486408
  0
ARC
  8
CSLAYER1
  6
CONTINUOUS
 62
     7
 10
646.540836
 20
2088.015129
 40
4.767292
 50
-30.960488
 51
7.154948
  0
ENDBLK
  8
0
  0
BLOCK
  8
CSLAYER1
  2
BLKF0012
 70
   64
 10
0.0
 20
0.0
 30
0.0
  0
ARC
  8
CSLAYER1
  6
CONTINUOUS
 62
     5
 10
2856.259816
 20
133.858779
 40
3.549225
 50
6.429109
 51
73.182034
  0
ARC
  8
CSLAYER1
  6
CONTINUOUS
 62
     5
 10
2852.798846
 20
132.700386
 40
6.907754
 50
310.517970
 51
330.092764
  0
ARC
  8
CSLAYER1
  6
CONTINUOUS
 62
     5
 10
2852.738196
 20
133.065904
 40
7.148321
 50
-32.205059
 51
9.585194
  0
ARC
  8
CSLAYER1
  6
CONTINUOUS
 62
     5
 10
2856.030924
 20
130.304906
 40
4.767514
 50
180.000000
 51
218.514150
  0
ARC
  8
CSLAYER1
  6
CONTINUOUS
 62
     5
 10
2854.744203
 20
129.627765
 40
3.348282
 50
222.781148
 51
319.406906
  0
ARC
  8
CSLAYER1
  6
CONTINUOUS
 62
     5
 10
2857.809845
 20
130.717658
 40
6.559434
 50
94.574282
 51
183.607718
  0
LINE
  8
CSLAYER1
  6
CONTINUOUS
 62
     5
 10
2871.253752
 20
125.600826
 11
2870.396715
 21
122.562243
  0
LINE
  8
CSLAYER1
  6
CONTINUOUS
 62
     5
 10
2873.045736
 20
145.468483
 11
2870.942102
 21
148.195416
  0
LINE
  8
CSLAYER1
  6
CONTINUOUS
 62
     5
 10
2870.942102
 20
148.195416
 11
2864.188748
 21
151.953328
  0
LINE
  8
CSLAYER1
  6
CONTINUOUS
 62
     5
 10
2864.188748
 20
151.953328
 11
2857.286721
 21
152.756199
  0
LINE
  8
CSLAYER1
  6
CONTINUOUS
 62
     5
 10
2838.997495
 20
139.377525
 11
2841.144190
 21
144.341756
  0
LINE
  8
CSLAYER1
  6
CONTINUOUS
 62
     5
 10
2841.107192
 20
144.256199
 11
2843.290884
 21
146.890956
  0
LINE
  8
CSLAYER1
  6
CONTINUOUS
 62
     5
 10
2843.290884
 20
146.890956
 11
2846.595306
 21
149.256199
  0
LINE
  8
CSLAYER1
  6
CONTINUOUS
 62
     5
 10
2857.286721
 20
152.756199
 11
2855.768545
 21
151.989355
  0
LINE
  8
CSLAYER1
  6
CONTINUOUS
 62
     5
 10
2855.768545
 20
151.989355
 11
2852.280167
 21
151.989355
  0
LINE
  8
CSLAYER1
  6
CONTINUOUS
 62
     5
 10
2852.280167
 20
151.989355
 11
2848.724704
 21
150.043913
  0
LINE
  8
CSLAYER1
  6
CONTINUOUS
 62
     5
 10
2848.724704
 20
150.043913
 11
2846.595306
 21
149.256199
  0
LINE
  8
CSLAYER1
  6
CONTINUOUS
 62
     5
 10
2838.997495
 20
139.377525
 11
2837.479948
 21
131.828923
  0
LINE
  8
CSLAYER1
  6
CONTINUOUS
 62
     5
 10
2837.479948
 20
131.828923
 11
2837.286721
 21
129.256199
  0
LINE
  8
CSLAYER1
  6
CONTINUOUS
 62
     5
 10
2839.996103
 20
121.416417
 11
2837.286721
 21
127.512528
  0
LINE
  8
CSLAYER1
  6
CONTINUOUS
 62
     5
 10
2837.286721
 20
127.512528
 11
2837.286721
 21
129.256199
  0
LINE
  8
CSLAYER1
  6
CONTINUOUS
 62
     5
 10
2870.396715
 20
122.562243
 11
2868.710928
 21
119.559236
  0
LINE
  8
CSLAYER1
  6
CONTINUOUS
 62
     5
 10
2868.710928
 20
119.559236
 11
2867.286721
 21
118.240526
  0
ARC
  8
CSLAYER1
  6
CONTINUOUS
 62
     5
 10
2855.094776
 20
129.792960
 40
17.266626
 50
208.054813
 51
260.640470
  0
ARC
  8
CSLAYER1
  6
CONTINUOUS
 62
     5
 10
2849.901381
 20
142.535429
 40
29.874611
 50
274.579659
 51
305.587364
  0
ARC
  8
CSLAYER1
  6
CONTINUOUS
 62
     5
 10
2860.873730
 20
136.551707
 40
15.088627
 50
313.467013
 51
331.085078
  0
LINE
  8
CSLAYER1
  6
CONTINUOUS
 62
     5
 10
2875.665062
 20
132.769620
 11
2875.962356
 21
136.551707
  0
LINE
  8
CSLAYER1
  6
CONTINUOUS
 62
     5
 10
2875.962356
 20
136.551707
 11
2874.670359
 21
142.660690
  0
LINE
  8
CSLAYER1
  6
CONTINUOUS
 62
     5
 10
2875.665062
 20
132.769620
 11
2874.081387
 21
129.256199
  0
ARC
  8
CSLAYER1
  6
CONTINUOUS
 62
     5
 10
2860.873730
 20
136.551707
 40
15.088627
 50
23.883193
 51
36.225170
  0
LINE
  8
CSLAYER1
  6
CONTINUOUS
 62
     5
 10
2821.286721
 20
164.256199
 11
2822.286721
 21
165.348843
  0
LINE
  8
CSLAYER1
  6
CONTINUOUS
 62
     5
 10
2821.286721
 20
164.256199
 11
2822.863678
 21
162.811166
  0
LINE
  8
CSLAYER1
  6
CONTINUOUS
 62
     5
 10
2824.402891
 20
160.701874
 11
2824.429159
 21
158.533755
  0
LINE
  8
CSLAYER1
  6
CONTINUOUS
 62
     5
 10
2824.429159
 20
158.533755
 11
2824.636557
 21
157.773296
  0
LINE
  8
CSLAYER1
  6
CONTINUOUS
 62
     5
 10
2824.636557
 20
157.773296
 11
2825.224185
 21
157.047403
  0
LINE
  8
CSLAYER1
  6
CONTINUOUS
 62
     5
 10
2825.224185
 20
157.047403
 11
2825.811813
 21
157.116536
  0
LINE
  8
CSLAYER1
  6
CONTINUOUS
 62
     5
 10
2825.811813
 20
157.116536
 11
2826.434007
 21
157.289368
  0
LINE
  8
CSLAYER1
  6
CONTINUOUS
 62
     5
 10
2826.434007
 20
157.289368
 11
2826.848803
 21
157.116536
  0
LINE
  8
CSLAYER1
  6
CONTINUOUS
 62
     5
 10
2826.848803
 20
157.116536
 11
2827.747527
 21
156.667174
  0
LINE
  8
CSLAYER1
  6
CONTINUOUS
 62
     5
 10
2827.747527
 20
156.667174
 11
2828.523579
 21
156.256199
  0
LINE
  8
CSLAYER1
  6
CONTINUOUS
 62
     5
 10
2828.523579
 20
156.256199
 11
2829.026481
 21
156.286944
  0
LINE
  8
CSLAYER1
  6
CONTINUOUS
 62
     5
 10
2829.026481
 20
156.286944
 11
2831.834353
 21
157.733423
  0
LINE
  8
CSLAYER1
  6
CONTINUOUS
 62
     5
 10
2822.286721
 20
165.348843
 11
2822.619572
 21
166.822551
  0
LINE
  8
CSLAYER1
  6
CONTINUOUS
 62
     5
 10
2822.619572
 20
166.822551
 11
2824.072978
 21
166.972903
  0
LINE
  8
CSLAYER1
  6
CONTINUOUS
 62
     5
 10
2825.566736
 20
169.741362
 11
2827.320909
 21
169.898452
  0
LINE
  8
CSLAYER1
  6
CONTINUOUS
 62
     5
 10
2827.320909
 20
169.898452
 11
2830.855437
 21
170.736266
  0
LINE
  8
CSLAYER1
  6
CONTINUOUS
 62
     5
 10
2830.855437
 20
170.736266
 11
2832.286721
 21
171.067905
  0
LINE
  8
CSLAYER1
  6
CONTINUOUS
 62
     5
 10
2825.566736
 20
169.741362
 11
2823.633845
 21
169.900229
  0
LINE
  8
CSLAYER1
  6
CONTINUOUS
 62
     5
 10
2822.897722
 20
169.031542
 11
2822.991247
 21
168.660381
  0
LINE
  8
CSLAYER1
  6
CONTINUOUS
 62
     5
 10
2822.991247
 20
168.660381
 11
2823.482841
 21
168.122700
  0
LINE
  8
CSLAYER1
  6
CONTINUOUS
 62
     5
 10
2823.482841
 20
168.122700
 11
2824.158783
 21
167.615744
  0
LINE
  8
CSLAYER1
  6
CONTINUOUS
 62
     5
 10
2824.158783
 20
167.615744
 11
2824.282108
 21
167.451311
  0
LINE
  8
CSLAYER1
  6
CONTINUOUS
 62
     5
 10
2822.863678
 20
162.811166
 11
2824.402891
 21
160.701874
  0
ARC
  8
CSLAYER1
  6
CONTINUOUS
 62
     5
 10
2867.273421
 20
-7.402454
 40
180.727463
 50
80.438896
 51
96.353582
  0
ARC
  8
CSLAYER1
  6
CONTINUOUS
 62
     5
 10
2842.374508
 20
137.845447
 40
34.720242
 50
81.866516
 51
106.890578
  0
LINE
  8
CSLAYER1
  6
CONTINUOUS
 62
     5
 10
2901.480982
 20
170.022869
 11
2903.728064
 21
169.001468
  0
LINE
  8
CSLAYER1
  6
CONTINUOUS
 62
     5
 10
2907.302969
 20
167.418296
 11
2903.728064
 21
169.001468
  0
LINE
  8
CSLAYER1
  6
CONTINUOUS
 62
     5
 10
2901.480982
 20
170.022869
 11
2897.286721
 21
170.815441
  0
LINE
  8
CSLAYER1
  6
CONTINUOUS
 62
     5
 10
2907.286721
 20
167.425492
 11
2909.158296
 21
165.857015
  0
LINE
  8
CSLAYER1
  6
CONTINUOUS
 62
     5
 10
2890.529977
 20
168.462343
 11
2891.429251
 21
169.915017
  0
LINE
  8
CSLAYER1
  6
CONTINUOUS
 62
     5
 10
2891.429251
 20
169.915017
 11
2896.104850
 21
168.795508
  0
LINE
  8
CSLAYER1
  6
CONTINUOUS
 62
     5
 10
2896.104850
 20
168.795508
 11
2912.847236
 21
164.256199
  0
LINE
  8
CSLAYER1
  6
CONTINUOUS
 62
     5
 10
2915.786721
 20
164.256199
 11
2909.158296
 21
165.857015
  0
LINE
  8
CSLAYER1
  6
CONTINUOUS
 62
     5
 10
2912.847236
 20
164.256199
 11
2915.786721
 21
164.256199
  0
LINE
  8
CSLAYER1
  6
CONTINUOUS
 62
     5
 10
2857.286721
 20
168.721140
 11
2877.286721
 21
169.256199
  0
LINE
  8
CSLAYER1
  6
CONTINUOUS
 62
     5
 10
2877.286721
 20
169.256199
 11
2890.529977
 21
168.462343
  0
LINE
  8
CSLAYER1
  6
CONTINUOUS
 62
     5
 10
2892.132958
 20
166.401863
 11
2877.286721
 21
167.756199
  0
LINE
  8
CSLAYER1
  6
CONTINUOUS
 62
     5
 10
2877.286721
 20
167.756199
 11
2862.237511
 21
168.164851
  0
LINE
  8
CSLAYER1
  6
CONTINUOUS
 62
     5
 10
2862.286721
 20
168.163515
 11
2857.286721
 21
168.258809
  0
LINE
  8
CSLAYER1
  6
CONTINUOUS
 62
     5
 10
2857.286721
 20
168.721140
 11
2857.286721
 21
168.258809
  0
LINE
  8
CSLAYER1
  6
CONTINUOUS
 62
     5
 10
2914.786721
 20
160.756199
 11
2905.944162
 21
163.066861
  0
LINE
  8
CSLAYER1
  6
CONTINUOUS
 62
     5
 10
2892.132958
 20
166.401863
 11
2902.286721
 21
164.429480
  0
LINE
  8
CSLAYER1
  6
CONTINUOUS
 62
     5
 10
2902.286721
 20
164.429480
 11
2905.944162
 21
163.066861
  0
LINE
  8
CSLAYER1
  6
CONTINUOUS
 62
     5
 10
2914.786721
 20
160.756199
 11
2914.494103
 21
159.917094
  0
LINE
  8
CSLAYER1
  6
CONTINUOUS
 62
     5
 10
2924.286721
 20
155.256199
 11
2923.980693
 21
156.485180
  0
LINE
  8
CSLAYER1
  6
CONTINUOUS
 62
     5
 10
2914.494103
 20
159.917094
 11
2923.980693
 21
156.485180
  0
LINE
  8
CSLAYER1
  6
CONTINUOUS
 62
     5
 10
2860.786721
 20
160.756199
 11
2863.209759
 21
160.756199
  0
LINE
  8
CSLAYER1
  6
CONTINUOUS
 62
     5
 10
2883.286721
 20
161.188695
 11
2883.286721
 21
160.756199
  0
LINE
  8
CSLAYER1
  6
CONTINUOUS
 62
     5
 10
2882.286721
 20
161.723136
 11
2880.575441
 21
162.360314
  0
LINE
  8
CSLAYER1
  6
CONTINUOUS
 62
     5
 10
2880.575441
 20
162.360314
 11
2879.465385
 21
162.410771
  0
LINE
  8
CSLAYER1
  6
CONTINUOUS
 62
     5
 10
2879.465385
 20
162.410771
 11
2878.986043
 21
162.158486
  0
LINE
  8
CSLAYER1
  6
CONTINUOUS
 62
     5
 10
2878.986043
 20
162.158486
 11
2878.885129
 21
161.754829
  0
LINE
  8
CSLAYER1
  6
CONTINUOUS
 62
     5
 10
2878.885129
 20
161.754829
 11
2879.339243
 21
161.452086
  0
LINE
  8
CSLAYER1
  6
CONTINUOUS
 62
     5
 10
2879.339243
 20
161.452086
 11
2880.979098
 21
161.300715
  0
LINE
  8
CSLAYER1
  6
CONTINUOUS
 62
     5
 10
2880.979098
 20
161.300715
 11
2883.286721
 21
161.188695
  0
LINE
  8
CSLAYER1
  6
CONTINUOUS
 62
     5
 10
2924.286721
 20
155.256199
 11
2921.311178
 21
156.442781
  0
LINE
  8
CSLAYER1
  6
CONTINUOUS
 62
     5
 10
2921.311178
 20
156.442781
 11
2911.255488
 21
158.285656
  0
LINE
  8
CSLAYER1
  6
CONTINUOUS
 62
     5
 10
2911.255488
 20
158.285656
 11
2906.229708
 21
159.445451
  0
LINE
  8
CSLAYER1
  6
CONTINUOUS
 62
     5
 10
2883.820942
 20
161.756199
 11
2895.586607
 21
161.756199
  0
LINE
  8
CSLAYER1
  6
CONTINUOUS
 62
     5
 10
2882.286721
 20
161.723136
 11
2882.811380
 21
161.414668
  0
LINE
  8
CSLAYER1
  6
CONTINUOUS
 62
     5
 10
2882.811380
 20
161.414668
 11
2883.108192
 21
161.325625
  0
LINE
  8
CSLAYER1
  6
CONTINUOUS
 62
     5
 10
2883.108192
 20
161.325625
 11
2883.286721
 21
161.350795
  0
LINE
  8
CSLAYER1
  6
CONTINUOUS
 62
     5
 10
2883.286721
 20
161.350795
 11
2883.820942
 21
161.756199
  0
LINE
  8
CSLAYER1
  6
CONTINUOUS
 62
     5
 10
2895.586607
 20
161.756199
 11
2900.036876
 21
160.727374
  0
LINE
  8
CSLAYER1
  6
CONTINUOUS
 62
     5
 10
2900.036876
 20
160.727374
 11
2904.190068
 21
159.562225
  0
LINE
  8
CSLAYER1
  6
CONTINUOUS
 62
     5
 10
2904.190068
 20
159.562225
 11
2906.229708
 21
159.445451
  0
LINE
  8
CSLAYER1
  6
CONTINUOUS
 62
     5
 10
2859.786721
 20
159.756199
 11
2859.786721
 21
159.256199
  0
LINE
  8
CSLAYER1
  6
CONTINUOUS
 62
     5
 10
2857.286721
 20
159.256199
 11
2859.786721
 21
159.256199
  0
ARC
  8
CSLAYER1
  6
CONTINUOUS
 62
     5
 10
2860.786721
 20
159.756199
 40
1.000000
 50
90.000000
 51
180.000000
  0
LINE
  8
CSLAYER1
  6
CONTINUOUS
 62
     5
 10
2863.209759
 20
160.756199
 11
2863.907315
 21
160.184203
  0
LINE
  8
CSLAYER1
  6
CONTINUOUS
 62
     5
 10
2864.509684
 20
160.160242
 11
2865.367280
 21
160.756199
  0
LINE
  8
CSLAYER1
  6
CONTINUOUS
 62
     5
 10
2866.945676
 20
160.756199
 11
2868.612802
 21
160.098123
  0
LINE
  8
CSLAYER1
  6
CONTINUOUS
 62
     5
 10
2869.036511
 20
160.124636
 11
2870.189998
 21
160.756199
  0
LINE
  8
CSLAYER1
  6
CONTINUOUS
 62
     5
 10
2865.367280
 20
160.756199
 11
2866.945676
 21
160.756199
  0
LINE
  8
CSLAYER1
  6
CONTINUOUS
 62
     5
 10
2870.189998
 20
160.756199
 11
2883.286721
 21
160.756199
  0
LINE
  8
CSLAYER1
  6
CONTINUOUS
 62
     5
 10
2835.835704
 20
157.647373
 11
2857.286721
 21
159.256199
  0
LINE
  8
CSLAYER1
  6
CONTINUOUS
 62
     5
 10
2831.834353
 20
157.733423
 11
2835.835704
 21
157.647373
  0
ARC
  8
CSLAYER1
  6
CONTINUOUS
 62
     5
 10
2864.224355
 20
160.570837
 40
0.500000
 50
230.648247
 51
304.796026
  0
ARC
  8
CSLAYER1
  6
CONTINUOUS
 62
     5
 10
2868.796385
 20
160.563201
 40
0.500000
 50
248.459024
 51
298.701829
  0
ARC
  8
CSLAYER1
  6
CONTINUOUS
 62
     5
 10
2824.042108
 20
167.271311
 40
0.300000
 50
-84.093859
 51
36.869898
  0
ARC
  8
CSLAYER1
  6
CONTINUOUS
 62
     5
 10
2823.576504
 20
169.202582
 40
0.700000
 50
85.301319
 51
194.142980
  0
LINE
  8
CSLAYER1
  6
CONTINUOUS
 62
     3
 10
2855.768545
 20
151.989355
 11
2863.879040
 21
151.989355
  0
LINE
  8
CSLAYER1
  6
CONTINUOUS
 62
     3
 10
2849.356029
 20
150.389355
 11
2866.999369
 21
150.389355
  0
LINE
  8
CSLAYER1
  6
CONTINUOUS
 62
     3
 10
2845.943090
 20
148.789355
 11
2869.874734
 21
148.789355
  0
LINE
  8
CSLAYER1
  6
CONTINUOUS
 62
     3
 10
2843.707770
 20
147.189355
 11
2871.718207
 21
147.189355
  0
LINE
  8
CSLAYER1
  6
CONTINUOUS
 62
     3
 10
2842.212114
 20
145.589355
 11
2872.952493
 21
145.589355
  0
LINE
  8
CSLAYER1
  6
CONTINUOUS
 62
     3
 10
2840.991800
 20
143.989355
 11
2874.001869
 21
143.989355
  0
LINE
  8
CSLAYER1
  6
CONTINUOUS
 62
     3
 10
2840.299908
 20
142.389355
 11
2874.727744
 21
142.389355
  0
LINE
  8
CSLAYER1
  6
CONTINUOUS
 62
     3
 10
2839.608016
 20
140.789355
 11
2875.066130
 21
140.789355
  0
LINE
  8
CSLAYER1
  6
CONTINUOUS
 62
     3
 10
2838.959666
 20
139.189355
 11
2875.404516
 21
139.189355
  0
LINE
  8
CSLAYER1
  6
CONTINUOUS
 62
     3
 10
2838.638007
 20
137.589355
 11
2875.742903
 21
137.589355
  0
LINE
  8
CSLAYER1
  6
CONTINUOUS
 62
     3
 10
2838.316348
 20
135.989355
 11
2853.906591
 21
135.989355
  0
LINE
  8
CSLAYER1
  6
CONTINUOUS
 62
     3
 10
2837.994689
 20
134.389355
 11
2852.374330
 21
134.389355
  0
LINE
  8
CSLAYER1
  6
CONTINUOUS
 62
     3
 10
2837.673030
 20
132.789355
 11
2851.586160
 21
132.789355
  0
LINE
  8
CSLAYER1
  6
CONTINUOUS
 62
     3
 10
2837.431913
 20
131.189355
 11
2851.267393
 21
131.189355
  0
LINE
  8
CSLAYER1
  6
CONTINUOUS
 62
     3
 10
2837.311743
 20
129.589355
 11
2851.317414
 21
129.589355
  0
LINE
  8
CSLAYER1
  6
CONTINUOUS
 62
     3
 10
2837.286721
 20
127.989355
 11
2851.863501
 21
127.989355
  0
LINE
  8
CSLAYER1
  6
CONTINUOUS
 62
     3
 10
2837.785909
 20
126.389355
 11
2853.893503
 21
126.389355
  0
LINE
  8
CSLAYER1
  6
CONTINUOUS
 62
     3
 10
2838.497020
 20
124.789355
 11
2871.024875
 21
124.789355
  0
LINE
  8
CSLAYER1
  6
CONTINUOUS
 62
     3
 10
2839.208131
 20
123.189355
 11
2870.573593
 21
123.189355
  0
LINE
  8
CSLAYER1
  6
CONTINUOUS
 62
     3
 10
2839.919242
 20
121.589355
 11
2869.850569
 21
121.589355
  0
LINE
  8
CSLAYER1
  6
CONTINUOUS
 62
     3
 10
2840.881201
 20
119.989355
 11
2868.952382
 21
119.989355
  0
LINE
  8
CSLAYER1
  6
CONTINUOUS
 62
     3
 10
2842.129662
 20
118.389355
 11
2867.447456
 21
118.389355
  0
LINE
  8
CSLAYER1
  6
CONTINUOUS
 62
     3
 10
2843.735082
 20
116.789355
 11
2865.054995
 21
116.789355
  0
LINE
  8
CSLAYER1
  6
CONTINUOUS
 62
     3
 10
2845.882224
 20
115.189355
 11
2861.929872
 21
115.189355
  0
LINE
  8
CSLAYER1
  6
CONTINUOUS
 62
     3
 10
2849.129914
 20
113.589355
 11
2857.291723
 21
113.589355
  0
LINE
  8
CSLAYER1
  6
CONTINUOUS
 62
     3
 10
2859.098415
 20
135.989355
 11
2875.918152
 21
135.989355
  0
LINE
  8
CSLAYER1
  6
CONTINUOUS
 62
     3
 10
2859.769159
 20
134.389355
 11
2875.792383
 21
134.389355
  0
LINE
  8
CSLAYER1
  6
CONTINUOUS
 62
     3
 10
2859.881166
 20
132.789355
 11
2875.666613
 21
132.789355
  0
LINE
  8
CSLAYER1
  6
CONTINUOUS
 62
     3
 10
2859.635809
 20
131.189355
 11
2874.952757
 21
131.189355
  0
LINE
  8
CSLAYER1
  6
CONTINUOUS
 62
     3
 10
2858.984163
 20
129.589355
 11
2874.231557
 21
129.589355
  0
LINE
  8
CSLAYER1
  6
CONTINUOUS
 62
     3
 10
2857.850900
 20
127.989355
 11
2873.297609
 21
127.989355
  0
LINE
  8
CSLAYER1
  6
CONTINUOUS
 62
     3
 10
2855.594903
 20
126.389355
 11
2872.026902
 21
126.389355
  0
TEXT
  8
CSLAYER1
 62
     5
 10
2876.458525
 20
134.000530
 40
4.713448
 41
1.951056
  1
M
 50
0.000000
 51
0.000000
  7
EASYDRAW_FONT
 72
     5
 11
2882.589327
 21
134.000530
  0
TEXT
  8
CSLAYER1
 62
     5
 10
2886.109912
 20
133.942259
 40
4.626621
 41
0.778201
  1
T
 50
0.000000
 51
0.000000
  7
EASYDRAW_FONT
 72
     5
 11
2888.510205
 21
133.942259
  0
TEXT
  8
CSLAYER1
 62
     5
 10
2888.875475
 20
133.977058
 40
4.696183
 41
1.055553
  1
E
 50
0.000000
 51
0.000000
  7
EASYDRAW_FONT
 72
     5
 11
2892.180189
 21
133.977058
  0
TEXT
  8
CSLAYER1
 62
     5
 10
2891.991656
 20
135.592902
 40
0.348283
 41
9.375319
  1
-
 50
0.000000
 51
0.000000
  7
EASYDRAW_FONT
 72
     5
 11
2894.168501
 21
135.592902
  0
TEXT
  8
CSLAYER1
 62
     5
 10
2893.805865
 20
133.945712
 40
4.861659
 41
1.298502
  1
H
 50
0.000000
 51
0.000000
  7
EASYDRAW_FONT
 72
     5
 11
2898.014447
 21
133.945712
  0
TEXT
  8
CSLAYER1
 62
     5
 10
2897.881880
 20
133.976090
 40
4.843139
 41
1.269236
  1
A
 50
0.000000
 51
0.000000
  7
EASYDRAW_FONT
 72
     5
 11
2901.979936
 21
133.976090
  0
TEXT
  8
CSLAYER1
 62
     5
 10
2901.588036
 20
133.934563
 40
4.825362
 41
1.490144
  1
N
 50
0.000000
 51
0.000000
  7
EASYDRAW_FONT
 72
     5
 11
2906.381691
 21
133.934563
  0
TEXT
  8
CSLAYER1
 62
     5
 10
2882.379494
 20
133.911990
 40
4.982325
 41
1.177443
  1
A
 50
0.000000
 51
0.000000
  7
EASYDRAW_FONT
 72
     5
 11
2886.290428
 21
133.911990
  0
TEXT
  8
CSLAYER1
 62
     5
 10
2876.825539
 20
126.916751
 40
4.982325
 41
1.177443
  1
A
 50
0.000000
 51
0.000000
  7
EASYDRAW_FONT
 72
     5
 11
2880.736473
 21
126.916751
  0
TEXT
  8
CSLAYER1
 62
     5
 10
2889.609962
 20
126.945071
 40
4.982325
 41
1.177443
  1
A
 50
0.000000
 51
0.000000
  7
EASYDRAW_FONT
 72
     5
 11
2893.520897
 21
126.945071
  0
TEXT
  8
CSLAYER1
 62
     5
 10
2893.370507
 20
127.002068
 40
4.825362
 41
1.490144
  1
N
 50
0.000000
 51
0.000000
  7
EASYDRAW_FONT
 72
     5
 11
2898.164161
 21
127.002068
  0
TEXT
  8
CSLAYER1
 62
     5
 10
2902.272843
 20
127.010463
 40
4.841775
 41
1.184218
  1
E
 50
0.000000
 51
0.000000
  7
EASYDRAW_FONT
 72
     5
 11
2906.095321
 21
127.010463
  0
TEXT
  8
CSLAYER1
 62
     5
 10
2881.106092
 20
126.915426
 40
4.947865
 41
1.093992
  1
D
 50
0.000000
 51
0.000000
  7
EASYDRAW_FONT
 72
     5
 11
2884.714709
 21
126.915426
  0
TEXT
  8
CSLAYER1
 62
     5
 10
2885.508451
 20
126.910042
 40
4.924210
 41
1.228195
  1
V
 50
0.000000
 51
0.000000
  7
EASYDRAW_FONT
 72
     5
 11
2889.540378
 21
126.910042
  0
TEXT
  8
CSLAYER1
 62
     5
 10
2897.733652
 20
126.930773
 40
5.032894
 41
1.481023
  1
C
 50
0.000000
 51
0.000000
  7
EASYDRAW_FONT
 72
     5
 11
2902.702872
 21
126.930773
  0
LINE
  8
CSLAYER1
  6
CONTINUOUS
 62
     5
 10
2888.364057
 20
137.991171
 11
2887.351995
 21
137.991171
  0
LINE
  8
CSLAYER1
  6
CONTINUOUS
 62
     3
 10
2837.462296
 20
172.216442
 11
2887.260122
 21
172.216442
  0
LINE
  8
CSLAYER1
  6
CONTINUOUS
 62
     3
 10
2830.349932
 20
170.616442
 11
2898.339813
 21
170.616442
  0
LINE
  8
CSLAYER1
  6
CONTINUOUS
 62
     3
 10
2822.901527
 20
169.016442
 11
2868.324837
 21
169.016442
  0
LINE
  8
CSLAYER1
  6
CONTINUOUS
 62
     3
 10
2881.286387
 20
169.016442
 11
2890.872991
 21
169.016442
  0
LINE
  8
CSLAYER1
  6
CONTINUOUS
 62
     3
 10
2895.182124
 20
169.016442
 11
2903.695121
 21
169.016442
  0
LINE
  8
CSLAYER1
  6
CONTINUOUS
 62
     3
 10
2824.304666
 20
167.416442
 11
2881.011135
 21
167.416442
  0
LINE
  8
CSLAYER1
  6
CONTINUOUS
 62
     3
 10
2901.191274
 20
167.416442
 11
2907.297519
 21
167.416442
  0
LINE
  8
CSLAYER1
  6
CONTINUOUS
 62
     3
 10
2822.392332
 20
165.816442
 11
2895.146683
 21
165.816442
  0
LINE
  8
CSLAYER1
  6
CONTINUOUS
 62
     3
 10
2907.092572
 20
165.816442
 11
2909.326294
 21
165.816442
  0
LINE
  8
CSLAYER1
  6
CONTINUOUS
 62
     3
 10
2821.330107
 20
164.216442
 11
2902.858540
 21
164.216442
  0
LINE
  8
CSLAYER1
  6
CONTINUOUS
 62
     3
 10
2823.005774
 20
162.616442
 11
2907.667848
 21
162.616442
  0
LINE
  8
CSLAYER1
  6
CONTINUOUS
 62
     3
 10
2824.173342
 20
161.016442
 11
2883.286721
 21
161.016442
  0
LINE
  8
CSLAYER1
  6
CONTINUOUS
 62
     3
 10
2898.786486
 20
161.016442
 11
2913.790809
 21
161.016442
  0
LINE
  8
CSLAYER1
  6
CONTINUOUS
 62
     3
 10
2824.418465
 20
159.416442
 11
2859.786721
 21
159.416442
  0
LINE
  8
CSLAYER1
  6
CONTINUOUS
 62
     3
 10
2906.355414
 20
159.416442
 11
2915.878017
 21
159.416442
  0
LINE
  8
CSLAYER1
  6
CONTINUOUS
 62
     3
 10
2824.624790
 20
157.816442
 11
2838.089964
 21
157.816442
  0
LINE
  8
CSLAYER1
  6
CONTINUOUS
 62
     3
 10
2913.815763
 20
157.816442
 11
2920.300781
 21
157.816442
  0
LINE
  8
CSLAYER1
  6
CONTINUOUS
 62
     3
 10
2921.878757
 20
156.216442
 11
2924.047611
 21
156.216442
  0
ENDBLK
  8
0
  0
ENDSEC
  0
SECTION
  2
ENTITIES
  0
LINE
  8
CSLAYER1
  6
CONTINUOUS
 62
     3
 10
192.402115
 20
2454.977678
 11
192.402115
 21
106.430748
  0
LINE
  8
CSLAYER1
  6
CONTINUOUS
 62
     3
 10
3514.975426
 20
2454.977678
 11
192.402115
 21
2454.977678
  0
LINE
  8
CSLAYER1
  6
CONTINUOUS
 62
     3
 10
3514.975426
 20
2454.977678
 11
3514.975426
 21
106.430748
  0
LINE
  8
CSLAYER1
  6
CONTINUOUS
 62
     3
 10
3514.975426
 20
106.430748
 11
192.402115
 21
106.430748
  0
LINE
  8
CSLAYER1
  6
CONTINUOUS
 62
     5
 10
142.402115
 20
1266.430748
 11
92.402115
 21
1266.430748
  0
TEXT
  8
CSLAYER1
 62
     5
 10
2975.327604
 20
817.124989
 40
31.844261
 41
0.920655
  1
Ｆ.Ｌ
 50
0.000000
 51
0.000000
  7
EASYDRAW_FONT
 72
     5
 11
3053.507845
 21
817.124989
  0
LINE
  8
CSLAYER1
  6
CENTER
 62
     5
 10
1358.037830
 20
1998.064190
 11
2268.173533
 21
1998.064190
  0
LINE
  8
CSLAYER1
  6
CONTINUOUS
 62
     4
 10
1400.737830
 20
2123.064190
 11
1400.737830
 21
1873.064190
  0
LINE
  8
CSLAYER1
  6
CONTINUOUS
 62
     4
 10
2228.173533
 20
2123.064190
 11
2228.173533
 21
1873.064190
  0
LINE
  8
CSLAYER1
  6
CONTINUOUS
 62
     3
 10
1398.037830
 20
2023.914190
 11
1398.037830
 21
1858.064190
  0
LINE
  8
CSLAYER1
  6
CONTINUOUS
 62
     3
 10
1448.037830
 20
2138.064190
 11
1448.037830
 21
2123.064190
  0
LINE
  8
CSLAYER1
  6
CONTINUOUS
 62
     3
 10
1408.037830
 20
2148.064190
 11
1438.037830
 21
2148.064190
  0
ARC
  8
CSLAYER1
  6
CONTINUOUS
 62
     3
 10
1438.037830
 20
2138.064190
 40
10.000000
 50
0.000000
 51
90.000000
  0
LINE
  8
CSLAYER1
  6
CENTER
 62
     5
 10
1423.037830
 20
2111.801389
 11
1423.037830
 21
2134.326992
  0
LINE
  8
CSLAYER1
  6
CENTER
 62
     5
 10
1411.775029
 20
2123.064190
 11
1434.300631
 21
2123.064190
  0
LINE
  8
CSLAYER1
  6
CENTER
 62
     5
 10
1173.341671
 20
2028.064190
 11
1400.737830
 21
2028.064190
  0
LINE
  8
CSLAYER1
  6
CONTINUOUS
 62
     3
 10
1398.037830
 20
2072.564190
 11
1400.737830
 21
2072.564190
  0
LINE
  8
CSLAYER1
  6
CONTINUOUS
 62
     3
 10
1173.341671
 20
2032.214190
 11
1400.737830
 21
2032.214190
  0
LINE
  8
CSLAYER1
  6
CONTINUOUS
 62
     3
 10
1173.341671
 20
2023.914190
 11
1400.737830
 21
2023.914190
  0
LINE
  8
CSLAYER1
  6
CONTINUOUS
 62
     3
 10
1398.037830
 20
2032.214190
 11
1398.037830
 21
2138.064190
  0
LINE
  8
CSLAYER1
  6
CENTER
 62
     5
 10
1423.037830
 20
851.381950
 11
1423.037830
 21
822.605136
  0
POINT
  8
CSLAYER1
 62
     4
 10
1423.037830
 20
836.517910
  0
LINE
  8
CSLAYER1
  6
CONTINUOUS
 62
     3
 10
1398.037830
 20
857.517910
 11
1398.037830
 21
813.517910
  0
LINE
  8
CSLAYER1
  6
CONTINUOUS
 62
     5
 10
482.565229
 20
813.517910
 11
680.216359
 21
813.517910
  0
LINE
  8
CSLAYER1
  6
CONTINUOUS
 62
     3
 10
1448.037830
 20
857.517910
 11
1448.037830
 21
813.517910
  0
LINE
  8
CSLAYER1
  6
CONTINUOUS
 62
     3
 10
1398.037830
 20
819.517910
 11
1448.037830
 21
819.517910
  0
LINE
  8
CSLAYER1
  6
CONTINUOUS
 62
     3
 10
1442.037830
 20
857.517910
 11
1442.037830
 21
819.517910
  0
CIRCLE
  8
CSLAYER1
  6
CONTINUOUS
 62
     3
 10
1423.037830
 20
836.517910
 40
8.650000
  0
CIRCLE
  8
CSLAYER1
  6
CONTINUOUS
 62
     3
 10
1423.037830
 20
836.517910
 40
5.000000
  0
CIRCLE
  8
CSLAYER1
  6
CONTINUOUS
 62
     3
 10
1423.037830
 20
836.517910
 40
9.500000
  0
LINE
  8
CSLAYER1
  6
CONTINUOUS
 62
     3
 10
1432.537830
 20
842.002738
 11
1423.037830
 21
847.487566
  0
LINE
  8
CSLAYER1
  6
CONTINUOUS
 62
     3
 10
1423.037830
 20
847.487566
 11
1413.537830
 21
842.002738
  0
LINE
  8
CSLAYER1
  6
CONTINUOUS
 62
     3
 10
1413.537830
 20
842.002738
 11
1413.537830
 21
831.033083
  0
LINE
  8
CSLAYER1
  6
CONTINUOUS
 62
     3
 10
1413.537830
 20
831.033083
 11
1423.037830
 21
825.548255
  0
LINE
  8
CSLAYER1
  6
CONTINUOUS
 62
     3
 10
1423.037830
 20
825.548255
 11
1432.537830
 21
831.033083
  0
LINE
  8
CSLAYER1
  6
CONTINUOUS
 62
     3
 10
1432.537830
 20
831.033083
 11
1432.537830
 21
842.002738
  0
POINT
  8
CSLAYER1
 62
     3
 10
1423.037830
 20
836.517910
  0
CIRCLE
  8
CSLAYER1
  6
CONTINUOUS
 62
     3
 10
1423.037830
 20
836.517910
 40
6.000000
  0
LINE
  8
CSLAYER1
  6
CONTINUOUS
 62
     3
 10
1398.037830
 20
857.517910
 11
2200.737830
 21
857.517910
  0
LINE
  8
CSLAYER1
  6
CONTINUOUS
 62
     3
 10
2200.737830
 20
857.517910
 11
2200.737830
 21
813.517910
  0
INSERT
  8
CSLAYER1
  2
BLKF0000
 10
0.0
 20
0.0
 30
0.0
  0
CIRCLE
  8
CSLAYER1
  6
CONTINUOUS
 62
     4
 10
1483.004160
 20
899.567805
 40
8.250000
  0
LINE
  8
CSLAYER1
  6
CONTINUOUS
 62
     4
 10
1572.763423
 20
1074.202494
 11
1578.716615
 21
1070.197699
  0
LINE
  8
CSLAYER1
  6
CONTINUOUS
 62
     4
 10
1539.160074
 20
1030.521092
 11
1539.458330
 21
1030.320451
  0
LINE
  8
CSLAYER1
  6
CONTINUOUS
 62
     4
 10
1538.888516
 20
1031.908988
 11
1557.866268
 21
1060.119712
  0
LINE
  8
CSLAYER1
  6
CONTINUOUS
 62
     4
 10
1557.866268
 20
1060.119712
 11
1572.763423
 21
1074.202494
  0
LINE
  8
CSLAYER1
  6
CONTINUOUS
 62
     4
 10
1538.888516
 20
1031.908988
 11
1539.160074
 21
1030.521092
  0
POINT
  8
CSLAYER1
 62
     4
 10
1483.004160
 20
899.567805
  0
CIRCLE
  8
CSLAYER1
  6
CONTINUOUS
 62
     4
 10
1680.093694
 20
1192.544469
 40
8.000000
  0
POINT
  8
CSLAYER1
 62
     4
 10
1680.093694
 20
1192.544469
  0
LINE
  8
CSLAYER1
  6
CONTINUOUS
 62
     4
 10
1576.912059
 20
1071.411649
 11
1625.907075
 21
1144.243504
  0
LINE
  8
CSLAYER1
  6
CENTER
 62
     5
 10
1483.004160
 20
899.567805
 11
1687.684794
 21
1203.828759
  0
CIRCLE
  8
CSLAYER1
  6
CONTINUOUS
 62
     7
 10
1686.120821
 20
1103.748784
 40
10.000000
  0
CIRCLE
  8
CSLAYER1
  6
CONTINUOUS
 62
     7
 10
1680.093694
 20
1192.544469
 40
8.000000
  0
ARC
  8
CSLAYER1
  6
CONTINUOUS
 62
     7
 10
1638.761985
 20
1151.854300
 40
72.000000
 50
33.832141
 51
87.150680
  0
LINE
  8
CSLAYER1
  6
CONTINUOUS
 62
     7
 10
1626.679069
 20
1143.459338
 11
1489.875914
 21
1282.419392
  0
LINE
  8
CSLAYER1
  6
CONTINUOUS
 62
     7
 10
1724.896719
 20
1043.693145
 11
1706.233624
 21
1053.385353
  0
LINE
  8
CSLAYER1
  6
CONTINUOUS
 62
     7
 10
1626.679069
 20
1143.459338
 11
1634.813209
 21
1127.178737
  0
LINE
  8
CSLAYER1
  6
CONTINUOUS
 62
     7
 10
1686.120821
 20
1073.815264
 11
1706.233624
 21
1053.385353
  0
LINE
  8
CSLAYER1
  6
CONTINUOUS
 62
     7
 10
1724.896719
 20
1043.693145
 11
1908.182194
 21
857.517910
  0
POINT
  8
CSLAYER1
 62
     7
 10
1949.203812
 20
836.517910
  0
ARC
  8
CSLAYER1
  6
CONTINUOUS
 62
     7
 10
1949.203812
 20
836.517910
 40
18.500000
 50
65.556769
 51
120.003527
  0
POINT
  8
CSLAYER1
 62
     7
 10
1680.093694
 20
1192.544469
  0
POINT
  8
CSLAYER1
 62
     7
 10
1686.120821
 20
1103.748784
  0
LINE
  8
CSLAYER1
  6
CONTINUOUS
 62
     7
 10
1937.863617
 20
923.583403
 11
1957.969455
 21
857.517910
  0
LINE
  8
CSLAYER1
  6
CONTINUOUS
 62
     7
 10
1478.133845
 20
1390.561478
 11
1642.341071
 21
1223.765288
  0
LINE
  8
CSLAYER1
  6
CONTINUOUS
 62
     7
 10
1489.875914
 20
1282.419392
 11
1439.654037
 21
1387.023147
  0
LINE
  8
CSLAYER1
  6
CONTINUOUS
 62
     7
 10
1737.475869
 20
1127.130552
 11
1937.863617
 21
923.583403
  0
LINE
  8
CSLAYER1
  6
CONTINUOUS
 62
     4
 10
1912.922069
 20
1308.468578
 11
1932.821347
 21
1383.154555
  0
ARC
  8
CSLAYER1
  6
CONTINUOUS
 62
     4
 10
1921.768109
 20
1397.989511
 40
18.500000
 50
-187.141738
 51
7.141738
  0
ARC
  8
CSLAYER1
  6
CONTINUOUS
 62
     4
 10
1921.768109
 20
1397.989511
 40
6.000000
 50
-202.540310
 51
22.540310
  0
POINT
  8
CSLAYER1
 62
     4
 10
1686.120821
 20
1103.748784
  0
LINE
  8
CSLAYER1
  6
CONTINUOUS
 62
     4
 10
1903.374933
 20
1399.974723
 11
1434.378025
 21
923.583403
  0
LINE
  8
CSLAYER1
  6
CONTINUOUS
 62
     4
 10
1912.922069
 20
1308.468578
 11
1741.041181
 21
1133.877740
  0
LINE
  8
CSLAYER1
  6
CONTINUOUS
 62
     4
 10
1741.041181
 20
1133.877740
 11
1736.163482
 21
1124.646920
  0
LINE
  8
CSLAYER1
  6
CONTINUOUS
 62
     4
 10
1666.008018
 20
1053.385353
 11
1736.163482
 21
1124.646920
  0
LINE
  8
CSLAYER1
  6
CONTINUOUS
 62
     4
 10
1656.854624
 20
1048.363861
 11
1666.008018
 21
1053.385353
  0
LINE
  8
CSLAYER1
  6
CONTINUOUS
 62
     4
 10
1468.970931
 20
857.517910
 11
1656.854624
 21
1048.363861
  0
LINE
  8
CSLAYER1
  6
CONTINUOUS
 62
     4
 10
1434.378025
 20
923.583403
 11
1415.514399
 21
857.517910
  0
LINE
  8
CSLAYER1
  6
CONTINUOUS
 62
     7
 10
1482.869073
 20
871.635176
 11
1485.363228
 21
869.179735
  0
CIRCLE
  8
CSLAYER1
  6
CONTINUOUS
 62
     7
 10
1483.004160
 20
899.567805
 40
8.000000
  0
LINE
  8
CSLAYER1
  6
CONTINUOUS
 62
     7
 10
1504.995697
 20
890.547144
 11
1484.650612
 21
869.881290
  0
LINE
  8
CSLAYER1
  6
CONTINUOUS
 62
     7
 10
1494.229035
 20
910.969656
 11
1502.067807
 21
903.252555
  0
ARC
  8
CSLAYER1
  6
CONTINUOUS
 62
     7
 10
1483.004160
 20
899.567805
 40
16.000000
 50
45.448133
 51
88.880670
  0
ARC
  8
CSLAYER1
  6
CONTINUOUS
 62
     7
 10
1500.007387
 20
895.458026
 40
7.000000
 50
-44.551867
 51
5.442932
  0
POINT
  8
CSLAYER1
 62
     7
 10
1483.004160
 20
899.567805
  0
LINE
  8
CSLAYER1
  6
CONTINUOUS
 62
     7
 10
1485.363228
 20
869.179735
 11
1473.882415
 21
857.517910
  0
LINE
  8
CSLAYER1
  6
CONTINUOUS
 62
     4
 10
1557.866268
 20
1060.119712
 11
1564.440875
 21
1055.696881
  0
LINE
  8
CSLAYER1
  6
CENTER
 62
     5
 10
1949.203812
 20
858.146480
 11
1949.203812
 21
815.656900
  0
LINE
  8
CSLAYER1
  6
CENTER
 62
     5
 10
1925.839740
 20
836.517910
 11
1976.296117
 21
836.517910
  0
ARC
  8
CSLAYER1
  6
CONTINUOUS
 62
     7
 10
1949.203812
 20
836.517910
 40
18.500000
 50
158.503526
 51
207.162714
  0
ARC
  8
CSLAYER1
  6
CONTINUOUS
 62
     7
 10
1949.203812
 20
836.517910
 40
18.500000
 50
246.238191
 51
293.124953
  0
ARC
  8
CSLAYER1
  6
CONTINUOUS
 62
     7
 10
1949.203812
 20
836.517910
 40
18.500000
 50
-26.285980
 51
29.355347
  0
LINE
  8
CSLAYER1
  6
CENTER
 62
     5
 10
1667.761036
 20
1103.748784
 11
1704.887637
 21
1103.748784
  0
LINE
  8
CSLAYER1
  6
CENTER
 62
     5
 10
1666.775374
 20
1192.544469
 11
1694.045355
 21
1192.544469
  0
LINE
  8
CSLAYER1
  6
CENTER
 62
     5
 10
1680.093694
 20
1204.893011
 11
1680.093694
 21
1178.608691
  0
LINE
  8
CSLAYER1
  6
CENTER
 62
     5
 10
1686.120821
 20
1122.425958
 11
1686.120821
 21
1085.956464
  0
LINE
  8
CSLAYER1
  6
CENTER
 62
     5
 10
1921.768109
 20
1417.014167
 11
1921.768109
 21
1374.472706
  0
LINE
  8
CSLAYER1
  6
CENTER
 62
     5
 10
1450.473533
 20
1435.289511
 11
1450.473533
 21
1378.546303
  0
LINE
  8
CSLAYER1
  6
CENTER
 62
     5
 10
1406.408628
 20
836.517910
 11
1438.778914
 21
836.517910
  0
INSERT
  8
CSLAYER1
  2
BLKF0001
 10
0.0
 20
0.0
 30
0.0
  0
LINE
  8
CSLAYER1
  6
CENTER
 62
     5
 10
1423.037830
 20
878.517910
 11
1423.037830
 21
856.774702
  0
INSERT
  8
CSLAYER1
  2
BLKF0002
 10
0.0
 20
0.0
 30
0.0
  0
DIMENSION
  8
CSLAYER1
 62
     3
  2
*D0000
 10
2348.173533
 20
1435.289511
 11
2338.173340
 21
1174.403687
 13
2227.780460
 23
913.517910
 14
2227.780460
 24
1435.289511
 50
90.000000
 70
1
  0
DIMENSION
  8
CSLAYER1
 62
     3
  2
*D0001
 10
2438.173533
 20
813.517910
 11
2428.173340
 21
1124.403687
 13
2438.173533
 23
1435.289511
 14
2438.173533
 24
813.517910
 50
90.000000
 70
1
  0
DIMENSION
  8
CSLAYER1
 62
     3
  2
*D0002
 10
2228.173533
 20
1535.289511
 11
1828.173462
 21
1545.289307
 13
1428.173533
 23
1435.289511
 14
2228.173533
 24
1435.289511
 70
1
  0
DIMENSION
  8
CSLAYER1
 62
     3
  2
*D0003
 10
1428.173533
 20
1236.795542
 11
1318.632202
 21
1260.266235
 13
1400.737830
 23
913.517910
 14
1428.173533
 24
1400.289511
  0
INSERT
  8
CSLAYER1
  2
EASYDRAWDIM0000
 10
0.0
 20
0.0
 30
0.0
  0
INSERT
  8
CSLAYER1
  2
EASYDRAWDIM0001
 10
0.0
 20
0.0
 30
0.0
  0
LINE
  8
CSLAYER1
  6
CONTINUOUS
 62
     3
 10
1258.243174
 20
837.667910
 11
1398.037830
 21
837.667910
  0
LINE
  8
CSLAYER1
  6
CENTER
 62
     5
 10
1258.243174
 20
833.517910
 11
1398.037830
 21
833.517910
  0
LINE
  8
CSLAYER1
  6
CONTINUOUS
 62
     3
 10
1258.243174
 20
829.367910
 11
1398.037830
 21
829.367910
  0
LINE
  8
CSLAYER1
  6
CONTINUOUS
 62
     5
 10
1557.866268
 20
1060.119712
 11
1304.558440
 21
1160.057063
  0
LINE
  8
CSLAYER1
  6
CONTINUOUS
 62
     5
 10
1557.866268
 20
1060.119712
 11
1528.060935
 21
1063.531772
  0
LINE
  8
CSLAYER1
  6
CONTINUOUS
 62
     5
 10
1557.866268
 20
1060.119712
 11
1533.760122
 21
1077.977309
  0
DIMENSION
  8
CSLAYER1
 62
     3
  2
*D0004
 10
2200.737830
 20
603.517910
 11
1799.387817
 21
613.517761
 13
1398.037830
 23
813.517910
 14
2200.737830
 24
813.517910
 52
270.000000
 70
1
  0
LINE
  8
CSLAYER1
  6
CENTER
 62
     5
 10
2755.806029
 20
773.517910
 11
2755.806029
 21
953.517910
  0
LINE
  8
CSLAYER1
  6
CENTER
 62
     5
 10
2880.806029
 20
804.588549
 11
2880.806029
 21
828.798511
  0
LINE
  8
CSLAYER1
  6
CENTER
 62
     5
 10
2630.806029
 20
804.588549
 11
2630.806029
 21
828.798511
  0
LINE
  8
CSLAYER1
  6
CENTER
 62
     5
 10
2681.306029
 20
876.217910
 11
2830.306029
 21
876.217910
  0
LINE
  8
CSLAYER1
  6
CONTINUOUS
 62
     3
 10
2655.806029
 20
857.517910
 11
2655.806029
 21
813.517910
  0
LINE
  8
CSLAYER1
  6
CONTINUOUS
 62
     3
 10
2855.806029
 20
857.517910
 11
2855.806029
 21
813.517910
  0
LINE
  8
CSLAYER1
  6
CONTINUOUS
 62
     3
 10
2905.806029
 20
813.517910
 11
2905.806029
 21
819.517910
  0
LINE
  8
CSLAYER1
  6
CONTINUOUS
 62
     3
 10
2905.806029
 20
819.517910
 11
2855.806029
 21
819.517910
  0
LINE
  8
CSLAYER1
  6
CONTINUOUS
 62
     3
 10
2605.806029
 20
813.517910
 11
2605.806029
 21
819.517910
  0
LINE
  8
CSLAYER1
  6
CONTINUOUS
 62
     3
 10
2605.806029
 20
819.517910
 11
2655.806029
 21
819.517910
  0
LINE
  8
CSLAYER1
  6
CONTINUOUS
 62
     3
 10
2801.806029
 20
857.517910
 11
2801.806029
 21
881.217910
  0
LINE
  8
CSLAYER1
  6
CONTINUOUS
 62
     3
 10
2810.806029
 20
857.517910
 11
2810.806029
 21
881.217910
  0
LINE
  8
CSLAYER1
  6
CONTINUOUS
 62
     3
 10
2813.806029
 20
857.517910
 11
2813.806029
 21
881.217910
  0
LINE
  8
CSLAYER1
  6
CONTINUOUS
 62
     3
 10
2822.806029
 20
857.517910
 11
2822.806029
 21
881.217910
  0
LINE
  8
CSLAYER1
  6
CONTINUOUS
 62
     3
 10
2830.306029
 20
881.217910
 11
2830.306029
 21
867.217910
  0
ARC
  8
CSLAYER1
  6
CONTINUOUS
 62
     3
 10
2816.510285
 20
876.217910
 40
13.795744
 50
-23.426598
 51
21.249544
  0
LINE
  8
CSLAYER1
  6
CONTINUOUS
 62
     3
 10
2822.806029
 20
870.733083
 11
2829.168848
 21
870.733083
  0
LINE
  8
CSLAYER1
  6
CONTINUOUS
 62
     3
 10
2822.806029
 20
865.248255
 11
2829.168848
 21
865.248255
  0
LINE
  8
CSLAYER1
  6
CONTINUOUS
 62
     3
 10
2830.306029
 20
867.217910
 11
2829.168848
 21
865.248255
  0
ARC
  8
CSLAYER1
  6
CONTINUOUS
 62
     3
 10
2826.525985
 20
867.990669
 40
3.808617
 50
5.661633
 51
46.059028
  0
LINE
  8
CSLAYER1
  6
CONTINUOUS
 62
     3
 10
2793.806029
 20
881.217910
 11
2793.806029
 21
857.517910
  0
LINE
  8
CSLAYER1
  6
CONTINUOUS
 62
     3
 10
2738.806029
 20
857.517910
 11
2738.806029
 21
881.217910
  0
LINE
  8
CSLAYER1
  6
CENTER
 62
     5
 10
2726.306029
 20
857.517910
 11
2726.306029
 21
881.217910
  0
LINE
  8
CSLAYER1
  6
CONTINUOUS
 62
     3
 10
2630.806029
 20
913.517910
 11
2880.806029
 21
913.517910
  0
LINE
  8
CSLAYER1
  6
CONTINUOUS
 62
     3
 10
2681.306029
 20
881.217910
 11
2681.306029
 21
867.217910
  0
ARC
  8
CSLAYER1
  6
CONTINUOUS
 62
     3
 10
2695.101773
 20
876.217910
 40
13.795744
 50
158.750456
 51
203.426598
  0
LINE
  8
CSLAYER1
  6
CONTINUOUS
 62
     3
 10
2688.806029
 20
870.733083
 11
2682.443210
 21
870.733083
  0
LINE
  8
CSLAYER1
  6
CONTINUOUS
 62
     3
 10
2688.806029
 20
865.248255
 11
2682.443210
 21
865.248255
  0
LINE
  8
CSLAYER1
  6
CONTINUOUS
 62
     3
 10
2681.306029
 20
867.217910
 11
2682.443210
 21
865.248255
  0
ARC
  8
CSLAYER1
  6
CONTINUOUS
 62
     3
 10
2685.086074
 20
867.990669
 40
3.808617
 50
133.940972
 51
174.338367
  0
LINE
  8
CSLAYER1
  6
CONTINUOUS
 62
     3
 10
2709.806029
 20
857.517910
 11
2709.806029
 21
881.217910
  0
LINE
  8
CSLAYER1
  6
CONTINUOUS
 62
     3
 10
2700.806029
 20
857.517910
 11
2700.806029
 21
881.217910
  0
LINE
  8
CSLAYER1
  6
CONTINUOUS
 62
     3
 10
2697.806029
 20
857.517910
 11
2697.806029
 21
881.217910
  0
LINE
  8
CSLAYER1
  6
CONTINUOUS
 62
     3
 10
2688.806029
 20
857.517910
 11
2688.806029
 21
881.217910
  0
LINE
  8
CSLAYER1
  6
CONTINUOUS
 62
     3
 10
2630.806029
 20
881.217910
 11
2880.806029
 21
881.217910
  0
LINE
  8
CSLAYER1
  6
CONTINUOUS
 62
     3
 10
2722.156029
 20
857.517910
 11
2722.156029
 21
881.217910
  0
LINE
  8
CSLAYER1
  6
CONTINUOUS
 62
     3
 10
2730.456029
 20
857.517910
 11
2730.456029
 21
881.217910
  0
LINE
  8
CSLAYER1
  6
CONTINUOUS
 62
     3
 10
2655.806029
 20
857.517910
 11
2855.806029
 21
857.517910
  0
DIMENSION
  8
CSLAYER1
 62
     3
  2
*D0005
 10
2528.173533
 20
913.517910
 11
2518.173828
 21
863.517822
 13
2622.103316
 23
813.517910
 14
2622.103316
 24
913.517910
 50
90.000000
 70
1
  0
TEXT
  8
CSLAYER1
 62
     7
 10
2700.362061
 20
990.731140
 40
40.000000
 41
0.843750
  1
下降時
 50
0.000000
 51
0.000000
  7
EASYDRAW_FONT
 72
     5
 11
2790.362061
 21
990.731140
  0
LINE
  8
CSLAYER1
  6
CONTINUOUS
 62
     5
 10
2686.755577
 20
1037.161451
 11
2809.713587
 21
1037.161451
  0
LINE
  8
CSLAYER1
  6
CONTINUOUS
 62
     5
 10
2809.713587
 20
1037.161451
 11
2809.713587
 21
984.300998
  0
LINE
  8
CSLAYER1
  6
CONTINUOUS
 62
     5
 10
2809.713587
 20
984.300998
 11
2686.755577
 21
984.300998
  0
LINE
  8
CSLAYER1
  6
CONTINUOUS
 62
     5
 10
2686.755577
 20
984.300998
 11
2686.755577
 21
1037.161451
  0
ARC
  8
CSLAYER1
  6
CONTINUOUS
 62
     3
 10
1423.037830
 20
2123.064190
 40
6.500000
 50
0.000000
 51
180.000000
  0
ARC
  8
CSLAYER1
  6
CONTINUOUS
 62
     3
 10
1408.037830
 20
2138.064190
 40
10.000000
 50
90.000000
 51
180.000000
  0
TEXT
  8
CSLAYER1
 62
     7
 10
1404.858032
 20
2219.263916
 40
40.000000
 41
0.843750
  1
下降時
 50
0.000000
 51
0.000000
  7
EASYDRAW_FONT
 72
     5
 11
1494.858032
 21
2219.263916
  0
LINE
  8
CSLAYER1
  6
CONTINUOUS
 62
     5
 10
1391.251846
 20
2265.693942
 11
1514.209856
 21
2265.693942
  0
LINE
  8
CSLAYER1
  6
CONTINUOUS
 62
     5
 10
1514.209856
 20
2265.693942
 11
1514.209856
 21
2212.833489
  0
LINE
  8
CSLAYER1
  6
CONTINUOUS
 62
     5
 10
1514.209856
 20
2212.833489
 11
1391.251846
 21
2212.833489
  0
LINE
  8
CSLAYER1
  6
CONTINUOUS
 62
     5
 10
1391.251846
 20
2212.833489
 11
1391.251846
 21
2265.693942
  0
LINE
  8
CSLAYER1
  6
CONTINUOUS
 62
     5
 10
1423.037830
 20
800.392139
 11
1423.037830
 21
822.605136
  0
TEXT
  8
CSLAYER1
 62
     7
 10
1204.735962
 20
1313.978027
 40
40.000000
 41
0.787500
  1
テーブルのズレ
 50
0.000000
 51
0.000000
  7
EASYDRAW_FONT
 72
     5
 11
1414.735962
 21
1313.978027
  0
LINE
  8
CSLAYER1
  6
CONTINUOUS
 62
     4
 10
1400.737830
 20
2123.064190
 11
2228.173533
 21
2123.064190
  0
LINE
  8
CSLAYER1
  6
CONTINUOUS
 62
     3
 10
1448.037830
 20
1858.064190
 11
1448.037830
 21
1873.064190
  0
LINE
  8
CSLAYER1
  6
CONTINUOUS
 62
     3
 10
1408.037830
 20
1848.064190
 11
1438.037830
 21
1848.064190
  0
ARC
  8
CSLAYER1
  6
CONTINUOUS
 62
     3
 10
1438.037830
 20
1858.064190
 40
10.000000
 50
270.000000
 51
360.000000
  0
LINE
  8
CSLAYER1
  6
CENTER
 62
     5
 10
1423.037830
 20
1884.326992
 11
1423.037830
 21
1861.801389
  0
LINE
  8
CSLAYER1
  6
CENTER
 62
     5
 10
1411.775029
 20
1873.064190
 11
1434.300631
 21
1873.064190
  0
LINE
  8
CSLAYER1
  6
CONTINUOUS
 62
     3
 10
1398.037830
 20
1923.564190
 11
1400.737830
 21
1923.564190
  0
ARC
  8
CSLAYER1
  6
CONTINUOUS
 62
     3
 10
1423.037830
 20
1873.064190
 40
6.500000
 50
180.000000
 51
360.000000
  0
ARC
  8
CSLAYER1
  6
CONTINUOUS
 62
     3
 10
1408.037830
 20
1858.064190
 40
10.000000
 50
180.000000
 51
270.000000
  0
LINE
  8
CSLAYER1
  6
CONTINUOUS
 62
     4
 10
1400.737830
 20
1873.064190
 11
2228.173533
 21
1873.064190
  0
LINE
  8
CSLAYER1
  6
CONTINUOUS
 62
     3
 10
955.216359
 20
1402.989511
 11
955.216359
 21
1435.289511
  0
LINE
  8
CSLAYER1
  6
CONTINUOUS
 62
     3
 10
705.216359
 20
1402.989511
 11
705.216359
 21
1435.289511
  0
LINE
  8
CSLAYER1
  6
CENTER
 62
     5
 10
830.216359
 20
1475.289511
 11
830.216359
 21
773.517910
  0
LINE
  8
CSLAYER1
  6
CENTER
 62
     5
 10
955.216359
 20
804.588549
 11
955.216359
 21
828.798511
  0
LINE
  8
CSLAYER1
  6
CENTER
 62
     5
 10
705.216359
 20
804.588549
 11
705.216359
 21
828.798511
  0
LINE
  8
CSLAYER1
  6
CENTER
 62
     5
 10
800.216359
 20
816.828347
 11
800.216359
 21
850.091666
  0
LINE
  8
CSLAYER1
  6
CENTER
 62
     5
 10
782.342413
 20
833.517910
 11
819.339370
 21
833.517910
  0
LINE
  8
CSLAYER1
  6
CENTER
 62
     5
 10
755.716359
 20
1397.989511
 11
904.716359
 21
1397.989511
  0
LINE
  8
CSLAYER1
  6
CENTER
 62
     5
 10
750.716359
 20
1103.748784
 11
913.716359
 21
1103.748784
  0
LINE
  8
CSLAYER1
  6
CONTINUOUS
 62
     3
 10
761.716359
 20
853.517910
 11
898.716359
 21
853.517910
  0
LINE
  8
CSLAYER1
  6
CONTINUOUS
 62
     3
 10
730.216359
 20
857.517910
 11
730.216359
 21
819.517910
  0
LINE
  8
CSLAYER1
  6
CONTINUOUS
 62
     3
 10
930.216359
 20
857.517910
 11
930.216359
 21
819.517910
  0
LINE
  8
CSLAYER1
  6
CONTINUOUS
 62
     3
 10
980.216359
 20
813.517910
 11
980.216359
 21
819.517910
  0
LINE
  8
CSLAYER1
  6
CONTINUOUS
 62
     3
 10
904.716359
 20
819.517910
 11
904.716359
 21
857.517910
  0
LINE
  8
CSLAYER1
  6
CONTINUOUS
 62
     3
 10
980.216359
 20
819.517910
 11
898.716359
 21
819.517910
  0
LINE
  8
CSLAYER1
  6
CONTINUOUS
 62
     3
 10
680.216359
 20
813.517910
 11
680.216359
 21
819.517910
  0
LINE
  8
CSLAYER1
  6
CONTINUOUS
 62
     3
 10
680.216359
 20
819.517910
 11
761.716359
 21
819.517910
  0
LINE
  8
CSLAYER1
  6
CONTINUOUS
 62
     3
 10
752.716359
 20
847.487566
 11
752.716359
 21
825.548255
  0
LINE
  8
CSLAYER1
  6
CONTINUOUS
 62
     3
 10
755.716359
 20
825.767910
 11
752.716359
 21
825.767910
  0
LINE
  8
CSLAYER1
  6
CONTINUOUS
 62
     3
 10
755.716359
 20
847.267910
 11
752.716359
 21
847.267910
  0
LINE
  8
CSLAYER1
  6
CONTINUOUS
 62
     3
 10
755.716359
 20
838.030107
 11
752.716359
 21
834.530107
  0
LINE
  8
CSLAYER1
  6
CONTINUOUS
 62
     3
 10
744.716359
 20
827.517910
 11
744.716359
 21
845.517910
  0
LINE
  8
CSLAYER1
  6
CONTINUOUS
 62
     3
 10
752.716359
 20
831.033083
 11
745.853540
 21
831.033083
  0
LINE
  8
CSLAYER1
  6
CONTINUOUS
 62
     3
 10
752.716359
 20
825.548255
 11
745.853540
 21
825.548255
  0
LINE
  8
CSLAYER1
  6
CONTINUOUS
 62
     3
 10
744.716359
 20
827.517910
 11
745.853540
 21
825.548255
  0
ARC
  8
CSLAYER1
  6
CONTINUOUS
 62
     3
 10
748.496403
 20
828.290669
 40
3.808617
 50
133.940972
 51
174.338367
  0
ARC
  8
CSLAYER1
  6
CONTINUOUS
 62
     3
 10
758.512103
 20
836.517910
 40
13.795744
 50
156.573402
 51
203.426598
  0
LINE
  8
CSLAYER1
  6
CONTINUOUS
 62
     3
 10
752.716359
 20
842.002738
 11
745.853540
 21
842.002738
  0
LINE
  8
CSLAYER1
  6
CONTINUOUS
 62
     3
 10
752.716359
 20
847.487566
 11
745.853540
 21
847.487566
  0
LINE
  8
CSLAYER1
  6
CONTINUOUS
 62
     3
 10
744.716359
 20
845.517910
 11
745.853540
 21
847.487566
  0
ARC
  8
CSLAYER1
  6
CONTINUOUS
 62
     3
 10
748.496403
 20
844.745152
 40
3.808617
 50
185.661633
 51
226.059028
  0
LINE
  8
CSLAYER1
  6
CENTER
 62
     5
 10
755.716359
 20
836.517910
 11
744.716359
 21
836.517910
  0
LINE
  8
CSLAYER1
  6
CONTINUOUS
 62
     3
 10
755.716359
 20
819.517910
 11
755.716359
 21
857.517910
  0
CIRCLE
  8
CSLAYER1
  6
CONTINUOUS
 62
     3
 10
800.216359
 20
833.517910
 40
12.500000
  0
LINE
  8
CSLAYER1
  6
CONTINUOUS
 62
     3
 10
955.216359
 20
1435.289511
 11
705.216359
 21
1435.289511
  0
LINE
  8
CSLAYER1
  6
CONTINUOUS
 62
     3
 10
876.216359
 20
853.517910
 11
876.216359
 21
1402.989511
  0
LINE
  8
CSLAYER1
  6
CONTINUOUS
 62
     3
 10
885.216359
 20
853.517910
 11
885.216359
 21
1402.989511
  0
LINE
  8
CSLAYER1
  6
CONTINUOUS
 62
     3
 10
888.216359
 20
853.517910
 11
888.216359
 21
1387.489511
  0
LINE
  8
CSLAYER1
  6
CONTINUOUS
 62
     3
 10
897.216359
 20
853.517910
 11
897.216359
 21
1387.019856
  0
LINE
  8
CSLAYER1
  6
CONTINUOUS
 62
     3
 10
886.216359
 20
1389.339511
 11
885.216359
 21
1389.339511
  0
LINE
  8
CSLAYER1
  6
CONTINUOUS
 62
     3
 10
887.216359
 20
1402.989511
 11
887.216359
 21
1390.339511
  0
LINE
  8
CSLAYER1
  6
CONTINUOUS
 62
     3
 10
887.216359
 20
1390.339511
 11
886.216359
 21
1389.339511
  0
LINE
  8
CSLAYER1
  6
CONTINUOUS
 62
     3
 10
886.216359
 20
1402.989511
 11
886.216359
 21
1389.339511
  0
LINE
  8
CSLAYER1
  6
CONTINUOUS
 62
     3
 10
887.716359
 20
1387.489511
 11
893.716359
 21
1387.489511
  0
LINE
  8
CSLAYER1
  6
CONTINUOUS
 62
     3
 10
893.716359
 20
1402.989511
 11
893.716359
 21
1387.489511
  0
LINE
  8
CSLAYER1
  6
CONTINUOUS
 62
     3
 10
887.716359
 20
1402.989511
 11
887.716359
 21
1387.489511
  0
LINE
  8
CSLAYER1
  6
CONTINUOUS
 62
     3
 10
876.216359
 20
1389.339511
 11
784.216359
 21
1389.339511
  0
LINE
  8
CSLAYER1
  6
CONTINUOUS
 62
     3
 10
896.716359
 20
1387.019856
 11
896.716359
 21
1402.989511
  0
LINE
  8
CSLAYER1
  6
CONTINUOUS
 62
     3
 10
893.716359
 20
1387.239511
 11
896.716359
 21
1387.239511
  0
LINE
  8
CSLAYER1
  6
CONTINUOUS
 62
     3
 10
893.716359
 20
1396.477315
 11
896.555385
 21
1399.789511
  0
LINE
  8
CSLAYER1
  6
CONTINUOUS
 62
     3
 10
904.716359
 20
1402.989511
 11
904.716359
 21
1388.989511
  0
ARC
  8
CSLAYER1
  6
CONTINUOUS
 62
     3
 10
890.920615
 20
1397.989511
 40
13.795744
 50
-23.426598
 51
21.249544
  0
LINE
  8
CSLAYER1
  6
CONTINUOUS
 62
     3
 10
896.716359
 20
1392.504684
 11
903.579178
 21
1392.504684
  0
LINE
  8
CSLAYER1
  6
CONTINUOUS
 62
     3
 10
896.716359
 20
1387.019856
 11
903.579178
 21
1387.019856
  0
LINE
  8
CSLAYER1
  6
CONTINUOUS
 62
     3
 10
904.716359
 20
1388.989511
 11
903.579178
 21
1387.019856
  0
ARC
  8
CSLAYER1
  6
CONTINUOUS
 62
     3
 10
900.936315
 20
1389.762270
 40
3.808617
 50
5.661633
 51
46.059028
  0
LINE
  8
CSLAYER1
  6
CENTER
 62
     5
 10
775.216359
 20
1192.544469
 11
885.216359
 21
1192.544469
  0
LINE
  8
CSLAYER1
  6
CONTINUOUS
 62
     3
 10
784.216359
 20
1137.028123
 11
805.216359
 21
1137.028123
  0
LINE
  8
CSLAYER1
  6
CONTINUOUS
 62
     3
 10
784.216359
 20
1088.428123
 11
822.716359
 21
1088.428123
  0
LINE
  8
CSLAYER1
  6
CONTINUOUS
 62
     3
 10
888.216359
 20
1117.748784
 11
885.216359
 21
1117.748784
  0
LINE
  8
CSLAYER1
  6
CENTER
 62
     5
 10
840.716359
 20
1206.144469
 11
840.716359
 21
882.509273
  0
LINE
  8
CSLAYER1
  6
CONTINUOUS
 62
     3
 10
869.716359
 20
866.800372
 11
869.716359
 21
915.632668
  0
LINE
  8
CSLAYER1
  6
CONTINUOUS
 62
     3
 10
863.716359
 20
866.800372
 11
863.716359
 21
915.632668
  0
LINE
  8
CSLAYER1
  6
CONTINUOUS
 62
     3
 10
811.716359
 20
866.800372
 11
811.716359
 21
915.632668
  0
LINE
  8
CSLAYER1
  6
CONTINUOUS
 62
     3
 10
817.716359
 20
866.800372
 11
817.716359
 21
915.632668
  0
LINE
  8
CSLAYER1
  6
CONTINUOUS
 62
     3
 10
863.216359
 20
1179.944469
 11
863.216359
 21
1205.144469
  0
LINE
  8
CSLAYER1
  6
CONTINUOUS
 62
     3
 10
818.216359
 20
1179.944469
 11
818.216359
 21
1205.144469
  0
LINE
  8
CSLAYER1
  6
CONTINUOUS
 62
     3
 10
819.216359
 20
1206.144469
 11
862.216359
 21
1206.144469
  0
LINE
  8
CSLAYER1
  6
CONTINUOUS
 62
     3
 10
818.216359
 20
1205.144469
 11
819.216359
 21
1206.144469
  0
LINE
  8
CSLAYER1
  6
CONTINUOUS
 62
     3
 10
862.216359
 20
1206.144469
 11
863.216359
 21
1205.144469
  0
POINT
  8
CSLAYER1
 62
     3
 10
840.716359
 20
1192.544469
  0
LINE
  8
CSLAYER1
  6
CONTINUOUS
 62
     3
 10
864.216359
 20
1200.544469
 11
863.216359
 21
1200.544469
  0
LINE
  8
CSLAYER1
  6
CONTINUOUS
 62
     3
 10
818.216359
 20
1200.544469
 11
817.216359
 21
1200.544469
  0
LINE
  8
CSLAYER1
  6
CENTER
 62
     5
 10
811.716359
 20
899.567805
 11
869.716359
 21
899.567805
  0
LINE
  8
CSLAYER1
  6
CONTINUOUS
 62
     3
 10
772.216359
 20
882.509273
 11
775.216359
 21
882.509273
  0
LINE
  8
CSLAYER1
  6
CONTINUOUS
 62
     3
 10
811.716359
 20
866.800372
 11
817.716359
 21
866.800372
  0
LINE
  8
CSLAYER1
  6
CONTINUOUS
 62
     3
 10
811.716359
 20
915.632668
 11
817.716359
 21
915.632668
  0
LINE
  8
CSLAYER1
  6
CONTINUOUS
 62
     3
 10
863.716359
 20
915.632668
 11
869.716359
 21
915.632668
  0
LINE
  8
CSLAYER1
  6
CONTINUOUS
 62
     3
 10
863.716359
 20
866.800372
 11
869.716359
 21
866.800372
  0
LINE
  8
CSLAYER1
  6
CONTINUOUS
 62
     3
 10
817.716359
 20
882.509273
 11
863.716359
 21
882.509273
  0
LINE
  8
CSLAYER1
  6
CONTINUOUS
 62
     3
 10
869.716359
 20
882.509273
 11
876.216359
 21
882.509273
  0
LINE
  8
CSLAYER1
  6
CONTINUOUS
 62
     3
 10
885.216359
 20
882.509273
 11
888.216359
 21
882.509273
  0
LINE
  8
CSLAYER1
  6
CONTINUOUS
 62
     3
 10
863.628837
 20
1060.400159
 11
868.111713
 21
1043.110933
  0
LINE
  8
CSLAYER1
  6
CONTINUOUS
 62
     3
 10
863.628837
 20
1060.400159
 11
863.366937
 21
1061.364604
  0
LINE
  8
CSLAYER1
  6
CONTINUOUS
 62
     3
 10
863.366937
 20
1061.364604
 11
862.932653
 21
1062.314312
  0
LINE
  8
CSLAYER1
  6
CONTINUOUS
 62
     3
 10
862.932653
 20
1062.314312
 11
862.329289
 21
1063.242056
  0
LINE
  8
CSLAYER1
  6
CONTINUOUS
 62
     3
 10
862.329289
 20
1063.242056
 11
861.561438
 21
1064.140775
  0
LINE
  8
CSLAYER1
  6
CONTINUOUS
 62
     3
 10
861.561438
 20
1064.140775
 11
860.634943
 21
1065.003629
  0
LINE
  8
CSLAYER1
  6
CONTINUOUS
 62
     3
 10
860.634943
 20
1065.003629
 11
859.556856
 21
1065.824052
  0
LINE
  8
CSLAYER1
  6
CONTINUOUS
 62
     3
 10
859.556856
 20
1065.824052
 11
858.335381
 21
1066.595800
  0
LINE
  8
CSLAYER1
  6
CONTINUOUS
 62
     3
 10
858.335381
 20
1066.595800
 11
856.979815
 21
1067.312998
  0
LINE
  8
CSLAYER1
  6
CONTINUOUS
 62
     3
 10
856.979815
 20
1067.312998
 11
855.500474
 21
1067.970190
  0
LINE
  8
CSLAYER1
  6
CONTINUOUS
 62
     3
 10
855.500474
 20
1067.970190
 11
853.908617
 21
1068.562373
  0
LINE
  8
CSLAYER1
  6
CONTINUOUS
 62
     3
 10
853.908617
 20
1068.562373
 11
852.216359
 21
1069.085040
  0
LINE
  8
CSLAYER1
  6
CONTINUOUS
 62
     3
 10
852.216359
 20
1069.085040
 11
850.436579
 21
1069.534213
  0
LINE
  8
CSLAYER1
  6
CONTINUOUS
 62
     3
 10
850.436579
 20
1069.534213
 11
848.582822
 21
1069.906475
  0
LINE
  8
CSLAYER1
  6
CONTINUOUS
 62
     3
 10
848.582822
 20
1069.906475
 11
846.669197
 21
1070.198992
  0
LINE
  8
CSLAYER1
  6
CONTINUOUS
 62
     3
 10
846.669197
 20
1070.198992
 11
844.710267
 21
1070.409537
  0
LINE
  8
CSLAYER1
  6
CONTINUOUS
 62
     3
 10
844.710267
 20
1070.409537
 11
842.720941
 21
1070.536508
  0
LINE
  8
CSLAYER1
  6
CONTINUOUS
 62
     3
 10
842.720941
 20
1070.536508
 11
840.716359
 21
1070.578940
  0
LINE
  8
CSLAYER1
  6
CONTINUOUS
 62
     3
 10
817.803881
 20
1060.400159
 11
813.321005
 21
1043.110933
  0
LINE
  8
CSLAYER1
  6
CONTINUOUS
 62
     3
 10
817.803881
 20
1060.400159
 11
818.065781
 21
1061.364604
  0
LINE
  8
CSLAYER1
  6
CONTINUOUS
 62
     3
 10
818.065781
 20
1061.364604
 11
818.500065
 21
1062.314312
  0
LINE
  8
CSLAYER1
  6
CONTINUOUS
 62
     3
 10
818.500065
 20
1062.314312
 11
819.103429
 21
1063.242056
  0
LINE
  8
CSLAYER1
  6
CONTINUOUS
 62
     3
 10
819.103429
 20
1063.242056
 11
819.871280
 21
1064.140775
  0
LINE
  8
CSLAYER1
  6
CONTINUOUS
 62
     3
 10
819.871280
 20
1064.140775
 11
820.797775
 21
1065.003629
  0
LINE
  8
CSLAYER1
  6
CONTINUOUS
 62
     3
 10
820.797775
 20
1065.003629
 11
821.875862
 21
1065.824052
  0
LINE
  8
CSLAYER1
  6
CONTINUOUS
 62
     3
 10
821.875862
 20
1065.824052
 11
823.097337
 21
1066.595800
  0
LINE
  8
CSLAYER1
  6
CONTINUOUS
 62
     3
 10
823.097337
 20
1066.595800
 11
824.452903
 21
1067.312998
  0
LINE
  8
CSLAYER1
  6
CONTINUOUS
 62
     3
 10
824.452903
 20
1067.312998
 11
825.932244
 21
1067.970190
  0
LINE
  8
CSLAYER1
  6
CONTINUOUS
 62
     3
 10
825.932244
 20
1067.970190
 11
827.524101
 21
1068.562373
  0
LINE
  8
CSLAYER1
  6
CONTINUOUS
 62
     3
 10
827.524101
 20
1068.562373
 11
829.216359
 21
1069.085040
  0
LINE
  8
CSLAYER1
  6
CONTINUOUS
 62
     3
 10
829.216359
 20
1069.085040
 11
830.996139
 21
1069.534213
  0
LINE
  8
CSLAYER1
  6
CONTINUOUS
 62
     3
 10
830.996139
 20
1069.534213
 11
832.849896
 21
1069.906475
  0
LINE
  8
CSLAYER1
  6
CONTINUOUS
 62
     3
 10
832.849896
 20
1069.906475
 11
834.763521
 21
1070.198992
  0
LINE
  8
CSLAYER1
  6
CONTINUOUS
 62
     3
 10
834.763521
 20
1070.198992
 11
836.722451
 21
1070.409537
  0
LINE
  8
CSLAYER1
  6
CONTINUOUS
 62
     3
 10
836.722451
 20
1070.409537
 11
838.711777
 21
1070.536508
  0
LINE
  8
CSLAYER1
  6
CONTINUOUS
 62
     3
 10
838.711777
 20
1070.536508
 11
840.716359
 21
1070.578940
  0
LINE
  8
CSLAYER1
  6
CONTINUOUS
 62
     3
 10
858.716359
 20
1066.394233
 11
858.716359
 21
1181.387686
  0
LINE
  8
CSLAYER1
  6
CONTINUOUS
 62
     3
 10
858.716359
 20
1180.879349
 11
858.647864
 21
1181.639920
  0
LINE
  8
CSLAYER1
  6
CONTINUOUS
 62
     3
 10
858.647864
 20
1181.639920
 11
858.442899
 21
1182.394703
  0
LINE
  8
CSLAYER1
  6
CONTINUOUS
 62
     3
 10
858.442899
 20
1182.394703
 11
858.103024
 21
1183.137953
  0
LINE
  8
CSLAYER1
  6
CONTINUOUS
 62
     3
 10
858.103024
 20
1183.137953
 11
857.630826
 21
1183.864013
  0
LINE
  8
CSLAYER1
  6
CONTINUOUS
 62
     3
 10
857.630826
 20
1183.864013
 11
857.029899
 21
1184.567358
  0
LINE
  8
CSLAYER1
  6
CONTINUOUS
 62
     3
 10
857.029899
 20
1184.567358
 11
856.304816
 21
1185.242636
  0
LINE
  8
CSLAYER1
  6
CONTINUOUS
 62
     3
 10
856.304816
 20
1185.242636
 11
855.461096
 21
1185.884706
  0
LINE
  8
CSLAYER1
  6
CONTINUOUS
 62
     3
 10
855.461096
 20
1185.884706
 11
854.505159
 21
1186.488682
  0
LINE
  8
CSLAYER1
  6
CONTINUOUS
 62
     3
 10
854.505159
 20
1186.488682
 11
853.444281
 21
1187.049968
  0
LINE
  8
CSLAYER1
  6
CONTINUOUS
 62
     3
 10
853.444281
 20
1187.049968
 11
852.286536
 21
1187.564292
  0
LINE
  8
CSLAYER1
  6
CONTINUOUS
 62
     3
 10
852.286536
 20
1187.564292
 11
851.040735
 21
1188.027739
  0
LINE
  8
CSLAYER1
  6
CONTINUOUS
 62
     3
 10
851.040735
 20
1188.027739
 11
849.716359
 21
1188.436783
  0
LINE
  8
CSLAYER1
  6
CONTINUOUS
 62
     3
 10
849.716359
 20
1188.436783
 11
848.323488
 21
1188.788310
  0
LINE
  8
CSLAYER1
  6
CONTINUOUS
 62
     3
 10
848.323488
 20
1188.788310
 11
846.872722
 21
1189.079646
  0
LINE
  8
CSLAYER1
  6
CONTINUOUS
 62
     3
 10
846.872722
 20
1189.079646
 11
845.375102
 21
1189.308572
  0
LINE
  8
CSLAYER1
  6
CONTINUOUS
 62
     3
 10
845.375102
 20
1189.308572
 11
843.842026
 21
1189.473346
  0
LINE
  8
CSLAYER1
  6
CONTINUOUS
 62
     3
 10
843.842026
 20
1189.473346
 11
842.285162
 21
1189.572715
  0
LINE
  8
CSLAYER1
  6
CONTINUOUS
 62
     3
 10
842.285162
 20
1189.572715
 11
840.716359
 21
1189.605922
  0
LINE
  8
CSLAYER1
  6
CONTINUOUS
 62
     3
 10
840.716359
 20
1189.605922
 11
839.147556
 21
1189.572715
  0
LINE
  8
CSLAYER1
  6
CONTINUOUS
 62
     3
 10
839.147556
 20
1189.572715
 11
837.590692
 21
1189.473346
  0
LINE
  8
CSLAYER1
  6
CONTINUOUS
 62
     3
 10
837.590692
 20
1189.473346
 11
836.057616
 21
1189.308572
  0
LINE
  8
CSLAYER1
  6
CONTINUOUS
 62
     3
 10
836.057616
 20
1189.308572
 11
834.559996
 21
1189.079646
  0
LINE
  8
CSLAYER1
  6
CONTINUOUS
 62
     3
 10
834.559996
 20
1189.079646
 11
833.109230
 21
1188.788310
  0
LINE
  8
CSLAYER1
  6
CONTINUOUS
 62
     3
 10
833.109230
 20
1188.788310
 11
831.716359
 21
1188.436783
  0
LINE
  8
CSLAYER1
  6
CONTINUOUS
 62
     3
 10
831.716359
 20
1188.436783
 11
830.391983
 21
1188.027739
  0
LINE
  8
CSLAYER1
  6
CONTINUOUS
 62
     3
 10
830.391983
 20
1188.027739
 11
829.146182
 21
1187.564292
  0
LINE
  8
CSLAYER1
  6
CONTINUOUS
 62
     3
 10
829.146182
 20
1187.564292
 11
827.988437
 21
1187.049968
  0
LINE
  8
CSLAYER1
  6
CONTINUOUS
 62
     3
 10
827.988437
 20
1187.049968
 11
826.927559
 21
1186.488682
  0
LINE
  8
CSLAYER1
  6
CONTINUOUS
 62
     3
 10
826.927559
 20
1186.488682
 11
825.971622
 21
1185.884706
  0
LINE
  8
CSLAYER1
  6
CONTINUOUS
 62
     3
 10
825.971622
 20
1185.884706
 11
825.127902
 21
1185.242636
  0
LINE
  8
CSLAYER1
  6
CONTINUOUS
 62
     3
 10
825.127902
 20
1185.242636
 11
824.402819
 21
1184.567358
  0
LINE
  8
CSLAYER1
  6
CONTINUOUS
 62
     3
 10
824.402819
 20
1184.567358
 11
823.801892
 21
1183.864013
  0
LINE
  8
CSLAYER1
  6
CONTINUOUS
 62
     3
 10
823.801892
 20
1183.864013
 11
823.329694
 21
1183.137953
  0
LINE
  8
CSLAYER1
  6
CONTINUOUS
 62
     3
 10
823.329694
 20
1183.137953
 11
822.989819
 21
1182.394703
  0
LINE
  8
CSLAYER1
  6
CONTINUOUS
 62
     3
 10
822.989819
 20
1182.394703
 11
822.784854
 21
1181.639920
  0
LINE
  8
CSLAYER1
  6
CONTINUOUS
 62
     3
 10
822.784854
 20
1181.639920
 11
822.716359
 21
1180.879349
  0
LINE
  8
CSLAYER1
  6
CONTINUOUS
 62
     3
 10
868.216359
 20
1041.948949
 11
868.216359
 21
1011.360053
  0
LINE
  8
CSLAYER1
  6
CONTINUOUS
 62
     3
 10
868.216359
 20
1041.948949
 11
868.111713
 21
1043.110933
  0
LINE
  8
CSLAYER1
  6
CONTINUOUS
 62
     3
 10
868.111713
 20
1043.110933
 11
867.798572
 21
1044.264073
  0
LINE
  8
CSLAYER1
  6
CONTINUOUS
 62
     3
 10
867.798572
 20
1044.264073
 11
867.279319
 21
1045.399593
  0
LINE
  8
CSLAYER1
  6
CONTINUOUS
 62
     3
 10
867.279319
 20
1045.399593
 11
866.557906
 21
1046.508852
  0
LINE
  8
CSLAYER1
  6
CONTINUOUS
 62
     3
 10
866.557906
 20
1046.508852
 11
865.639823
 21
1047.583408
  0
LINE
  8
CSLAYER1
  6
CONTINUOUS
 62
     3
 10
865.639823
 20
1047.583408
 11
864.532058
 21
1048.615082
  0
LINE
  8
CSLAYER1
  6
CONTINUOUS
 62
     3
 10
864.532058
 20
1048.615082
 11
863.243040
 21
1049.596022
  0
LINE
  8
CSLAYER1
  6
CONTINUOUS
 62
     3
 10
863.243040
 20
1049.596022
 11
861.782581
 21
1050.518764
  0
LINE
  8
CSLAYER1
  6
CONTINUOUS
 62
     3
 10
861.782581
 20
1050.518764
 11
860.161795
 21
1051.376284
  0
LINE
  8
CSLAYER1
  6
CONTINUOUS
 62
     3
 10
860.161795
 20
1051.376284
 11
858.393018
 21
1052.162057
  0
LINE
  8
CSLAYER1
  6
CONTINUOUS
 62
     3
 10
858.393018
 20
1052.162057
 11
856.489711
 21
1052.870101
  0
LINE
  8
CSLAYER1
  6
CONTINUOUS
 62
     3
 10
856.489711
 20
1052.870101
 11
854.466359
 21
1053.495029
  0
LINE
  8
CSLAYER1
  6
CONTINUOUS
 62
     3
 10
854.466359
 20
1053.495029
 11
852.338361
 21
1054.032085
  0
LINE
  8
CSLAYER1
  6
CONTINUOUS
 62
     3
 10
852.338361
 20
1054.032085
 11
850.121913
 21
1054.477180
  0
LINE
  8
CSLAYER1
  6
CONTINUOUS
 62
     3
 10
850.121913
 20
1054.477180
 11
847.833883
 21
1054.826928
  0
LINE
  8
CSLAYER1
  6
CONTINUOUS
 62
     3
 10
847.833883
 20
1054.826928
 11
845.491684
 21
1055.078667
  0
LINE
  8
CSLAYER1
  6
CONTINUOUS
 62
     3
 10
845.491684
 20
1055.078667
 11
843.113142
 21
1055.230481
  0
LINE
  8
CSLAYER1
  6
CONTINUOUS
 62
     3
 10
843.113142
 20
1055.230481
 11
840.716359
 21
1055.281214
  0
LINE
  8
CSLAYER1
  6
CONTINUOUS
 62
     3
 10
840.716359
 20
1055.281214
 11
838.319576
 21
1055.230481
  0
LINE
  8
CSLAYER1
  6
CONTINUOUS
 62
     3
 10
838.319576
 20
1055.230481
 11
835.941034
 21
1055.078667
  0
LINE
  8
CSLAYER1
  6
CONTINUOUS
 62
     3
 10
835.941034
 20
1055.078667
 11
833.598835
 21
1054.826928
  0
LINE
  8
CSLAYER1
  6
CONTINUOUS
 62
     3
 10
833.598835
 20
1054.826928
 11
831.310805
 21
1054.477180
  0
LINE
  8
CSLAYER1
  6
CONTINUOUS
 62
     3
 10
831.310805
 20
1054.477180
 11
829.094357
 21
1054.032085
  0
LINE
  8
CSLAYER1
  6
CONTINUOUS
 62
     3
 10
829.094357
 20
1054.032085
 11
826.966359
 21
1053.495029
  0
LINE
  8
CSLAYER1
  6
CONTINUOUS
 62
     3
 10
826.966359
 20
1053.495029
 11
824.943007
 21
1052.870101
  0
LINE
  8
CSLAYER1
  6
CONTINUOUS
 62
     3
 10
824.943007
 20
1052.870101
 11
823.039700
 21
1052.162057
  0
LINE
  8
CSLAYER1
  6
CONTINUOUS
 62
     3
 10
823.039700
 20
1052.162057
 11
821.270922
 21
1051.376284
  0
LINE
  8
CSLAYER1
  6
CONTINUOUS
 62
     3
 10
821.270922
 20
1051.376284
 11
819.650137
 21
1050.518764
  0
LINE
  8
CSLAYER1
  6
CONTINUOUS
 62
     3
 10
819.650137
 20
1050.518764
 11
818.189678
 21
1049.596022
  0
LINE
  8
CSLAYER1
  6
CONTINUOUS
 62
     3
 10
818.189678
 20
1049.596022
 11
816.900660
 21
1048.615082
  0
LINE
  8
CSLAYER1
  6
CONTINUOUS
 62
     3
 10
816.900660
 20
1048.615082
 11
815.792895
 21
1047.583408
  0
LINE
  8
CSLAYER1
  6
CONTINUOUS
 62
     3
 10
815.792895
 20
1047.583408
 11
814.874812
 21
1046.508852
  0
LINE
  8
CSLAYER1
  6
CONTINUOUS
 62
     3
 10
814.874812
 20
1046.508852
 11
814.153399
 21
1045.399593
  0
LINE
  8
CSLAYER1
  6
CONTINUOUS
 62
     3
 10
814.153399
 20
1045.399593
 11
813.634146
 21
1044.264073
  0
LINE
  8
CSLAYER1
  6
CONTINUOUS
 62
     3
 10
813.634146
 20
1044.264073
 11
813.321005
 21
1043.110933
  0
LINE
  8
CSLAYER1
  6
CONTINUOUS
 62
     3
 10
813.321005
 20
1043.110933
 11
813.216359
 21
1041.948949
  0
LINE
  8
CSLAYER1
  6
CONTINUOUS
 62
     3
 10
813.216359
 20
1041.948949
 11
813.216359
 21
1011.360053
  0
LINE
  8
CSLAYER1
  6
CONTINUOUS
 62
     3
 10
865.016359
 20
917.047174
 11
865.016359
 21
1011.360053
  0
LINE
  8
CSLAYER1
  6
CONTINUOUS
 62
     3
 10
868.216359
 20
1011.360053
 11
868.111713
 21
1012.522037
  0
LINE
  8
CSLAYER1
  6
CONTINUOUS
 62
     3
 10
868.111713
 20
1012.522037
 11
867.798572
 21
1013.675177
  0
LINE
  8
CSLAYER1
  6
CONTINUOUS
 62
     3
 10
867.798572
 20
1013.675177
 11
867.279319
 21
1014.810697
  0
LINE
  8
CSLAYER1
  6
CONTINUOUS
 62
     3
 10
867.279319
 20
1014.810697
 11
866.557906
 21
1015.919957
  0
LINE
  8
CSLAYER1
  6
CONTINUOUS
 62
     3
 10
866.557906
 20
1015.919957
 11
865.639823
 21
1016.994512
  0
LINE
  8
CSLAYER1
  6
CONTINUOUS
 62
     3
 10
865.639823
 20
1016.994512
 11
864.532058
 21
1018.026186
  0
LINE
  8
CSLAYER1
  6
CONTINUOUS
 62
     3
 10
864.532058
 20
1018.026186
 11
863.243040
 21
1019.007126
  0
LINE
  8
CSLAYER1
  6
CONTINUOUS
 62
     3
 10
863.243040
 20
1019.007126
 11
861.782581
 21
1019.929868
  0
LINE
  8
CSLAYER1
  6
CONTINUOUS
 62
     3
 10
861.782581
 20
1019.929868
 11
860.161795
 21
1020.787388
  0
LINE
  8
CSLAYER1
  6
CONTINUOUS
 62
     3
 10
860.161795
 20
1020.787388
 11
858.393018
 21
1021.573161
  0
LINE
  8
CSLAYER1
  6
CONTINUOUS
 62
     3
 10
858.393018
 20
1021.573161
 11
856.489711
 21
1022.281205
  0
LINE
  8
CSLAYER1
  6
CONTINUOUS
 62
     3
 10
856.489711
 20
1022.281205
 11
854.466359
 21
1022.906133
  0
LINE
  8
CSLAYER1
  6
CONTINUOUS
 62
     3
 10
854.466359
 20
1022.906133
 11
852.338361
 21
1023.443189
  0
LINE
  8
CSLAYER1
  6
CONTINUOUS
 62
     3
 10
852.338361
 20
1023.443189
 11
850.121913
 21
1023.888284
  0
LINE
  8
CSLAYER1
  6
CONTINUOUS
 62
     3
 10
850.121913
 20
1023.888284
 11
847.833883
 21
1024.238032
  0
LINE
  8
CSLAYER1
  6
CONTINUOUS
 62
     3
 10
847.833883
 20
1024.238032
 11
845.491684
 21
1024.489771
  0
LINE
  8
CSLAYER1
  6
CONTINUOUS
 62
     3
 10
845.491684
 20
1024.489771
 11
843.113142
 21
1024.641585
  0
LINE
  8
CSLAYER1
  6
CONTINUOUS
 62
     3
 10
843.113142
 20
1024.641585
 11
840.716359
 21
1024.692318
  0
LINE
  8
CSLAYER1
  6
CONTINUOUS
 62
     3
 10
840.716359
 20
1024.692318
 11
838.319576
 21
1024.641585
  0
LINE
  8
CSLAYER1
  6
CONTINUOUS
 62
     3
 10
838.319576
 20
1024.641585
 11
835.941034
 21
1024.489771
  0
LINE
  8
CSLAYER1
  6
CONTINUOUS
 62
     3
 10
835.941034
 20
1024.489771
 11
833.598835
 21
1024.238032
  0
LINE
  8
CSLAYER1
  6
CONTINUOUS
 62
     3
 10
833.598835
 20
1024.238032
 11
831.310805
 21
1023.888284
  0
LINE
  8
CSLAYER1
  6
CONTINUOUS
 62
     3
 10
831.310805
 20
1023.888284
 11
829.094357
 21
1023.443189
  0
LINE
  8
CSLAYER1
  6
CONTINUOUS
 62
     3
 10
829.094357
 20
1023.443189
 11
826.966359
 21
1022.906133
  0
LINE
  8
CSLAYER1
  6
CONTINUOUS
 62
     3
 10
826.966359
 20
1022.906133
 11
824.943007
 21
1022.281205
  0
LINE
  8
CSLAYER1
  6
CONTINUOUS
 62
     3
 10
824.943007
 20
1022.281205
 11
823.039700
 21
1021.573161
  0
LINE
  8
CSLAYER1
  6
CONTINUOUS
 62
     3
 10
823.039700
 20
1021.573161
 11
821.270922
 21
1020.787388
  0
LINE
  8
CSLAYER1
  6
CONTINUOUS
 62
     3
 10
821.270922
 20
1020.787388
 11
819.650137
 21
1019.929868
  0
LINE
  8
CSLAYER1
  6
CONTINUOUS
 62
     3
 10
819.650137
 20
1019.929868
 11
818.189678
 21
1019.007126
  0
LINE
  8
CSLAYER1
  6
CONTINUOUS
 62
     3
 10
818.189678
 20
1019.007126
 11
816.900660
 21
1018.026186
  0
LINE
  8
CSLAYER1
  6
CONTINUOUS
 62
     3
 10
816.900660
 20
1018.026186
 11
815.792895
 21
1016.994512
  0
LINE
  8
CSLAYER1
  6
CONTINUOUS
 62
     3
 10
815.792895
 20
1016.994512
 11
814.874812
 21
1015.919957
  0
LINE
  8
CSLAYER1
  6
CONTINUOUS
 62
     3
 10
814.874812
 20
1015.919957
 11
814.153399
 21
1014.810697
  0
LINE
  8
CSLAYER1
  6
CONTINUOUS
 62
     3
 10
814.153399
 20
1014.810697
 11
813.634146
 21
1013.675177
  0
LINE
  8
CSLAYER1
  6
CONTINUOUS
 62
     3
 10
813.634146
 20
1013.675177
 11
813.321005
 21
1012.522037
  0
LINE
  8
CSLAYER1
  6
CONTINUOUS
 62
     3
 10
813.321005
 20
1012.522037
 11
813.216359
 21
1011.360053
  0
LINE
  8
CSLAYER1
  6
CONTINUOUS
 62
     3
 10
813.216359
 20
1011.360053
 11
813.321005
 21
1010.198070
  0
LINE
  8
CSLAYER1
  6
CONTINUOUS
 62
     3
 10
813.321005
 20
1010.198070
 11
813.634146
 21
1009.044930
  0
LINE
  8
CSLAYER1
  6
CONTINUOUS
 62
     3
 10
813.634146
 20
1009.044930
 11
814.153399
 21
1007.909409
  0
LINE
  8
CSLAYER1
  6
CONTINUOUS
 62
     3
 10
814.153399
 20
1007.909409
 11
814.874812
 21
1006.800150
  0
LINE
  8
CSLAYER1
  6
CONTINUOUS
 62
     3
 10
814.874812
 20
1006.800150
 11
815.792895
 21
1005.725595
  0
LINE
  8
CSLAYER1
  6
CONTINUOUS
 62
     3
 10
815.792895
 20
1005.725595
 11
816.416359
 21
1005.144956
  0
LINE
  8
CSLAYER1
  6
CONTINUOUS
 62
     3
 10
865.016359
 20
1005.144956
 11
865.639823
 21
1005.725595
  0
LINE
  8
CSLAYER1
  6
CONTINUOUS
 62
     3
 10
865.639823
 20
1005.725595
 11
866.557906
 21
1006.800150
  0
LINE
  8
CSLAYER1
  6
CONTINUOUS
 62
     3
 10
866.557906
 20
1006.800150
 11
867.279319
 21
1007.909409
  0
LINE
  8
CSLAYER1
  6
CONTINUOUS
 62
     3
 10
867.279319
 20
1007.909409
 11
867.798572
 21
1009.044930
  0
LINE
  8
CSLAYER1
  6
CONTINUOUS
 62
     3
 10
867.798572
 20
1009.044930
 11
868.111713
 21
1010.198070
  0
LINE
  8
CSLAYER1
  6
CONTINUOUS
 62
     3
 10
868.111713
 20
1010.198070
 11
868.216359
 21
1011.360053
  0
LINE
  8
CSLAYER1
  6
CONTINUOUS
 62
     3
 10
865.016359
 20
1011.360053
 11
864.923890
 21
1012.386824
  0
LINE
  8
CSLAYER1
  6
CONTINUOUS
 62
     3
 10
864.923890
 20
1012.386824
 11
864.647187
 21
1013.405781
  0
LINE
  8
CSLAYER1
  6
CONTINUOUS
 62
     3
 10
864.647187
 20
1013.405781
 11
864.188357
 21
1014.409168
  0
LINE
  8
CSLAYER1
  6
CONTINUOUS
 62
     3
 10
864.188357
 20
1014.409168
 11
863.550890
 21
1015.389350
  0
LINE
  8
CSLAYER1
  6
CONTINUOUS
 62
     3
 10
863.550890
 20
1015.389350
 11
862.739638
 21
1016.338866
  0
LINE
  8
CSLAYER1
  6
CONTINUOUS
 62
     3
 10
862.739638
 20
1016.338866
 11
861.760776
 21
1017.250490
  0
LINE
  8
CSLAYER1
  6
CONTINUOUS
 62
     3
 10
861.760776
 20
1017.250490
 11
860.621754
 21
1018.117285
  0
LINE
  8
CSLAYER1
  6
CONTINUOUS
 62
     3
 10
860.621754
 20
1018.117285
 11
859.331239
 21
1018.932653
  0
LINE
  8
CSLAYER1
  6
CONTINUOUS
 62
     3
 10
859.331239
 20
1018.932653
 11
857.899054
 21
1019.690389
  0
LINE
  8
CSLAYER1
  6
CONTINUOUS
 62
     3
 10
857.899054
 20
1019.690389
 11
856.336098
 21
1020.384726
  0
LINE
  8
CSLAYER1
  6
CONTINUOUS
 62
     3
 10
856.336098
 20
1020.384726
 11
854.654266
 21
1021.010380
  0
LINE
  8
CSLAYER1
  6
CONTINUOUS
 62
     3
 10
854.654266
 20
1021.010380
 11
852.866359
 21
1021.562589
  0
LINE
  8
CSLAYER1
  6
CONTINUOUS
 62
     3
 10
852.866359
 20
1021.562589
 11
850.985983
 21
1022.037151
  0
LINE
  8
CSLAYER1
  6
CONTINUOUS
 62
     3
 10
850.985983
 20
1022.037151
 11
849.027448
 21
1022.430454
  0
LINE
  8
CSLAYER1
  6
CONTINUOUS
 62
     3
 10
849.027448
 20
1022.430454
 11
847.005662
 21
1022.739504
  0
LINE
  8
CSLAYER1
  6
CONTINUOUS
 62
     3
 10
847.005662
 20
1022.739504
 11
844.936010
 21
1022.961949
  0
LINE
  8
CSLAYER1
  6
CONTINUOUS
 62
     3
 10
844.936010
 20
1022.961949
 11
842.834244
 21
1023.096097
  0
LINE
  8
CSLAYER1
  6
CONTINUOUS
 62
     3
 10
842.834244
 20
1023.096097
 11
840.716359
 21
1023.140927
  0
LINE
  8
CSLAYER1
  6
CONTINUOUS
 62
     3
 10
840.716359
 20
1023.140927
 11
838.598474
 21
1023.096097
  0
LINE
  8
CSLAYER1
  6
CONTINUOUS
 62
     3
 10
838.598474
 20
1023.096097
 11
836.496708
 21
1022.961949
  0
LINE
  8
CSLAYER1
  6
CONTINUOUS
 62
     3
 10
836.496708
 20
1022.961949
 11
834.427056
 21
1022.739504
  0
LINE
  8
CSLAYER1
  6
CONTINUOUS
 62
     3
 10
834.427056
 20
1022.739504
 11
832.405269
 21
1022.430454
  0
LINE
  8
CSLAYER1
  6
CONTINUOUS
 62
     3
 10
832.405269
 20
1022.430454
 11
830.446735
 21
1022.037151
  0
LINE
  8
CSLAYER1
  6
CONTINUOUS
 62
     3
 10
830.446735
 20
1022.037151
 11
828.566359
 21
1021.562589
  0
LINE
  8
CSLAYER1
  6
CONTINUOUS
 62
     3
 10
828.566359
 20
1021.562589
 11
826.778452
 21
1021.010380
  0
LINE
  8
CSLAYER1
  6
CONTINUOUS
 62
     3
 10
826.778452
 20
1021.010380
 11
825.096620
 21
1020.384726
  0
LINE
  8
CSLAYER1
  6
CONTINUOUS
 62
     3
 10
825.096620
 20
1020.384726
 11
823.533664
 21
1019.690389
  0
LINE
  8
CSLAYER1
  6
CONTINUOUS
 62
     3
 10
823.533664
 20
1019.690389
 11
822.101479
 21
1018.932653
  0
LINE
  8
CSLAYER1
  6
CONTINUOUS
 62
     3
 10
822.101479
 20
1018.932653
 11
820.810964
 21
1018.117285
  0
LINE
  8
CSLAYER1
  6
CONTINUOUS
 62
     3
 10
820.810964
 20
1018.117285
 11
819.671942
 21
1017.250490
  0
LINE
  8
CSLAYER1
  6
CONTINUOUS
 62
     3
 10
819.671942
 20
1017.250490
 11
818.693080
 21
1016.338866
  0
LINE
  8
CSLAYER1
  6
CONTINUOUS
 62
     3
 10
818.693080
 20
1016.338866
 11
817.881828
 21
1015.389350
  0
LINE
  8
CSLAYER1
  6
CONTINUOUS
 62
     3
 10
817.881828
 20
1015.389350
 11
817.244361
 21
1014.409168
  0
LINE
  8
CSLAYER1
  6
CONTINUOUS
 62
     3
 10
817.244361
 20
1014.409168
 11
816.785531
 21
1013.405781
  0
LINE
  8
CSLAYER1
  6
CONTINUOUS
 62
     3
 10
816.785531
 20
1013.405781
 11
816.508828
 21
1012.386824
  0
LINE
  8
CSLAYER1
  6
CONTINUOUS
 62
     3
 10
816.508828
 20
1012.386824
 11
816.416359
 21
1011.360053
  0
LINE
  8
CSLAYER1
  6
CONTINUOUS
 62
     3
 10
816.416359
 20
917.047174
 11
816.416359
 21
1011.360053
  0
LINE
  8
CSLAYER1
  6
CONTINUOUS
 62
     3
 10
822.716359
 20
1066.355092
 11
822.716359
 21
1180.879349
  0
LINE
  8
CSLAYER1
  6
CONTINUOUS
 62
     3
 10
863.216359
 20
886.458278
 11
863.216359
 21
917.047174
  0
LINE
  8
CSLAYER1
  6
CONTINUOUS
 62
     3
 10
863.216359
 20
917.047174
 11
863.130740
 21
917.997888
  0
LINE
  8
CSLAYER1
  6
CONTINUOUS
 62
     3
 10
863.130740
 20
917.997888
 11
862.874533
 21
918.941366
  0
LINE
  8
CSLAYER1
  6
CONTINUOUS
 62
     3
 10
862.874533
 20
918.941366
 11
862.449690
 21
919.870428
  0
LINE
  8
CSLAYER1
  6
CONTINUOUS
 62
     3
 10
862.449690
 20
919.870428
 11
861.859443
 21
920.778004
  0
LINE
  8
CSLAYER1
  6
CONTINUOUS
 62
     3
 10
861.859443
 20
920.778004
 11
861.108284
 21
921.657186
  0
LINE
  8
CSLAYER1
  6
CONTINUOUS
 62
     3
 10
861.108284
 20
921.657186
 11
860.201931
 21
922.501282
  0
LINE
  8
CSLAYER1
  6
CONTINUOUS
 62
     3
 10
860.201931
 20
922.501282
 11
859.147280
 21
923.303870
  0
LINE
  8
CSLAYER1
  6
CONTINUOUS
 62
     3
 10
859.147280
 20
923.303870
 11
857.952359
 21
924.058841
  0
LINE
  8
CSLAYER1
  6
CONTINUOUS
 62
     3
 10
857.952359
 20
924.058841
 11
856.626262
 21
924.760448
  0
LINE
  8
CSLAYER1
  6
CONTINUOUS
 62
     3
 10
856.626262
 20
924.760448
 11
855.179080
 21
925.403353
  0
LINE
  8
CSLAYER1
  6
CONTINUOUS
 62
     3
 10
855.179080
 20
925.403353
 11
853.621829
 21
925.982662
  0
LINE
  8
CSLAYER1
  6
CONTINUOUS
 62
     3
 10
853.621829
 20
925.982662
 11
851.966359
 21
926.493967
  0
LINE
  8
CSLAYER1
  6
CONTINUOUS
 62
     3
 10
851.966359
 20
926.493967
 11
850.225270
 21
926.933376
  0
LINE
  8
CSLAYER1
  6
CONTINUOUS
 62
     3
 10
850.225270
 20
926.933376
 11
848.411812
 21
927.297545
  0
LINE
  8
CSLAYER1
  6
CONTINUOUS
 62
     3
 10
848.411812
 20
927.297545
 11
846.539787
 21
927.583702
  0
LINE
  8
CSLAYER1
  6
CONTINUOUS
 62
     3
 10
846.539787
 20
927.583702
 11
844.623443
 21
927.789670
  0
LINE
  8
CSLAYER1
  6
CONTINUOUS
 62
     3
 10
844.623443
 20
927.789670
 11
842.677363
 21
927.913882
  0
LINE
  8
CSLAYER1
  6
CONTINUOUS
 62
     3
 10
842.677363
 20
927.913882
 11
840.716359
 21
927.955391
  0
LINE
  8
CSLAYER1
  6
CONTINUOUS
 62
     3
 10
840.716359
 20
927.955391
 11
838.755355
 21
927.913882
  0
LINE
  8
CSLAYER1
  6
CONTINUOUS
 62
     3
 10
838.755355
 20
927.913882
 11
836.809275
 21
927.789670
  0
LINE
  8
CSLAYER1
  6
CONTINUOUS
 62
     3
 10
836.809275
 20
927.789670
 11
834.892930
 21
927.583702
  0
LINE
  8
CSLAYER1
  6
CONTINUOUS
 62
     3
 10
834.892930
 20
927.583702
 11
833.020906
 21
927.297545
  0
LINE
  8
CSLAYER1
  6
CONTINUOUS
 62
     3
 10
833.020906
 20
927.297545
 11
831.207448
 21
926.933376
  0
LINE
  8
CSLAYER1
  6
CONTINUOUS
 62
     3
 10
831.207448
 20
926.933376
 11
829.466359
 21
926.493967
  0
LINE
  8
CSLAYER1
  6
CONTINUOUS
 62
     3
 10
829.466359
 20
926.493967
 11
827.810889
 21
925.982662
  0
LINE
  8
CSLAYER1
  6
CONTINUOUS
 62
     3
 10
827.810889
 20
925.982662
 11
826.253638
 21
925.403353
  0
LINE
  8
CSLAYER1
  6
CONTINUOUS
 62
     3
 10
826.253638
 20
925.403353
 11
824.806456
 21
924.760448
  0
LINE
  8
CSLAYER1
  6
CONTINUOUS
 62
     3
 10
824.806456
 20
924.760448
 11
823.480359
 21
924.058841
  0
LINE
  8
CSLAYER1
  6
CONTINUOUS
 62
     3
 10
823.480359
 20
924.058841
 11
822.285438
 21
923.303870
  0
LINE
  8
CSLAYER1
  6
CONTINUOUS
 62
     3
 10
822.285438
 20
923.303870
 11
821.230787
 21
922.501282
  0
LINE
  8
CSLAYER1
  6
CONTINUOUS
 62
     3
 10
821.230787
 20
922.501282
 11
820.324434
 21
921.657186
  0
LINE
  8
CSLAYER1
  6
CONTINUOUS
 62
     3
 10
820.324434
 20
921.657186
 11
819.573275
 21
920.778004
  0
LINE
  8
CSLAYER1
  6
CONTINUOUS
 62
     3
 10
819.573275
 20
920.778004
 11
818.983028
 21
919.870428
  0
LINE
  8
CSLAYER1
  6
CONTINUOUS
 62
     3
 10
818.983028
 20
919.870428
 11
818.558185
 21
918.941366
  0
LINE
  8
CSLAYER1
  6
CONTINUOUS
 62
     3
 10
818.558185
 20
918.941366
 11
818.301978
 21
917.997888
  0
LINE
  8
CSLAYER1
  6
CONTINUOUS
 62
     3
 10
818.301978
 20
917.997888
 11
818.216359
 21
917.047174
  0
LINE
  8
CSLAYER1
  6
CONTINUOUS
 62
     3
 10
865.016359
 20
917.047174
 11
864.923890
 21
918.073945
  0
LINE
  8
CSLAYER1
  6
CONTINUOUS
 62
     3
 10
864.923890
 20
918.073945
 11
864.647187
 21
919.092901
  0
LINE
  8
CSLAYER1
  6
CONTINUOUS
 62
     3
 10
864.647187
 20
919.092901
 11
864.188357
 21
920.096289
  0
LINE
  8
CSLAYER1
  6
CONTINUOUS
 62
     3
 10
864.188357
 20
920.096289
 11
863.550890
 21
921.076470
  0
LINE
  8
CSLAYER1
  6
CONTINUOUS
 62
     3
 10
863.550890
 20
921.076470
 11
862.739638
 21
922.025987
  0
LINE
  8
CSLAYER1
  6
CONTINUOUS
 62
     3
 10
862.739638
 20
922.025987
 11
861.760776
 21
922.937611
  0
LINE
  8
CSLAYER1
  6
CONTINUOUS
 62
     3
 10
861.760776
 20
922.937611
 11
860.621754
 21
923.804406
  0
LINE
  8
CSLAYER1
  6
CONTINUOUS
 62
     3
 10
860.621754
 20
923.804406
 11
859.331239
 21
924.619774
  0
LINE
  8
CSLAYER1
  6
CONTINUOUS
 62
     3
 10
859.331239
 20
924.619774
 11
857.899054
 21
925.377510
  0
LINE
  8
CSLAYER1
  6
CONTINUOUS
 62
     3
 10
857.899054
 20
925.377510
 11
856.336098
 21
926.071847
  0
LINE
  8
CSLAYER1
  6
CONTINUOUS
 62
     3
 10
856.336098
 20
926.071847
 11
854.654266
 21
926.697501
  0
LINE
  8
CSLAYER1
  6
CONTINUOUS
 62
     3
 10
854.654266
 20
926.697501
 11
852.866359
 21
927.249710
  0
LINE
  8
CSLAYER1
  6
CONTINUOUS
 62
     3
 10
852.866359
 20
927.249710
 11
850.985983
 21
927.724272
  0
LINE
  8
CSLAYER1
  6
CONTINUOUS
 62
     3
 10
850.985983
 20
927.724272
 11
849.027448
 21
928.117574
  0
LINE
  8
CSLAYER1
  6
CONTINUOUS
 62
     3
 10
849.027448
 20
928.117574
 11
847.005662
 21
928.426624
  0
LINE
  8
CSLAYER1
  6
CONTINUOUS
 62
     3
 10
847.005662
 20
928.426624
 11
844.936010
 21
928.649070
  0
LINE
  8
CSLAYER1
  6
CONTINUOUS
 62
     3
 10
844.936010
 20
928.649070
 11
842.834244
 21
928.783218
  0
LINE
  8
CSLAYER1
  6
CONTINUOUS
 62
     3
 10
842.834244
 20
928.783218
 11
840.716359
 21
928.828048
  0
LINE
  8
CSLAYER1
  6
CONTINUOUS
 62
     3
 10
840.716359
 20
928.828048
 11
838.598474
 21
928.783218
  0
LINE
  8
CSLAYER1
  6
CONTINUOUS
 62
     3
 10
838.598474
 20
928.783218
 11
836.496708
 21
928.649070
  0
LINE
  8
CSLAYER1
  6
CONTINUOUS
 62
     3
 10
836.496708
 20
928.649070
 11
834.427056
 21
928.426624
  0
LINE
  8
CSLAYER1
  6
CONTINUOUS
 62
     3
 10
834.427056
 20
928.426624
 11
832.405269
 21
928.117574
  0
LINE
  8
CSLAYER1
  6
CONTINUOUS
 62
     3
 10
832.405269
 20
928.117574
 11
830.446735
 21
927.724272
  0
LINE
  8
CSLAYER1
  6
CONTINUOUS
 62
     3
 10
830.446735
 20
927.724272
 11
828.566359
 21
927.249710
  0
LINE
  8
CSLAYER1
  6
CONTINUOUS
 62
     3
 10
828.566359
 20
927.249710
 11
826.778452
 21
926.697501
  0
LINE
  8
CSLAYER1
  6
CONTINUOUS
 62
     3
 10
826.778452
 20
926.697501
 11
825.096620
 21
926.071847
  0
LINE
  8
CSLAYER1
  6
CONTINUOUS
 62
     3
 10
825.096620
 20
926.071847
 11
823.533664
 21
925.377510
  0
LINE
  8
CSLAYER1
  6
CONTINUOUS
 62
     3
 10
823.533664
 20
925.377510
 11
822.101479
 21
924.619774
  0
LINE
  8
CSLAYER1
  6
CONTINUOUS
 62
     3
 10
822.101479
 20
924.619774
 11
820.810964
 21
923.804406
  0
LINE
  8
CSLAYER1
  6
CONTINUOUS
 62
     3
 10
820.810964
 20
923.804406
 11
819.671942
 21
922.937611
  0
LINE
  8
CSLAYER1
  6
CONTINUOUS
 62
     3
 10
819.671942
 20
922.937611
 11
818.693080
 21
922.025987
  0
LINE
  8
CSLAYER1
  6
CONTINUOUS
 62
     3
 10
818.693080
 20
922.025987
 11
817.881828
 21
921.076470
  0
LINE
  8
CSLAYER1
  6
CONTINUOUS
 62
     3
 10
817.881828
 20
921.076470
 11
817.244361
 21
920.096289
  0
LINE
  8
CSLAYER1
  6
CONTINUOUS
 62
     3
 10
817.244361
 20
920.096289
 11
816.785531
 21
919.092901
  0
LINE
  8
CSLAYER1
  6
CONTINUOUS
 62
     3
 10
816.785531
 20
919.092901
 11
816.508828
 21
918.073945
  0
LINE
  8
CSLAYER1
  6
CONTINUOUS
 62
     3
 10
816.508828
 20
918.073945
 11
816.416359
 21
917.047174
  0
LINE
  8
CSLAYER1
  6
CONTINUOUS
 62
     3
 10
816.416359
 20
917.047174
 11
816.508828
 21
916.020403
  0
LINE
  8
CSLAYER1
  6
CONTINUOUS
 62
     3
 10
816.508828
 20
916.020403
 11
816.614119
 21
915.632668
  0
LINE
  8
CSLAYER1
  6
CONTINUOUS
 62
     3
 10
817.716359
 20
913.272307
 11
818.216359
 21
912.626332
  0
LINE
  8
CSLAYER1
  6
CONTINUOUS
 62
     3
 10
863.216359
 20
912.626332
 11
863.716359
 21
913.272307
  0
LINE
  8
CSLAYER1
  6
CONTINUOUS
 62
     3
 10
864.818599
 20
915.632668
 11
864.923890
 21
916.020403
  0
LINE
  8
CSLAYER1
  6
CONTINUOUS
 62
     3
 10
864.923890
 20
916.020403
 11
865.016359
 21
917.047174
  0
LINE
  8
CSLAYER1
  6
CONTINUOUS
 62
     3
 10
818.216359
 20
886.458278
 11
818.216359
 21
917.047174
  0
LINE
  8
CSLAYER1
  6
CONTINUOUS
 62
     3
 10
863.216359
 20
886.458278
 11
863.130740
 21
887.408992
  0
LINE
  8
CSLAYER1
  6
CONTINUOUS
 62
     3
 10
863.130740
 20
887.408992
 11
862.874533
 21
888.352470
  0
LINE
  8
CSLAYER1
  6
CONTINUOUS
 62
     3
 10
862.874533
 20
888.352470
 11
862.449690
 21
889.281532
  0
LINE
  8
CSLAYER1
  6
CONTINUOUS
 62
     3
 10
862.449690
 20
889.281532
 11
861.859443
 21
890.189108
  0
LINE
  8
CSLAYER1
  6
CONTINUOUS
 62
     3
 10
861.859443
 20
890.189108
 11
861.108284
 21
891.068290
  0
LINE
  8
CSLAYER1
  6
CONTINUOUS
 62
     3
 10
861.108284
 20
891.068290
 11
860.201931
 21
891.912386
  0
LINE
  8
CSLAYER1
  6
CONTINUOUS
 62
     3
 10
860.201931
 20
891.912386
 11
859.147280
 21
892.714974
  0
LINE
  8
CSLAYER1
  6
CONTINUOUS
 62
     3
 10
859.147280
 20
892.714974
 11
857.952359
 21
893.469945
  0
LINE
  8
CSLAYER1
  6
CONTINUOUS
 62
     3
 10
857.952359
 20
893.469945
 11
856.626262
 21
894.171552
  0
LINE
  8
CSLAYER1
  6
CONTINUOUS
 62
     3
 10
856.626262
 20
894.171552
 11
855.179080
 21
894.814457
  0
LINE
  8
CSLAYER1
  6
CONTINUOUS
 62
     3
 10
855.179080
 20
894.814457
 11
853.621829
 21
895.393766
  0
LINE
  8
CSLAYER1
  6
CONTINUOUS
 62
     3
 10
853.621829
 20
895.393766
 11
851.966359
 21
895.905071
  0
LINE
  8
CSLAYER1
  6
CONTINUOUS
 62
     3
 10
851.966359
 20
895.905071
 11
850.225270
 21
896.344480
  0
LINE
  8
CSLAYER1
  6
CONTINUOUS
 62
     3
 10
850.225270
 20
896.344480
 11
848.411812
 21
896.708649
  0
LINE
  8
CSLAYER1
  6
CONTINUOUS
 62
     3
 10
848.411812
 20
896.708649
 11
846.539787
 21
896.994806
  0
LINE
  8
CSLAYER1
  6
CONTINUOUS
 62
     3
 10
846.539787
 20
896.994806
 11
844.623443
 21
897.200774
  0
LINE
  8
CSLAYER1
  6
CONTINUOUS
 62
     3
 10
844.623443
 20
897.200774
 11
842.677363
 21
897.324986
  0
LINE
  8
CSLAYER1
  6
CONTINUOUS
 62
     3
 10
842.677363
 20
897.324986
 11
840.716359
 21
897.366495
  0
LINE
  8
CSLAYER1
  6
CONTINUOUS
 62
     3
 10
840.716359
 20
897.366495
 11
838.755355
 21
897.324986
  0
LINE
  8
CSLAYER1
  6
CONTINUOUS
 62
     3
 10
838.755355
 20
897.324986
 11
836.809275
 21
897.200774
  0
LINE
  8
CSLAYER1
  6
CONTINUOUS
 62
     3
 10
836.809275
 20
897.200774
 11
834.892930
 21
896.994806
  0
LINE
  8
CSLAYER1
  6
CONTINUOUS
 62
     3
 10
834.892930
 20
896.994806
 11
833.020906
 21
896.708649
  0
LINE
  8
CSLAYER1
  6
CONTINUOUS
 62
     3
 10
833.020906
 20
896.708649
 11
831.207448
 21
896.344480
  0
LINE
  8
CSLAYER1
  6
CONTINUOUS
 62
     3
 10
831.207448
 20
896.344480
 11
829.466359
 21
895.905071
  0
LINE
  8
CSLAYER1
  6
CONTINUOUS
 62
     3
 10
829.466359
 20
895.905071
 11
827.810889
 21
895.393766
  0
LINE
  8
CSLAYER1
  6
CONTINUOUS
 62
     3
 10
827.810889
 20
895.393766
 11
826.253638
 21
894.814457
  0
LINE
  8
CSLAYER1
  6
CONTINUOUS
 62
     3
 10
826.253638
 20
894.814457
 11
824.806456
 21
894.171552
  0
LINE
  8
CSLAYER1
  6
CONTINUOUS
 62
     3
 10
824.806456
 20
894.171552
 11
823.480359
 21
893.469945
  0
LINE
  8
CSLAYER1
  6
CONTINUOUS
 62
     3
 10
823.480359
 20
893.469945
 11
822.285438
 21
892.714974
  0
LINE
  8
CSLAYER1
  6
CONTINUOUS
 62
     3
 10
822.285438
 20
892.714974
 11
821.230787
 21
891.912386
  0
LINE
  8
CSLAYER1
  6
CONTINUOUS
 62
     3
 10
821.230787
 20
891.912386
 11
820.324434
 21
891.068290
  0
LINE
  8
CSLAYER1
  6
CONTINUOUS
 62
     3
 10
820.324434
 20
891.068290
 11
819.573275
 21
890.189108
  0
LINE
  8
CSLAYER1
  6
CONTINUOUS
 62
     3
 10
819.573275
 20
890.189108
 11
818.983028
 21
889.281532
  0
LINE
  8
CSLAYER1
  6
CONTINUOUS
 62
     3
 10
818.983028
 20
889.281532
 11
818.558185
 21
888.352470
  0
LINE
  8
CSLAYER1
  6
CONTINUOUS
 62
     3
 10
818.558185
 20
888.352470
 11
818.301978
 21
887.408992
  0
LINE
  8
CSLAYER1
  6
CONTINUOUS
 62
     3
 10
818.301978
 20
887.408992
 11
818.216359
 21
886.458278
  0
LINE
  8
CSLAYER1
  6
CONTINUOUS
 62
     3
 10
818.216359
 20
886.458278
 11
818.301978
 21
885.507565
  0
LINE
  8
CSLAYER1
  6
CONTINUOUS
 62
     3
 10
818.301978
 20
885.507565
 11
818.558185
 21
884.564086
  0
LINE
  8
CSLAYER1
  6
CONTINUOUS
 62
     3
 10
818.558185
 20
884.564086
 11
818.983028
 21
883.635024
  0
LINE
  8
CSLAYER1
  6
CONTINUOUS
 62
     3
 10
818.983028
 20
883.635024
 11
819.573275
 21
882.727448
  0
LINE
  8
CSLAYER1
  6
CONTINUOUS
 62
     3
 10
819.573275
 20
882.727448
 11
819.759680
 21
882.509273
  0
LINE
  8
CSLAYER1
  6
CONTINUOUS
 62
     3
 10
861.673038
 20
882.509273
 11
861.859443
 21
882.727448
  0
LINE
  8
CSLAYER1
  6
CONTINUOUS
 62
     3
 10
861.859443
 20
882.727448
 11
862.449690
 21
883.635024
  0
LINE
  8
CSLAYER1
  6
CONTINUOUS
 62
     3
 10
862.449690
 20
883.635024
 11
862.874533
 21
884.564086
  0
LINE
  8
CSLAYER1
  6
CONTINUOUS
 62
     3
 10
862.874533
 20
884.564086
 11
863.130740
 21
885.507565
  0
LINE
  8
CSLAYER1
  6
CONTINUOUS
 62
     3
 10
863.130740
 20
885.507565
 11
863.216359
 21
886.458278
  0
LINE
  8
CSLAYER1
  6
CENTER
 62
     5
 10
800.716359
 20
853.517910
 11
800.716359
 21
995.609899
  0
LINE
  8
CSLAYER1
  6
CONTINUOUS
 62
     3
 10
807.716359
 20
1008.273706
 11
793.716359
 21
1008.273706
  0
LINE
  8
CSLAYER1
  6
CONTINUOUS
 62
     3
 10
807.716359
 20
1000.473706
 11
793.716359
 21
1000.473706
  0
LINE
  8
CSLAYER1
  6
CONTINUOUS
 62
     3
 10
807.148291
 20
995.273706
 11
794.284427
 21
995.273706
  0
LINE
  8
CSLAYER1
  6
CONTINUOUS
 62
     3
 10
806.716359
 20
993.273706
 11
794.716359
 21
993.273706
  0
LINE
  8
CSLAYER1
  6
CONTINUOUS
 62
     3
 10
806.716359
 20
986.273706
 11
794.716359
 21
986.273706
  0
LINE
  8
CSLAYER1
  6
CONTINUOUS
 62
     3
 10
805.599385
 20
961.273706
 11
795.833333
 21
961.273706
  0
LINE
  8
CSLAYER1
  6
CONTINUOUS
 62
     3
 10
806.216359
 20
983.273706
 11
806.216359
 21
986.273706
  0
LINE
  8
CSLAYER1
  6
CONTINUOUS
 62
     3
 10
808.799263
 20
1001.098921
 11
808.799263
 21
1007.648492
  0
LINE
  8
CSLAYER1
  6
CONTINUOUS
 62
     3
 10
804.757811
 20
1001.098921
 11
804.757811
 21
1007.648492
  0
ARC
  8
CSLAYER1
  6
CONTINUOUS
 62
     3
 10
778.028589
 20
1000.515928
 40
29.587800
 50
345.831727
 51
359.918240
  0
ARC
  8
CSLAYER1
  6
CONTINUOUS
 62
     3
 10
823.404129
 20
1000.515928
 40
29.587800
 50
180.081760
 51
194.168273
  0
LINE
  8
CSLAYER1
  6
CONTINUOUS
 62
     3
 10
805.063673
 20
993.273706
 11
805.063673
 21
995.273706
  0
LINE
  8
CSLAYER1
  6
CONTINUOUS
 62
     3
 10
803.081908
 20
993.273706
 11
803.081908
 21
995.273706
  0
LINE
  8
CSLAYER1
  6
CONTINUOUS
 62
     3
 10
796.369045
 20
993.273706
 11
796.369045
 21
995.273706
  0
LINE
  8
CSLAYER1
  6
CONTINUOUS
 62
     3
 10
798.350810
 20
993.273706
 11
798.350810
 21
995.273706
  0
LINE
  8
CSLAYER1
  6
CONTINUOUS
 62
     3
 10
807.716359
 20
1008.273706
 11
808.799263
 21
1007.648492
  0
ARC
  8
CSLAYER1
  6
CONTINUOUS
 62
     3
 10
806.778537
 20
1004.722078
 40
3.556295
 50
64.625569
 51
124.625569
  0
ARC
  8
CSLAYER1
  6
CONTINUOUS
 62
     3
 10
800.716359
 20
994.898921
 40
13.374785
 50
72.412046
 51
107.587954
  0
LINE
  8
CSLAYER1
  6
CONTINUOUS
 62
     3
 10
807.716359
 20
1000.473706
 11
808.799263
 21
1001.098921
  0
ARC
  8
CSLAYER1
  6
CONTINUOUS
 62
     3
 10
806.778537
 20
1004.025335
 40
3.556295
 50
235.374431
 51
295.374431
  0
ARC
  8
CSLAYER1
  6
CONTINUOUS
 62
     3
 10
800.716359
 20
1013.848492
 40
13.374785
 50
252.412046
 51
287.587954
  0
LINE
  8
CSLAYER1
  6
CONTINUOUS
 62
     3
 10
792.633455
 20
1001.098921
 11
792.633455
 21
1007.648492
  0
LINE
  8
CSLAYER1
  6
CONTINUOUS
 62
     3
 10
796.674907
 20
1001.098921
 11
796.674907
 21
1007.648492
  0
LINE
  8
CSLAYER1
  6
CONTINUOUS
 62
     3
 10
793.716359
 20
1008.273706
 11
792.633455
 21
1007.648492
  0
ARC
  8
CSLAYER1
  6
CONTINUOUS
 62
     3
 10
794.654181
 20
1004.722078
 40
3.556295
 50
55.374431
 51
115.374431
  0
LINE
  8
CSLAYER1
  6
CONTINUOUS
 62
     3
 10
793.716359
 20
1000.473706
 11
792.633455
 21
1001.098921
  0
ARC
  8
CSLAYER1
  6
CONTINUOUS
 62
     3
 10
794.654181
 20
1004.025335
 40
3.556295
 50
244.625569
 51
304.625569
  0
LINE
  8
CSLAYER1
  6
CONTINUOUS
 62
     3
 10
807.644562
 20
986.809605
 11
807.644562
 21
992.537808
  0
LINE
  8
CSLAYER1
  6
CONTINUOUS
 62
     3
 10
804.180461
 20
986.809605
 11
804.180461
 21
992.537808
  0
LINE
  8
CSLAYER1
  6
CONTINUOUS
 62
     3
 10
806.716359
 20
986.273706
 11
807.644562
 21
986.809605
  0
ARC
  8
CSLAYER1
  6
CONTINUOUS
 62
     3
 10
800.716359
 20
997.737808
 40
11.464102
 50
252.178595
 51
287.821405
  0
ARC
  8
CSLAYER1
  6
CONTINUOUS
 62
     3
 10
805.912511
 20
989.339635
 40
3.066114
 50
236.143645
 51
295.804157
  0
LINE
  8
CSLAYER1
  6
CONTINUOUS
 62
     3
 10
806.716359
 20
993.073706
 11
807.644562
 21
992.537808
  0
ARC
  8
CSLAYER1
  6
CONTINUOUS
 62
     3
 10
800.716359
 20
981.609605
 40
11.464102
 50
72.178595
 51
107.821405
  0
ARC
  8
CSLAYER1
  6
CONTINUOUS
 62
     3
 10
805.912511
 20
990.007778
 40
3.066114
 50
64.195843
 51
123.856355
  0
LINE
  8
CSLAYER1
  6
CONTINUOUS
 62
     3
 10
806.716359
 20
993.073706
 11
794.716359
 21
993.073706
  0
LINE
  8
CSLAYER1
  6
CONTINUOUS
 62
     3
 10
804.180461
 20
993.073706
 11
804.180461
 21
993.273706
  0
LINE
  8
CSLAYER1
  6
CONTINUOUS
 62
     3
 10
795.216359
 20
983.273706
 11
795.216359
 21
986.273706
  0
LINE
  8
CSLAYER1
  6
CONTINUOUS
 62
     3
 10
793.788156
 20
986.809605
 11
793.788156
 21
992.537808
  0
LINE
  8
CSLAYER1
  6
CONTINUOUS
 62
     3
 10
797.252257
 20
986.809605
 11
797.252257
 21
992.537808
  0
LINE
  8
CSLAYER1
  6
CONTINUOUS
 62
     3
 10
794.716359
 20
986.273706
 11
793.788156
 21
986.809605
  0
ARC
  8
CSLAYER1
  6
CONTINUOUS
 62
     3
 10
795.520207
 20
989.339635
 40
3.066114
 50
244.195843
 51
303.856355
  0
LINE
  8
CSLAYER1
  6
CONTINUOUS
 62
     3
 10
794.716359
 20
993.073706
 11
793.788156
 21
992.537808
  0
ARC
  8
CSLAYER1
  6
CONTINUOUS
 62
     3
 10
795.520207
 20
990.007778
 40
3.066114
 50
56.143645
 51
115.804157
  0
LINE
  8
CSLAYER1
  6
CONTINUOUS
 62
     3
 10
797.252257
 20
993.073706
 11
797.252257
 21
993.273706
  0
LINE
  8
CSLAYER1
  6
CONTINUOUS
 62
     3
 10
807.644562
 20
974.273706
 11
807.644562
 21
982.737808
  0
LINE
  8
CSLAYER1
  6
CONTINUOUS
 62
     3
 10
804.180461
 20
974.273706
 11
804.180461
 21
982.737808
  0
LINE
  8
CSLAYER1
  6
CONTINUOUS
 62
     3
 10
806.716359
 20
983.273706
 11
807.644562
 21
982.737808
  0
ARC
  8
CSLAYER1
  6
CONTINUOUS
 62
     3
 10
800.716359
 20
971.809605
 40
11.464102
 50
72.178595
 51
107.821405
  0
ARC
  8
CSLAYER1
  6
CONTINUOUS
 62
     3
 10
805.912511
 20
980.207778
 40
3.066114
 50
64.195843
 51
123.856355
  0
LINE
  8
CSLAYER1
  6
CONTINUOUS
 62
     3
 10
806.716359
 20
983.273706
 11
794.716359
 21
983.273706
  0
LINE
  8
CSLAYER1
  6
CONTINUOUS
 62
     3
 10
793.788156
 20
974.273706
 11
793.788156
 21
982.737808
  0
LINE
  8
CSLAYER1
  6
CONTINUOUS
 62
     3
 10
797.252257
 20
974.273706
 11
797.252257
 21
982.737808
  0
LINE
  8
CSLAYER1
  6
CONTINUOUS
 62
     3
 10
794.716359
 20
983.273706
 11
793.788156
 21
982.737808
  0
ARC
  8
CSLAYER1
  6
CONTINUOUS
 62
     3
 10
795.520207
 20
980.207778
 40
3.066114
 50
56.143645
 51
115.804157
  0
LINE
  8
CSLAYER1
  6
CONTINUOUS
 62
     3
 10
806.595640
 20
962.187247
 11
807.644562
 21
974.273706
  0
ARC
  8
CSLAYER1
  6
CONTINUOUS
 62
     3
 10
785.538871
 20
974.273706
 40
18.641590
 50
330.443788
 51
360.000000
  0
ARC
  8
CSLAYER1
  6
CONTINUOUS
 62
     3
 10
800.716359
 20
965.713560
 40
1.217263
 50
210.578468
 51
329.421532
  0
ARC
  8
CSLAYER1
  6
CONTINUOUS
 62
     3
 10
822.822051
 20
974.273706
 40
18.641590
 50
180.000000
 51
209.556212
  0
ARC
  8
CSLAYER1
  6
CONTINUOUS
 62
     3
 10
807.644562
 20
965.713560
 40
1.217263
 50
210.578468
 51
227.594217
  0
ARC
  8
CSLAYER1
  6
CONTINUOUS
 62
     3
 10
805.599385
 20
962.273706
 40
1.000000
 50
270.000000
 51
355.040021
  0
LINE
  8
CSLAYER1
  6
CONTINUOUS
 62
     3
 10
794.837078
 20
962.187247
 11
793.788156
 21
974.273706
  0
ARC
  8
CSLAYER1
  6
CONTINUOUS
 62
     3
 10
815.893847
 20
974.273706
 40
18.641590
 50
180.000000
 51
209.556212
  0
ARC
  8
CSLAYER1
  6
CONTINUOUS
 62
     3
 10
778.610667
 20
974.273706
 40
18.641590
 50
330.443788
 51
360.000000
  0
ARC
  8
CSLAYER1
  6
CONTINUOUS
 62
     3
 10
793.788156
 20
965.713560
 40
1.217263
 50
312.405783
 51
329.421532
  0
ARC
  8
CSLAYER1
  6
CONTINUOUS
 62
     3
 10
795.833333
 20
962.273706
 40
1.000000
 50
184.959979
 51
270.000000
  0
LINE
  8
CSLAYER1
  6
CONTINUOUS
 62
     3
 10
807.716359
 20
1027.973706
 11
795.216359
 21
1027.973706
  0
LINE
  8
CSLAYER1
  6
CENTER
 62
     5
 10
813.216359
 20
1020.973706
 11
807.716359
 21
1020.973706
  0
LINE
  8
CSLAYER1
  6
CONTINUOUS
 62
     3
 10
793.716359
 20
1013.973706
 11
793.716359
 21
1026.473706
  0
LINE
  8
CSLAYER1
  6
CONTINUOUS
 62
     3
 10
807.716359
 20
1013.973706
 11
793.716359
 21
1013.973706
  0
LINE
  8
CSLAYER1
  6
CONTINUOUS
 62
     3
 10
807.716359
 20
1013.973706
 11
807.716359
 21
1027.971262
  0
LINE
  8
CSLAYER1
  6
CONTINUOUS
 62
     3
 10
805.316359
 20
1008.273706
 11
805.316359
 21
1013.973706
  0
LINE
  8
CSLAYER1
  6
CONTINUOUS
 62
     5
 10
804.716359
 20
1008.273706
 11
804.716359
 21
1012.934476
  0
LINE
  8
CSLAYER1
  6
CONTINUOUS
 62
     5
 10
805.316359
 20
1013.973706
 11
804.716359
 21
1012.934476
  0
LINE
  8
CSLAYER1
  6
CONTINUOUS
 62
     3
 10
796.116359
 20
1008.273706
 11
796.116359
 21
1013.973706
  0
LINE
  8
CSLAYER1
  6
CONTINUOUS
 62
     5
 10
796.116359
 20
1013.973706
 11
796.716359
 21
1012.934476
  0
LINE
  8
CSLAYER1
  6
CONTINUOUS
 62
     5
 10
805.316359
 20
1012.934476
 11
796.116359
 21
1012.934476
  0
LINE
  8
CSLAYER1
  6
CONTINUOUS
 62
     3
 10
813.216359
 20
1016.121921
 11
807.716359
 21
1016.023706
  0
LINE
  8
CSLAYER1
  6
CONTINUOUS
 62
     5
 10
813.216359
 20
1016.822032
 11
807.703861
 21
1016.723595
  0
LINE
  8
CSLAYER1
  6
CONTINUOUS
 62
     3
 10
813.216359
 20
1025.825492
 11
807.716359
 21
1025.923706
  0
LINE
  8
CSLAYER1
  6
CONTINUOUS
 62
     5
 10
813.216359
 20
1025.125381
 11
807.703861
 21
1025.223818
  0
ARC
  8
CSLAYER1
  6
CONTINUOUS
 62
     3
 10
795.216359
 20
1026.473706
 40
1.500000
 50
90.000000
 51
180.000000
  0
LINE
  8
CSLAYER1
  6
CONTINUOUS
 62
     3
 10
819.216359
 20
1178.944469
 11
822.716359
 21
1178.944469
  0
LINE
  8
CSLAYER1
  6
CONTINUOUS
 62
     3
 10
818.216359
 20
1179.944469
 11
819.216359
 21
1178.944469
  0
LINE
  8
CSLAYER1
  6
CONTINUOUS
 62
     3
 10
862.216359
 20
1178.944469
 11
863.216359
 21
1179.944469
  0
LINE
  8
CSLAYER1
  6
CONTINUOUS
 62
     3
 10
864.216359
 20
1184.544469
 11
863.216359
 21
1184.544469
  0
LINE
  8
CSLAYER1
  6
CONTINUOUS
 62
     3
 10
818.216359
 20
1184.544469
 11
817.216359
 21
1184.544469
  0
LINE
  8
CSLAYER1
  6
CONTINUOUS
 62
     3
 10
805.216359
 20
1209.544469
 11
817.216359
 21
1209.544469
  0
LINE
  8
CSLAYER1
  6
CONTINUOUS
 62
     3
 10
805.216359
 20
1118.136201
 11
817.216359
 21
1118.136201
  0
LINE
  8
CSLAYER1
  6
CONTINUOUS
 62
     3
 10
864.216359
 20
1118.136201
 11
864.216359
 21
1209.544469
  0
LINE
  8
CSLAYER1
  6
CONTINUOUS
 62
     3
 10
817.216359
 20
1118.136201
 11
817.216359
 21
1209.544469
  0
LINE
  8
CSLAYER1
  6
CONTINUOUS
 62
     3
 10
805.216359
 20
1118.136201
 11
805.216359
 21
1209.544469
  0
LINE
  8
CSLAYER1
  6
CONTINUOUS
 62
     3
 10
864.216359
 20
1118.136201
 11
876.216359
 21
1118.136201
  0
LINE
  8
CSLAYER1
  6
CONTINUOUS
 62
     3
 10
858.716359
 20
1088.428123
 11
876.216359
 21
1088.428123
  0
LINE
  8
CSLAYER1
  6
CONTINUOUS
 62
     3
 10
817.216359
 20
1137.028123
 11
822.716359
 21
1137.028123
  0
LINE
  8
CSLAYER1
  6
CONTINUOUS
 62
     3
 10
858.716359
 20
1137.028123
 11
864.216359
 21
1137.028123
  0
LINE
  8
CSLAYER1
  6
CONTINUOUS
 62
     3
 10
864.216359
 20
1209.544469
 11
876.216359
 21
1209.544469
  0
LINE
  8
CSLAYER1
  6
CONTINUOUS
 62
     3
 10
784.216359
 20
1200.544469
 11
805.216359
 21
1200.544469
  0
LINE
  8
CSLAYER1
  6
CONTINUOUS
 62
     3
 10
784.216359
 20
1184.544469
 11
805.216359
 21
1184.544469
  0
LINE
  8
CSLAYER1
  6
CONTINUOUS
 62
     3
 10
876.216359
 20
1297.165610
 11
784.216359
 21
1297.165610
  0
LINE
  8
CSLAYER1
  6
CONTINUOUS
 62
     3
 10
772.216359
 20
1117.748784
 11
775.216359
 21
1117.748784
  0
LINE
  8
CSLAYER1
  6
CONTINUOUS
 62
     3
 10
772.216359
 20
853.517910
 11
772.216359
 21
1387.489511
  0
LINE
  8
CSLAYER1
  6
CONTINUOUS
 62
     3
 10
775.216359
 20
853.517910
 11
775.216359
 21
1402.989511
  0
LINE
  8
CSLAYER1
  6
CONTINUOUS
 62
     3
 10
772.216359
 20
1089.748784
 11
775.216359
 21
1089.748784
  0
LINE
  8
CSLAYER1
  6
CONTINUOUS
 62
     3
 10
774.216359
 20
1389.339511
 11
775.216359
 21
1389.339511
  0
LINE
  8
CSLAYER1
  6
CONTINUOUS
 62
     3
 10
773.216359
 20
1402.989511
 11
773.216359
 21
1390.339511
  0
LINE
  8
CSLAYER1
  6
CONTINUOUS
 62
     3
 10
773.216359
 20
1390.339511
 11
774.216359
 21
1389.339511
  0
LINE
  8
CSLAYER1
  6
CONTINUOUS
 62
     3
 10
774.216359
 20
1402.989511
 11
774.216359
 21
1389.339511
  0
LINE
  8
CSLAYER1
  6
CONTINUOUS
 62
     3
 10
772.716359
 20
1387.489511
 11
766.716359
 21
1387.489511
  0
LINE
  8
CSLAYER1
  6
CONTINUOUS
 62
     3
 10
766.716359
 20
1402.989511
 11
766.716359
 21
1387.489511
  0
LINE
  8
CSLAYER1
  6
CONTINUOUS
 62
     3
 10
772.716359
 20
1402.989511
 11
772.716359
 21
1387.489511
  0
LINE
  8
CSLAYER1
  6
CONTINUOUS
 62
     3
 10
763.716359
 20
1387.019856
 11
763.716359
 21
1402.989511
  0
LINE
  8
CSLAYER1
  6
CONTINUOUS
 62
     3
 10
766.716359
 20
1387.239511
 11
763.716359
 21
1387.239511
  0
LINE
  8
CSLAYER1
  6
CONTINUOUS
 62
     3
 10
766.716359
 20
1396.477315
 11
763.877333
 21
1399.789511
  0
LINE
  8
CSLAYER1
  6
CONTINUOUS
 62
     3
 10
755.716359
 20
1402.989511
 11
755.716359
 21
1388.989511
  0
ARC
  8
CSLAYER1
  6
CONTINUOUS
 62
     3
 10
769.512103
 20
1397.989511
 40
13.795744
 50
158.750456
 51
203.426598
  0
LINE
  8
CSLAYER1
  6
CONTINUOUS
 62
     3
 10
763.716359
 20
1392.504684
 11
756.853540
 21
1392.504684
  0
LINE
  8
CSLAYER1
  6
CONTINUOUS
 62
     3
 10
763.716359
 20
1387.019856
 11
756.853540
 21
1387.019856
  0
LINE
  8
CSLAYER1
  6
CONTINUOUS
 62
     3
 10
755.716359
 20
1388.989511
 11
756.853540
 21
1387.019856
  0
ARC
  8
CSLAYER1
  6
CONTINUOUS
 62
     3
 10
759.496403
 20
1389.762270
 40
3.808617
 50
133.940972
 51
174.338367
  0
LINE
  8
CSLAYER1
  6
CONTINUOUS
 62
     3
 10
784.216359
 20
853.517910
 11
784.216359
 21
1402.989511
  0
LINE
  8
CSLAYER1
  6
CONTINUOUS
 62
     3
 10
763.216359
 20
853.517910
 11
763.216359
 21
1387.019856
  0
LINE
  8
CSLAYER1
  6
CONTINUOUS
 62
     3
 10
784.216359
 20
882.509273
 11
796.566359
 21
882.509273
  0
LINE
  8
CSLAYER1
  6
CONTINUOUS
 62
     3
 10
955.216359
 20
1402.989511
 11
705.216359
 21
1402.989511
  0
LINE
  8
CSLAYER1
  6
CONTINUOUS
 62
     3
 10
858.716359
 20
1178.944469
 11
862.216359
 21
1178.944469
  0
LINE
  8
CSLAYER1
  6
CONTINUOUS
 62
     3
 10
796.566359
 20
853.517910
 11
796.566359
 21
961.273706
  0
LINE
  8
CSLAYER1
  6
CONTINUOUS
 62
     3
 10
804.866359
 20
853.517910
 11
804.866359
 21
961.273706
  0
LINE
  8
CSLAYER1
  6
CONTINUOUS
 62
     3
 10
804.866359
 20
882.509273
 11
811.716359
 21
882.509273
  0
CIRCLE
  8
CSLAYER1
  6
CONTINUOUS
 62
     3
 10
800.216359
 20
825.167910
 40
4.150000
  0
LINE
  8
CSLAYER1
  6
CONTINUOUS
 62
     5
 10
796.716359
 20
1008.273706
 11
796.716359
 21
1012.934476
  0
DIMENSION
  8
CSLAYER1
 62
     3
  2
*D0006
 10
1046.602956
 20
819.517910
 11
1099.469604
 21
837.382813
 13
980.216359
 23
813.517910
 14
980.216359
 24
819.517910
 50
90.000000
 70
1
  0
LINE
  8
CSLAYER1
  6
CONTINUOUS
 62
     1
 10
913.566359
 20
1098.598784
 11
913.016359
 21
1098.598784
  0
LINE
  8
CSLAYER1
  6
CONTINUOUS
 62
     1
 10
913.566359
 20
1108.898784
 11
913.016359
 21
1108.898784
  0
LINE
  8
CSLAYER1
  6
CONTINUOUS
 62
     4
 10
903.016359
 20
1092.779129
 11
903.016359
 21
1114.718439
  0
LINE
  8
CSLAYER1
  6
CONTINUOUS
 62
     4
 10
913.016359
 20
1094.248784
 11
913.016359
 21
1113.248784
  0
LINE
  8
CSLAYER1
  6
CONTINUOUS
 62
     4
 10
903.016359
 20
1092.779129
 11
912.167853
 21
1092.779129
  0
LINE
  8
CSLAYER1
  6
CONTINUOUS
 62
     4
 10
903.016359
 20
1098.263957
 11
912.167853
 21
1098.263957
  0
LINE
  8
CSLAYER1
  6
CONTINUOUS
 62
     4
 10
913.016359
 20
1094.248784
 11
912.167853
 21
1092.779129
  0
ARC
  8
CSLAYER1
  6
CONTINUOUS
 62
     4
 10
894.864865
 20
1103.748784
 40
18.151494
 50
-17.587954
 51
17.587954
  0
ARC
  8
CSLAYER1
  6
CONTINUOUS
 62
     4
 10
908.167030
 20
1095.521543
 40
4.850507
 50
-25.570827
 51
34.796733
  0
LINE
  8
CSLAYER1
  6
CONTINUOUS
 62
     4
 10
903.016359
 20
1092.998784
 11
900.016359
 21
1092.998784
  0
LINE
  8
CSLAYER1
  6
CONTINUOUS
 62
     4
 10
900.016359
 20
1091.748784
 11
897.716359
 21
1091.748784
  0
LINE
  8
CSLAYER1
  6
CONTINUOUS
 62
     4
 10
897.716359
 20
1091.748784
 11
897.716359
 21
1115.748784
  0
LINE
  8
CSLAYER1
  6
CONTINUOUS
 62
     4
 10
900.016359
 20
1091.748784
 11
900.016359
 21
1115.748784
  0
LINE
  8
CSLAYER1
  6
CONTINUOUS
 62
     4
 10
913.716359
 20
1098.748784
 11
913.716359
 21
1108.748784
  0
LINE
  8
CSLAYER1
  6
CONTINUOUS
 62
     4
 10
913.016359
 20
1098.048784
 11
913.716359
 21
1098.748784
  0
LINE
  8
CSLAYER1
  6
CONTINUOUS
 62
     4
 10
903.016359
 20
1114.718439
 11
912.167853
 21
1114.718439
  0
LINE
  8
CSLAYER1
  6
CONTINUOUS
 62
     4
 10
903.016359
 20
1109.233612
 11
912.167853
 21
1109.233612
  0
LINE
  8
CSLAYER1
  6
CONTINUOUS
 62
     4
 10
913.016359
 20
1113.248784
 11
912.167853
 21
1114.718439
  0
ARC
  8
CSLAYER1
  6
CONTINUOUS
 62
     4
 10
908.167030
 20
1111.976025
 40
4.850507
 50
-34.796733
 51
25.570827
  0
LINE
  8
CSLAYER1
  6
CONTINUOUS
 62
     4
 10
903.016359
 20
1114.498784
 11
900.016359
 21
1114.498784
  0
LINE
  8
CSLAYER1
  6
CONTINUOUS
 62
     4
 10
900.016359
 20
1115.748784
 11
897.716359
 21
1115.748784
  0
LINE
  8
CSLAYER1
  6
CONTINUOUS
 62
     4
 10
913.016359
 20
1109.448784
 11
913.716359
 21
1108.748784
  0
LINE
  8
CSLAYER1
  6
CONTINUOUS
 62
     4
 10
897.216359
 20
1095.248784
 11
897.716359
 21
1095.748784
  0
LINE
  8
CSLAYER1
  6
CONTINUOUS
 62
     4
 10
897.216359
 20
1112.248784
 11
897.716359
 21
1111.748784
  0
LINE
  8
CSLAYER1
  6
CONTINUOUS
 62
     1
 10
746.866359
 20
1098.598784
 11
747.416359
 21
1098.598784
  0
LINE
  8
CSLAYER1
  6
CONTINUOUS
 62
     1
 10
746.866359
 20
1108.898784
 11
747.416359
 21
1108.898784
  0
LINE
  8
CSLAYER1
  6
CONTINUOUS
 62
     4
 10
757.416359
 20
1092.779129
 11
757.416359
 21
1114.718439
  0
LINE
  8
CSLAYER1
  6
CONTINUOUS
 62
     4
 10
747.416359
 20
1094.248784
 11
747.416359
 21
1113.248784
  0
LINE
  8
CSLAYER1
  6
CONTINUOUS
 62
     4
 10
757.416359
 20
1092.779129
 11
748.264865
 21
1092.779129
  0
LINE
  8
CSLAYER1
  6
CONTINUOUS
 62
     4
 10
757.416359
 20
1098.263957
 11
748.264865
 21
1098.263957
  0
LINE
  8
CSLAYER1
  6
CONTINUOUS
 62
     4
 10
747.416359
 20
1094.248784
 11
748.264865
 21
1092.779129
  0
ARC
  8
CSLAYER1
  6
CONTINUOUS
 62
     4
 10
765.567853
 20
1103.748784
 40
18.151494
 50
162.412046
 51
197.587954
  0
ARC
  8
CSLAYER1
  6
CONTINUOUS
 62
     4
 10
752.265688
 20
1095.521543
 40
4.850507
 50
145.203267
 51
205.570827
  0
LINE
  8
CSLAYER1
  6
CONTINUOUS
 62
     4
 10
757.416359
 20
1092.998784
 11
760.416359
 21
1092.998784
  0
LINE
  8
CSLAYER1
  6
CONTINUOUS
 62
     4
 10
760.416359
 20
1091.748784
 11
762.716359
 21
1091.748784
  0
LINE
  8
CSLAYER1
  6
CONTINUOUS
 62
     4
 10
762.716359
 20
1091.748784
 11
762.716359
 21
1115.748784
  0
LINE
  8
CSLAYER1
  6
CONTINUOUS
 62
     4
 10
760.416359
 20
1091.748784
 11
760.416359
 21
1115.748784
  0
LINE
  8
CSLAYER1
  6
CONTINUOUS
 62
     4
 10
746.716359
 20
1098.748784
 11
746.716359
 21
1108.748784
  0
LINE
  8
CSLAYER1
  6
CONTINUOUS
 62
     4
 10
747.416359
 20
1098.048784
 11
746.716359
 21
1098.748784
  0
LINE
  8
CSLAYER1
  6
CONTINUOUS
 62
     4
 10
757.416359
 20
1114.718439
 11
748.264865
 21
1114.718439
  0
LINE
  8
CSLAYER1
  6
CONTINUOUS
 62
     4
 10
757.416359
 20
1109.233612
 11
748.264865
 21
1109.233612
  0
LINE
  8
CSLAYER1
  6
CONTINUOUS
 62
     4
 10
747.416359
 20
1113.248784
 11
748.264865
 21
1114.718439
  0
ARC
  8
CSLAYER1
  6
CONTINUOUS
 62
     4
 10
752.265688
 20
1111.976025
 40
4.850507
 50
154.429173
 51
214.796733
  0
LINE
  8
CSLAYER1
  6
CONTINUOUS
 62
     4
 10
757.416359
 20
1114.498784
 11
760.416359
 21
1114.498784
  0
LINE
  8
CSLAYER1
  6
CONTINUOUS
 62
     4
 10
760.416359
 20
1115.748784
 11
762.716359
 21
1115.748784
  0
LINE
  8
CSLAYER1
  6
CONTINUOUS
 62
     4
 10
747.416359
 20
1109.448784
 11
746.716359
 21
1108.748784
  0
LINE
  8
CSLAYER1
  6
CONTINUOUS
 62
     4
 10
763.216359
 20
1095.248784
 11
762.716359
 21
1095.748784
  0
LINE
  8
CSLAYER1
  6
CONTINUOUS
 62
     4
 10
763.216359
 20
1112.248784
 11
762.716359
 21
1111.748784
  0
LINE
  8
CSLAYER1
  6
CONTINUOUS
 62
     3
 10
784.216359
 20
1078.585708
 11
822.716359
 21
1078.585708
  0
LINE
  8
CSLAYER1
  6
CONTINUOUS
 62
     3
 10
784.216359
 20
1076.340734
 11
822.716359
 21
1076.340734
  0
LINE
  8
CSLAYER1
  6
CONTINUOUS
 62
     3
 10
858.716359
 20
1078.585708
 11
876.216359
 21
1078.585708
  0
LINE
  8
CSLAYER1
  6
CONTINUOUS
 62
     3
 10
858.716359
 20
1076.340734
 11
876.216359
 21
1076.340734
  0
LINE
  8
CSLAYER1
  6
CONTINUOUS
 62
     3
 10
730.216359
 20
857.517910
 11
761.716359
 21
857.517910
  0
LINE
  8
CSLAYER1
  6
CONTINUOUS
 62
     3
 10
898.716359
 20
813.517910
 11
898.716359
 21
857.517910
  0
LINE
  8
CSLAYER1
  6
CONTINUOUS
 62
     3
 10
761.716359
 20
813.517910
 11
761.716359
 21
857.517910
  0
LINE
  8
CSLAYER1
  6
CONTINUOUS
 62
     3
 10
898.716359
 20
857.517910
 11
930.216359
 21
857.517910
  0
LINE
  8
CSLAYER1
  6
CONTINUOUS
 62
     3
 10
907.716359
 20
847.487566
 11
907.716359
 21
825.548255
  0
LINE
  8
CSLAYER1
  6
CONTINUOUS
 62
     3
 10
904.716359
 20
825.767910
 11
907.716359
 21
825.767910
  0
LINE
  8
CSLAYER1
  6
CONTINUOUS
 62
     3
 10
904.716359
 20
847.267910
 11
907.716359
 21
847.267910
  0
LINE
  8
CSLAYER1
  6
CONTINUOUS
 62
     3
 10
904.716359
 20
838.030107
 11
907.716359
 21
834.530107
  0
LINE
  8
CSLAYER1
  6
CONTINUOUS
 62
     3
 10
915.716359
 20
827.517910
 11
915.716359
 21
845.517910
  0
LINE
  8
CSLAYER1
  6
CONTINUOUS
 62
     3
 10
907.716359
 20
831.033083
 11
914.579178
 21
831.033083
  0
LINE
  8
CSLAYER1
  6
CONTINUOUS
 62
     3
 10
907.716359
 20
825.548255
 11
914.579178
 21
825.548255
  0
LINE
  8
CSLAYER1
  6
CONTINUOUS
 62
     3
 10
915.716359
 20
827.517910
 11
914.579178
 21
825.548255
  0
ARC
  8
CSLAYER1
  6
CONTINUOUS
 62
     3
 10
911.936315
 20
828.290669
 40
3.808617
 50
5.661633
 51
46.059028
  0
ARC
  8
CSLAYER1
  6
CONTINUOUS
 62
     3
 10
901.920615
 20
836.517910
 40
13.795744
 50
-23.426598
 51
23.426598
  0
LINE
  8
CSLAYER1
  6
CONTINUOUS
 62
     3
 10
907.716359
 20
842.002738
 11
914.579178
 21
842.002738
  0
LINE
  8
CSLAYER1
  6
CONTINUOUS
 62
     3
 10
907.716359
 20
847.487566
 11
914.579178
 21
847.487566
  0
LINE
  8
CSLAYER1
  6
CONTINUOUS
 62
     3
 10
915.716359
 20
845.517910
 11
914.579178
 21
847.487566
  0
ARC
  8
CSLAYER1
  6
CONTINUOUS
 62
     3
 10
911.936315
 20
844.745152
 40
3.808617
 50
313.940972
 51
354.338367
  0
LINE
  8
CSLAYER1
  6
CENTER
 62
     5
 10
904.716359
 20
836.517910
 11
915.716359
 21
836.517910
  0
LINE
  8
CSLAYER1
  6
CONTINUOUS
 62
     3
 10
2630.806029
 20
881.217910
 11
2630.806029
 21
913.517910
  0
LINE
  8
CSLAYER1
  6
CONTINUOUS
 62
     3
 10
2880.806029
 20
881.217910
 11
2880.806029
 21
913.517910
  0
LINE
  8
CSLAYER1
  6
CONTINUOUS
 62
     5
 10
3490.975426
 20
2364.977678
 11
2610.975426
 21
2364.977678
  0
LINE
  8
CSLAYER1
  6
CONTINUOUS
 62
     5
 10
3490.975426
 20
2311.644345
 11
2610.975426
 21
2311.644345
  0
LINE
  8
CSLAYER1
  6
CONTINUOUS
 62
     5
 10
3490.975426
 20
2258.311012
 11
2610.975426
 21
2258.311012
  0
LINE
  8
CSLAYER1
  6
CONTINUOUS
 62
     5
 10
3490.975426
 20
2151.644345
 11
2610.975426
 21
2151.644345
  0
LINE
  8
CSLAYER1
  6
CONTINUOUS
 62
     5
 10
3490.975426
 20
2044.977678
 11
2610.975426
 21
2044.977678
  0
LINE
  8
CSLAYER1
  6
CONTINUOUS
 62
     5
 10
3490.975426
 20
1831.644345
 11
2610.975426
 21
1831.644345
  0
LINE
  8
CSLAYER1
  6
CONTINUOUS
 62
     5
 10
3490.975426
 20
1831.644342
 11
2610.975426
 21
1831.644342
  0
LINE
  8
CSLAYER1
  6
CONTINUOUS
 62
     5
 10
3490.975426
 20
1778.311008
 11
2610.975426
 21
1778.311008
  0
TEXT
  8
CSLAYER1
 62
     3
 10
2624.308594
 20
2371.644287
 40
40.000000
 41
0.838235
  1
仕    様
 50
0.000000
 51
0.000000
  7
EASYDRAW_FONT
 72
     5
 11
2814.308594
 21
2371.644287
  0
TEXT
  8
CSLAYER1
 62
     3
 10
2624.308594
 20
2318.311035
 40
40.000000
 41
0.838235
  1
型    式
 50
0.000000
 51
0.000000
  7
EASYDRAW_FONT
 72
     5
 11
2814.308594
 21
2318.311035
  0
TEXT
  8
CSLAYER1
 62
     3
 10
2989.308594
 20
2318.311035
 40
40.000000
 41
0.817105
  1
GLSH-350-2508
 50
0.000000
 51
0.000000
  7
EASYDRAW_FONT
 72
     5
 11
3403.308594
 21
2318.311035
  0
TEXT
  8
CSLAYER1
 62
     3
 10
2624.308594
 20
2264.977783
 40
40.000000
 41
0.859091
  1
均等荷重
 50
0.000000
 51
0.000000
  7
EASYDRAW_FONT
 72
     5
 11
2750.308594
 21
2264.977783
  0
TEXT
  8
CSLAYER1
 62
     3
 10
3415.641846
 20
2264.977783
 40
40.000000
 41
0.930000
  1
ｋｇ
 50
0.000000
 51
0.000000
  7
EASYDRAW_FONT
 72
     5
 11
3477.641846
 21
2264.977783
  0
TEXT
  8
CSLAYER1
 62
     3
 10
2624.308594
 20
2158.311035
 40
40.000000
 41
0.838235
  1
テーブル高サ
 50
0.000000
 51
0.000000
  7
EASYDRAW_FONT
 72
     5
 11
2814.308594
 21
2158.311035
  0
TEXT
  8
CSLAYER1
 62
     3
 10
3415.641846
 20
2158.311035
 40
40.000000
 41
0.930000
  1
ｍｍ
 50
0.000000
 51
0.000000
  7
EASYDRAW_FONT
 72
     5
 11
3477.641846
 21
2158.311035
  0
TEXT
  8
CSLAYER1
 62
     3
 10
2624.308594
 20
2051.644043
 40
40.000000
 41
0.838235
  1
全    長
 50
0.000000
 51
0.000000
  7
EASYDRAW_FONT
 72
     5
 11
2814.308594
 21
2051.644043
  0
TEXT
  8
CSLAYER1
 62
     3
 10
3149.308594
 20
2051.644043
 40
40.000000
 41
0.881250
  1
803
 50
0.000000
 51
0.000000
  7
EASYDRAW_FONT
 72
     5
 11
3243.308594
 21
2051.644043
  0
TEXT
  8
CSLAYER1
 62
     3
 10
3133.308594
 20
1838.310669
 40
40.000000
 41
0.859091
  1
約 40
 50
0.000000
 51
0.000000
  7
EASYDRAW_FONT
 72
     5
 11
3259.308594
 21
1838.310669
  0
TEXT
  8
CSLAYER1
 62
     3
 10
2624.308594
 20
1838.310669
 40
40.000000
 41
0.846429
  1
ポンプ回数
 50
0.000000
 51
0.000000
  7
EASYDRAW_FONT
 72
     5
 11
2782.308594
 21
1838.310669
  0
TEXT
  8
CSLAYER1
 62
     3
 10
2624.308594
 20
1784.977417
 40
40.000000
 41
0.832500
  1
自     重
 50
0.000000
 51
0.000000
  7
EASYDRAW_FONT
 72
     5
 11
2846.308594
 21
1784.977417
  0
TEXT
  8
CSLAYER1
 62
     3
 10
2624.308594
 20
1731.644165
 40
40.000000
 41
0.832500
  1
塗  装  色
 50
0.000000
 51
0.000000
  7
EASYDRAW_FONT
 72
     5
 11
2846.308594
 21
1731.644165
  0
TEXT
  8
CSLAYER1
 62
     3
 10
3149.308594
 20
2264.977783
 40
40.000000
 41
0.881250
  1
350
 50
0.000000
 51
0.000000
  7
EASYDRAW_FONT
 72
     5
 11
3243.308594
 21
2264.977783
  0
TEXT
  8
CSLAYER1
 62
     3
 10
3085.308594
 20
2158.311035
 40
40.000000
 41
0.832500
  1
100～600
 50
0.000000
 51
0.000000
  7
EASYDRAW_FONT
 72
     5
 11
3307.308594
 21
2158.311035
  0
TEXT
  8
CSLAYER1
 62
     3
 10
3415.641846
 20
2051.644043
 40
40.000000
 41
0.930000
  1
ｍｍ
 50
0.000000
 51
0.000000
  7
EASYDRAW_FONT
 72
     5
 11
3477.641846
 21
2051.644043
  0
LINE
  8
CSLAYER1
  6
CONTINUOUS
 62
     5
 10
3490.975426
 20
1991.644345
 11
2610.975426
 21
1991.644345
  0
TEXT
  8
CSLAYER1
 62
     3
 10
2624.308594
 20
1998.310669
 40
40.000000
 41
0.838235
  1
全    幅
 50
0.000000
 51
0.000000
  7
EASYDRAW_FONT
 72
     5
 11
2814.308594
 21
1998.310669
  0
TEXT
  8
CSLAYER1
 62
     3
 10
3149.308594
 20
1998.310669
 40
40.000000
 41
0.881250
  1
300
 50
0.000000
 51
0.000000
  7
EASYDRAW_FONT
 72
     5
 11
3243.308594
 21
1998.310669
  0
TEXT
  8
CSLAYER1
 62
     3
 10
3415.641846
 20
1998.310669
 40
40.000000
 41
0.930000
  1
ｍｍ
 50
0.000000
 51
0.000000
  7
EASYDRAW_FONT
 72
     5
 11
3477.641846
 21
1998.310669
  0
TEXT
  8
CSLAYER1
 62
     3
 10
3415.641846
 20
1784.977417
 40
40.000000
 41
0.930000
  1
ｋｇ
 50
0.000000
 51
0.000000
  7
EASYDRAW_FONT
 72
     5
 11
3477.641846
 21
1784.977417
  0
LINE
  8
CSLAYER1
  6
CONTINUOUS
 62
     5
 10
3490.975426
 20
2204.977678
 11
2610.975426
 21
2204.977678
  0
TEXT
  8
CSLAYER1
 62
     3
 10
2624.308594
 20
2211.644531
 40
40.000000
 41
0.838235
  1
テーブル寸法
 50
0.000000
 51
0.000000
  7
EASYDRAW_FONT
 72
     5
 11
2814.308594
 21
2211.644531
  0
TEXT
  8
CSLAYER1
 62
     3
 10
3415.641846
 20
2211.644531
 40
40.000000
 41
0.930000
  1
ｍｍ
 50
0.000000
 51
0.000000
  7
EASYDRAW_FONT
 72
     5
 11
3477.641846
 21
2211.644531
  0
TEXT
  8
CSLAYER1
 62
     3
 10
3053.308594
 20
2211.644531
 40
40.000000
 41
0.825000
  1
800L×250W
 50
0.000000
 51
0.000000
  7
EASYDRAW_FONT
 72
     5
 11
3339.308594
 21
2211.644531
  0
LINE
  8
CSLAYER1
  6
CONTINUOUS
 62
     5
 10
3490.975426
 20
2098.311012
 11
2610.975426
 21
2098.311012
  0
TEXT
  8
CSLAYER1
 62
     3
 10
3415.641846
 20
2104.977783
 40
40.000000
 41
0.930000
  1
ｍｍ
 50
0.000000
 51
0.000000
  7
EASYDRAW_FONT
 72
     5
 11
3477.641846
 21
2104.977783
  0
TEXT
  8
CSLAYER1
 62
     3
 10
3149.308594
 20
2104.977783
 40
40.000000
 41
0.881250
  1
500
 50
0.000000
 51
0.000000
  7
EASYDRAW_FONT
 72
     5
 11
3243.308594
 21
2104.977783
  0
TEXT
  8
CSLAYER1
 62
     3
 10
2626.141113
 20
2104.977783
 40
40.000000
 41
0.846429
  1
ストローク
 50
0.000000
 51
0.000000
  7
EASYDRAW_FONT
 72
     5
 11
2784.141113
 21
2104.977783
  0
LINE
  8
CSLAYER1
  6
CONTINUOUS
 62
     5
 10
3490.975426
 20
1938.311012
 11
2610.975426
 21
1938.311012
  0
TEXT
  8
CSLAYER1
 62
     3
 10
2624.308594
 20
1944.977417
 40
40.000000
 41
0.838235
  1
全    高
 50
0.000000
 51
0.000000
  7
EASYDRAW_FONT
 72
     5
 11
2814.308594
 21
1944.977417
  0
TEXT
  8
CSLAYER1
 62
     3
 10
3149.308594
 20
1944.977417
 40
40.000000
 41
0.881250
  1
100
 50
0.000000
 51
0.000000
  7
EASYDRAW_FONT
 72
     5
 11
3243.308594
 21
1944.977417
  0
TEXT
  8
CSLAYER1
 62
     3
 10
3415.641846
 20
1944.977417
 40
40.000000
 41
0.930000
  1
ｍｍ
 50
0.000000
 51
0.000000
  7
EASYDRAW_FONT
 72
     5
 11
3477.641846
 21
1944.977417
  0
LINE
  8
CSLAYER1
  6
CONTINUOUS
 62
     5
 10
3490.975426
 20
1884.977678
 11
2610.975426
 21
1884.977678
  0
TEXT
  8
CSLAYER1
 62
     3
 10
2624.308594
 20
1891.644043
 40
40.000000
 41
0.846429
  1
リフト方式
 50
0.000000
 51
0.000000
  7
EASYDRAW_FONT
 72
     5
 11
2782.308594
 21
1891.644043
  0
TEXT
  8
CSLAYER1
 62
     3
 10
3117.308594
 20
1891.644043
 40
40.000000
 41
0.846429
  1
足踏油圧式
 50
0.000000
 51
0.000000
  7
EASYDRAW_FONT
 72
     5
 11
3275.308594
 21
1891.644043
  0
LINE
  8
CSLAYER1
  6
CONTINUOUS
 62
     5
 10
2914.975426
 20
1724.977675
 11
2914.975426
 21
2364.977678
  0
TEXT
  8
CSLAYER1
 62
     3
 10
3447.641846
 20
1838.310791
 40
40.000000
 41
1.125000
  1
回
 50
0.000000
 51
0.000000
  7
EASYDRAW_FONT
 72
     5
 11
3477.641846
 21
1838.310791
  0
LINE
  8
CSLAYER2
  6
CONTINUOUS
 62
     5
 10
242.402115
 20
1700.868089
 11
242.402115
 21
2404.977678
  0
LINE
  8
CSLAYER2
  6
CONTINUOUS
 62
     5
 10
1043.696246
 20
2404.977678
 11
242.402115
 21
2404.977678
  0
INSERT
  8
CSLAYER1
  2
EASYDRAWDIM0002
 10
0.0
 20
0.0
 30
0.0
  0
INSERT
  8
CSLAYER1
  2
EASYDRAWDIM0003
 10
0.0
 20
0.0
 30
0.0
  0
DIMENSION
  8
CSLAYER1
 62
     3
  2
*D0007
 10
2348.173533
 20
2123.064190
 11
2338.173584
 21
1998.064087
 13
2228.173533
 23
1873.064190
 14
2228.173533
 24
2123.064190
 50
90.000000
 70
1
  0
DIMENSION
  8
CSLAYER1
 62
     3
  2
*D0008
 10
1312.783769
 20
2123.064190
 11
1304.531616
 21
1972.511353
 13
1411.775029
 23
1873.064190
 14
1411.775029
 24
2123.064190
 50
90.000000
 70
1
  0
INSERT
  8
CSLAYER1
  2
BLKF0003
 10
0.0
 20
0.0
 30
0.0
  0
TEXT
  8
CSLAYER1
 62
     7
 10
781.079956
 20
524.324097
 40
40.000000
 41
0.843750
  1
上昇時
 50
0.000000
 51
0.000000
  7
EASYDRAW_FONT
 72
     5
 11
871.079956
 21
524.324097
  0
LINE
  8
CSLAYER1
  6
CONTINUOUS
 62
     5
 10
767.473393
 20
570.754243
 11
890.431403
 21
570.754243
  0
LINE
  8
CSLAYER1
  6
CONTINUOUS
 62
     5
 10
890.431403
 20
570.754243
 11
890.431403
 21
517.893790
  0
LINE
  8
CSLAYER1
  6
CONTINUOUS
 62
     5
 10
890.431403
 20
517.893790
 11
767.473393
 21
517.893790
  0
LINE
  8
CSLAYER1
  6
CONTINUOUS
 62
     5
 10
767.473393
 20
517.893790
 11
767.473393
 21
570.754243
  0
DIMENSION
  8
CSLAYER1
 62
     3
  2
*D0009
 10
1423.037830
 20
693.517910
 11
1438.554077
 21
672.723083
 13
1398.037830
 23
813.517910
 14
1423.037830
 24
813.517910
 52
270.000000
 70
1
  0
DIMENSION
  8
CSLAYER1
 62
     3
  2
*D0010
 10
980.216359
 20
603.517910
 11
830.216187
 21
611.517883
 13
680.216359
 23
815.517910
 14
980.216359
 24
815.517910
 52
270.000000
 70
1
  0
DIMENSION
  8
CSLAYER1
 62
     3
  2
*D0011
 10
955.216359
 20
693.517910
 11
830.216187
 21
701.517822
 13
705.216359
 23
815.517910
 14
955.216359
 24
815.517910
 52
270.000000
 70
1
  0
DIMENSION
  8
CSLAYER1
 62
     3
  2
*D0012
 10
955.216359
 20
1535.289511
 11
830.216431
 21
1545.289551
 13
705.216359
 23
1435.289511
 14
955.216359
 24
1435.289511
 70
1
  0
INSERT
  8
CSLAYER1
  2
BLKF0004
 10
0.0
 20
0.0
 30
0.0
  0
INSERT
  8
CSLAYER1
  2
BLKF0005
 10
0.0
 20
0.0
 30
0.0
  0
LINE
  8
CSLAYER1
  6
CONTINUOUS
 62
     7
 10
671.549218
 20
1843.395467
 11
799.075514
 21
1985.416228
  0
LINE
  8
CSLAYER1
  6
CONTINUOUS
 62
     7
 10
448.373326
 20
1931.213487
 11
633.745097
 21
2000.252466
  0
LINE
  8
CSLAYER1
  6
CONTINUOUS
 62
     7
 10
453.438907
 20
1917.258754
 11
672.901564
 21
1998.994379
  0
LINE
  8
CSLAYER1
  6
CONTINUOUS
 62
     7
 10
659.942451
 20
1853.287356
 11
751.704336
 21
1955.478770
  0
LINE
  8
CSLAYER1
  6
CONTINUOUS
 62
     7
 10
782.219467
 20
2132.529750
 11
782.219467
 21
2027.133492
  0
LINE
  8
CSLAYER1
  6
CONTINUOUS
 62
     7
 10
782.219467
 20
2132.529750
 11
662.239513
 21
2176.198882
  0
LINE
  8
CSLAYER1
  6
CONTINUOUS
 62
     7
 10
753.725051
 20
1948.839058
 11
782.219467
 21
1966.644345
  0
LINE
  8
CSLAYER1
  6
CONTINUOUS
 62
     7
 10
753.725051
 20
2114.724463
 11
753.725051
 21
1948.839058
  0
LINE
  8
CSLAYER1
  6
CONTINUOUS
 62
     7
 10
753.725051
 20
2114.724463
 11
782.219467
 21
2132.529750
  0
LINE
  8
CSLAYER1
  6
CONTINUOUS
 62
     7
 10
662.633658
 20
2172.448845
 11
662.633658
 21
2137.622806
  0
LINE
  8
CSLAYER1
  6
CONTINUOUS
 62
     7
 10
633.745097
 20
2158.393594
 11
662.239513
 21
2176.198882
  0
LINE
  8
CSLAYER1
  6
CONTINUOUS
 62
     7
 10
753.725051
 20
1948.839058
 11
751.704336
 21
1949.574538
  0
LINE
  8
CSLAYER1
  6
CONTINUOUS
 62
     7
 10
751.704336
 20
1973.778105
 11
682.293038
 21
1999.041752
  0
LINE
  8
CSLAYER1
  6
CONTINUOUS
 62
     7
 10
778.375109
 20
2132.125692
 11
662.436585
 21
2174.323863
  0
LINE
  8
CSLAYER1
  6
CONTINUOUS
 62
     7
 10
711.567982
 20
2090.379965
 11
778.375109
 21
2132.125692
  0
LINE
  8
CSLAYER1
  6
CONTINUOUS
 62
     7
 10
753.725051
 20
2114.724463
 11
751.704336
 21
2115.459943
  0
LINE
  8
CSLAYER1
  6
CONTINUOUS
 62
     7
 10
751.704336
 20
2115.459943
 11
751.704336
 21
1973.778105
  0
LINE
  8
CSLAYER1
  6
CONTINUOUS
 62
     7
 10
633.745097
 20
2158.393594
 11
633.745097
 21
2156.395431
  0
LINE
  8
CSLAYER1
  6
CONTINUOUS
 62
     7
 10
633.745097
 20
2158.393594
 11
662.239513
 21
2176.198882
  0
LINE
  8
CSLAYER1
  6
CONTINUOUS
 62
     7
 10
635.765812
 20
2157.658114
 11
662.436585
 21
2174.323863
  0
LINE
  8
CSLAYER1
  6
CONTINUOUS
 62
     7
 10
635.765812
 20
2157.658114
 11
633.745097
 21
2158.393594
  0
LINE
  8
CSLAYER1
  6
CONTINUOUS
 62
     7
 10
635.765812
 20
1989.603160
 11
652.219018
 21
1999.884265
  0
LINE
  8
CSLAYER1
  6
CONTINUOUS
 62
     7
 10
709.547267
 20
2091.115445
 11
774.530751
 21
2131.721633
  0
LINE
  8
CSLAYER1
  6
CONTINUOUS
 62
     7
 10
707.967796
 20
2088.266004
 11
707.967796
 21
2021.180248
  0
LINE
  8
CSLAYER1
  6
CONTINUOUS
 62
     7
 10
709.988511
 20
2087.530524
 11
709.988511
 21
2021.534603
  0
LINE
  8
CSLAYER1
  6
CONTINUOUS
 62
     7
 10
774.530751
 20
2131.721633
 11
757.607263
 21
2137.881279
  0
LINE
  8
CSLAYER1
  6
CONTINUOUS
 62
     7
 10
707.967796
 20
2089.586123
 11
598.920143
 21
2129.276222
  0
LINE
  8
CSLAYER1
  6
CONTINUOUS
 62
     7
 10
707.967796
 20
2022.386123
 11
674.487583
 21
2034.571924
  0
LINE
  8
CSLAYER1
  6
CONTINUOUS
 62
     7
 10
599.229644
 20
2132.829620
 11
662.633658
 21
2172.448845
  0
LINE
  8
CSLAYER1
  6
CONTINUOUS
 62
     7
 10
597.208929
 20
2133.565100
 11
633.745097
 21
2156.395431
  0
LINE
  8
CSLAYER1
  6
CONTINUOUS
 62
     7
 10
594.049987
 20
2127.866217
 11
594.049987
 21
2062.011135
  0
LINE
  8
CSLAYER1
  6
CONTINUOUS
 62
     7
 10
596.070702
 20
2127.130737
 11
596.070702
 21
2062.997294
  0
LINE
  8
CSLAYER1
  6
CONTINUOUS
 62
     7
 10
598.920143
 20
2129.276222
 11
598.920143
 21
2062.076222
  0
LINE
  8
CSLAYER1
  6
CONTINUOUS
 62
     7
 10
598.920143
 20
2129.276222
 11
630.812482
 21
2149.204767
  0
LINE
  8
CSLAYER1
  6
CONTINUOUS
 62
     7
 10
739.311653
 20
2109.714298
 11
630.812482
 21
2149.204767
  0
LINE
  8
CSLAYER1
  6
CONTINUOUS
 62
     7
 10
715.129039
 20
2018.685161
 11
751.704336
 21
2041.539943
  0
LINE
  8
CSLAYER1
  6
CONTINUOUS
 62
     7
 10
711.970519
 20
2018.471111
 11
708.915094
 21
2019.583195
  0
LINE
  8
CSLAYER1
  6
CONTINUOUS
 62
     7
 10
657.986597
 20
1997.785038
 11
635.027623
 21
2006.141421
  0
LINE
  8
CSLAYER1
  6
CONTINUOUS
 62
     7
 10
657.986597
 20
1997.785038
 11
661.883276
 21
2000.219953
  0
LINE
  8
CSLAYER1
  6
CONTINUOUS
 62
     7
 10
642.088506
 20
2044.417853
 11
643.373657
 21
2045.220905
  0
LINE
  8
CSLAYER1
  6
CONTINUOUS
 62
     7
 10
649.930621
 20
2031.599911
 11
651.336182
 21
2032.478202
  0
LINE
  8
CSLAYER1
  6
CONTINUOUS
 62
     7
 10
643.373657
 20
2045.220905
 11
643.707314
 21
2045.395685
  0
LINE
  8
CSLAYER1
  6
CONTINUOUS
 62
     7
 10
643.707314
 20
2045.395685
 11
644.068731
 21
2045.520646
  0
LINE
  8
CSLAYER1
  6
CONTINUOUS
 62
     7
 10
644.068731
 20
2045.520646
 11
644.455159
 21
2045.594835
  0
LINE
  8
CSLAYER1
  6
CONTINUOUS
 62
     7
 10
644.455159
 20
2045.594835
 11
644.863655
 21
2045.617688
  0
LINE
  8
CSLAYER1
  6
CONTINUOUS
 62
     7
 10
644.863655
 20
2045.617688
 11
645.291111
 21
2045.589032
  0
LINE
  8
CSLAYER1
  6
CONTINUOUS
 62
     7
 10
645.291111
 20
2045.589032
 11
645.734274
 21
2045.509085
  0
LINE
  8
CSLAYER1
  6
CONTINUOUS
 62
     7
 10
645.734274
 20
2045.509085
 11
646.189771
 21
2045.378454
  0
LINE
  8
CSLAYER1
  6
CONTINUOUS
 62
     7
 10
646.189771
 20
2045.378454
 11
646.654135
 21
2045.198135
  0
LINE
  8
CSLAYER1
  6
CONTINUOUS
 62
     7
 10
646.654135
 20
2045.198135
 11
647.123833
 21
2044.969499
  0
LINE
  8
CSLAYER1
  6
CONTINUOUS
 62
     7
 10
647.123833
 20
2044.969499
 11
647.595290
 21
2044.694286
  0
LINE
  8
CSLAYER1
  6
CONTINUOUS
 62
     7
 10
647.595290
 20
2044.694286
 11
648.064917
 21
2044.374592
  0
LINE
  8
CSLAYER1
  6
CONTINUOUS
 62
     7
 10
648.064917
 20
2044.374592
 11
648.529141
 21
2044.012849
  0
LINE
  8
CSLAYER1
  6
CONTINUOUS
 62
     7
 10
648.529141
 20
2044.012849
 11
648.984428
 21
2043.611810
  0
LINE
  8
CSLAYER1
  6
CONTINUOUS
 62
     7
 10
648.984428
 20
2043.611810
 11
649.427314
 21
2043.174527
  0
LINE
  8
CSLAYER1
  6
CONTINUOUS
 62
     7
 10
649.427314
 20
2043.174527
 11
649.854428
 21
2042.704329
  0
LINE
  8
CSLAYER1
  6
CONTINUOUS
 62
     7
 10
649.854428
 20
2042.704329
 11
650.262518
 21
2042.204793
  0
LINE
  8
CSLAYER1
  6
CONTINUOUS
 62
     7
 10
650.262518
 20
2042.204793
 11
650.648480
 21
2041.679722
  0
LINE
  8
CSLAYER1
  6
CONTINUOUS
 62
     7
 10
650.648480
 20
2041.679722
 11
651.009377
 21
2041.133112
  0
LINE
  8
CSLAYER1
  6
CONTINUOUS
 62
     7
 10
651.009377
 20
2041.133112
 11
651.342460
 21
2040.569122
  0
LINE
  8
CSLAYER1
  6
CONTINUOUS
 62
     7
 10
651.342460
 20
2040.569122
 11
651.645196
 21
2039.992046
  0
LINE
  8
CSLAYER1
  6
CONTINUOUS
 62
     7
 10
651.645196
 20
2039.992046
 11
651.915281
 21
2039.406274
  0
LINE
  8
CSLAYER1
  6
CONTINUOUS
 62
     7
 10
651.915281
 20
2039.406274
 11
652.150658
 21
2038.816266
  0
LINE
  8
CSLAYER1
  6
CONTINUOUS
 62
     7
 10
652.150658
 20
2038.816266
 11
652.349537
 21
2038.226511
  0
LINE
  8
CSLAYER1
  6
CONTINUOUS
 62
     7
 10
652.349537
 20
2038.226511
 11
652.510403
 21
2037.641497
  0
LINE
  8
CSLAYER1
  6
CONTINUOUS
 62
     7
 10
652.510403
 20
2037.641497
 11
652.632034
 21
2037.065678
  0
LINE
  8
CSLAYER1
  6
CONTINUOUS
 62
     7
 10
652.632034
 20
2037.065678
 11
652.713502
 21
2036.503435
  0
LINE
  8
CSLAYER1
  6
CONTINUOUS
 62
     7
 10
652.713502
 20
2036.503435
 11
652.754188
 21
2035.959047
  0
LINE
  8
CSLAYER1
  6
CONTINUOUS
 62
     7
 10
652.754188
 20
2035.959047
 11
652.753783
 21
2035.436658
  0
LINE
  8
CSLAYER1
  6
CONTINUOUS
 62
     7
 10
652.753783
 20
2035.436658
 11
652.712289
 21
2034.940243
  0
LINE
  8
CSLAYER1
  6
CONTINUOUS
 62
     7
 10
652.712289
 20
2034.940243
 11
652.630022
 21
2034.473580
  0
LINE
  8
CSLAYER1
  6
CONTINUOUS
 62
     7
 10
652.630022
 20
2034.473580
 11
652.507609
 21
2034.040222
  0
LINE
  8
CSLAYER1
  6
CONTINUOUS
 62
     7
 10
652.507609
 20
2034.040222
 11
652.345980
 21
2033.643465
  0
LINE
  8
CSLAYER1
  6
CONTINUOUS
 62
     7
 10
652.345980
 20
2033.643465
 11
652.146367
 21
2033.286329
  0
LINE
  8
CSLAYER1
  6
CONTINUOUS
 62
     7
 10
652.146367
 20
2033.286329
 11
651.910287
 21
2032.971533
  0
LINE
  8
CSLAYER1
  6
CONTINUOUS
 62
     7
 10
651.910287
 20
2032.971533
 11
651.639539
 21
2032.701472
  0
LINE
  8
CSLAYER1
  6
CONTINUOUS
 62
     7
 10
651.639539
 20
2032.701472
 11
651.336182
 21
2032.478202
  0
LINE
  8
CSLAYER1
  6
CONTINUOUS
 62
     7
 10
642.104401
 20
2044.414014
 11
642.301754
 21
2044.517394
  0
LINE
  8
CSLAYER1
  6
CONTINUOUS
 62
     7
 10
642.301754
 20
2044.517394
 11
642.663171
 21
2044.642354
  0
LINE
  8
CSLAYER1
  6
CONTINUOUS
 62
     7
 10
642.663171
 20
2044.642354
 11
643.049598
 21
2044.716543
  0
LINE
  8
CSLAYER1
  6
CONTINUOUS
 62
     7
 10
643.049598
 20
2044.716543
 11
643.458094
 21
2044.739397
  0
LINE
  8
CSLAYER1
  6
CONTINUOUS
 62
     7
 10
643.458094
 20
2044.739397
 11
643.885550
 21
2044.710741
  0
LINE
  8
CSLAYER1
  6
CONTINUOUS
 62
     7
 10
643.885550
 20
2044.710741
 11
644.328713
 21
2044.630793
  0
LINE
  8
CSLAYER1
  6
CONTINUOUS
 62
     7
 10
644.328713
 20
2044.630793
 11
644.784211
 21
2044.500163
  0
LINE
  8
CSLAYER1
  6
CONTINUOUS
 62
     7
 10
644.784211
 20
2044.500163
 11
645.248575
 21
2044.319843
  0
LINE
  8
CSLAYER1
  6
CONTINUOUS
 62
     7
 10
645.248575
 20
2044.319843
 11
645.718273
 21
2044.091207
  0
LINE
  8
CSLAYER1
  6
CONTINUOUS
 62
     7
 10
645.718273
 20
2044.091207
 11
646.189730
 21
2043.815995
  0
LINE
  8
CSLAYER1
  6
CONTINUOUS
 62
     7
 10
646.189730
 20
2043.815995
 11
646.659357
 21
2043.496300
  0
LINE
  8
CSLAYER1
  6
CONTINUOUS
 62
     7
 10
646.659357
 20
2043.496300
 11
647.123581
 21
2043.134557
  0
LINE
  8
CSLAYER1
  6
CONTINUOUS
 62
     7
 10
651.307942
 20
2035.625143
 11
651.348628
 21
2035.080756
  0
LINE
  8
CSLAYER1
  6
CONTINUOUS
 62
     7
 10
651.348628
 20
2035.080756
 11
651.348223
 21
2034.558367
  0
LINE
  8
CSLAYER1
  6
CONTINUOUS
 62
     7
 10
651.348223
 20
2034.558367
 11
651.306729
 21
2034.061952
  0
LINE
  8
CSLAYER1
  6
CONTINUOUS
 62
     7
 10
651.306729
 20
2034.061952
 11
651.224462
 21
2033.595289
  0
LINE
  8
CSLAYER1
  6
CONTINUOUS
 62
     7
 10
651.224462
 20
2033.595289
 11
651.102048
 21
2033.161930
  0
LINE
  8
CSLAYER1
  6
CONTINUOUS
 62
     7
 10
651.102048
 20
2033.161930
 11
650.940420
 21
2032.765173
  0
LINE
  8
CSLAYER1
  6
CONTINUOUS
 62
     7
 10
650.940420
 20
2032.765173
 11
650.740806
 21
2032.408037
  0
LINE
  8
CSLAYER1
  6
CONTINUOUS
 62
     7
 10
650.740806
 20
2032.408037
 11
650.504727
 21
2032.093241
  0
LINE
  8
CSLAYER1
  6
CONTINUOUS
 62
     7
 10
650.504727
 20
2032.093241
 11
650.233978
 21
2031.823181
  0
LINE
  8
CSLAYER1
  6
CONTINUOUS
 62
     7
 10
650.233978
 20
2031.823181
 11
649.930621
 21
2031.599911
  0
LINE
  8
CSLAYER1
  6
CONTINUOUS
 62
     7
 10
635.765812
 20
1989.603160
 11
633.745097
 21
1990.338641
  0
LINE
  8
CSLAYER1
  6
CONTINUOUS
 62
     7
 10
635.765812
 20
2005.872742
 11
635.765812
 21
1989.603160
  0
LINE
  8
CSLAYER1
  6
CONTINUOUS
 62
     7
 10
633.745097
 20
2000.834878
 11
633.745097
 21
2000.252466
  0
LINE
  8
CSLAYER1
  6
CONTINUOUS
 62
     7
 10
615.371606
 20
2115.643403
 11
615.580515
 21
2115.752836
  0
LINE
  8
CSLAYER1
  6
CONTINUOUS
 62
     7
 10
615.580515
 20
2115.752836
 11
615.806805
 21
2115.831076
  0
LINE
  8
CSLAYER1
  6
CONTINUOUS
 62
     7
 10
615.806805
 20
2115.831076
 11
616.048754
 21
2115.877527
  0
LINE
  8
CSLAYER1
  6
CONTINUOUS
 62
     7
 10
616.048754
 20
2115.877527
 11
616.304521
 21
2115.891836
  0
LINE
  8
CSLAYER1
  6
CONTINUOUS
 62
     7
 10
616.304521
 20
2115.891836
 11
616.572159
 21
2115.873894
  0
LINE
  8
CSLAYER1
  6
CONTINUOUS
 62
     7
 10
616.572159
 20
2115.873894
 11
616.849631
 21
2115.823837
  0
LINE
  8
CSLAYER1
  6
CONTINUOUS
 62
     7
 10
616.849631
 20
2115.823837
 11
617.134826
 21
2115.742047
  0
LINE
  8
CSLAYER1
  6
CONTINUOUS
 62
     7
 10
617.134826
 20
2115.742047
 11
617.425573
 21
2115.629146
  0
LINE
  8
CSLAYER1
  6
CONTINUOUS
 62
     7
 10
617.425573
 20
2115.629146
 11
617.719659
 21
2115.485993
  0
LINE
  8
CSLAYER1
  6
CONTINUOUS
 62
     7
 10
617.719659
 20
2115.485993
 11
618.014847
 21
2115.313677
  0
LINE
  8
CSLAYER1
  6
CONTINUOUS
 62
     7
 10
618.014847
 20
2115.313677
 11
618.308889
 21
2115.113511
  0
LINE
  8
CSLAYER1
  6
CONTINUOUS
 62
     7
 10
618.308889
 20
2115.113511
 11
618.599548
 21
2114.887017
  0
LINE
  8
CSLAYER1
  6
CONTINUOUS
 62
     7
 10
618.599548
 20
2114.887017
 11
618.884611
 21
2114.635919
  0
LINE
  8
CSLAYER1
  6
CONTINUOUS
 62
     7
 10
618.884611
 20
2114.635919
 11
619.161910
 21
2114.362128
  0
LINE
  8
CSLAYER1
  6
CONTINUOUS
 62
     7
 10
619.161910
 20
2114.362128
 11
619.429334
 21
2114.067729
  0
LINE
  8
CSLAYER1
  6
CONTINUOUS
 62
     7
 10
619.429334
 20
2114.067729
 11
619.684847
 21
2113.754960
  0
LINE
  8
CSLAYER1
  6
CONTINUOUS
 62
     7
 10
619.684847
 20
2113.754960
 11
619.926505
 21
2113.426204
  0
LINE
  8
CSLAYER1
  6
CONTINUOUS
 62
     7
 10
619.926505
 20
2113.426204
 11
620.152468
 21
2113.083961
  0
LINE
  8
CSLAYER1
  6
CONTINUOUS
 62
     7
 10
620.152468
 20
2113.083961
 11
620.361018
 21
2112.730837
  0
LINE
  8
CSLAYER1
  6
CONTINUOUS
 62
     7
 10
620.361018
 20
2112.730837
 11
620.550566
 21
2112.369519
  0
LINE
  8
CSLAYER1
  6
CONTINUOUS
 62
     7
 10
620.550566
 20
2112.369519
 11
620.719671
 21
2112.002757
  0
LINE
  8
CSLAYER1
  6
CONTINUOUS
 62
     7
 10
620.719671
 20
2112.002757
 11
620.867045
 21
2111.633342
  0
LINE
  8
CSLAYER1
  6
CONTINUOUS
 62
     7
 10
620.867045
 20
2111.633342
 11
620.991567
 21
2111.264086
  0
LINE
  8
CSLAYER1
  6
CONTINUOUS
 62
     7
 10
620.991567
 20
2111.264086
 11
621.092288
 21
2110.897798
  0
LINE
  8
CSLAYER1
  6
CONTINUOUS
 62
     7
 10
621.092288
 20
2110.897798
 11
621.168443
 21
2110.537268
  0
LINE
  8
CSLAYER1
  6
CONTINUOUS
 62
     7
 10
621.168443
 20
2110.537268
 11
621.219452
 21
2110.185237
  0
LINE
  8
CSLAYER1
  6
CONTINUOUS
 62
     7
 10
621.219452
 20
2110.185237
 11
621.244926
 21
2109.844386
  0
LINE
  8
CSLAYER1
  6
CONTINUOUS
 62
     7
 10
621.244926
 20
2109.844386
 11
621.244673
 21
2109.517309
  0
LINE
  8
CSLAYER1
  6
CONTINUOUS
 62
     7
 10
621.244673
 20
2109.517309
 11
621.218692
 21
2109.206494
  0
LINE
  8
CSLAYER1
  6
CONTINUOUS
 62
     7
 10
621.218692
 20
2109.206494
 11
621.167184
 21
2108.914308
  0
LINE
  8
CSLAYER1
  6
CONTINUOUS
 62
     7
 10
621.167184
 20
2108.914308
 11
621.090538
 21
2108.642975
  0
LINE
  8
CSLAYER1
  6
CONTINUOUS
 62
     7
 10
621.090538
 20
2108.642975
 11
620.989340
 21
2108.394558
  0
LINE
  8
CSLAYER1
  6
CONTINUOUS
 62
     7
 10
620.989340
 20
2108.394558
 11
620.864358
 21
2108.170949
  0
LINE
  8
CSLAYER1
  6
CONTINUOUS
 62
     7
 10
620.864358
 20
2108.170949
 11
620.716545
 21
2107.973849
  0
LINE
  8
CSLAYER1
  6
CONTINUOUS
 62
     7
 10
620.716545
 20
2107.973849
 11
620.547024
 21
2107.804760
  0
LINE
  8
CSLAYER1
  6
CONTINUOUS
 62
     7
 10
620.547024
 20
2107.804760
 11
620.357087
 21
2107.664966
  0
LINE
  8
CSLAYER1
  6
CONTINUOUS
 62
     7
 10
620.357087
 20
2107.664966
 11
620.148178
 21
2107.555533
  0
LINE
  8
CSLAYER1
  6
CONTINUOUS
 62
     7
 10
620.148178
 20
2107.555533
 11
619.921888
 21
2107.477293
  0
LINE
  8
CSLAYER1
  6
CONTINUOUS
 62
     7
 10
619.921888
 20
2107.477293
 11
619.679939
 21
2107.430842
  0
LINE
  8
CSLAYER1
  6
CONTINUOUS
 62
     7
 10
619.679939
 20
2107.430842
 11
619.424173
 21
2107.416533
  0
LINE
  8
CSLAYER1
  6
CONTINUOUS
 62
     7
 10
619.424173
 20
2107.416533
 11
619.156535
 21
2107.434475
  0
LINE
  8
CSLAYER1
  6
CONTINUOUS
 62
     7
 10
619.156535
 20
2107.434475
 11
618.879062
 21
2107.484531
  0
LINE
  8
CSLAYER1
  6
CONTINUOUS
 62
     7
 10
618.879062
 20
2107.484531
 11
618.593867
 21
2107.566322
  0
LINE
  8
CSLAYER1
  6
CONTINUOUS
 62
     7
 10
618.593867
 20
2107.566322
 11
618.303120
 21
2107.679223
  0
LINE
  8
CSLAYER1
  6
CONTINUOUS
 62
     7
 10
618.303120
 20
2107.679223
 11
618.009034
 21
2107.822376
  0
LINE
  8
CSLAYER1
  6
CONTINUOUS
 62
     7
 10
618.009034
 20
2107.822376
 11
617.713846
 21
2107.994691
  0
LINE
  8
CSLAYER1
  6
CONTINUOUS
 62
     7
 10
617.713846
 20
2107.994691
 11
617.419804
 21
2108.194858
  0
LINE
  8
CSLAYER1
  6
CONTINUOUS
 62
     7
 10
617.419804
 20
2108.194858
 11
617.129145
 21
2108.421352
  0
LINE
  8
CSLAYER1
  6
CONTINUOUS
 62
     7
 10
617.129145
 20
2108.421352
 11
616.844082
 21
2108.672450
  0
LINE
  8
CSLAYER1
  6
CONTINUOUS
 62
     7
 10
616.844082
 20
2108.672450
 11
616.566783
 21
2108.946240
  0
LINE
  8
CSLAYER1
  6
CONTINUOUS
 62
     7
 10
616.566783
 20
2108.946240
 11
616.299360
 21
2109.240640
  0
LINE
  8
CSLAYER1
  6
CONTINUOUS
 62
     7
 10
616.299360
 20
2109.240640
 11
616.043847
 21
2109.553408
  0
LINE
  8
CSLAYER1
  6
CONTINUOUS
 62
     7
 10
616.043847
 20
2109.553408
 11
615.802189
 21
2109.882165
  0
LINE
  8
CSLAYER1
  6
CONTINUOUS
 62
     7
 10
615.802189
 20
2109.882165
 11
615.576225
 21
2110.224407
  0
LINE
  8
CSLAYER1
  6
CONTINUOUS
 62
     7
 10
615.576225
 20
2110.224407
 11
615.367675
 21
2110.577531
  0
LINE
  8
CSLAYER1
  6
CONTINUOUS
 62
     7
 10
615.367675
 20
2110.577531
 11
615.178127
 21
2110.938849
  0
LINE
  8
CSLAYER1
  6
CONTINUOUS
 62
     7
 10
615.178127
 20
2110.938849
 11
615.009022
 21
2111.305611
  0
LINE
  8
CSLAYER1
  6
CONTINUOUS
 62
     7
 10
615.009022
 20
2111.305611
 11
614.861648
 21
2111.675026
  0
LINE
  8
CSLAYER1
  6
CONTINUOUS
 62
     7
 10
614.861648
 20
2111.675026
 11
614.737127
 21
2112.044283
  0
LINE
  8
CSLAYER1
  6
CONTINUOUS
 62
     7
 10
614.737127
 20
2112.044283
 11
614.636405
 21
2112.410570
  0
LINE
  8
CSLAYER1
  6
CONTINUOUS
 62
     7
 10
614.636405
 20
2112.410570
 11
614.560250
 21
2112.771101
  0
LINE
  8
CSLAYER1
  6
CONTINUOUS
 62
     7
 10
614.560250
 20
2112.771101
 11
614.509241
 21
2113.123132
  0
LINE
  8
CSLAYER1
  6
CONTINUOUS
 62
     7
 10
614.509241
 20
2113.123132
 11
614.483767
 21
2113.463983
  0
LINE
  8
CSLAYER1
  6
CONTINUOUS
 62
     7
 10
614.483767
 20
2113.463983
 11
614.484021
 21
2113.791060
  0
LINE
  8
CSLAYER1
  6
CONTINUOUS
 62
     7
 10
614.484021
 20
2113.791060
 11
614.510001
 21
2114.101874
  0
LINE
  8
CSLAYER1
  6
CONTINUOUS
 62
     7
 10
614.510001
 20
2114.101874
 11
614.561509
 21
2114.394060
  0
LINE
  8
CSLAYER1
  6
CONTINUOUS
 62
     7
 10
614.561509
 20
2114.394060
 11
614.638155
 21
2114.665394
  0
LINE
  8
CSLAYER1
  6
CONTINUOUS
 62
     7
 10
614.638155
 20
2114.665394
 11
614.739353
 21
2114.913811
  0
LINE
  8
CSLAYER1
  6
CONTINUOUS
 62
     7
 10
614.739353
 20
2114.913811
 11
614.864335
 21
2115.137420
  0
LINE
  8
CSLAYER1
  6
CONTINUOUS
 62
     7
 10
614.864335
 20
2115.137420
 11
615.012149
 21
2115.334519
  0
LINE
  8
CSLAYER1
  6
CONTINUOUS
 62
     7
 10
615.012149
 20
2115.334519
 11
615.181669
 21
2115.503609
  0
LINE
  8
CSLAYER1
  6
CONTINUOUS
 62
     7
 10
615.181669
 20
2115.503609
 11
615.371606
 21
2115.643403
  0
LINE
  8
CSLAYER1
  6
CONTINUOUS
 62
     7
 10
681.380788
 20
2167.428737
 11
681.380788
 21
2130.799409
  0
LINE
  8
CSLAYER1
  6
CONTINUOUS
 62
     7
 10
679.557146
 20
2166.289199
 11
681.380788
 21
2167.428737
  0
LINE
  8
CSLAYER1
  6
CONTINUOUS
 62
     7
 10
679.557146
 20
2166.289199
 11
679.557146
 21
2131.463160
  0
LINE
  8
CSLAYER1
  6
CONTINUOUS
 62
     7
 10
679.557146
 20
2166.289199
 11
662.633658
 21
2172.448845
  0
LINE
  8
CSLAYER1
  6
CONTINUOUS
 62
     7
 10
757.607263
 20
2137.881279
 11
759.430906
 21
2139.020818
  0
LINE
  8
CSLAYER1
  6
CONTINUOUS
 62
     7
 10
757.607263
 20
2137.881279
 11
757.607263
 21
2121.146664
  0
LINE
  8
CSLAYER1
  6
CONTINUOUS
 62
     7
 10
668.120060
 20
2161.249833
 11
668.343890
 21
2161.367082
  0
LINE
  8
CSLAYER1
  6
CONTINUOUS
 62
     7
 10
668.343890
 20
2161.367082
 11
668.586344
 21
2161.450911
  0
LINE
  8
CSLAYER1
  6
CONTINUOUS
 62
     7
 10
668.586344
 20
2161.450911
 11
668.845575
 21
2161.500680
  0
LINE
  8
CSLAYER1
  6
CONTINUOUS
 62
     7
 10
668.845575
 20
2161.500680
 11
669.119611
 21
2161.516011
  0
LINE
  8
CSLAYER1
  6
CONTINUOUS
 62
     7
 10
669.119611
 20
2161.516011
 11
669.406366
 21
2161.496787
  0
LINE
  8
CSLAYER1
  6
CONTINUOUS
 62
     7
 10
669.406366
 20
2161.496787
 11
669.703657
 21
2161.443155
  0
LINE
  8
CSLAYER1
  6
CONTINUOUS
 62
     7
 10
669.703657
 20
2161.443155
 11
670.009223
 21
2161.355523
  0
LINE
  8
CSLAYER1
  6
CONTINUOUS
 62
     7
 10
670.009223
 20
2161.355523
 11
670.320738
 21
2161.234557
  0
LINE
  8
CSLAYER1
  6
CONTINUOUS
 62
     7
 10
670.320738
 20
2161.234557
 11
670.635831
 21
2161.081179
  0
LINE
  8
CSLAYER1
  6
CONTINUOUS
 62
     7
 10
670.635831
 20
2161.081179
 11
670.952103
 21
2160.896555
  0
LINE
  8
CSLAYER1
  6
CONTINUOUS
 62
     7
 10
670.952103
 20
2160.896555
 11
671.267148
 21
2160.682091
  0
LINE
  8
CSLAYER1
  6
CONTINUOUS
 62
     7
 10
671.267148
 20
2160.682091
 11
671.578568
 21
2160.439419
  0
LINE
  8
CSLAYER1
  6
CONTINUOUS
 62
     7
 10
671.578568
 20
2160.439419
 11
671.883994
 21
2160.170386
  0
LINE
  8
CSLAYER1
  6
CONTINUOUS
 62
     7
 10
671.883994
 20
2160.170386
 11
672.181099
 21
2159.877039
  0
LINE
  8
CSLAYER1
  6
CONTINUOUS
 62
     7
 10
672.181099
 20
2159.877039
 11
672.467624
 21
2159.561610
  0
LINE
  8
CSLAYER1
  6
CONTINUOUS
 62
     7
 10
672.467624
 20
2159.561610
 11
672.741388
 21
2159.226502
  0
LINE
  8
CSLAYER1
  6
CONTINUOUS
 62
     7
 10
672.741388
 20
2159.226502
 11
673.000308
 21
2158.874263
  0
LINE
  8
CSLAYER1
  6
CONTINUOUS
 62
     7
 10
673.000308
 20
2158.874263
 11
673.242411
 21
2158.507574
  0
LINE
  8
CSLAYER1
  6
CONTINUOUS
 62
     7
 10
673.242411
 20
2158.507574
 11
673.465857
 21
2158.129227
  0
LINE
  8
CSLAYER1
  6
CONTINUOUS
 62
     7
 10
673.465857
 20
2158.129227
 11
673.668945
 21
2157.742101
  0
LINE
  8
CSLAYER1
  6
CONTINUOUS
 62
     7
 10
673.668945
 20
2157.742101
 11
673.850129
 21
2157.349141
  0
LINE
  8
CSLAYER1
  6
CONTINUOUS
 62
     7
 10
673.850129
 20
2157.349141
 11
674.008029
 21
2156.953339
  0
LINE
  8
CSLAYER1
  6
CONTINUOUS
 62
     7
 10
674.008029
 20
2156.953339
 11
674.141445
 21
2156.557708
  0
LINE
  8
CSLAYER1
  6
CONTINUOUS
 62
     7
 10
674.141445
 20
2156.557708
 11
674.249361
 21
2156.165257
  0
LINE
  8
CSLAYER1
  6
CONTINUOUS
 62
     7
 10
674.249361
 20
2156.165257
 11
674.330956
 21
2155.778974
  0
LINE
  8
CSLAYER1
  6
CONTINUOUS
 62
     7
 10
674.330956
 20
2155.778974
 11
674.385608
 21
2155.401798
  0
LINE
  8
CSLAYER1
  6
CONTINUOUS
 62
     7
 10
674.385608
 20
2155.401798
 11
674.412902
 21
2155.036601
  0
LINE
  8
CSLAYER1
  6
CONTINUOUS
 62
     7
 10
674.412902
 20
2155.036601
 11
674.412630
 21
2154.686161
  0
LINE
  8
CSLAYER1
  6
CONTINUOUS
 62
     7
 10
674.412630
 20
2154.686161
 11
674.384795
 21
2154.353145
  0
LINE
  8
CSLAYER1
  6
CONTINUOUS
 62
     7
 10
674.384795
 20
2154.353145
 11
674.329607
 21
2154.040089
  0
LINE
  8
CSLAYER1
  6
CONTINUOUS
 62
     7
 10
674.329607
 20
2154.040089
 11
674.247487
 21
2153.749374
  0
LINE
  8
CSLAYER1
  6
CONTINUOUS
 62
     7
 10
674.247487
 20
2153.749374
 11
674.139060
 21
2153.483213
  0
LINE
  8
CSLAYER1
  6
CONTINUOUS
 62
     7
 10
674.139060
 20
2153.483213
 11
674.005151
 21
2153.243632
  0
LINE
  8
CSLAYER1
  6
CONTINUOUS
 62
     7
 10
674.005151
 20
2153.243632
 11
673.846779
 21
2153.032454
  0
LINE
  8
CSLAYER1
  6
CONTINUOUS
 62
     7
 10
673.846779
 20
2153.032454
 11
673.665150
 21
2152.851286
  0
LINE
  8
CSLAYER1
  6
CONTINUOUS
 62
     7
 10
673.665150
 20
2152.851286
 11
673.461646
 21
2152.701508
  0
LINE
  8
CSLAYER1
  6
CONTINUOUS
 62
     7
 10
673.461646
 20
2152.701508
 11
673.237815
 21
2152.584258
  0
LINE
  8
CSLAYER1
  6
CONTINUOUS
 62
     7
 10
673.237815
 20
2152.584258
 11
672.995362
 21
2152.500429
  0
LINE
  8
CSLAYER1
  6
CONTINUOUS
 62
     7
 10
672.995362
 20
2152.500429
 11
672.736131
 21
2152.450660
  0
LINE
  8
CSLAYER1
  6
CONTINUOUS
 62
     7
 10
672.736131
 20
2152.450660
 11
672.462095
 21
2152.435329
  0
LINE
  8
CSLAYER1
  6
CONTINUOUS
 62
     7
 10
672.462095
 20
2152.435329
 11
672.175340
 21
2152.454553
  0
LINE
  8
CSLAYER1
  6
CONTINUOUS
 62
     7
 10
672.175340
 20
2152.454553
 11
671.878048
 21
2152.508185
  0
LINE
  8
CSLAYER1
  6
CONTINUOUS
 62
     7
 10
671.878048
 20
2152.508185
 11
671.572482
 21
2152.595817
  0
LINE
  8
CSLAYER1
  6
CONTINUOUS
 62
     7
 10
671.572482
 20
2152.595817
 11
671.260967
 21
2152.716783
  0
LINE
  8
CSLAYER1
  6
CONTINUOUS
 62
     7
 10
671.260967
 20
2152.716783
 11
670.945875
 21
2152.870161
  0
LINE
  8
CSLAYER1
  6
CONTINUOUS
 62
     7
 10
670.945875
 20
2152.870161
 11
670.629602
 21
2153.054785
  0
LINE
  8
CSLAYER1
  6
CONTINUOUS
 62
     7
 10
670.629602
 20
2153.054785
 11
670.314557
 21
2153.269249
  0
LINE
  8
CSLAYER1
  6
CONTINUOUS
 62
     7
 10
670.314557
 20
2153.269249
 11
670.003137
 21
2153.511921
  0
LINE
  8
CSLAYER1
  6
CONTINUOUS
 62
     7
 10
670.003137
 20
2153.511921
 11
669.697712
 21
2153.780955
  0
LINE
  8
CSLAYER1
  6
CONTINUOUS
 62
     7
 10
669.697712
 20
2153.780955
 11
669.400606
 21
2154.074302
  0
LINE
  8
CSLAYER1
  6
CONTINUOUS
 62
     7
 10
669.400606
 20
2154.074302
 11
669.114081
 21
2154.389730
  0
LINE
  8
CSLAYER1
  6
CONTINUOUS
 62
     7
 10
669.114081
 20
2154.389730
 11
668.840317
 21
2154.724839
  0
LINE
  8
CSLAYER1
  6
CONTINUOUS
 62
     7
 10
668.840317
 20
2154.724839
 11
668.581398
 21
2155.077078
  0
LINE
  8
CSLAYER1
  6
CONTINUOUS
 62
     7
 10
668.581398
 20
2155.077078
 11
668.339294
 21
2155.443766
  0
LINE
  8
CSLAYER1
  6
CONTINUOUS
 62
     7
 10
668.339294
 20
2155.443766
 11
668.115848
 21
2155.822113
  0
LINE
  8
CSLAYER1
  6
CONTINUOUS
 62
     7
 10
668.115848
 20
2155.822113
 11
667.912760
 21
2156.209240
  0
LINE
  8
CSLAYER1
  6
CONTINUOUS
 62
     7
 10
667.912760
 20
2156.209240
 11
667.731576
 21
2156.602199
  0
LINE
  8
CSLAYER1
  6
CONTINUOUS
 62
     7
 10
667.731576
 20
2156.602199
 11
667.573676
 21
2156.998001
  0
LINE
  8
CSLAYER1
  6
CONTINUOUS
 62
     7
 10
667.573676
 20
2156.998001
 11
667.440260
 21
2157.393633
  0
LINE
  8
CSLAYER1
  6
CONTINUOUS
 62
     7
 10
667.440260
 20
2157.393633
 11
667.332344
 21
2157.786084
  0
LINE
  8
CSLAYER1
  6
CONTINUOUS
 62
     7
 10
667.332344
 20
2157.786084
 11
667.250749
 21
2158.172367
  0
LINE
  8
CSLAYER1
  6
CONTINUOUS
 62
     7
 10
667.250749
 20
2158.172367
 11
667.196097
 21
2158.549542
  0
LINE
  8
CSLAYER1
  6
CONTINUOUS
 62
     7
 10
667.196097
 20
2158.549542
 11
667.168803
 21
2158.914740
  0
LINE
  8
CSLAYER1
  6
CONTINUOUS
 62
     7
 10
667.168803
 20
2158.914740
 11
667.169075
 21
2159.265180
  0
LINE
  8
CSLAYER1
  6
CONTINUOUS
 62
     7
 10
667.169075
 20
2159.265180
 11
667.196911
 21
2159.598195
  0
LINE
  8
CSLAYER1
  6
CONTINUOUS
 62
     7
 10
667.196911
 20
2159.598195
 11
667.252099
 21
2159.911251
  0
LINE
  8
CSLAYER1
  6
CONTINUOUS
 62
     7
 10
667.252099
 20
2159.911251
 11
667.334218
 21
2160.201966
  0
LINE
  8
CSLAYER1
  6
CONTINUOUS
 62
     7
 10
667.334218
 20
2160.201966
 11
667.442646
 21
2160.468127
  0
LINE
  8
CSLAYER1
  6
CONTINUOUS
 62
     7
 10
667.442646
 20
2160.468127
 11
667.576554
 21
2160.707708
  0
LINE
  8
CSLAYER1
  6
CONTINUOUS
 62
     7
 10
667.576554
 20
2160.707708
 11
667.734926
 21
2160.918886
  0
LINE
  8
CSLAYER1
  6
CONTINUOUS
 62
     7
 10
667.734926
 20
2160.918886
 11
667.916555
 21
2161.100054
  0
LINE
  8
CSLAYER1
  6
CONTINUOUS
 62
     7
 10
667.916555
 20
2161.100054
 11
668.120060
 21
2161.249833
  0
LINE
  8
CSLAYER1
  6
CONTINUOUS
 62
     7
 10
668.120060
 20
2161.249833
 11
670.571618
 21
2162.781736
  0
LINE
  8
CSLAYER1
  6
CONTINUOUS
 62
     7
 10
673.461646
 20
2152.701508
 11
675.913205
 21
2154.233412
  0
LINE
  8
CSLAYER1
  6
CONTINUOUS
 62
     7
 10
671.578568
 20
2160.439419
 11
674.030127
 21
2161.971323
  0
LINE
  8
CSLAYER1
  6
CONTINUOUS
 62
     7
 10
674.121872
 20
2156.615750
 11
676.573431
 21
2158.147654
  0
LINE
  8
CSLAYER1
  6
CONTINUOUS
 62
     7
 10
670.571618
 20
2162.781736
 11
670.795449
 21
2162.898986
  0
LINE
  8
CSLAYER1
  6
CONTINUOUS
 62
     7
 10
670.795449
 20
2162.898986
 11
671.037902
 21
2162.982815
  0
LINE
  8
CSLAYER1
  6
CONTINUOUS
 62
     7
 10
671.037902
 20
2162.982815
 11
671.297134
 21
2163.032584
  0
LINE
  8
CSLAYER1
  6
CONTINUOUS
 62
     7
 10
671.297134
 20
2163.032584
 11
671.571169
 21
2163.047915
  0
LINE
  8
CSLAYER1
  6
CONTINUOUS
 62
     7
 10
671.571169
 20
2163.047915
 11
671.857924
 21
2163.028691
  0
LINE
  8
CSLAYER1
  6
CONTINUOUS
 62
     7
 10
671.857924
 20
2163.028691
 11
672.155216
 21
2162.975059
  0
LINE
  8
CSLAYER1
  6
CONTINUOUS
 62
     7
 10
672.155216
 20
2162.975059
 11
672.460782
 21
2162.887427
  0
LINE
  8
CSLAYER1
  6
CONTINUOUS
 62
     7
 10
672.460782
 20
2162.887427
 11
672.772297
 21
2162.766461
  0
LINE
  8
CSLAYER1
  6
CONTINUOUS
 62
     7
 10
672.772297
 20
2162.766461
 11
673.087389
 21
2162.613083
  0
LINE
  8
CSLAYER1
  6
CONTINUOUS
 62
     7
 10
673.087389
 20
2162.613083
 11
673.403662
 21
2162.428459
  0
LINE
  8
CSLAYER1
  6
CONTINUOUS
 62
     7
 10
673.403662
 20
2162.428459
 11
673.718707
 21
2162.213995
  0
LINE
  8
CSLAYER1
  6
CONTINUOUS
 62
     7
 10
673.718707
 20
2162.213995
 11
674.030127
 21
2161.971323
  0
LINE
  8
CSLAYER1
  6
CONTINUOUS
 62
     7
 10
674.030127
 20
2161.971323
 11
674.335552
 21
2161.702290
  0
LINE
  8
CSLAYER1
  6
CONTINUOUS
 62
     7
 10
674.335552
 20
2161.702290
 11
674.632658
 21
2161.408943
  0
LINE
  8
CSLAYER1
  6
CONTINUOUS
 62
     7
 10
674.632658
 20
2161.408943
 11
674.919183
 21
2161.093514
  0
LINE
  8
CSLAYER1
  6
CONTINUOUS
 62
     7
 10
674.919183
 20
2161.093514
 11
675.192947
 21
2160.758406
  0
LINE
  8
CSLAYER1
  6
CONTINUOUS
 62
     7
 10
675.192947
 20
2160.758406
 11
675.451866
 21
2160.406167
  0
LINE
  8
CSLAYER1
  6
CONTINUOUS
 62
     7
 10
675.451866
 20
2160.406167
 11
675.693970
 21
2160.039478
  0
LINE
  8
CSLAYER1
  6
CONTINUOUS
 62
     7
 10
675.693970
 20
2160.039478
 11
675.917416
 21
2159.661131
  0
LINE
  8
CSLAYER1
  6
CONTINUOUS
 62
     7
 10
675.917416
 20
2159.661131
 11
676.120504
 21
2159.274004
  0
LINE
  8
CSLAYER1
  6
CONTINUOUS
 62
     7
 10
676.120504
 20
2159.274004
 11
676.301688
 21
2158.881045
  0
LINE
  8
CSLAYER1
  6
CONTINUOUS
 62
     7
 10
676.301688
 20
2158.881045
 11
676.459588
 21
2158.485243
  0
LINE
  8
CSLAYER1
  6
CONTINUOUS
 62
     7
 10
676.459588
 20
2158.485243
 11
676.593004
 21
2158.089612
  0
LINE
  8
CSLAYER1
  6
CONTINUOUS
 62
     7
 10
676.593004
 20
2158.089612
 11
676.700920
 21
2157.697161
  0
LINE
  8
CSLAYER1
  6
CONTINUOUS
 62
     7
 10
676.700920
 20
2157.697161
 11
676.782515
 21
2157.310878
  0
LINE
  8
CSLAYER1
  6
CONTINUOUS
 62
     7
 10
676.782515
 20
2157.310878
 11
676.837167
 21
2156.933702
  0
LINE
  8
CSLAYER1
  6
CONTINUOUS
 62
     7
 10
676.837167
 20
2156.933702
 11
676.864461
 21
2156.568505
  0
LINE
  8
CSLAYER1
  6
CONTINUOUS
 62
     7
 10
676.864461
 20
2156.568505
 11
676.864189
 21
2156.218065
  0
LINE
  8
CSLAYER1
  6
CONTINUOUS
 62
     7
 10
676.864189
 20
2156.218065
 11
676.836353
 21
2155.885049
  0
LINE
  8
CSLAYER1
  6
CONTINUOUS
 62
     7
 10
676.836353
 20
2155.885049
 11
676.781166
 21
2155.571993
  0
LINE
  8
CSLAYER1
  6
CONTINUOUS
 62
     7
 10
676.781166
 20
2155.571993
 11
676.699046
 21
2155.281278
  0
LINE
  8
CSLAYER1
  6
CONTINUOUS
 62
     7
 10
676.699046
 20
2155.281278
 11
676.590619
 21
2155.015117
  0
LINE
  8
CSLAYER1
  6
CONTINUOUS
 62
     7
 10
676.590619
 20
2155.015117
 11
676.456710
 21
2154.775536
  0
LINE
  8
CSLAYER1
  6
CONTINUOUS
 62
     7
 10
676.456710
 20
2154.775536
 11
676.298338
 21
2154.564358
  0
LINE
  8
CSLAYER1
  6
CONTINUOUS
 62
     7
 10
676.298338
 20
2154.564358
 11
676.116709
 21
2154.383190
  0
LINE
  8
CSLAYER1
  6
CONTINUOUS
 62
     7
 10
676.116709
 20
2154.383190
 11
675.913205
 21
2154.233412
  0
LINE
  8
CSLAYER1
  6
CONTINUOUS
 62
     7
 10
758.799646
 20
2128.245162
 11
761.251204
 21
2129.777066
  0
LINE
  8
CSLAYER1
  6
CONTINUOUS
 62
     7
 10
762.258154
 20
2127.434749
 11
764.709713
 21
2128.966653
  0
LINE
  8
CSLAYER1
  6
CONTINUOUS
 62
     7
 10
764.801458
 20
2123.611080
 11
767.253017
 21
2125.142984
  0
LINE
  8
CSLAYER1
  6
CONTINUOUS
 62
     7
 10
761.251204
 20
2129.777066
 11
761.475035
 21
2129.894316
  0
LINE
  8
CSLAYER1
  6
CONTINUOUS
 62
     7
 10
761.475035
 20
2129.894316
 11
761.717489
 21
2129.978144
  0
LINE
  8
CSLAYER1
  6
CONTINUOUS
 62
     7
 10
761.717489
 20
2129.978144
 11
761.976720
 21
2130.027914
  0
LINE
  8
CSLAYER1
  6
CONTINUOUS
 62
     7
 10
761.976720
 20
2130.027914
 11
762.250756
 21
2130.043245
  0
LINE
  8
CSLAYER1
  6
CONTINUOUS
 62
     7
 10
762.250756
 20
2130.043245
 11
762.537511
 21
2130.024021
  0
LINE
  8
CSLAYER1
  6
CONTINUOUS
 62
     7
 10
762.537511
 20
2130.024021
 11
762.834802
 21
2129.970389
  0
LINE
  8
CSLAYER1
  6
CONTINUOUS
 62
     7
 10
762.834802
 20
2129.970389
 11
763.140368
 21
2129.882757
  0
LINE
  8
CSLAYER1
  6
CONTINUOUS
 62
     7
 10
763.140368
 20
2129.882757
 11
763.451883
 21
2129.761791
  0
LINE
  8
CSLAYER1
  6
CONTINUOUS
 62
     7
 10
763.451883
 20
2129.761791
 11
763.766976
 21
2129.608413
  0
LINE
  8
CSLAYER1
  6
CONTINUOUS
 62
     7
 10
763.766976
 20
2129.608413
 11
764.083248
 21
2129.423789
  0
LINE
  8
CSLAYER1
  6
CONTINUOUS
 62
     7
 10
764.083248
 20
2129.423789
 11
764.398293
 21
2129.209325
  0
LINE
  8
CSLAYER1
  6
CONTINUOUS
 62
     7
 10
764.398293
 20
2129.209325
 11
764.709713
 21
2128.966653
  0
LINE
  8
CSLAYER1
  6
CONTINUOUS
 62
     7
 10
764.709713
 20
2128.966653
 11
765.015139
 21
2128.697619
  0
LINE
  8
CSLAYER1
  6
CONTINUOUS
 62
     7
 10
765.015139
 20
2128.697619
 11
765.312244
 21
2128.404272
  0
LINE
  8
CSLAYER1
  6
CONTINUOUS
 62
     7
 10
765.312244
 20
2128.404272
 11
765.598769
 21
2128.088844
  0
LINE
  8
CSLAYER1
  6
CONTINUOUS
 62
     7
 10
765.598769
 20
2128.088844
 11
765.872533
 21
2127.753735
  0
LINE
  8
CSLAYER1
  6
CONTINUOUS
 62
     7
 10
765.872533
 20
2127.753735
 11
766.131453
 21
2127.401496
  0
LINE
  8
CSLAYER1
  6
CONTINUOUS
 62
     7
 10
766.131453
 20
2127.401496
 11
766.373556
 21
2127.034808
  0
LINE
  8
CSLAYER1
  6
CONTINUOUS
 62
     7
 10
766.373556
 20
2127.034808
 11
766.550578
 21
2126.735068
  0
LINE
  8
CSLAYER1
  6
CONTINUOUS
 62
     7
 10
758.799646
 20
2128.245162
 11
759.023476
 21
2128.362412
  0
LINE
  8
CSLAYER1
  6
CONTINUOUS
 62
     7
 10
759.023476
 20
2128.362412
 11
759.265930
 21
2128.446240
  0
LINE
  8
CSLAYER1
  6
CONTINUOUS
 62
     7
 10
759.265930
 20
2128.446240
 11
759.525161
 21
2128.496010
  0
LINE
  8
CSLAYER1
  6
CONTINUOUS
 62
     7
 10
759.525161
 20
2128.496010
 11
759.799197
 21
2128.511341
  0
LINE
  8
CSLAYER1
  6
CONTINUOUS
 62
     7
 10
759.799197
 20
2128.511341
 11
760.085952
 21
2128.492117
  0
LINE
  8
CSLAYER1
  6
CONTINUOUS
 62
     7
 10
760.085952
 20
2128.492117
 11
760.383244
 21
2128.438485
  0
LINE
  8
CSLAYER1
  6
CONTINUOUS
 62
     7
 10
760.383244
 20
2128.438485
 11
760.688810
 21
2128.350853
  0
LINE
  8
CSLAYER1
  6
CONTINUOUS
 62
     7
 10
760.688810
 20
2128.350853
 11
761.000324
 21
2128.229887
  0
LINE
  8
CSLAYER1
  6
CONTINUOUS
 62
     7
 10
761.000324
 20
2128.229887
 11
761.315417
 21
2128.076509
  0
LINE
  8
CSLAYER1
  6
CONTINUOUS
 62
     7
 10
761.315417
 20
2128.076509
 11
761.631689
 21
2127.891885
  0
LINE
  8
CSLAYER1
  6
CONTINUOUS
 62
     7
 10
761.631689
 20
2127.891885
 11
761.946734
 21
2127.677421
  0
LINE
  8
CSLAYER1
  6
CONTINUOUS
 62
     7
 10
761.946734
 20
2127.677421
 11
762.258154
 21
2127.434749
  0
LINE
  8
CSLAYER1
  6
CONTINUOUS
 62
     7
 10
762.258154
 20
2127.434749
 11
762.563580
 21
2127.165715
  0
LINE
  8
CSLAYER1
  6
CONTINUOUS
 62
     7
 10
762.563580
 20
2127.165715
 11
762.860685
 21
2126.872368
  0
LINE
  8
CSLAYER1
  6
CONTINUOUS
 62
     7
 10
762.860685
 20
2126.872368
 11
763.147211
 21
2126.556940
  0
LINE
  8
CSLAYER1
  6
CONTINUOUS
 62
     7
 10
763.147211
 20
2126.556940
 11
763.420975
 21
2126.221831
  0
LINE
  8
CSLAYER1
  6
CONTINUOUS
 62
     7
 10
763.420975
 20
2126.221831
 11
763.679894
 21
2125.869592
  0
LINE
  8
CSLAYER1
  6
CONTINUOUS
 62
     7
 10
763.679894
 20
2125.869592
 11
763.921998
 21
2125.502904
  0
LINE
  8
CSLAYER1
  6
CONTINUOUS
 62
     7
 10
763.921998
 20
2125.502904
 11
764.099020
 21
2125.203164
  0
LINE
  8
CSLAYER1
  6
CONTINUOUS
 62
     7
 10
759.210683
 20
2122.148592
 11
759.018880
 21
2122.439096
  0
LINE
  8
CSLAYER1
  6
CONTINUOUS
 62
     7
 10
759.018880
 20
2122.439096
 11
758.795434
 21
2122.817443
  0
LINE
  8
CSLAYER1
  6
CONTINUOUS
 62
     7
 10
758.795434
 20
2122.817443
 11
758.592346
 21
2123.204569
  0
LINE
  8
CSLAYER1
  6
CONTINUOUS
 62
     7
 10
758.592346
 20
2123.204569
 11
758.411163
 21
2123.597529
  0
LINE
  8
CSLAYER1
  6
CONTINUOUS
 62
     7
 10
758.411163
 20
2123.597529
 11
758.253262
 21
2123.993331
  0
LINE
  8
CSLAYER1
  6
CONTINUOUS
 62
     7
 10
758.253262
 20
2123.993331
 11
758.119846
 21
2124.388962
  0
LINE
  8
CSLAYER1
  6
CONTINUOUS
 62
     7
 10
758.119846
 20
2124.388962
 11
758.011930
 21
2124.781413
  0
LINE
  8
CSLAYER1
  6
CONTINUOUS
 62
     7
 10
758.011930
 20
2124.781413
 11
757.930335
 21
2125.167696
  0
LINE
  8
CSLAYER1
  6
CONTINUOUS
 62
     7
 10
757.930335
 20
2125.167696
 11
757.875683
 21
2125.544872
  0
LINE
  8
CSLAYER1
  6
CONTINUOUS
 62
     7
 10
757.875683
 20
2125.544872
 11
757.848389
 21
2125.910069
  0
LINE
  8
CSLAYER1
  6
CONTINUOUS
 62
     7
 10
757.848389
 20
2125.910069
 11
757.848661
 21
2126.260509
  0
LINE
  8
CSLAYER1
  6
CONTINUOUS
 62
     7
 10
757.848661
 20
2126.260509
 11
757.876497
 21
2126.593525
  0
LINE
  8
CSLAYER1
  6
CONTINUOUS
 62
     7
 10
757.876497
 20
2126.593525
 11
757.931685
 21
2126.906581
  0
LINE
  8
CSLAYER1
  6
CONTINUOUS
 62
     7
 10
757.931685
 20
2126.906581
 11
758.013805
 21
2127.197296
  0
LINE
  8
CSLAYER1
  6
CONTINUOUS
 62
     7
 10
758.013805
 20
2127.197296
 11
758.122232
 21
2127.463457
  0
LINE
  8
CSLAYER1
  6
CONTINUOUS
 62
     7
 10
758.122232
 20
2127.463457
 11
758.256141
 21
2127.703038
  0
LINE
  8
CSLAYER1
  6
CONTINUOUS
 62
     7
 10
758.256141
 20
2127.703038
 11
758.414512
 21
2127.914216
  0
LINE
  8
CSLAYER1
  6
CONTINUOUS
 62
     7
 10
758.414512
 20
2127.914216
 11
758.596141
 21
2128.095384
  0
LINE
  8
CSLAYER1
  6
CONTINUOUS
 62
     7
 10
758.596141
 20
2128.095384
 11
758.799646
 21
2128.245162
  0
ARC
  8
CSLAYER1
  6
CONTINUOUS
 62
     7
 10
602.790702
 20
2127.130737
 40
6.720000
 50
122.000000
 51
180.000000
  0
ARC
  8
CSLAYER1
  6
CONTINUOUS
 62
     7
 10
600.769987
 20
2127.866217
 40
6.720000
 50
122.000000
 51
180.000000
  0
ARC
  8
CSLAYER1
  6
CONTINUOUS
 62
     7
 10
599.430702
 20
2062.997294
 40
3.360000
 50
256.943959
 51
302.000000
  0
ARC
  8
CSLAYER1
  6
CONTINUOUS
 62
     7
 10
597.161963
 20
2063.278101
 40
3.360000
 50
202.152506
 51
217.167534
  0
LINE
  8
CSLAYER1
  6
CONTINUOUS
 62
     7
 10
598.671664
 20
2059.724151
 11
594.484472
 21
2061.248165
  0
ARC
  8
CSLAYER1
  6
CONTINUOUS
 62
     7
 10
713.348511
 20
2087.530524
 40
3.360000
 50
122.000000
 51
180.000000
  0
ARC
  8
CSLAYER1
  6
CONTINUOUS
 62
     7
 10
711.327796
 20
2088.266004
 40
3.360000
 50
122.000000
 51
180.000000
  0
ARC
  8
CSLAYER1
  6
CONTINUOUS
 62
     7
 10
713.348511
 20
2021.534603
 40
3.360000
 50
180.000000
 51
302.000000
  0
ARC
  8
CSLAYER1
  6
CONTINUOUS
 62
     7
 10
711.218798
 20
2022.029119
 40
3.360000
 50
194.633804
 51
226.715114
  0
LINE
  8
CSLAYER1
  6
CONTINUOUS
 62
     7
 10
633.745097
 20
2156.395431
 11
662.436585
 21
2174.323863
  0
LINE
  8
CSLAYER1
  6
CONTINUOUS
 62
     7
 10
602.318066
 20
2060.839480
 11
598.920143
 21
2062.076222
  0
ARC
  8
CSLAYER1
  6
CONTINUOUS
 62
     7
 10
599.430702
 20
2062.997294
 40
3.360000
 50
180.000000
 51
256.943959
  0
LINE
  8
CSLAYER1
  6
CONTINUOUS
 62
     7
 10
633.745097
 20
2006.608222
 11
633.745097
 21
1990.338641
  0
LINE
  8
CSLAYER1
  6
CONTINUOUS
 62
     7
 10
389.474169
 20
1911.070048
 11
389.912140
 21
1911.192719
  0
LINE
  8
CSLAYER1
  6
CONTINUOUS
 62
     7
 10
389.912140
 20
1911.192719
 11
390.370391
 21
1911.249577
  0
LINE
  8
CSLAYER1
  6
CONTINUOUS
 62
     7
 10
390.370391
 20
1911.249577
 11
390.845436
 21
1911.240189
  0
LINE
  8
CSLAYER1
  6
CONTINUOUS
 62
     7
 10
390.845436
 20
1911.240189
 11
391.333659
 21
1911.164627
  0
LINE
  8
CSLAYER1
  6
CONTINUOUS
 62
     7
 10
391.333659
 20
1911.164627
 11
391.831345
 21
1911.023465
  0
LINE
  8
CSLAYER1
  6
CONTINUOUS
 62
     7
 10
391.831345
 20
1911.023465
 11
392.334705
 21
1910.817778
  0
LINE
  8
CSLAYER1
  6
CONTINUOUS
 62
     7
 10
392.334705
 20
1910.817778
 11
392.839909
 21
1910.549131
  0
LINE
  8
CSLAYER1
  6
CONTINUOUS
 62
     7
 10
392.839909
 20
1910.549131
 11
393.343112
 21
1910.219570
  0
LINE
  8
CSLAYER1
  6
CONTINUOUS
 62
     7
 10
393.343112
 20
1910.219570
 11
393.840484
 21
1909.831601
  0
LINE
  8
CSLAYER1
  6
CONTINUOUS
 62
     7
 10
393.840484
 20
1909.831601
 11
394.328240
 21
1909.388178
  0
LINE
  8
CSLAYER1
  6
CONTINUOUS
 62
     7
 10
394.328240
 20
1909.388178
 11
394.802668
 21
1908.892676
  0
LINE
  8
CSLAYER1
  6
CONTINUOUS
 62
     7
 10
394.802668
 20
1908.892676
 11
395.260157
 21
1908.348865
  0
LINE
  8
CSLAYER1
  6
CONTINUOUS
 62
     7
 10
395.260157
 20
1908.348865
 11
395.697225
 21
1907.760885
  0
LINE
  8
CSLAYER1
  6
CONTINUOUS
 62
     7
 10
395.697225
 20
1907.760885
 11
396.110547
 21
1907.133210
  0
LINE
  8
CSLAYER1
  6
CONTINUOUS
 62
     7
 10
396.110547
 20
1907.133210
 11
396.496976
 21
1906.470616
  0
LINE
  8
CSLAYER1
  6
CONTINUOUS
 62
     7
 10
396.496976
 20
1906.470616
 11
396.853571
 21
1905.778148
  0
LINE
  8
CSLAYER1
  6
CONTINUOUS
 62
     7
 10
396.853571
 20
1905.778148
 11
397.177619
 21
1905.061075
  0
LINE
  8
CSLAYER1
  6
CONTINUOUS
 62
     7
 10
397.177619
 20
1905.061075
 11
397.466653
 21
1904.324854
  0
LINE
  8
CSLAYER1
  6
CONTINUOUS
 62
     7
 10
397.466653
 20
1904.324854
 11
397.718474
 21
1903.575088
  0
LINE
  8
CSLAYER1
  6
CONTINUOUS
 62
     7
 10
397.718474
 20
1903.575088
 11
397.931164
 21
1902.817484
  0
LINE
  8
CSLAYER1
  6
CONTINUOUS
 62
     7
 10
397.931164
 20
1902.817484
 11
398.103107
 21
1902.057808
  0
LINE
  8
CSLAYER1
  6
CONTINUOUS
 62
     7
 10
398.103107
 20
1902.057808
 11
398.232992
 21
1901.301840
  0
LINE
  8
CSLAYER1
  6
CONTINUOUS
 62
     7
 10
398.232992
 20
1901.301840
 11
398.319831
 21
1900.555335
  0
LINE
  8
CSLAYER1
  6
CONTINUOUS
 62
     7
 10
398.319831
 20
1900.555335
 11
398.362964
 21
1899.823974
  0
LINE
  8
CSLAYER1
  6
CONTINUOUS
 62
     7
 10
398.362964
 20
1899.823974
 11
398.362062
 21
1899.113322
  0
LINE
  8
CSLAYER1
  6
CONTINUOUS
 62
     7
 10
398.362062
 20
1899.113322
 11
398.317131
 21
1898.428789
  0
LINE
  8
CSLAYER1
  6
CONTINUOUS
 62
     7
 10
398.317131
 20
1898.428789
 11
398.228515
 21
1897.775584
  0
LINE
  8
CSLAYER1
  6
CONTINUOUS
 62
     7
 10
398.228515
 20
1897.775584
 11
398.096888
 21
1897.158678
  0
LINE
  8
CSLAYER1
  6
CONTINUOUS
 62
     7
 10
398.096888
 20
1897.158678
 11
397.923250
 21
1896.582767
  0
LINE
  8
CSLAYER1
  6
CONTINUOUS
 62
     7
 10
397.923250
 20
1896.582767
 11
397.708924
 21
1896.052233
  0
LINE
  8
CSLAYER1
  6
CONTINUOUS
 62
     7
 10
397.708924
 20
1896.052233
 11
397.455541
 21
1895.571114
  0
LINE
  8
CSLAYER1
  6
CONTINUOUS
 62
     7
 10
397.455541
 20
1895.571114
 11
397.165029
 21
1895.143072
  0
LINE
  8
CSLAYER1
  6
CONTINUOUS
 62
     7
 10
397.165029
 20
1895.143072
 11
396.839599
 21
1894.771364
  0
LINE
  8
CSLAYER1
  6
CONTINUOUS
 62
     7
 10
396.839599
 20
1894.771364
 11
396.481728
 21
1894.458819
  0
LINE
  8
CSLAYER1
  6
CONTINUOUS
 62
     7
 10
396.481728
 20
1894.458819
 11
396.094139
 21
1894.207816
  0
LINE
  8
CSLAYER1
  6
CONTINUOUS
 62
     7
 10
396.094139
 20
1894.207816
 11
395.679783
 21
1894.020266
  0
LINE
  8
CSLAYER1
  6
CONTINUOUS
 62
     7
 10
395.679783
 20
1894.020266
 11
395.241812
 21
1893.897595
  0
LINE
  8
CSLAYER1
  6
CONTINUOUS
 62
     7
 10
395.241812
 20
1893.897595
 11
394.783561
 21
1893.840737
  0
LINE
  8
CSLAYER1
  6
CONTINUOUS
 62
     7
 10
394.783561
 20
1893.840737
 11
394.308516
 21
1893.850125
  0
LINE
  8
CSLAYER1
  6
CONTINUOUS
 62
     7
 10
394.308516
 20
1893.850125
 11
393.820293
 21
1893.925687
  0
LINE
  8
CSLAYER1
  6
CONTINUOUS
 62
     7
 10
393.820293
 20
1893.925687
 11
393.322607
 21
1894.066849
  0
LINE
  8
CSLAYER1
  6
CONTINUOUS
 62
     7
 10
393.322607
 20
1894.066849
 11
392.819247
 21
1894.272536
  0
LINE
  8
CSLAYER1
  6
CONTINUOUS
 62
     7
 10
392.819247
 20
1894.272536
 11
392.314043
 21
1894.541183
  0
LINE
  8
CSLAYER1
  6
CONTINUOUS
 62
     7
 10
392.314043
 20
1894.541183
 11
391.810840
 21
1894.870744
  0
LINE
  8
CSLAYER1
  6
CONTINUOUS
 62
     7
 10
391.810840
 20
1894.870744
 11
391.313468
 21
1895.258713
  0
LINE
  8
CSLAYER1
  6
CONTINUOUS
 62
     7
 10
391.313468
 20
1895.258713
 11
390.825712
 21
1895.702136
  0
LINE
  8
CSLAYER1
  6
CONTINUOUS
 62
     7
 10
390.825712
 20
1895.702136
 11
390.351284
 21
1896.197638
  0
LINE
  8
CSLAYER1
  6
CONTINUOUS
 62
     7
 10
390.351284
 20
1896.197638
 11
389.893795
 21
1896.741449
  0
LINE
  8
CSLAYER1
  6
CONTINUOUS
 62
     7
 10
389.893795
 20
1896.741449
 11
389.456727
 21
1897.329429
  0
LINE
  8
CSLAYER1
  6
CONTINUOUS
 62
     7
 10
389.456727
 20
1897.329429
 11
389.043405
 21
1897.957104
  0
LINE
  8
CSLAYER1
  6
CONTINUOUS
 62
     7
 10
389.043405
 20
1897.957104
 11
388.656976
 21
1898.619698
  0
LINE
  8
CSLAYER1
  6
CONTINUOUS
 62
     7
 10
388.656976
 20
1898.619698
 11
388.300381
 21
1899.312166
  0
LINE
  8
CSLAYER1
  6
CONTINUOUS
 62
     7
 10
388.300381
 20
1899.312166
 11
387.976333
 21
1900.029239
  0
LINE
  8
CSLAYER1
  6
CONTINUOUS
 62
     7
 10
387.976333
 20
1900.029239
 11
387.687299
 21
1900.765460
  0
LINE
  8
CSLAYER1
  6
CONTINUOUS
 62
     7
 10
387.687299
 20
1900.765460
 11
387.435478
 21
1901.515226
  0
LINE
  8
CSLAYER1
  6
CONTINUOUS
 62
     7
 10
387.435478
 20
1901.515226
 11
387.222788
 21
1902.272830
  0
LINE
  8
CSLAYER1
  6
CONTINUOUS
 62
     7
 10
387.222788
 20
1902.272830
 11
387.050845
 21
1903.032506
  0
LINE
  8
CSLAYER1
  6
CONTINUOUS
 62
     7
 10
387.050845
 20
1903.032506
 11
386.920960
 21
1903.788474
  0
LINE
  8
CSLAYER1
  6
CONTINUOUS
 62
     7
 10
386.920960
 20
1903.788474
 11
386.834121
 21
1904.534979
  0
LINE
  8
CSLAYER1
  6
CONTINUOUS
 62
     7
 10
386.834121
 20
1904.534979
 11
386.790988
 21
1905.266340
  0
LINE
  8
CSLAYER1
  6
CONTINUOUS
 62
     7
 10
386.790988
 20
1905.266340
 11
386.791890
 21
1905.976992
  0
LINE
  8
CSLAYER1
  6
CONTINUOUS
 62
     7
 10
386.791890
 20
1905.976992
 11
386.836820
 21
1906.661525
  0
LINE
  8
CSLAYER1
  6
CONTINUOUS
 62
     7
 10
386.836820
 20
1906.661525
 11
386.925437
 21
1907.314730
  0
LINE
  8
CSLAYER1
  6
CONTINUOUS
 62
     7
 10
386.925437
 20
1907.314730
 11
387.057064
 21
1907.931636
  0
LINE
  8
CSLAYER1
  6
CONTINUOUS
 62
     7
 10
387.057064
 20
1907.931636
 11
387.230702
 21
1908.507547
  0
LINE
  8
CSLAYER1
  6
CONTINUOUS
 62
     7
 10
387.230702
 20
1908.507547
 11
387.445028
 21
1909.038081
  0
LINE
  8
CSLAYER1
  6
CONTINUOUS
 62
     7
 10
387.445028
 20
1909.038081
 11
387.698411
 21
1909.519200
  0
LINE
  8
CSLAYER1
  6
CONTINUOUS
 62
     7
 10
387.698411
 20
1909.519200
 11
387.988923
 21
1909.947242
  0
LINE
  8
CSLAYER1
  6
CONTINUOUS
 62
     7
 10
387.988923
 20
1909.947242
 11
388.314353
 21
1910.318950
  0
LINE
  8
CSLAYER1
  6
CONTINUOUS
 62
     7
 10
388.314353
 20
1910.318950
 11
388.672224
 21
1910.631495
  0
LINE
  8
CSLAYER1
  6
CONTINUOUS
 62
     7
 10
388.672224
 20
1910.631495
 11
389.059813
 21
1910.882498
  0
LINE
  8
CSLAYER1
  6
CONTINUOUS
 62
     7
 10
389.059813
 20
1910.882498
 11
389.474169
 21
1911.070048
  0
LINE
  8
CSLAYER1
  6
CONTINUOUS
 62
     7
 10
389.474169
 20
1911.070048
 11
444.989826
 21
1931.746035
  0
LINE
  8
CSLAYER1
  6
CONTINUOUS
 62
     7
 10
395.679783
 20
1894.020266
 11
451.195440
 21
1914.696252
  0
LINE
  8
CSLAYER1
  6
CONTINUOUS
 62
     7
 10
444.989826
 20
1931.746035
 11
445.427797
 21
1931.868706
  0
LINE
  8
CSLAYER1
  6
CONTINUOUS
 62
     7
 10
445.427797
 20
1931.868706
 11
445.886048
 21
1931.925564
  0
LINE
  8
CSLAYER1
  6
CONTINUOUS
 62
     7
 10
445.886048
 20
1931.925564
 11
446.361093
 21
1931.916176
  0
LINE
  8
CSLAYER1
  6
CONTINUOUS
 62
     7
 10
446.361093
 20
1931.916176
 11
446.849316
 21
1931.840613
  0
LINE
  8
CSLAYER1
  6
CONTINUOUS
 62
     7
 10
446.849316
 20
1931.840613
 11
447.347002
 21
1931.699452
  0
LINE
  8
CSLAYER1
  6
CONTINUOUS
 62
     7
 10
447.347002
 20
1931.699452
 11
447.850362
 21
1931.493765
  0
LINE
  8
CSLAYER1
  6
CONTINUOUS
 62
     7
 10
447.850362
 20
1931.493765
 11
448.355566
 21
1931.225118
  0
LINE
  8
CSLAYER1
  6
CONTINUOUS
 62
     7
 10
448.355566
 20
1931.225118
 11
448.858769
 21
1930.895556
  0
LINE
  8
CSLAYER1
  6
CONTINUOUS
 62
     7
 10
448.858769
 20
1930.895556
 11
449.356141
 21
1930.507588
  0
LINE
  8
CSLAYER1
  6
CONTINUOUS
 62
     7
 10
449.356141
 20
1930.507588
 11
449.843897
 21
1930.064165
  0
LINE
  8
CSLAYER1
  6
CONTINUOUS
 62
     7
 10
449.843897
 20
1930.064165
 11
450.318325
 21
1929.568663
  0
LINE
  8
CSLAYER1
  6
CONTINUOUS
 62
     7
 10
450.318325
 20
1929.568663
 11
450.775814
 21
1929.024852
  0
LINE
  8
CSLAYER1
  6
CONTINUOUS
 62
     7
 10
450.775814
 20
1929.024852
 11
451.212883
 21
1928.436872
  0
LINE
  8
CSLAYER1
  6
CONTINUOUS
 62
     7
 10
451.212883
 20
1928.436872
 11
451.626204
 21
1927.809196
  0
LINE
  8
CSLAYER1
  6
CONTINUOUS
 62
     7
 10
451.626204
 20
1927.809196
 11
452.012633
 21
1927.146603
  0
LINE
  8
CSLAYER1
  6
CONTINUOUS
 62
     7
 10
452.012633
 20
1927.146603
 11
452.369228
 21
1926.454135
  0
LINE
  8
CSLAYER1
  6
CONTINUOUS
 62
     7
 10
452.369228
 20
1926.454135
 11
452.693276
 21
1925.737061
  0
LINE
  8
CSLAYER1
  6
CONTINUOUS
 62
     7
 10
452.693276
 20
1925.737061
 11
452.982310
 21
1925.000840
  0
LINE
  8
CSLAYER1
  6
CONTINUOUS
 62
     7
 10
452.982310
 20
1925.000840
 11
453.234131
 21
1924.251075
  0
LINE
  8
CSLAYER1
  6
CONTINUOUS
 62
     7
 10
453.234131
 20
1924.251075
 11
453.446822
 21
1923.493471
  0
LINE
  8
CSLAYER1
  6
CONTINUOUS
 62
     7
 10
453.446822
 20
1923.493471
 11
453.618764
 21
1922.733795
  0
LINE
  8
CSLAYER1
  6
CONTINUOUS
 62
     7
 10
453.618764
 20
1922.733795
 11
453.748649
 21
1921.977827
  0
LINE
  8
CSLAYER1
  6
CONTINUOUS
 62
     7
 10
453.748649
 20
1921.977827
 11
453.835488
 21
1921.231322
  0
LINE
  8
CSLAYER1
  6
CONTINUOUS
 62
     7
 10
453.835488
 20
1921.231322
 11
453.878621
 21
1920.499961
  0
LINE
  8
CSLAYER1
  6
CONTINUOUS
 62
     7
 10
453.878621
 20
1920.499961
 11
453.877719
 21
1919.789309
  0
LINE
  8
CSLAYER1
  6
CONTINUOUS
 62
     7
 10
453.877719
 20
1919.789309
 11
453.832789
 21
1919.104776
  0
LINE
  8
CSLAYER1
  6
CONTINUOUS
 62
     7
 10
453.832789
 20
1919.104776
 11
453.744172
 21
1918.451571
  0
LINE
  8
CSLAYER1
  6
CONTINUOUS
 62
     7
 10
453.744172
 20
1918.451571
 11
453.612545
 21
1917.834665
  0
LINE
  8
CSLAYER1
  6
CONTINUOUS
 62
     7
 10
453.612545
 20
1917.834665
 11
453.438907
 21
1917.258754
  0
LINE
  8
CSLAYER1
  6
CONTINUOUS
 62
     7
 10
453.438907
 20
1917.258754
 11
453.224581
 21
1916.728220
  0
LINE
  8
CSLAYER1
  6
CONTINUOUS
 62
     7
 10
453.224581
 20
1916.728220
 11
452.971198
 21
1916.247101
  0
LINE
  8
CSLAYER1
  6
CONTINUOUS
 62
     7
 10
452.971198
 20
1916.247101
 11
452.680686
 21
1915.819058
  0
LINE
  8
CSLAYER1
  6
CONTINUOUS
 62
     7
 10
452.680686
 20
1915.819058
 11
452.355256
 21
1915.447350
  0
LINE
  8
CSLAYER1
  6
CONTINUOUS
 62
     7
 10
452.355256
 20
1915.447350
 11
451.997385
 21
1915.134806
  0
LINE
  8
CSLAYER1
  6
CONTINUOUS
 62
     7
 10
451.997385
 20
1915.134806
 11
451.609796
 21
1914.883803
  0
LINE
  8
CSLAYER1
  6
CONTINUOUS
 62
     7
 10
451.609796
 20
1914.883803
 11
451.195440
 21
1914.696252
  0
LINE
  8
CSLAYER1
  6
CONTINUOUS
 62
     7
 10
627.311245
 20
1818.771799
 11
627.640359
 21
1819.085725
  0
LINE
  8
CSLAYER1
  6
CONTINUOUS
 62
     7
 10
627.640359
 20
1819.085725
 11
628.018278
 21
1819.351064
  0
LINE
  8
CSLAYER1
  6
CONTINUOUS
 62
     7
 10
628.018278
 20
1819.351064
 11
628.442125
 21
1819.565795
  0
LINE
  8
CSLAYER1
  6
CONTINUOUS
 62
     7
 10
628.442125
 20
1819.565795
 11
628.908675
 21
1819.728284
  0
LINE
  8
CSLAYER1
  6
CONTINUOUS
 62
     7
 10
628.908675
 20
1819.728284
 11
629.414377
 21
1819.837295
  0
LINE
  8
CSLAYER1
  6
CONTINUOUS
 62
     7
 10
629.414377
 20
1819.837295
 11
629.955382
 21
1819.891997
  0
LINE
  8
CSLAYER1
  6
CONTINUOUS
 62
     7
 10
629.955382
 20
1819.891997
 11
630.527572
 21
1819.891975
  0
LINE
  8
CSLAYER1
  6
CONTINUOUS
 62
     7
 10
630.527572
 20
1819.891975
 11
631.126594
 21
1819.837229
  0
LINE
  8
CSLAYER1
  6
CONTINUOUS
 62
     7
 10
631.126594
 20
1819.837229
 11
631.747888
 21
1819.728175
  0
LINE
  8
CSLAYER1
  6
CONTINUOUS
 62
     7
 10
631.747888
 20
1819.728175
 11
632.386725
 21
1819.565644
  0
LINE
  8
CSLAYER1
  6
CONTINUOUS
 62
     7
 10
632.386725
 20
1819.565644
 11
633.038244
 21
1819.350872
  0
LINE
  8
CSLAYER1
  6
CONTINUOUS
 62
     7
 10
633.038244
 20
1819.350872
 11
633.697487
 21
1819.085493
  0
LINE
  8
CSLAYER1
  6
CONTINUOUS
 62
     7
 10
633.697487
 20
1819.085493
 11
634.359435
 21
1818.771529
  0
LINE
  8
CSLAYER1
  6
CONTINUOUS
 62
     7
 10
634.359435
 20
1818.771529
 11
635.019052
 21
1818.411367
  0
LINE
  8
CSLAYER1
  6
CONTINUOUS
 62
     7
 10
635.019052
 20
1818.411367
 11
635.671317
 21
1818.007749
  0
LINE
  8
CSLAYER1
  6
CONTINUOUS
 62
     7
 10
635.671317
 20
1818.007749
 11
636.311266
 21
1817.563747
  0
LINE
  8
CSLAYER1
  6
CONTINUOUS
 62
     7
 10
636.311266
 20
1817.563747
 11
636.934029
 21
1817.082740
  0
LINE
  8
CSLAYER1
  6
CONTINUOUS
 62
     7
 10
636.934029
 20
1817.082740
 11
637.534866
 21
1816.568389
  0
LINE
  8
CSLAYER1
  6
CONTINUOUS
 62
     7
 10
637.534866
 20
1816.568389
 11
638.109204
 21
1816.024608
  0
LINE
  8
CSLAYER1
  6
CONTINUOUS
 62
     7
 10
638.109204
 20
1816.024608
 11
638.652672
 21
1815.455536
  0
LINE
  8
CSLAYER1
  6
CONTINUOUS
 62
     7
 10
638.652672
 20
1815.455536
 11
639.161135
 21
1814.865503
  0
LINE
  8
CSLAYER1
  6
CONTINUOUS
 62
     7
 10
639.161135
 20
1814.865503
 11
639.630722
 21
1814.259001
  0
LINE
  8
CSLAYER1
  6
CONTINUOUS
 62
     7
 10
639.630722
 20
1814.259001
 11
640.057859
 21
1813.640645
  0
LINE
  8
CSLAYER1
  6
CONTINUOUS
 62
     7
 10
640.057859
 20
1813.640645
 11
640.439297
 21
1813.015140
  0
LINE
  8
CSLAYER1
  6
CONTINUOUS
 62
     7
 10
640.439297
 20
1813.015140
 11
640.772131
 21
1812.387249
  0
LINE
  8
CSLAYER1
  6
CONTINUOUS
 62
     7
 10
640.772131
 20
1812.387249
 11
641.053829
 21
1811.761749
  0
LINE
  8
CSLAYER1
  6
CONTINUOUS
 62
     7
 10
641.053829
 20
1811.761749
 11
641.282247
 21
1811.143400
  0
LINE
  8
CSLAYER1
  6
CONTINUOUS
 62
     7
 10
641.282247
 20
1811.143400
 11
641.455646
 21
1810.536909
  0
LINE
  8
CSLAYER1
  6
CONTINUOUS
 62
     7
 10
641.455646
 20
1810.536909
 11
641.572707
 21
1809.946891
  0
LINE
  8
CSLAYER1
  6
CONTINUOUS
 62
     7
 10
641.572707
 20
1809.946891
 11
641.632539
 21
1809.377838
  0
LINE
  8
CSLAYER1
  6
CONTINUOUS
 62
     7
 10
641.632539
 20
1809.377838
 11
641.634686
 21
1808.834079
  0
LINE
  8
CSLAYER1
  6
CONTINUOUS
 62
     7
 10
641.634686
 20
1808.834079
 11
641.579133
 21
1808.319753
  0
LINE
  8
CSLAYER1
  6
CONTINUOUS
 62
     7
 10
641.579133
 20
1808.319753
 11
641.466302
 21
1807.838774
  0
LINE
  8
CSLAYER1
  6
CONTINUOUS
 62
     7
 10
641.466302
 20
1807.838774
 11
641.297051
 21
1807.394803
  0
LINE
  8
CSLAYER1
  6
CONTINUOUS
 62
     7
 10
641.297051
 20
1807.394803
 11
641.072670
 21
1806.991219
  0
LINE
  8
CSLAYER1
  6
CONTINUOUS
 62
     7
 10
641.072670
 20
1806.991219
 11
640.794864
 21
1806.631093
  0
LINE
  8
CSLAYER1
  6
CONTINUOUS
 62
     7
 10
640.794864
 20
1806.631093
 11
640.465750
 21
1806.317166
  0
LINE
  8
CSLAYER1
  6
CONTINUOUS
 62
     7
 10
640.465750
 20
1806.317166
 11
640.087831
 21
1806.051828
  0
LINE
  8
CSLAYER1
  6
CONTINUOUS
 62
     7
 10
640.087831
 20
1806.051828
 11
639.663984
 21
1805.837097
  0
LINE
  8
CSLAYER1
  6
CONTINUOUS
 62
     7
 10
639.663984
 20
1805.837097
 11
639.197434
 21
1805.674608
  0
LINE
  8
CSLAYER1
  6
CONTINUOUS
 62
     7
 10
639.197434
 20
1805.674608
 11
638.691732
 21
1805.565597
  0
LINE
  8
CSLAYER1
  6
CONTINUOUS
 62
     7
 10
638.691732
 20
1805.565597
 11
638.150728
 21
1805.510894
  0
LINE
  8
CSLAYER1
  6
CONTINUOUS
 62
     7
 10
638.150728
 20
1805.510894
 11
637.578537
 21
1805.510916
  0
LINE
  8
CSLAYER1
  6
CONTINUOUS
 62
     7
 10
637.578537
 20
1805.510916
 11
636.979515
 21
1805.565663
  0
LINE
  8
CSLAYER1
  6
CONTINUOUS
 62
     7
 10
636.979515
 20
1805.565663
 11
636.358222
 21
1805.674716
  0
LINE
  8
CSLAYER1
  6
CONTINUOUS
 62
     7
 10
636.358222
 20
1805.674716
 11
635.719384
 21
1805.837248
  0
LINE
  8
CSLAYER1
  6
CONTINUOUS
 62
     7
 10
635.719384
 20
1805.837248
 11
635.067865
 21
1806.052020
  0
LINE
  8
CSLAYER1
  6
CONTINUOUS
 62
     7
 10
635.067865
 20
1806.052020
 11
634.408622
 21
1806.317398
  0
LINE
  8
CSLAYER1
  6
CONTINUOUS
 62
     7
 10
634.408622
 20
1806.317398
 11
633.746674
 21
1806.631363
  0
LINE
  8
CSLAYER1
  6
CONTINUOUS
 62
     7
 10
633.746674
 20
1806.631363
 11
633.087057
 21
1806.991525
  0
LINE
  8
CSLAYER1
  6
CONTINUOUS
 62
     7
 10
633.087057
 20
1806.991525
 11
632.434792
 21
1807.395143
  0
LINE
  8
CSLAYER1
  6
CONTINUOUS
 62
     7
 10
632.434792
 20
1807.395143
 11
631.794843
 21
1807.839144
  0
LINE
  8
CSLAYER1
  6
CONTINUOUS
 62
     7
 10
631.794843
 20
1807.839144
 11
631.172080
 21
1808.320151
  0
LINE
  8
CSLAYER1
  6
CONTINUOUS
 62
     7
 10
631.172080
 20
1808.320151
 11
630.571243
 21
1808.834503
  0
LINE
  8
CSLAYER1
  6
CONTINUOUS
 62
     7
 10
630.571243
 20
1808.834503
 11
629.996905
 21
1809.378284
  0
LINE
  8
CSLAYER1
  6
CONTINUOUS
 62
     7
 10
629.996905
 20
1809.378284
 11
629.453437
 21
1809.947356
  0
LINE
  8
CSLAYER1
  6
CONTINUOUS
 62
     7
 10
629.453437
 20
1809.947356
 11
628.944974
 21
1810.537388
  0
LINE
  8
CSLAYER1
  6
CONTINUOUS
 62
     7
 10
628.944974
 20
1810.537388
 11
628.475387
 21
1811.143891
  0
LINE
  8
CSLAYER1
  6
CONTINUOUS
 62
     7
 10
628.475387
 20
1811.143891
 11
628.048250
 21
1811.762247
  0
LINE
  8
CSLAYER1
  6
CONTINUOUS
 62
     7
 10
628.048250
 20
1811.762247
 11
627.666813
 21
1812.387751
  0
LINE
  8
CSLAYER1
  6
CONTINUOUS
 62
     7
 10
627.666813
 20
1812.387751
 11
627.333978
 21
1813.015643
  0
LINE
  8
CSLAYER1
  6
CONTINUOUS
 62
     7
 10
627.333978
 20
1813.015643
 11
627.052281
 21
1813.641143
  0
LINE
  8
CSLAYER1
  6
CONTINUOUS
 62
     7
 10
627.052281
 20
1813.641143
 11
626.823863
 21
1814.259492
  0
LINE
  8
CSLAYER1
  6
CONTINUOUS
 62
     7
 10
626.823863
 20
1814.259492
 11
626.650463
 21
1814.865983
  0
LINE
  8
CSLAYER1
  6
CONTINUOUS
 62
     7
 10
626.650463
 20
1814.865983
 11
626.533402
 21
1815.456000
  0
LINE
  8
CSLAYER1
  6
CONTINUOUS
 62
     7
 10
626.533402
 20
1815.456000
 11
626.473570
 21
1816.025054
  0
LINE
  8
CSLAYER1
  6
CONTINUOUS
 62
     7
 10
626.473570
 20
1816.025054
 11
626.471423
 21
1816.568813
  0
LINE
  8
CSLAYER1
  6
CONTINUOUS
 62
     7
 10
626.471423
 20
1816.568813
 11
626.526976
 21
1817.083139
  0
LINE
  8
CSLAYER1
  6
CONTINUOUS
 62
     7
 10
626.526976
 20
1817.083139
 11
626.639807
 21
1817.564118
  0
LINE
  8
CSLAYER1
  6
CONTINUOUS
 62
     7
 10
626.639807
 20
1817.564118
 11
626.809058
 21
1818.008089
  0
LINE
  8
CSLAYER1
  6
CONTINUOUS
 62
     7
 10
626.809058
 20
1818.008089
 11
627.033440
 21
1818.411673
  0
LINE
  8
CSLAYER1
  6
CONTINUOUS
 62
     7
 10
627.033440
 20
1818.411673
 11
627.311245
 21
1818.771799
  0
LINE
  8
CSLAYER1
  6
CONTINUOUS
 62
     7
 10
640.794864
 20
1806.631093
 11
670.781934
 21
1840.026451
  0
LINE
  8
CSLAYER1
  6
CONTINUOUS
 62
     7
 10
627.311245
 20
1818.771799
 11
657.298314
 21
1852.167157
  0
LINE
  8
CSLAYER1
  6
CONTINUOUS
 62
     7
 10
657.298314
 20
1852.167157
 11
657.627429
 21
1852.481084
  0
LINE
  8
CSLAYER1
  6
CONTINUOUS
 62
     7
 10
657.627429
 20
1852.481084
 11
658.005347
 21
1852.746422
  0
LINE
  8
CSLAYER1
  6
CONTINUOUS
 62
     7
 10
658.005347
 20
1852.746422
 11
658.429195
 21
1852.961153
  0
LINE
  8
CSLAYER1
  6
CONTINUOUS
 62
     7
 10
658.429195
 20
1852.961153
 11
658.895745
 21
1853.123643
  0
LINE
  8
CSLAYER1
  6
CONTINUOUS
 62
     7
 10
658.895745
 20
1853.123643
 11
659.401446
 21
1853.232653
  0
LINE
  8
CSLAYER1
  6
CONTINUOUS
 62
     7
 10
659.401446
 20
1853.232653
 11
659.942451
 21
1853.287356
  0
LINE
  8
CSLAYER1
  6
CONTINUOUS
 62
     7
 10
659.942451
 20
1853.287356
 11
660.514642
 21
1853.287334
  0
LINE
  8
CSLAYER1
  6
CONTINUOUS
 62
     7
 10
660.514642
 20
1853.287334
 11
661.113663
 21
1853.232588
  0
LINE
  8
CSLAYER1
  6
CONTINUOUS
 62
     7
 10
661.113663
 20
1853.232588
 11
661.734957
 21
1853.123534
  0
LINE
  8
CSLAYER1
  6
CONTINUOUS
 62
     7
 10
661.734957
 20
1853.123534
 11
662.373794
 21
1852.961002
  0
LINE
  8
CSLAYER1
  6
CONTINUOUS
 62
     7
 10
662.373794
 20
1852.961002
 11
663.025314
 21
1852.746230
  0
LINE
  8
CSLAYER1
  6
CONTINUOUS
 62
     7
 10
663.025314
 20
1852.746230
 11
663.684556
 21
1852.480852
  0
LINE
  8
CSLAYER1
  6
CONTINUOUS
 62
     7
 10
663.684556
 20
1852.480852
 11
664.346505
 21
1852.166887
  0
LINE
  8
CSLAYER1
  6
CONTINUOUS
 62
     7
 10
664.346505
 20
1852.166887
 11
665.006122
 21
1851.806725
  0
LINE
  8
CSLAYER1
  6
CONTINUOUS
 62
     7
 10
665.006122
 20
1851.806725
 11
665.658387
 21
1851.403108
  0
LINE
  8
CSLAYER1
  6
CONTINUOUS
 62
     7
 10
665.658387
 20
1851.403108
 11
666.298336
 21
1850.959106
  0
LINE
  8
CSLAYER1
  6
CONTINUOUS
 62
     7
 10
666.298336
 20
1850.959106
 11
666.921098
 21
1850.478099
  0
LINE
  8
CSLAYER1
  6
CONTINUOUS
 62
     7
 10
666.921098
 20
1850.478099
 11
667.521935
 21
1849.963748
  0
LINE
  8
CSLAYER1
  6
CONTINUOUS
 62
     7
 10
667.521935
 20
1849.963748
 11
668.096273
 21
1849.419967
  0
LINE
  8
CSLAYER1
  6
CONTINUOUS
 62
     7
 10
668.096273
 20
1849.419967
 11
668.639742
 21
1848.850894
  0
LINE
  8
CSLAYER1
  6
CONTINUOUS
 62
     7
 10
668.639742
 20
1848.850894
 11
669.148204
 21
1848.260862
  0
LINE
  8
CSLAYER1
  6
CONTINUOUS
 62
     7
 10
669.148204
 20
1848.260862
 11
669.617791
 21
1847.654359
  0
LINE
  8
CSLAYER1
  6
CONTINUOUS
 62
     7
 10
669.617791
 20
1847.654359
 11
670.044929
 21
1847.036003
  0
LINE
  8
CSLAYER1
  6
CONTINUOUS
 62
     7
 10
670.044929
 20
1847.036003
 11
670.426366
 21
1846.410499
  0
LINE
  8
CSLAYER1
  6
CONTINUOUS
 62
     7
 10
670.426366
 20
1846.410499
 11
670.759200
 21
1845.782607
  0
LINE
  8
CSLAYER1
  6
CONTINUOUS
 62
     7
 10
670.759200
 20
1845.782607
 11
671.040898
 21
1845.157107
  0
LINE
  8
CSLAYER1
  6
CONTINUOUS
 62
     7
 10
671.040898
 20
1845.157107
 11
671.269316
 21
1844.538758
  0
LINE
  8
CSLAYER1
  6
CONTINUOUS
 62
     7
 10
671.269316
 20
1844.538758
 11
671.442715
 21
1843.932267
  0
LINE
  8
CSLAYER1
  6
CONTINUOUS
 62
     7
 10
671.442715
 20
1843.932267
 11
671.559776
 21
1843.342250
  0
LINE
  8
CSLAYER1
  6
CONTINUOUS
 62
     7
 10
671.559776
 20
1843.342250
 11
671.619608
 21
1842.773196
  0
LINE
  8
CSLAYER1
  6
CONTINUOUS
 62
     7
 10
671.619608
 20
1842.773196
 11
671.621756
 21
1842.229437
  0
LINE
  8
CSLAYER1
  6
CONTINUOUS
 62
     7
 10
671.621756
 20
1842.229437
 11
671.566202
 21
1841.715111
  0
LINE
  8
CSLAYER1
  6
CONTINUOUS
 62
     7
 10
671.566202
 20
1841.715111
 11
671.453371
 21
1841.234132
  0
LINE
  8
CSLAYER1
  6
CONTINUOUS
 62
     7
 10
671.453371
 20
1841.234132
 11
671.284121
 21
1840.790161
  0
LINE
  8
CSLAYER1
  6
CONTINUOUS
 62
     7
 10
671.284121
 20
1840.790161
 11
671.059739
 21
1840.386577
  0
LINE
  8
CSLAYER1
  6
CONTINUOUS
 62
     7
 10
671.059739
 20
1840.386577
 11
670.781934
 21
1840.026451
  0
LINE
  8
CSLAYER1
  6
CONTINUOUS
 62
     7
 10
751.704336
 20
1973.778105
 11
751.704336
 21
1955.478770
  0
LINE
  8
CSLAYER1
  6
CONTINUOUS
 62
     7
 10
751.704336
 20
1955.478770
 11
751.704336
 21
1949.574538
  0
LINE
  8
CSLAYER1
  6
CONTINUOUS
 62
     7
 10
782.219467
 20
2027.133492
 11
782.219467
 21
2006.782290
  0
LINE
  8
CSLAYER1
  6
CONTINUOUS
 62
     7
 10
782.219467
 20
1989.246101
 11
782.219467
 21
1966.644345
  0
LINE
  8
CSLAYER1
  6
CONTINUOUS
 62
     7
 10
793.804335
 20
2019.974125
 11
796.639236
 21
2017.421766
  0
LINE
  8
CSLAYER1
  6
CONTINUOUS
 62
     7
 10
796.639236
 20
2017.421766
 11
799.075514
 21
2014.737401
  0
LINE
  8
CSLAYER1
  6
CONTINUOUS
 62
     7
 10
799.075514
 20
2014.737401
 11
801.094629
 21
2011.941460
  0
LINE
  8
CSLAYER1
  6
CONTINUOUS
 62
     7
 10
801.094629
 20
2011.941460
 11
802.681213
 21
2009.055222
  0
LINE
  8
CSLAYER1
  6
CONTINUOUS
 62
     7
 10
802.681213
 20
2009.055222
 11
803.823192
 21
2006.100653
  0
LINE
  8
CSLAYER1
  6
CONTINUOUS
 62
     7
 10
803.823192
 20
2006.100653
 11
804.511875
 21
2003.100239
  0
LINE
  8
CSLAYER1
  6
CONTINUOUS
 62
     7
 10
804.511875
 20
2003.100239
 11
804.742019
 21
2000.076814
  0
LINE
  8
CSLAYER1
  6
CONTINUOUS
 62
     7
 10
804.742019
 20
2000.076814
 11
804.511875
 21
1997.053390
  0
LINE
  8
CSLAYER1
  6
CONTINUOUS
 62
     7
 10
804.511875
 20
1997.053390
 11
803.823192
 21
1994.052976
  0
LINE
  8
CSLAYER1
  6
CONTINUOUS
 62
     7
 10
803.823192
 20
1994.052976
 11
802.681213
 21
1991.098407
  0
LINE
  8
CSLAYER1
  6
CONTINUOUS
 62
     7
 10
802.681213
 20
1991.098407
 11
801.094629
 21
1988.212169
  0
LINE
  8
CSLAYER1
  6
CONTINUOUS
 62
     7
 10
801.094629
 20
1988.212169
 11
799.075514
 21
1985.416228
  0
LINE
  8
CSLAYER1
  6
CONTINUOUS
 62
     7
 10
799.075514
 20
1985.416228
 11
796.639236
 21
1982.731863
  0
LINE
  8
CSLAYER1
  6
CONTINUOUS
 62
     7
 10
782.219467
 20
2027.133492
 11
787.027838
 21
2024.606280
  0
LINE
  8
CSLAYER1
  6
CONTINUOUS
 62
     7
 10
787.027838
 20
2024.606280
 11
790.592387
 21
2022.375054
  0
LINE
  8
CSLAYER1
  6
CONTINUOUS
 62
     7
 10
790.592387
 20
2022.375054
 11
793.804335
 21
2019.974125
  0
LINE
  8
CSLAYER1
  6
CONTINUOUS
 62
     7
 10
785.438428
 20
2002.833597
 11
785.692125
 21
2001.728303
  0
LINE
  8
CSLAYER1
  6
CONTINUOUS
 62
     7
 10
785.692125
 20
2001.728303
 11
785.866012
 21
1999.443938
  0
LINE
  8
CSLAYER1
  6
CONTINUOUS
 62
     7
 10
785.866012
 20
1999.443938
 11
785.692125
 21
1997.159573
  0
LINE
  8
CSLAYER1
  6
CONTINUOUS
 62
     7
 10
785.692125
 20
1997.159573
 11
785.171787
 21
1994.892594
  0
LINE
  8
CSLAYER1
  6
CONTINUOUS
 62
     7
 10
785.171787
 20
1994.892594
 11
784.308958
 21
1992.660253
  0
LINE
  8
CSLAYER1
  6
CONTINUOUS
 62
     7
 10
784.308958
 20
1992.660253
 11
783.110206
 21
1990.479539
  0
LINE
  8
CSLAYER1
  6
CONTINUOUS
 62
     7
 10
783.110206
 20
1990.479539
 11
782.219467
 21
1989.246101
  0
LINE
  8
CSLAYER1
  6
CONTINUOUS
 62
     7
 10
782.219467
 20
2006.790865
 11
782.176911
 21
2006.829179
  0
LINE
  8
CSLAYER1
  6
CONTINUOUS
 62
     7
 10
782.176911
 20
2006.829179
 11
784.017655
 21
2004.800992
  0
LINE
  8
CSLAYER1
  6
CONTINUOUS
 62
     7
 10
784.017655
 20
2004.800992
 11
785.543208
 21
2002.688504
  0
LINE
  8
CSLAYER1
  6
CONTINUOUS
 62
     7
 10
782.219467
 20
2006.782290
 11
782.219467
 21
1989.246101
  0
LINE
  8
CSLAYER1
  6
CONTINUOUS
 62
     7
 10
600.588100
 20
2027.002385
 11
543.755491
 21
2047.687763
  0
LINE
  8
CSLAYER1
  6
CONTINUOUS
 62
     7
 10
609.466573
 20
2038.073435
 11
552.633963
 21
2058.758813
  0
LINE
  8
CSLAYER1
  6
CONTINUOUS
 62
     7
 10
606.410669
 20
2037.755438
 11
549.620664
 21
2058.425309
  0
LINE
  8
CSLAYER1
  6
CONTINUOUS
 62
     7
 10
605.074451
 20
2036.811527
 11
548.241841
 21
2057.496905
  0
LINE
  8
CSLAYER1
  6
CONTINUOUS
 62
     7
 10
604.026022
 20
2035.762868
 11
547.193413
 21
2056.448247
  0
LINE
  8
CSLAYER1
  6
CONTINUOUS
 62
     7
 10
603.165512
 20
2034.645813
 11
546.332903
 21
2055.331192
  0
LINE
  8
CSLAYER1
  6
CONTINUOUS
 62
     7
 10
602.445609
 20
2033.477582
 11
545.613201
 21
2054.162887
  0
LINE
  8
CSLAYER1
  6
CONTINUOUS
 62
     7
 10
601.852873
 20
2032.263065
 11
545.020263
 21
2052.948444
  0
LINE
  8
CSLAYER1
  6
CONTINUOUS
 62
     7
 10
601.367077
 20
2031.009626
 11
544.534467
 21
2051.695004
  0
LINE
  8
CSLAYER1
  6
CONTINUOUS
 62
     7
 10
600.981207
 20
2029.719816
 11
544.153677
 21
2050.403345
  0
LINE
  8
CSLAYER1
  6
CONTINUOUS
 62
     7
 10
546.428349
 20
2041.709030
 11
546.013993
 21
2041.896581
  0
LINE
  8
CSLAYER1
  6
CONTINUOUS
 62
     7
 10
546.013993
 20
2041.896581
 11
545.626405
 21
2042.147584
  0
LINE
  8
CSLAYER1
  6
CONTINUOUS
 62
     7
 10
545.626405
 20
2042.147584
 11
545.268533
 21
2042.460128
  0
LINE
  8
CSLAYER1
  6
CONTINUOUS
 62
     7
 10
545.268533
 20
2042.460128
 11
544.943104
 21
2042.831836
  0
LINE
  8
CSLAYER1
  6
CONTINUOUS
 62
     7
 10
544.943104
 20
2042.831836
 11
544.652591
 21
2043.259879
  0
LINE
  8
CSLAYER1
  6
CONTINUOUS
 62
     7
 10
544.652591
 20
2043.259879
 11
544.399208
 21
2043.740998
  0
LINE
  8
CSLAYER1
  6
CONTINUOUS
 62
     7
 10
544.399208
 20
2043.740998
 11
544.184882
 21
2044.271532
  0
LINE
  8
CSLAYER1
  6
CONTINUOUS
 62
     7
 10
544.184882
 20
2044.271532
 11
544.011245
 21
2044.847443
  0
LINE
  8
CSLAYER1
  6
CONTINUOUS
 62
     7
 10
544.011245
 20
2044.847443
 11
543.879617
 21
2045.464349
  0
LINE
  8
CSLAYER1
  6
CONTINUOUS
 62
     7
 10
543.879617
 20
2045.464349
 11
543.791001
 21
2046.117554
  0
LINE
  8
CSLAYER1
  6
CONTINUOUS
 62
     7
 10
543.791001
 20
2046.117554
 11
543.746070
 21
2046.802087
  0
LINE
  8
CSLAYER1
  6
CONTINUOUS
 62
     7
 10
543.746070
 20
2046.802087
 11
543.745168
 21
2047.512739
  0
LINE
  8
CSLAYER1
  6
CONTINUOUS
 62
     7
 10
543.745168
 20
2047.512739
 11
543.788301
 21
2048.244100
  0
LINE
  8
CSLAYER1
  6
CONTINUOUS
 62
     7
 10
543.788301
 20
2048.244100
 11
543.875140
 21
2048.990605
  0
LINE
  8
CSLAYER1
  6
CONTINUOUS
 62
     7
 10
543.875140
 20
2048.990605
 11
544.005025
 21
2049.746573
  0
LINE
  8
CSLAYER1
  6
CONTINUOUS
 62
     7
 10
544.005025
 20
2049.746573
 11
544.176968
 21
2050.506249
  0
LINE
  8
CSLAYER1
  6
CONTINUOUS
 62
     7
 10
544.176968
 20
2050.506249
 11
544.389659
 21
2051.263853
  0
LINE
  8
CSLAYER1
  6
CONTINUOUS
 62
     7
 10
544.389659
 20
2051.263853
 11
544.641479
 21
2052.013619
  0
LINE
  8
CSLAYER1
  6
CONTINUOUS
 62
     7
 10
544.641479
 20
2052.013619
 11
544.930513
 21
2052.749839
  0
LINE
  8
CSLAYER1
  6
CONTINUOUS
 62
     7
 10
544.930513
 20
2052.749839
 11
545.254561
 21
2053.466913
  0
LINE
  8
CSLAYER1
  6
CONTINUOUS
 62
     7
 10
545.254561
 20
2053.466913
 11
545.611156
 21
2054.159381
  0
LINE
  8
CSLAYER1
  6
CONTINUOUS
 62
     7
 10
545.611156
 20
2054.159381
 11
545.997585
 21
2054.821974
  0
LINE
  8
CSLAYER1
  6
CONTINUOUS
 62
     7
 10
545.997585
 20
2054.821974
 11
546.410907
 21
2055.449650
  0
LINE
  8
CSLAYER1
  6
CONTINUOUS
 62
     7
 10
546.410907
 20
2055.449650
 11
546.847975
 21
2056.037630
  0
LINE
  8
CSLAYER1
  6
CONTINUOUS
 62
     7
 10
546.847975
 20
2056.037630
 11
547.305464
 21
2056.581441
  0
LINE
  8
CSLAYER1
  6
CONTINUOUS
 62
     7
 10
547.305464
 20
2056.581441
 11
547.779892
 21
2057.076943
  0
LINE
  8
CSLAYER1
  6
CONTINUOUS
 62
     7
 10
547.779892
 20
2057.076943
 11
548.267648
 21
2057.520366
  0
LINE
  8
CSLAYER1
  6
CONTINUOUS
 62
     7
 10
548.267648
 20
2057.520366
 11
548.765020
 21
2057.908334
  0
LINE
  8
CSLAYER1
  6
CONTINUOUS
 62
     7
 10
548.765020
 20
2057.908334
 11
549.268223
 21
2058.237896
  0
LINE
  8
CSLAYER1
  6
CONTINUOUS
 62
     7
 10
549.268223
 20
2058.237896
 11
549.773427
 21
2058.506543
  0
LINE
  8
CSLAYER1
  6
CONTINUOUS
 62
     7
 10
549.773427
 20
2058.506543
 11
550.276787
 21
2058.712230
  0
LINE
  8
CSLAYER1
  6
CONTINUOUS
 62
     7
 10
550.276787
 20
2058.712230
 11
550.774473
 21
2058.853391
  0
LINE
  8
CSLAYER1
  6
CONTINUOUS
 62
     7
 10
550.774473
 20
2058.853391
 11
551.262696
 21
2058.928954
  0
LINE
  8
CSLAYER1
  6
CONTINUOUS
 62
     7
 10
551.262696
 20
2058.928954
 11
551.737741
 21
2058.938342
  0
LINE
  8
CSLAYER1
  6
CONTINUOUS
 62
     7
 10
551.737741
 20
2058.938342
 11
552.195992
 21
2058.881484
  0
LINE
  8
CSLAYER1
  6
CONTINUOUS
 62
     7
 10
552.195992
 20
2058.881484
 11
552.633963
 21
2058.758813
  0
LINE
  8
CSLAYER1
  6
CONTINUOUS
 62
     7
 10
600.721311
 20
2028.384155
 11
543.884500
 21
2049.071063
  0
LINE
  8
CSLAYER1
  6
CONTINUOUS
 62
     7
 10
600.615068
 20
2025.562315
 11
543.782459
 21
2046.247693
  0
LINE
  8
CSLAYER1
  6
CONTINUOUS
 62
     7
 10
600.870059
 20
2024.039251
 11
544.049607
 21
2044.720204
  0
LINE
  8
CSLAYER1
  6
CONTINUOUS
 62
     7
 10
601.608603
 20
2022.340188
 11
544.823307
 21
2043.008345
  0
LINE
  8
CSLAYER1
  6
CONTINUOUS
 62
     7
 10
603.260959
 20
2021.023652
 11
546.428349
 21
2041.709030
  0
LINE
  8
CSLAYER1
  6
CONTINUOUS
 62
     7
 10
676.998633
 20
1998.538659
 11
659.838340
 21
2000.447413
  0
LINE
  8
CSLAYER1
  6
CONTINUOUS
 62
     7
 10
609.466573
 20
2038.073435
 11
609.880929
 21
2037.885884
  0
LINE
  8
CSLAYER1
  6
CONTINUOUS
 62
     7
 10
609.880929
 20
2037.885884
 11
610.268517
 21
2037.634881
  0
LINE
  8
CSLAYER1
  6
CONTINUOUS
 62
     7
 10
610.268517
 20
2037.634881
 11
610.626388
 21
2037.322337
  0
LINE
  8
CSLAYER1
  6
CONTINUOUS
 62
     7
 10
610.626388
 20
2037.322337
 11
610.951818
 21
2036.950629
  0
LINE
  8
CSLAYER1
  6
CONTINUOUS
 62
     7
 10
610.951818
 20
2036.950629
 11
611.242330
 21
2036.522587
  0
LINE
  8
CSLAYER1
  6
CONTINUOUS
 62
     7
 10
611.242330
 20
2036.522587
 11
611.495714
 21
2036.041468
  0
LINE
  8
CSLAYER1
  6
CONTINUOUS
 62
     7
 10
611.495714
 20
2036.041468
 11
611.710040
 21
2035.510933
  0
LINE
  8
CSLAYER1
  6
CONTINUOUS
 62
     7
 10
611.710040
 20
2035.510933
 11
611.883677
 21
2034.935022
  0
LINE
  8
CSLAYER1
  6
CONTINUOUS
 62
     7
 10
611.883677
 20
2034.935022
 11
611.991846
 21
2034.428064
  0
LINE
  8
CSLAYER1
  6
CONTINUOUS
 62
     7
 10
606.892037
 20
2021.718346
 11
606.626699
 21
2021.544569
  0
LINE
  8
CSLAYER1
  6
CONTINUOUS
 62
     7
 10
606.626699
 20
2021.544569
 11
606.121495
 21
2021.275922
  0
LINE
  8
CSLAYER1
  6
CONTINUOUS
 62
     7
 10
606.121495
 20
2021.275922
 11
605.618135
 21
2021.070236
  0
LINE
  8
CSLAYER1
  6
CONTINUOUS
 62
     7
 10
605.618135
 20
2021.070236
 11
605.120449
 21
2020.929074
  0
LINE
  8
CSLAYER1
  6
CONTINUOUS
 62
     7
 10
605.120449
 20
2020.929074
 11
604.632226
 21
2020.853511
  0
LINE
  8
CSLAYER1
  6
CONTINUOUS
 62
     7
 10
604.632226
 20
2020.853511
 11
604.157181
 21
2020.844123
  0
LINE
  8
CSLAYER1
  6
CONTINUOUS
 62
     7
 10
604.157181
 20
2020.844123
 11
603.698930
 21
2020.900981
  0
LINE
  8
CSLAYER1
  6
CONTINUOUS
 62
     7
 10
603.698930
 20
2020.900981
 11
603.260959
 21
2021.023652
  0
LINE
  8
CSLAYER1
  6
CONTINUOUS
 62
     7
 10
603.260959
 20
2021.023652
 11
602.846603
 21
2021.211203
  0
LINE
  8
CSLAYER1
  6
CONTINUOUS
 62
     7
 10
602.846603
 20
2021.211203
 11
602.459014
 21
2021.462205
  0
LINE
  8
CSLAYER1
  6
CONTINUOUS
 62
     7
 10
602.459014
 20
2021.462205
 11
602.101143
 21
2021.774750
  0
LINE
  8
CSLAYER1
  6
CONTINUOUS
 62
     7
 10
602.101143
 20
2021.774750
 11
601.775713
 21
2022.146458
  0
LINE
  8
CSLAYER1
  6
CONTINUOUS
 62
     7
 10
601.775713
 20
2022.146458
 11
601.485201
 21
2022.574500
  0
LINE
  8
CSLAYER1
  6
CONTINUOUS
 62
     7
 10
601.485201
 20
2022.574500
 11
601.231818
 21
2023.055619
  0
LINE
  8
CSLAYER1
  6
CONTINUOUS
 62
     7
 10
601.231818
 20
2023.055619
 11
601.017492
 21
2023.586153
  0
LINE
  8
CSLAYER1
  6
CONTINUOUS
 62
     7
 10
601.017492
 20
2023.586153
 11
600.843854
 21
2024.162065
  0
LINE
  8
CSLAYER1
  6
CONTINUOUS
 62
     7
 10
600.843854
 20
2024.162065
 11
600.712226
 21
2024.778971
  0
LINE
  8
CSLAYER1
  6
CONTINUOUS
 62
     7
 10
600.712226
 20
2024.778971
 11
600.623610
 21
2025.432176
  0
LINE
  8
CSLAYER1
  6
CONTINUOUS
 62
     7
 10
600.623610
 20
2025.432176
 11
600.578680
 21
2026.116709
  0
LINE
  8
CSLAYER1
  6
CONTINUOUS
 62
     7
 10
600.578680
 20
2026.116709
 11
600.577778
 21
2026.827360
  0
LINE
  8
CSLAYER1
  6
CONTINUOUS
 62
     7
 10
600.577778
 20
2026.827360
 11
600.620911
 21
2027.558722
  0
LINE
  8
CSLAYER1
  6
CONTINUOUS
 62
     7
 10
600.620911
 20
2027.558722
 11
600.707750
 21
2028.305227
  0
LINE
  8
CSLAYER1
  6
CONTINUOUS
 62
     7
 10
600.707750
 20
2028.305227
 11
600.837635
 21
2029.061194
  0
LINE
  8
CSLAYER1
  6
CONTINUOUS
 62
     7
 10
600.837635
 20
2029.061194
 11
601.009577
 21
2029.820871
  0
LINE
  8
CSLAYER1
  6
CONTINUOUS
 62
     7
 10
601.009577
 20
2029.820871
 11
601.222268
 21
2030.578475
  0
LINE
  8
CSLAYER1
  6
CONTINUOUS
 62
     7
 10
601.222268
 20
2030.578475
 11
601.474089
 21
2031.328240
  0
LINE
  8
CSLAYER1
  6
CONTINUOUS
 62
     7
 10
601.474089
 20
2031.328240
 11
601.763123
 21
2032.064461
  0
LINE
  8
CSLAYER1
  6
CONTINUOUS
 62
     7
 10
601.763123
 20
2032.064461
 11
602.087171
 21
2032.781535
  0
LINE
  8
CSLAYER1
  6
CONTINUOUS
 62
     7
 10
602.087171
 20
2032.781535
 11
602.443766
 21
2033.474003
  0
LINE
  8
CSLAYER1
  6
CONTINUOUS
 62
     7
 10
602.443766
 20
2033.474003
 11
602.830195
 21
2034.136596
  0
LINE
  8
CSLAYER1
  6
CONTINUOUS
 62
     7
 10
602.830195
 20
2034.136596
 11
603.243516
 21
2034.764271
  0
LINE
  8
CSLAYER1
  6
CONTINUOUS
 62
     7
 10
603.243516
 20
2034.764271
 11
603.680585
 21
2035.352252
  0
LINE
  8
CSLAYER1
  6
CONTINUOUS
 62
     7
 10
603.680585
 20
2035.352252
 11
604.138074
 21
2035.896063
  0
LINE
  8
CSLAYER1
  6
CONTINUOUS
 62
     7
 10
604.138074
 20
2035.896063
 11
604.612502
 21
2036.391565
  0
LINE
  8
CSLAYER1
  6
CONTINUOUS
 62
     7
 10
604.612502
 20
2036.391565
 11
605.100258
 21
2036.834988
  0
LINE
  8
CSLAYER1
  6
CONTINUOUS
 62
     7
 10
605.100258
 20
2036.834988
 11
605.597630
 21
2037.222956
  0
LINE
  8
CSLAYER1
  6
CONTINUOUS
 62
     7
 10
605.597630
 20
2037.222956
 11
606.100833
 21
2037.552518
  0
LINE
  8
CSLAYER1
  6
CONTINUOUS
 62
     7
 10
606.100833
 20
2037.552518
 11
606.606037
 21
2037.821164
  0
LINE
  8
CSLAYER1
  6
CONTINUOUS
 62
     7
 10
606.606037
 20
2037.821164
 11
607.109397
 21
2038.026851
  0
LINE
  8
CSLAYER1
  6
CONTINUOUS
 62
     7
 10
607.109397
 20
2038.026851
 11
607.607082
 21
2038.168013
  0
LINE
  8
CSLAYER1
  6
CONTINUOUS
 62
     7
 10
607.607082
 20
2038.168013
 11
608.095306
 21
2038.243576
  0
LINE
  8
CSLAYER1
  6
CONTINUOUS
 62
     7
 10
608.095306
 20
2038.243576
 11
608.570350
 21
2038.252964
  0
LINE
  8
CSLAYER1
  6
CONTINUOUS
 62
     7
 10
608.570350
 20
2038.252964
 11
609.028602
 21
2038.196106
  0
LINE
  8
CSLAYER1
  6
CONTINUOUS
 62
     7
 10
609.028602
 20
2038.196106
 11
609.466573
 21
2038.073435
  0
LINE
  8
CSLAYER1
  6
CONTINUOUS
 62
     7
 10
678.509660
 20
2012.123260
 11
661.294008
 21
2014.038173
  0
LINE
  8
CSLAYER1
  6
CONTINUOUS
 62
     7
 10
602.946557
 20
2030.748606
 11
603.165067
 21
2031.305189
  0
LINE
  8
CSLAYER1
  6
CONTINUOUS
 62
     7
 10
603.165067
 20
2031.305189
 11
603.410047
 21
2031.847296
  0
LINE
  8
CSLAYER1
  6
CONTINUOUS
 62
     7
 10
603.410047
 20
2031.847296
 11
603.679633
 21
2032.370802
  0
LINE
  8
CSLAYER1
  6
CONTINUOUS
 62
     7
 10
603.679633
 20
2032.370802
 11
603.971773
 21
2032.871723
  0
LINE
  8
CSLAYER1
  6
CONTINUOUS
 62
     7
 10
603.971773
 20
2032.871723
 11
604.284244
 21
2033.346245
  0
LINE
  8
CSLAYER1
  6
CONTINUOUS
 62
     7
 10
604.284244
 20
2033.346245
 11
604.614668
 21
2033.790758
  0
LINE
  8
CSLAYER1
  6
CONTINUOUS
 62
     7
 10
604.614668
 20
2033.790758
 11
604.960530
 21
2034.201879
  0
LINE
  8
CSLAYER1
  6
CONTINUOUS
 62
     7
 10
604.960530
 20
2034.201879
 11
605.319197
 21
2034.576479
  0
LINE
  8
CSLAYER1
  6
CONTINUOUS
 62
     7
 10
605.319197
 20
2034.576479
 11
605.687941
 21
2034.911707
  0
LINE
  8
CSLAYER1
  6
CONTINUOUS
 62
     7
 10
605.687941
 20
2034.911707
 11
606.063954
 21
2035.205011
  0
LINE
  8
CSLAYER1
  6
CONTINUOUS
 62
     7
 10
606.063954
 20
2035.205011
 11
606.444375
 21
2035.454159
  0
LINE
  8
CSLAYER1
  6
CONTINUOUS
 62
     7
 10
606.444375
 20
2035.454159
 11
606.826310
 21
2035.657256
  0
LINE
  8
CSLAYER1
  6
CONTINUOUS
 62
     7
 10
606.826310
 20
2035.657256
 11
607.206850
 21
2035.812756
  0
LINE
  8
CSLAYER1
  6
CONTINUOUS
 62
     7
 10
607.206850
 20
2035.812756
 11
607.583100
 21
2035.919474
  0
LINE
  8
CSLAYER1
  6
CONTINUOUS
 62
     7
 10
607.583100
 20
2035.919474
 11
607.952197
 21
2035.976599
  0
LINE
  8
CSLAYER1
  6
CONTINUOUS
 62
     7
 10
607.952197
 20
2035.976599
 11
608.311331
 21
2035.983697
  0
LINE
  8
CSLAYER1
  6
CONTINUOUS
 62
     7
 10
608.311331
 20
2035.983697
 11
608.657769
 21
2035.940712
  0
LINE
  8
CSLAYER1
  6
CONTINUOUS
 62
     7
 10
608.657769
 20
2035.940712
 11
609.025092
 21
2035.837829
  0
LINE
  8
CSLAYER1
  6
CONTINUOUS
 62
     7
 10
603.984177
 20
2023.100125
 11
603.691160
 21
2023.289883
  0
LINE
  8
CSLAYER1
  6
CONTINUOUS
 62
     7
 10
603.691160
 20
2023.289883
 11
603.420610
 21
2023.526167
  0
LINE
  8
CSLAYER1
  6
CONTINUOUS
 62
     7
 10
603.420610
 20
2023.526167
 11
603.174585
 21
2023.807178
  0
LINE
  8
CSLAYER1
  6
CONTINUOUS
 62
     7
 10
603.174585
 20
2023.807178
 11
602.954958
 21
2024.130778
  0
LINE
  8
CSLAYER1
  6
CONTINUOUS
 62
     7
 10
602.954958
 20
2024.130778
 11
602.763400
 21
2024.494504
  0
LINE
  8
CSLAYER1
  6
CONTINUOUS
 62
     7
 10
602.763400
 20
2024.494504
 11
602.601370
 21
2024.895588
  0
LINE
  8
CSLAYER1
  6
CONTINUOUS
 62
     7
 10
602.601370
 20
2024.895588
 11
602.470100
 21
2025.330977
  0
LINE
  8
CSLAYER1
  6
CONTINUOUS
 62
     7
 10
602.470100
 20
2025.330977
 11
602.370589
 21
2025.797358
  0
LINE
  8
CSLAYER1
  6
CONTINUOUS
 62
     7
 10
602.370589
 20
2025.797358
 11
602.303595
 21
2026.291181
  0
LINE
  8
CSLAYER1
  6
CONTINUOUS
 62
     7
 10
602.303595
 20
2026.291181
 11
602.269628
 21
2026.808688
  0
LINE
  8
CSLAYER1
  6
CONTINUOUS
 62
     7
 10
602.269628
 20
2026.808688
 11
602.268946
 21
2027.345940
  0
LINE
  8
CSLAYER1
  6
CONTINUOUS
 62
     7
 10
602.268946
 20
2027.345940
 11
602.301554
 21
2027.898850
  0
LINE
  8
CSLAYER1
  6
CONTINUOUS
 62
     7
 10
602.301554
 20
2027.898850
 11
602.367205
 21
2028.463207
  0
LINE
  8
CSLAYER1
  6
CONTINUOUS
 62
     7
 10
602.367205
 20
2028.463207
 11
602.465398
 21
2029.034719
  0
LINE
  8
CSLAYER1
  6
CONTINUOUS
 62
     7
 10
602.465398
 20
2029.034719
 11
602.595386
 21
2029.609034
  0
LINE
  8
CSLAYER1
  6
CONTINUOUS
 62
     7
 10
602.595386
 20
2029.609034
 11
602.756181
 21
2030.181783
  0
LINE
  8
CSLAYER1
  6
CONTINUOUS
 62
     7
 10
602.756181
 20
2030.181783
 11
602.946557
 21
2030.748606
  0
ARC
  8
CSLAYER1
  6
CONTINUOUS
 62
     7
 10
678.942922
 20
2006.187462
 40
7.892050
 50
255.737756
 51
348.379625
  0
LINE
  8
CSLAYER1
  6
CONTINUOUS
 62
     7
 10
678.509660
 20
2012.123260
 11
699.731249
 21
2025.383981
  0
INSERT
  8
CSLAYER1
  2
EASYDRAWDIM0004
 10
0.0
 20
0.0
 30
0.0
  0
INSERT
  8
CSLAYER1
  2
EASYDRAWDIM0005
 10
0.0
 20
0.0
 30
0.0
  0
TEXT
  8
CSLAYER1
 62
     3
 10
475.107971
 20
2331.902588
 40
40.000000
 41
0.771429
  1
足踏式油圧ポンプユニット
 50
0.000000
 51
0.000000
  7
EASYDRAW_FONT
 72
     5
 11
835.107971
 21
2331.902588
  0
TEXT
  8
CSLAYER1
 62
     3
 10
385.132385
 20
1726.951294
 40
40.000000
 41
0.763393
  1
外形寸法 400W×500D×280H
 50
0.000000
 51
0.000000
  7
EASYDRAW_FONT
 72
     5
 11
955.132385
 21
1726.951294
  0
LINE
  8
CSLAYER1
  6
CONTINUOUS
 62
     5
 10
1043.696246
 20
2404.977678
 11
1043.696246
 21
1700.868089
  0
LINE
  8
CSLAYER1
  6
CONTINUOUS
 62
     5
 10
1043.696246
 20
1700.868089
 11
242.402115
 21
1700.868089
  0
INSERT
  8
CSLAYER1
  2
EASYDRAWDIM0006
 10
0.0
 20
0.0
 30
0.0
  0
LINE
  8
CSLAYER1
  6
CONTINUOUS
 62
     7
 10
460.199020
 20
2377.348822
 11
850.210267
 21
2377.348822
  0
LINE
  8
CSLAYER1
  6
CONTINUOUS
 62
     7
 10
850.210267
 20
2377.348822
 11
850.210267
 21
2327.204519
  0
LINE
  8
CSLAYER1
  6
CONTINUOUS
 62
     7
 10
850.210267
 20
2327.204519
 11
460.199020
 21
2327.204519
  0
LINE
  8
CSLAYER1
  6
CONTINUOUS
 62
     7
 10
460.199020
 20
2327.204519
 11
460.199020
 21
2377.348822
  0
INSERT
  8
CSLAYER1
  2
BLKF0006
 10
0.0
 20
0.0
 30
0.0
  0
INSERT
  8
CSLAYER1
  2
BLKF0007
 10
0.0
 20
0.0
 30
0.0
  0
LINE
  8
CSLAYER1
  6
CONTINUOUS
 62
     7
 10
646.225243
 20
2061.323978
 11
643.278351
 21
2059.622589
  0
LINE
  8
CSLAYER1
  6
CONTINUOUS
 62
     7
 10
650.648854
 20
2053.662058
 11
647.701962
 21
2051.960669
  0
LINE
  8
CSLAYER1
  6
CONTINUOUS
 62
     7
 10
644.129046
 20
2058.149143
 11
646.518094
 21
2057.572069
  0
LINE
  8
CSLAYER1
  6
CONTINUOUS
 62
     7
 10
646.518094
 20
2057.572069
 11
647.546032
 21
2055.791629
  0
LINE
  8
CSLAYER1
  6
CONTINUOUS
 62
     7
 10
647.546032
 20
2055.791629
 11
646.851268
 21
2053.434115
  0
LINE
  8
CSLAYER1
  6
CONTINUOUS
 62
     7
 10
646.851268
 20
2053.434115
 11
644.462219
 21
2054.011189
  0
LINE
  8
CSLAYER1
  6
CONTINUOUS
 62
     7
 10
644.462219
 20
2054.011189
 11
643.434282
 21
2055.791629
  0
LINE
  8
CSLAYER1
  6
CONTINUOUS
 62
     7
 10
643.434282
 20
2055.791629
 11
644.129046
 21
2058.149143
  0
INSERT
  8
CSLAYER1
  2
BLKF0008
 10
0.0
 20
0.0
 30
0.0
  0
LINE
  8
CSLAYER1
  6
CONTINUOUS
 62
     7
 10
647.422594
 20
2063.461085
 11
645.237788
 21
2062.199686
  0
LINE
  8
CSLAYER1
  6
CONTINUOUS
 62
     7
 10
653.336273
 20
2052.939447
 11
651.235557
 21
2051.761879
  0
INSERT
  8
CSLAYER1
  2
BLKF0009
 10
0.0
 20
0.0
 30
0.0
  0
LINE
  8
CSLAYER1
  6
CONTINUOUS
 62
     7
 10
674.487583
 20
2065.873749
 11
653.443307
 21
2073.533239
  0
LINE
  8
CSLAYER1
  6
CONTINUOUS
 62
     7
 10
674.487583
 20
2065.873749
 11
674.487583
 21
2032.065415
  0
LINE
  8
CSLAYER1
  6
CONTINUOUS
 62
     7
 10
664.292490
 20
2059.503148
 11
664.292490
 21
2013.704649
  0
LINE
  8
CSLAYER1
  6
CONTINUOUS
 62
     7
 10
649.139568
 20
2035.931071
 11
647.005644
 21
2028.940137
  0
LINE
  8
CSLAYER1
  6
CONTINUOUS
 62
     7
 10
647.005644
 20
2028.940137
 11
639.884356
 21
2030.587572
  0
LINE
  8
CSLAYER1
  6
CONTINUOUS
 62
     7
 10
639.884356
 20
2030.587572
 11
636.799285
 21
2035.931071
  0
LINE
  8
CSLAYER1
  6
CONTINUOUS
 62
     7
 10
636.799285
 20
2035.931071
 11
638.884427
 21
2043.006499
  0
LINE
  8
CSLAYER1
  6
CONTINUOUS
 62
     7
 10
638.884427
 20
2043.006499
 11
646.054498
 21
2041.274570
  0
LINE
  8
CSLAYER1
  6
CONTINUOUS
 62
     7
 10
646.054498
 20
2041.274570
 11
649.139568
 21
2035.931071
  0
LINE
  8
CSLAYER1
  6
CONTINUOUS
 62
     7
 10
651.808147
 20
2037.471775
 11
649.674223
 21
2030.480842
  0
LINE
  8
CSLAYER1
  6
CONTINUOUS
 62
     7
 10
648.723076
 20
2042.815275
 11
651.808147
 21
2037.471775
  0
LINE
  8
CSLAYER1
  6
CONTINUOUS
 62
     7
 10
641.553005
 20
2044.547203
 11
648.723076
 21
2042.815275
  0
LINE
  8
CSLAYER1
  6
CONTINUOUS
 62
     7
 10
649.674223
 20
2030.480842
 11
647.005644
 21
2028.940137
  0
LINE
  8
CSLAYER1
  6
CONTINUOUS
 62
     7
 10
651.808147
 20
2037.471775
 11
649.139568
 21
2035.931071
  0
LINE
  8
CSLAYER1
  6
CONTINUOUS
 62
     7
 10
648.723076
 20
2042.815275
 11
646.054498
 21
2041.274570
  0
LINE
  8
CSLAYER1
  6
CONTINUOUS
 62
     7
 10
641.553005
 20
2044.547203
 11
638.884427
 21
2043.006499
  0
INSERT
  8
CSLAYER1
  2
BLKF0010
 10
0.0
 20
0.0
 30
0.0
  0
LINE
  8
CSLAYER1
  6
CONTINUOUS
 62
     7
 10
665.600207
 20
2065.486737
 11
663.940500
 21
2063.742633
  0
LINE
  8
CSLAYER1
  6
CONTINUOUS
 62
     7
 10
663.940500
 20
2063.742633
 11
661.926581
 21
2063.742633
  0
LINE
  8
CSLAYER1
  6
CONTINUOUS
 62
     7
 10
661.926581
 20
2063.742633
 11
660.266874
 21
2065.486737
  0
LINE
  8
CSLAYER1
  6
CONTINUOUS
 62
     7
 10
660.266874
 20
2065.486737
 11
661.926581
 21
2067.230841
  0
LINE
  8
CSLAYER1
  6
CONTINUOUS
 62
     7
 10
661.926581
 20
2067.230841
 11
663.940500
 21
2067.230841
  0
LINE
  8
CSLAYER1
  6
CONTINUOUS
 62
     7
 10
663.940500
 20
2067.230841
 11
665.600207
 21
2065.486737
  0
INSERT
  8
CSLAYER1
  2
BLKF0011
 10
0.0
 20
0.0
 30
0.0
  0
LINE
  8
CSLAYER1
  6
CONTINUOUS
 62
     7
 10
664.292490
 20
2059.503148
 11
643.248214
 21
2067.162638
  0
LINE
  8
CSLAYER1
  6
CONTINUOUS
 62
     7
 10
664.292490
 20
2059.503148
 11
674.487583
 21
2065.873749
  0
LINE
  8
CSLAYER1
  6
CONTINUOUS
 62
     7
 10
629.719603
 20
2070.770102
 11
629.719603
 21
2026.004052
  0
LINE
  8
CSLAYER1
  6
CONTINUOUS
 62
     7
 10
643.248214
 20
2067.162638
 11
653.443307
 21
2073.533239
  0
LINE
  8
CSLAYER1
  6
CONTINUOUS
 62
     7
 10
643.248214
 20
2065.846090
 11
629.719603
 21
2070.770102
  0
LINE
  8
CSLAYER1
  6
CONTINUOUS
 62
     7
 10
643.248214
 20
2067.162638
 11
643.248214
 21
2065.846090
  0
LINE
  8
CSLAYER1
  6
CONTINUOUS
 62
     7
 10
639.173739
 20
2066.149833
 11
632.535393
 21
2068.565993
  0
LINE
  8
CSLAYER1
  6
CONTINUOUS
 62
     7
 10
632.141415
 20
2069.888634
 11
632.535393
 21
2068.565993
  0
LINE
  8
CSLAYER1
  6
CONTINUOUS
 62
     7
 10
639.173739
 20
2066.149833
 11
641.388244
 21
2066.523064
  0
LINE
  8
CSLAYER1
  6
CONTINUOUS
 62
     7
 10
652.111901
 20
2072.701284
 11
645.836828
 21
2074.985223
  0
LINE
  8
CSLAYER1
  6
CONTINUOUS
 62
     7
 10
629.719603
 20
2070.770102
 11
638.775503
 21
2076.428856
  0
LINE
  8
CSLAYER1
  6
CONTINUOUS
 62
     7
 10
639.173739
 20
2066.149833
 11
639.173739
 21
2052.396378
  0
LINE
  8
CSLAYER1
  6
CONTINUOUS
 62
     7
 10
641.388244
 20
2066.523064
 11
641.388244
 21
2053.869044
  0
LINE
  8
CSLAYER1
  6
CONTINUOUS
 62
     7
 10
632.535393
 20
2068.565993
 11
632.535393
 21
2054.812539
  0
LINE
  8
CSLAYER1
  6
CONTINUOUS
 62
     7
 10
632.535393
 20
2054.812539
 11
634.260321
 21
2049.696492
  0
LINE
  8
CSLAYER1
  6
CONTINUOUS
 62
     7
 10
639.173739
 20
2052.396378
 11
636.796578
 21
2048.632900
  0
LINE
  8
CSLAYER1
  6
CONTINUOUS
 62
     7
 10
634.260321
 20
2049.696492
 11
634.260321
 21
2024.211200
  0
LINE
  8
CSLAYER1
  6
CONTINUOUS
 62
     7
 10
636.796578
 20
2048.632900
 11
636.796578
 21
2022.493090
  0
LINE
  8
CSLAYER1
  6
CONTINUOUS
 62
     7
 10
639.173739
 20
2052.396378
 11
641.295488
 21
2053.722194
  0
LINE
  8
CSLAYER1
  6
CONTINUOUS
 62
     7
 10
636.796578
 20
2048.632900
 11
638.918327
 21
2049.958716
  0
LINE
  8
CSLAYER1
  6
CONTINUOUS
 62
     7
 10
641.388244
 20
2053.869044
 11
639.011083
 21
2050.105566
  0
LINE
  8
CSLAYER1
  6
CONTINUOUS
 62
     7
 10
639.011083
 20
2050.105566
 11
639.011083
 21
2043.079624
  0
LINE
  8
CSLAYER1
  6
CONTINUOUS
 62
     7
 10
639.011083
 20
2032.100125
 11
639.011083
 21
2021.593128
  0
LINE
  8
CSLAYER1
  6
CONTINUOUS
 62
     7
 10
674.487583
 20
2032.065415
 11
677.022381
 21
2033.649333
  0
LINE
  8
CSLAYER1
  6
CONTINUOUS
 62
     7
 10
645.361709
 20
2018.571116
 11
609.025092
 21
2035.837829
  0
LINE
  8
CSLAYER1
  6
CONTINUOUS
 62
     7
 10
639.444997
 20
2006.249581
 11
603.984177
 21
2023.100125
  0
LINE
  8
CSLAYER1
  6
CONTINUOUS
 62
     7
 10
689.652615
 20
2019.086151
 11
686.673213
 21
2004.597796
  0
ARC
  8
CSLAYER1
  6
CONTINUOUS
 62
     7
 10
666.821465
 20
2063.731706
 40
50.000000
 50
244.583509
 51
263.653028
  0
ARC
  8
CSLAYER1
  6
CONTINUOUS
 62
     7
 10
666.913485
 20
2064.055136
 40
64.000000
 50
244.583509
 51
263.653028
  0
LINE
  8
CSLAYER1
  6
CONTINUOUS
 62
     7
 10
657.986597
 20
2000.680766
 11
657.986597
 21
1997.785038
  0
LINE
  8
CSLAYER1
  6
CONTINUOUS
 62
     7
 10
635.027623
 20
2006.141421
 11
632.220680
 21
2009.682487
  0
LINE
  8
CSLAYER1
  6
CONTINUOUS
 62
     5
 10
2714.975426
 20
546.430748
 11
3514.975426
 21
546.430748
  0
LINE
  8
CSLAYER1
  6
CONTINUOUS
 62
     5
 10
2714.975426
 20
186.430748
 11
3514.975426
 21
186.430748
  0
LINE
  8
CSLAYER1
  6
CONTINUOUS
 62
     5
 10
2714.975426
 20
346.430748
 11
3514.975426
 21
346.430748
  0
LINE
  8
CSLAYER1
  6
CONTINUOUS
 62
     5
 10
2714.975426
 20
406.430748
 11
3514.975426
 21
406.430748
  0
LINE
  8
CSLAYER1
  6
CONTINUOUS
 62
     5
 10
2714.975426
 20
466.430748
 11
3514.975426
 21
466.430748
  0
LINE
  8
CSLAYER1
  6
CONTINUOUS
 62
     5
 10
2714.975426
 20
626.430748
 11
3514.975426
 21
626.430748
  0
LINE
  8
CSLAYER1
  6
CONTINUOUS
 62
     5
 10
2714.975426
 20
706.430748
 11
2714.975426
 21
106.430748
  0
LINE
  8
CSLAYER1
  6
CONTINUOUS
 62
     5
 10
2914.975426
 20
706.430748
 11
2914.975426
 21
466.430748
  0
LINE
  8
CSLAYER1
  6
CONTINUOUS
 62
     5
 10
2714.975426
 20
706.430748
 11
3514.975426
 21
706.430748
  0
LINE
  8
CSLAYER1
  6
CONTINUOUS
 62
     5
 10
3214.975426
 20
466.430748
 11
3214.975426
 21
186.430748
  0
TEXT
  8
CSLAYER1
 62
     3
 10
2934.666561
 20
114.993473
 40
59.380363
 41
1.003345
  1
東正車輌株式会社
 50
0.000000
 51
0.000000
  7
EASYDRAW_FONT
 72
     5
 11
3391.438908
 21
114.993473
  0
LINE
  8
CSLAYER1
  6
CONTINUOUS
 62
     5
 10
2964.975426
 20
406.430748
 11
2964.975426
 21
186.430748
  0
TEXT
  8
CSLAYER1
 62
     5
 10
2744.975342
 20
641.430725
 40
50.000000
 41
1.050000
  1
品　名
 50
0.000000
 51
0.000000
  7
EASYDRAW_FONT
 72
     5
 11
2884.975342
 21
641.430725
  0
TEXT
  8
CSLAYER1
 62
     5
 10
2744.975342
 20
561.430725
 40
50.000000
 41
1.050000
  1
型　式
 50
0.000000
 51
0.000000
  7
EASYDRAW_FONT
 72
     5
 11
2884.975342
 21
561.430725
  0
TEXT
  8
CSLAYER1
 62
     5
 10
2719.975342
 20
481.430756
 40
50.000000
 41
1.036364
  1
図面番号
 50
0.000000
 51
0.000000
  7
EASYDRAW_FONT
 72
     5
 11
2909.975342
 21
481.430756
  0
TEXT
  8
CSLAYER1
 62
     5
 10
2744.975342
 20
411.430756
 40
50.000000
 41
0.825000
  1
平成26年01月10日
 50
0.000000
 51
0.000000
  7
EASYDRAW_FONT
 72
     5
 11
3184.975342
 21
411.430756
  0
TEXT
  8
CSLAYER1
 62
     5
 10
3294.975342
 20
411.430756
 40
50.000000
 41
1.050000
  1
Ｂ－４
 50
0.000000
 51
0.000000
  7
EASYDRAW_FONT
 72
     5
 11
3434.975342
 21
411.430756
  0
TEXT
  8
CSLAYER1
 62
     5
 10
2769.975342
 20
351.430756
 40
50.000000
 41
1.050000
  1
検　図
 50
0.000000
 51
0.000000
  7
EASYDRAW_FONT
 72
     5
 11
2909.975342
 21
351.430756
  0
TEXT
  8
CSLAYER1
 62
     5
 10
3019.975342
 20
351.430756
 40
50.000000
 41
1.050000
  1
作　図
 50
0.000000
 51
0.000000
  7
EASYDRAW_FONT
 72
     5
 11
3159.975342
 21
351.430756
  0
TEXT
  8
CSLAYER1
 62
     5
 10
3294.975342
 20
351.430756
 40
50.000000
 41
1.050000
  1
尺　度
 50
0.000000
 51
0.000000
  7
EASYDRAW_FONT
 72
     5
 11
3434.975342
 21
351.430756
  0
TEXT
  8
CSLAYER1
 62
     5
 10
3395.714111
 20
200.916016
 40
50.000000
 41
1.080000
  1
１０
 50
0.000000
 51
0.000000
  7
EASYDRAW_FONT
 72
     5
 11
3485.714111
 21
200.916016
  0
TEXT
  8
CSLAYER1
 62
     5
 10
3375.394531
 20
248.620697
 40
50.000000
 41
1.200000
  1
／
 50
0.000000
 51
0.000000
  7
EASYDRAW_FONT
 72
     5
 11
3415.394531
 21
248.620697
  0
TEXT
  8
CSLAYER1
 62
     5
 10
3345.181641
 20
283.604156
 40
50.000000
 41
1.200000
  1
１
 50
0.000000
 51
0.000000
  7
EASYDRAW_FONT
 72
     5
 11
3385.181641
 21
283.604156
  0
TEXT
  8
CSLAYER1
 62
     3
 10
3054.975342
 20
641.430725
 40
50.000000
 41
0.834783
  1
ゴールドリフター
 50
0.000000
 51
0.000000
  7
EASYDRAW_FONT
 72
     5
 11
3374.975342
 21
641.430725
  0
TEXT
  8
CSLAYER1
 62
     3
 10
2954.975342
 20
561.430725
 40
50.000000
 41
0.821053
  1
GLSH-350-2508
 50
0.000000
 51
0.000000
  7
EASYDRAW_FONT
 72
     5
 11
3474.975342
 21
561.430725
  0
INSERT
  8
CSLAYER1
  2
BLKF0012
 10
0.0
 20
0.0
 30
0.0
  0
INSERT
  8
CSLAYER1
  2
EASYDRAWDIM0007
 10
0.0
 20
0.0
 30
0.0
  0
LINE
  8
CSLAYER1
  6
CONTINUOUS
 62
     5
 10
1059.018362
 20
653.476137
 11
1316.215480
 21
653.476137
  0
TEXT
  8
CSLAYER1
 62
     3
 10
1094.272339
 20
661.284912
 40
40.000000
 41
0.787500
  1
(アンカー穴)
 50
0.000000
 51
0.000000
  7
EASYDRAW_FONT
 72
     5
 11
1304.272339
 21
661.284912
  0
LINE
  8
CSLAYER1
  6
CONTINUOUS
 62
     5
 10
955.982769
 20
814.258749
 11
1059.018362
 21
653.476137
  0
LINE
  8
CSLAYER1
  6
CONTINUOUS
 62
     5
 10
955.982769
 20
814.258749
 11
978.155234
 21
794.050290
  0
LINE
  8
CSLAYER1
  6
CONTINUOUS
 62
     5
 10
955.982769
 20
814.258749
 11
965.080457
 21
785.671478
  0
LINE
  8
CSLAYER1
  6
CONTINUOUS
 62
     5
 10
1423.804240
 20
814.258749
 11
1316.215480
 21
653.476137
  0
LINE
  8
CSLAYER1
  6
CONTINUOUS
 62
     5
 10
1423.804240
 20
814.258749
 11
1414.141858
 21
785.857369
  0
LINE
  8
CSLAYER1
  6
CONTINUOUS
 62
     5
 10
1423.804240
 20
814.258749
 11
1401.235682
 21
794.493623
  0
LINE
  8
CSLAYER1
  6
CONTINUOUS
 62
     3
 10
680.216359
 20
813.517910
 11
980.216359
 21
813.517910
  0
LINE
  8
CSLAYER1
  6
CONTINUOUS
 62
     5
 10
980.216359
 20
813.517910
 11
1398.037830
 21
813.517910
  0
LINE
  8
CSLAYER1
  6
CONTINUOUS
 62
     3
 10
1398.037830
 20
813.517910
 11
2200.737830
 21
813.517910
  0
LINE
  8
CSLAYER1
  6
CONTINUOUS
 62
     5
 10
2200.737830
 20
813.517910
 11
2605.806029
 21
813.517910
  0
LINE
  8
CSLAYER1
  6
CONTINUOUS
 62
     3
 10
2605.806029
 20
813.517910
 11
2905.806029
 21
813.517910
  0
LINE
  8
CSLAYER1
  6
CONTINUOUS
 62
     5
 10
2905.806029
 20
813.517910
 11
3053.670487
 21
813.517910
  0
DIMENSION
  8
CSLAYER1
 62
     3
  2
*D0013
 10
2348.173533
 20
913.517910
 11
2338.173340
 21
863.517883
 13
2200.737830
 23
813.517910
 14
2200.737830
 24
913.517910
 50
90.000000
 70
1
  0
DIMENSION
  8
CSLAYER1
 62
     3
  2
*D0014
 10
1448.037830
 20
1638.064190
 11
1336.853027
 21
1648.064209
 13
1398.037830
 23
1858.064190
 14
1448.037830
 24
1858.064190
 52
270.000000
 70
1
  0
DIMENSION
  8
CSLAYER1
 62
     3
  2
*D0015
 10
1423.037830
 20
1728.064190
 11
1338.037842
 21
1738.064209
 13
1398.037830
 23
1858.064190
 14
1423.037830
 24
1861.801389
 52
270.000000
  0
LINE
  8
CSLAYER1
  6
CONTINUOUS
 62
     5
 10
1423.037830
 20
1873.064190
 11
1517.600448
 21
1728.064190
  0
LINE
  8
CSLAYER1
  6
CONTINUOUS
 62
     5
 10
1423.037830
 20
1873.064190
 11
1445.370890
 21
1853.033353
  0
LINE
  8
CSLAYER1
  6
CONTINUOUS
 62
     5
 10
1423.037830
 20
1873.064190
 11
1432.363409
 21
1844.550447
  0
TEXT
  8
CSLAYER1
 62
     3
 10
3133.308594
 20
1784.977295
 40
40.000000
 41
0.859091
  1
約 48
 50
0.000000
 51
0.000000
  7
EASYDRAW_FONT
 72
     5
 11
3259.308594
 21
1784.977295
  0
ENDSEC
  0
EOF
